  0
SECTION
  2
HEADER
  9
$ACADVER
  1
AC1021
  9
$ACADMAINTVER
 70
     1
  9
$DWGCODEPAGE
  3
ANSI_932
  9
$INSBASE
 10
0.0
 20
0.0
 30
0.0
  9
$EXTMIN
 10
0.0
 20
0.0
 30
0.0
  9
$EXTMAX
 10
891.0
 20
630.0
 30
0.0
  9
$LIMMIN
 10
0.0
 20
0.0
  9
$LIMMAX
 10
891.0
 20
630.0
  9
$ORTHOMODE
 70
     0
  9
$REGENMODE
 70
     1
  9
$FILLMODE
 70
     1
  9
$QTEXTMODE
 70
     0
  9
$MIRRTEXT
 70
     1
  9
$LTSCALE
 40
0.75
  9
$ATTMODE
 70
     1
  9
$TEXTSIZE
 40
15.0
  9
$TRACEWID
 40
0.05
  9
$TEXTSTYLE
  7
Standard
  9
$CLAYER
  8
0
  9
$CELTYPE
  6
ByLayer
  9
$CECOLOR
 62
   256
  9
$CELTSCALE
 40
1.0
  9
$DISPSILH
 70
     0
  9
$DIMSCALE
 40
3.0
  9
$DIMASZ
 40
4.0
  9
$DIMEXO
 40
2.0
  9
$DIMDLI
 40
10.0
  9
$DIMRND
 40
0.0
  9
$DIMDLE
 40
0.0
  9
$DIMEXE
 40
2.0
  9
$DIMTP
 40
0.0
  9
$DIMTM
 40
0.0
  9
$DIMTXT
 40
4.0
  9
$DIMCEN
 40
0.09
  9
$DIMTSZ
 40
0.0
  9
$DIMTOL
 70
     0
  9
$DIMLIM
 70
     0
  9
$DIMTIH
 70
     0
  9
$DIMTOH
 70
     0
  9
$DIMSE1
 70
     0
  9
$DIMSE2
 70
     0
  9
$DIMTAD
 70
     3
  9
$DIMZIN
 70
     8
  9
$DIMBLK
  1

  9
$DIMASO
 70
     1
  9
$DIMSHO
 70
     1
  9
$DIMPOST
  1

  9
$DIMAPOST
  1

  9
$DIMALT
 70
     0
  9
$DIMALTD
 70
     2
  9
$DIMALTF
 40
25.4
  9
$DIMLFAC
 40
1.0
  9
$DIMTOFL
 70
     1
  9
$DIMTVP
 40
0.7
  9
$DIMTIX
 70
     0
  9
$DIMSOXD
 70
     0
  9
$DIMSAH
 70
     0
  9
$DIMBLK1
  1

  9
$DIMBLK2
  1

  9
$DIMSTYLE
  2
Standard
  9
$DIMCLRD
 70
     0
  9
$DIMCLRE
 70
     0
  9
$DIMCLRT
 70
     0
  9
$DIMTFAC
 40
0.5
  9
$DIMGAP
 40
0.09
  9
$DIMJUST
 70
     0
  9
$DIMSD1
 70
     0
  9
$DIMSD2
 70
     0
  9
$DIMTOLJ
 70
     1
  9
$DIMTZIN
 70
     8
  9
$DIMALTZ
 70
     0
  9
$DIMALTTZ
 70
     0
  9
$DIMUPT
 70
     1
  9
$DIMDEC
 70
     2
  9
$DIMTDEC
 70
     4
  9
$DIMALTU
 70
     2
  9
$DIMALTTD
 70
     2
  9
$DIMTXSTY
  7
Standard
  9
$DIMAUNIT
 70
     0
  9
$DIMADEC
 70
     0
  9
$DIMALTRND
 40
0.0
  9
$DIMAZIN
 70
     0
  9
$DIMDSEP
 70
    46
  9
$DIMATFIT
 70
     2
  9
$DIMFRAC
 70
     0
  9
$DIMLDRBLK
  1

  9
$DIMLUNIT
 70
     2
  9
$DIMLWD
 70
    -2
  9
$DIMLWE
 70
    -2
  9
$DIMTMOVE
 70
     2
  9
$DIMFXL
 40
1.0
  9
$DIMFXLON
 70
     0
  9
$DIMJOGANG
 40
0.7853981633974483
  9
$DIMTFILL
 70
     0
  9
$DIMTFILLCLR
 70
     0
  9
$DIMARCSYM
 70
     0
  9
$DIMLTYPE
  6

  9
$DIMLTEX1
  6

  9
$DIMLTEX2
  6

  9
$LUNITS
 70
     2
  9
$LUPREC
 70
     4
  9
$SKETCHINC
 40
0.1
  9
$FILLETRAD
 40
0.5
  9
$AUNITS
 70
     0
  9
$AUPREC
 70
     0
  9
$MENU
  1
.
  9
$ELEVATION
 40
0.0
  9
$PELEVATION
 40
0.0
  9
$THICKNESS
 40
0.0
  9
$LIMCHECK
 70
     0
  9
$CHAMFERA
 40
0.5
  9
$CHAMFERB
 40
0.5
  9
$CHAMFERC
 40
1.0
  9
$CHAMFERD
 40
0.0
  9
$SKPOLY
 70
     0
  9
$TDCREATE
 40
2454850.074201389
  9
$TDUCREATE
 40
2454849.699201389
  9
$TDUPDATE
 40
2454850.074201389
  9
$TDUUPDATE
 40
2454849.699201389
  9
$TDINDWG
 40
0.0000000116
  9
$TDUSRTIMER
 40
0.0000000116
  9
$USRTIMER
 70
     1
  9
$ANGBASE
 50
0.0
  9
$ANGDIR
 70
     0
  9
$PDMODE
 70
     0
  9
$PDSIZE
 40
0.0
  9
$PLINEWID
 40
0.0
  9
$SPLFRAME
 70
     0
  9
$SPLINETYPE
 70
     6
  9
$SPLINESEGS
 70
     8
  9
$HANDSEED
  5
6D5
  9
$SURFTAB1
 70
     6
  9
$SURFTAB2
 70
     6
  9
$SURFTYPE
 70
     6
  9
$SURFU
 70
     6
  9
$SURFV
 70
     6
  9
$UCSBASE
  2

  9
$UCSNAME
  2

  9
$UCSORG
 10
0.0
 20
0.0
 30
0.0
  9
$UCSXDIR
 10
1.0
 20
0.0
 30
0.0
  9
$UCSYDIR
 10
0.0
 20
1.0
 30
0.0
  9
$UCSORTHOREF
  2

  9
$UCSORTHOVIEW
 70
     0
  9
$UCSORGTOP
 10
0.0
 20
0.0
 30
0.0
  9
$UCSORGBOTTOM
 10
0.0
 20
0.0
 30
0.0
  9
$UCSORGLEFT
 10
0.0
 20
0.0
 30
0.0
  9
$UCSORGRIGHT
 10
0.0
 20
0.0
 30
0.0
  9
$UCSORGFRONT
 10
0.0
 20
0.0
 30
0.0
  9
$UCSORGBACK
 10
0.0
 20
0.0
 30
0.0
  9
$PUCSBASE
  2

  9
$PUCSNAME
  2

  9
$PUCSORG
 10
0.0
 20
0.0
 30
0.0
  9
$PUCSXDIR
 10
1.0
 20
0.0
 30
0.0
  9
$PUCSYDIR
 10
0.0
 20
1.0
 30
0.0
  9
$PUCSORTHOREF
  2

  9
$PUCSORTHOVIEW
 70
     0
  9
$PUCSORGTOP
 10
0.0
 20
0.0
 30
0.0
  9
$PUCSORGBOTTOM
 10
0.0
 20
0.0
 30
0.0
  9
$PUCSORGLEFT
 10
0.0
 20
0.0
 30
0.0
  9
$PUCSORGRIGHT
 10
0.0
 20
0.0
 30
0.0
  9
$PUCSORGFRONT
 10
0.0
 20
0.0
 30
0.0
  9
$PUCSORGBACK
 10
0.0
 20
0.0
 30
0.0
  9
$USERI1
 70
     0
  9
$USERI2
 70
     0
  9
$USERI3
 70
     0
  9
$USERI4
 70
     0
  9
$USERI5
 70
     0
  9
$USERR1
 40
0.0
  9
$USERR2
 40
0.0
  9
$USERR3
 40
0.0
  9
$USERR4
 40
0.0
  9
$USERR5
 40
0.0
  9
$WORLDVIEW
 70
     1
  9
$SHADEDGE
 70
     3
  9
$SHADEDIF
 70
    70
  9
$TILEMODE
 70
     1
  9
$MAXACTVP
 70
    64
  9
$PINSBASE
 10
0.0
 20
0.0
 30
0.0
  9
$PLIMCHECK
 70
     0
  9
$PEXTMIN
 10
0.0
 20
0.0
 30
0.0
  9
$PEXTMAX
 10
297.0
 20
210.0
 30
0.0
  9
$PLIMMIN
 10
0.0
 20
0.0
  9
$PLIMMAX
 10
297.0
 20
210.0
  9
$UNITMODE
 70
     0
  9
$VISRETAIN
 70
     1
  9
$PLINEGEN
 70
     0
  9
$PSLTSCALE
 70
     1
  9
$TREEDEPTH
 70
  3020
  9
$CMLSTYLE
  2
Standard
  9
$CMLJUST
 70
     0
  9
$CMLSCALE
 40
1.0
  9
$PROXYGRAPHICS
 70
     1
  9
$MEASUREMENT
 70
     1
  9
$CELWEIGHT
370
    -1
  9
$ENDCAPS
280
     0
  9
$JOINSTYLE
280
     0
  9
$LWDISPLAY
290
     0
  9
$INSUNITS
 70
     4
  9
$HYPERLINKBASE
  1

  9
$STYLESHEET
  1

  9
$XEDIT
290
     1
  9
$CEPSNTYPE
380
     0
  9
$PSTYLEMODE
290
     1
  9
$FINGERPRINTGUID
  2
{E5B408F2-3E64-4816-BCD8-BCDCE0DCF85E}
  9
$VERSIONGUID
  2
{FAEB1C32-E019-11D5-929B-00C0DF256EC4}
  9
$EXTNAMES
290
     1
  9
$PSVPSCALE
 40
0.0
  9
$OLESTARTUP
290
     0
  9
$SORTENTS
280
   127
  9
$INDEXCTL
280
     0
  9
$HIDETEXT
280
     1
  9
$XCLIPFRAME
290
     0
  9
$HALOGAP
280
     0
  9
$OBSCOLOR
 70
   257
  9
$OBSLTYPE
280
     0
  9
$INTERSECTIONDISPLAY
280
     0
  9
$INTERSECTIONCOLOR
 70
   257
  9
$DIMASSOC
280
     1
  9
$PROJECTNAME
  1

  9
$CAMERADISPLAY
290
     0
  9
$LENSLENGTH
 40
50.0
  9
$CAMERAHEIGHT
 40
0.0
  9
$STEPSPERSEC
 40
2.0
  9
$STEPSIZE
 40
6.0
  9
$3DDWFPREC
 40
2.0
  9
$PSOLWIDTH
 40
0.25
  9
$PSOLHEIGHT
 40
4.0
  9
$LOFTANG1
 40
1.570796326794897
  9
$LOFTANG2
 40
1.570796326794897
  9
$LOFTMAG1
 40
0.0
  9
$LOFTMAG2
 40
0.0
  9
$LOFTPARAM
 70
     7
  9
$LOFTNORMALS
280
     1
  9
$LATITUDE
 40
37.795
  9
$LONGITUDE
 40
-122.394
  9
$NORTHDIRECTION
 40
0.0
  9
$TIMEZONE
 70
 -8000
  9
$LIGHTGLYPHDISPLAY
280
     1
  9
$TILEMODELIGHTSYNCH
280
     1
  9
$SOLIDHIST
280
     1
  9
$SHOWHIST
280
     1
  9
$DWFFRAME
280
     2
  9
$DGNFRAME
280
     2
  9
$REALWORLDSCALE
290
     1
  9
$INTERFERECOLOR
 62
   256
  9
$CSHADOW
280
     0
  9
$SHADOWPLANELOCATION
 40
0.0
  0
ENDSEC
  0
SECTION
  2
CLASSES
  0
CLASS
  1
ACDBDICTIONARYWDFLT
  2
AcDbDictionaryWithDefault
  3
ObjectDBX Classes
 90
        0
 91
        3
280
     0
281
     0
  0
CLASS
  1
VISUALSTYLE
  2
AcDbVisualStyle
  3
ObjectDBX Classes
 90
     4095
 91
        3
280
     0
281
     0
  0
ENDSEC
  0
SECTION
  2
TABLES
  0
TABLE
  2
VPORT
  5
8
330
0
100
AcDbSymbolTable
 70
     1
  0
VPORT
  5
29
330
8
100
AcDbSymbolTableRecord
100
AcDbViewportTableRecord
  2
*Active
 70
     0
 10
0.0
 20
0.0
 11
1.0
 21
1.0
 12
10.42990654205607
 22
4.5
 13
0.0
 23
0.0
 14
0.5
 24
0.5
 15
0.5
 25
0.5
 16
0.0
 26
0.0
 36
1.0
 17
0.0
 27
0.0
 37
0.0
 40
9.0
 41
1.972972972850329
 42
50.0
 43
0.0
 44
0.0
 50
0.0
 51
0.0
 71
     0
 72
   100
 73
     1
 74
     3
 75
     0
 76
     0
 77
     0
 78
     0
281
     0
 65
     1
110
0.0
120
0.0
130
0.0
111
1.0
121
0.0
131
0.0
112
0.0
122
1.0
132
0.0
 79
     0
146
0.0
 60
     3
 61
     5
292
     1
282
     1
141
0.0
142
0.0
 63
   256
  0
ENDTAB
  0
TABLE
  2
LTYPE
  5
5
330
0
100
AcDbSymbolTable
 70
     9
  0
LTYPE
  5
14
330
5
100
AcDbSymbolTableRecord
100
AcDbLinetypeTableRecord
  2
ByBlock
 70
     0
  3

 72
    65
 73
     0
 40
0.0
  0
LTYPE
  5
15
330
5
100
AcDbSymbolTableRecord
100
AcDbLinetypeTableRecord
  2
ByLayer
 70
     0
  3

 72
    65
 73
     0
 40
0.0
  0
LTYPE
  5
16
330
5
100
AcDbSymbolTableRecord
100
AcDbLinetypeTableRecord
  2
Continuous
 70
     0
  3
Solid line
 72
    65
 73
     0
 40
0.0
  0
LTYPE
  5
79
330
5
100
AcDbSymbolTableRecord
100
AcDbLinetypeTableRecord
  2
DOT
 70
     0
  3
DOT
 72
    65
 73
     2
 40
4.0
 49
6.0
 74
     0
 49
-2.0
 74
     0
  0
LTYPE
  5
7A
330
5
100
AcDbSymbolTableRecord
100
AcDbLinetypeTableRecord
  2
HIDDEN
 70
     0
  3
HIDDEN
 72
    65
 73
     2
 40
4.2
 49
8.4
 74
     0
 49
-4.2
 74
     0
  0
LTYPE
  5
7B
330
5
100
AcDbSymbolTableRecord
100
AcDbLinetypeTableRecord
  2
DASHDOT
 70
     0
  3
DASHDOT
 72
    65
 73
     4
 40
14.5
 49
30.0
 74
     0
 49
-9.0
 74
     0
 49
2.5
 74
     0
 49
-9.0
 74
     0
  0
LTYPE
  5
7C
330
5
100
AcDbSymbolTableRecord
100
AcDbLinetypeTableRecord
  2
PHANTOM
 70
     0
  3
PHANTOM
 72
    65
 73
     6
 40
12.0
 49
30.0
 74
     0
 49
-9.0
 74
     0
 49
2.5
 74
     0
 49
-5.0
 74
     0
 49
2.5
 74
     0
 49
-9.0
 74
     0
  0
LTYPE
  5
7D
330
5
100
AcDbSymbolTableRecord
100
AcDbLinetypeTableRecord
  2
ACAD_ISO14W100
 70
     0
  3
ACAD_ISO14W100
 72
    65
 73
     8
 40
1.5
 49
12.0
 74
     0
 49
-3.0
 74
     0
 49
0.5
 74
     0
 49
-3.0
 74
     0
 49
0.5
 74
     0
 49
-3.0
 74
     0
 49
0.5
 74
     0
 49
-3.0
 74
     0
  0
LTYPE
  5
7E
330
5
100
AcDbSymbolTableRecord
100
AcDbLinetypeTableRecord
  2
ACAD_ISO06W100
 70
     0
  3
ACAD_ISO06W100
 72
    65
 73
     8
 40
13.5
 49
24.0
 74
     0
 49
-3.0
 74
     0
 49
0.5
 74
     0
 49
-3.0
 74
     0
 49
0.5
 74
     0
 49
-3.0
 74
     0
 49
0.5
 74
     0
 49
-3.0
 74
     0
  0
LTYPE
  5
7F
330
5
100
AcDbSymbolTableRecord
100
AcDbLinetypeTableRecord
  2
ACAD_ISO11W100
 70
     0
  3
ACAD_ISO11W100
 72
    65
 73
     6
 40
15.5
 49
12.0
 74
     0
 49
-3.0
 74
     0
 49
12.0
 74
     0
 49
-3.0
 74
     0
 49
0.5
 74
     0
 49
-3.0
 74
     0
  0
LTYPE
  5
80
330
5
100
AcDbSymbolTableRecord
100
AcDbLinetypeTableRecord
  2
ACAD_ISO13W100
 70
     0
  3
ACAD_ISO13W100
 72
    65
 73
     8
 40
13.0
 49
12.0
 74
     0
 49
-3.0
 74
     0
 49
12.0
 74
     0
 49
-3.0
 74
     0
 49
0.5
 74
     0
 49
-3.0
 74
     0
 49
0.5
 74
     0
 49
-3.0
 74
     0
  0
ENDTAB
  0
TABLE
  2
LAYER
  5
2
330
0
100
AcDbSymbolTable
 70
    22
  0
LAYER
  5
10
330
2
100
AcDbSymbolTableRecord
100
AcDbLayerTableRecord
  2
0
 70
     0
 62
     7
  6
Continuous
370
    -3
390
F
347
0
  0
LAYER
  5
81
330
2
100
AcDbSymbolTableRecord
100
AcDbLayerTableRecord
  2
1
 70
     0
 62
     7
  6
Continuous
370
    -3
390
F
347
0
  0
LAYER
  5
82
330
2
100
AcDbSymbolTableRecord
100
AcDbLayerTableRecord
  2
2
 70
     0
 62
   134
  6
Continuous
370
    -3
390
F
347
0
  0
LAYER
  5
83
330
2
100
AcDbSymbolTableRecord
100
AcDbLayerTableRecord
  2
3
 70
     0
 62
   214
  6
Continuous
370
    -3
390
F
347
0
  0
LAYER
  5
84
330
2
100
AcDbSymbolTableRecord
100
AcDbLayerTableRecord
  2
4
 70
     0
 62
    54
  6
Continuous
370
    -3
390
F
347
0
  0
LAYER
  5
85
330
2
100
AcDbSymbolTableRecord
100
AcDbLayerTableRecord
  2
5
 70
     0
 62
    94
  6
Continuous
370
    -3
390
F
347
0
  0
LAYER
  5
86
330
2
100
AcDbSymbolTableRecord
100
AcDbLayerTableRecord
  2
6
 70
     0
 62
    14
  6
Continuous
370
    -3
390
F
347
0
  0
LAYER
  5
87
330
2
100
AcDbSymbolTableRecord
100
AcDbLayerTableRecord
  2
7
 70
     0
 62
     4
  6
Continuous
370
    -3
390
F
347
0
  0
LAYER
  5
88
330
2
100
AcDbSymbolTableRecord
100
AcDbLayerTableRecord
  2
8
 70
     0
 62
     6
  6
Continuous
370
    -3
390
F
347
0
  0
LAYER
  5
89
330
2
100
AcDbSymbolTableRecord
100
AcDbLayerTableRecord
  2
9
 70
     0
 62
     2
  6
Continuous
370
    -3
390
F
347
0
  0
LAYER
  5
8A
330
2
100
AcDbSymbolTableRecord
100
AcDbLayerTableRecord
  2
10
 70
     0
 62
     3
  6
Continuous
370
    -3
390
F
347
0
  0
LAYER
  5
8B
330
2
100
AcDbSymbolTableRecord
100
AcDbLayerTableRecord
  2
11
 70
     0
 62
   251
  6
Continuous
370
    -3
390
F
347
0
  0
LAYER
  5
8C
330
2
100
AcDbSymbolTableRecord
100
AcDbLayerTableRecord
  2
12
 70
     0
 62
   136
  6
Continuous
370
    -3
390
F
347
0
  0
LAYER
  5
8D
330
2
100
AcDbSymbolTableRecord
100
AcDbLayerTableRecord
  2
13
 70
     0
 62
   216
  6
Continuous
370
    -3
390
F
347
0
  0
LAYER
  5
8E
330
2
100
AcDbSymbolTableRecord
100
AcDbLayerTableRecord
  2
14
 70
     0
 62
    56
  6
Continuous
370
    -3
390
F
347
0
  0
LAYER
  5
8F
330
2
100
AcDbSymbolTableRecord
100
AcDbLayerTableRecord
  2
15
 70
     0
 62
    96
  6
Continuous
370
    -3
390
F
347
0
  0
LAYER
  5
90
330
2
100
AcDbSymbolTableRecord
100
AcDbLayerTableRecord
  2
16
 70
     0
 62
    16
  6
Continuous
370
    -3
390
F
347
0
  0
LAYER
  5
91
330
2
100
AcDbSymbolTableRecord
100
AcDbLayerTableRecord
  2
17
 70
     0
 62
   132
  6
Continuous
370
    -3
390
F
347
0
  0
LAYER
  5
92
330
2
100
AcDbSymbolTableRecord
100
AcDbLayerTableRecord
  2
18
 70
     0
 62
   212
  6
Continuous
370
    -3
390
F
347
0
  0
LAYER
  5
93
330
2
100
AcDbSymbolTableRecord
100
AcDbLayerTableRecord
  2
19
 70
     0
 62
    52
  6
Continuous
370
    -3
390
F
347
0
  0
LAYER
  5
94
330
2
100
AcDbSymbolTableRecord
100
AcDbLayerTableRecord
  2
20
 70
     0
 62
   250
  6
Continuous
370
    -3
390
F
347
0
  0
LAYER
  5
95
330
2
100
AcDbSymbolTableRecord
100
AcDbLayerTableRecord
  2
21
 70
     0
 62
     7
  6
Continuous
370
    -3
390
F
347
0
  0
ENDTAB
  0
TABLE
  2
STYLE
  5
3
330
0
100
AcDbSymbolTable
 70
     2
  0
STYLE
  5
11
330
3
100
AcDbSymbolTableRecord
100
AcDbTextStyleTableRecord
  2
Standard
 70
     0
 40
0.0
 41
1.0
 50
0.0
 71
     0
 42
0.2
  3
txt
  4
bigfont
  0
STYLE
  5
3D
330
3
100
AcDbSymbolTableRecord
100
AcDbTextStyleTableRecord
  2
T_STANDARD
 70
     4
 40
10.0
 41
1.0
 50
0.0
 71
     0
 42
10.0
  3
txt
  4
bigfont
  0
ENDTAB
  0
TABLE
  2
VIEW
  5
6
330
0
100
AcDbSymbolTable
 70
     0
  0
ENDTAB
  0
TABLE
  2
UCS
  5
7
330
0
100
AcDbSymbolTable
 70
     0
  0
ENDTAB
  0
TABLE
  2
APPID
  5
9
330
0
100
AcDbSymbolTable
 70
     2
  0
APPID
  5
12
330
9
100
AcDbSymbolTableRecord
100
AcDbRegAppTableRecord
  2
ACAD
 70
     0
  0
APPID
  5
3C
330
9
100
AcDbSymbolTableRecord
100
AcDbRegAppTableRecord
  2
ODA
 70
     0
  0
ENDTAB
  0
TABLE
  2
DIMSTYLE
  5
A
330
0
100
AcDbSymbolTable
 70
     1
100
AcDbDimStyleTable
  0
DIMSTYLE
105
27
102
{ACAD_REACTORS
330
22A
330
23E
330
252
330
266
330
27A
330
28E
330
2A2
330
2B6
330
2CA
330
2DC
330
586
330
59A
330
5AE
330
5C1
330
5D4
330
5E8
330
5FC
330
63B
330
6BF
330
6D3
102
}
330
A
100
AcDbSymbolTableRecord
100
AcDbDimStyleTableRecord
  2
Standard
 70
     0
340
11
  0
ENDTAB
  0
TABLE
  2
BLOCK_RECORD
  5
1
330
0
100
AcDbSymbolTable
 70
    42
  0
BLOCK_RECORD
  5
1F
330
1
100
AcDbSymbolTableRecord
100
AcDbBlockTableRecord
  2
*Model_Space
340
22
 70
     0
280
     1
281
     0
  0
BLOCK_RECORD
  5
1B
330
1
100
AcDbSymbolTableRecord
100
AcDbBlockTableRecord
  2
*Paper_Space
340
1E
 70
     0
280
     1
281
     0
  0
BLOCK_RECORD
  5
23
330
1
100
AcDbSymbolTableRecord
100
AcDbBlockTableRecord
  2
*Paper_Space0
340
26
 70
     0
280
     1
281
     0
  0
BLOCK_RECORD
  5
3E
330
1
100
AcDbSymbolTableRecord
100
AcDbBlockTableRecord
  2
_ORIGIN
340
0
 70
     0
280
     1
281
     0
  0
BLOCK_RECORD
  5
43
330
1
100
AcDbSymbolTableRecord
100
AcDbBlockTableRecord
  2
_DOTBLANK
340
0
 70
     0
280
     1
281
     0
  0
BLOCK_RECORD
  5
48
330
1
100
AcDbSymbolTableRecord
100
AcDbBlockTableRecord
  2
_DOT
340
0
 70
     0
280
     1
281
     0
  0
BLOCK_RECORD
  5
4D
330
1
100
AcDbSymbolTableRecord
100
AcDbBlockTableRecord
  2
_OPEN
340
0
 70
     0
280
     1
281
     0
  0
BLOCK_RECORD
  5
53
330
1
100
AcDbSymbolTableRecord
100
AcDbBlockTableRecord
  2
_CLOSED
340
0
 70
     0
280
     1
281
     0
  0
BLOCK_RECORD
  5
5A
330
1
100
AcDbSymbolTableRecord
100
AcDbBlockTableRecord
  2
_CLOSEDBLANK
340
0
 70
     0
280
     1
281
     0
  0
BLOCK_RECORD
  5
60
330
1
100
AcDbSymbolTableRecord
100
AcDbBlockTableRecord
  2
_BOXBLANK
340
0
 70
     0
280
     1
281
     0
  0
BLOCK_RECORD
  5
68
330
1
100
AcDbSymbolTableRecord
100
AcDbBlockTableRecord
  2
_BOXFILLED
340
0
 70
     0
280
     1
281
     0
  0
BLOCK_RECORD
  5
6D
330
1
100
AcDbSymbolTableRecord
100
AcDbBlockTableRecord
  2
_INTEGRAL
340
0
 70
     0
280
     1
281
     0
  0
BLOCK_RECORD
  5
72
330
1
100
AcDbSymbolTableRecord
100
AcDbBlockTableRecord
  2
_OBLIQUE
340
0
 70
     0
280
     1
281
     0
  0
BLOCK_RECORD
  5
76
330
1
100
AcDbSymbolTableRecord
100
AcDbBlockTableRecord
  2
_NONE
340
0
 70
     0
280
     1
281
     0
  0
BLOCK_RECORD
  5
D1
330
1
100
AcDbSymbolTableRecord
100
AcDbBlockTableRecord
  2
*G12
340
0
102
{BLKREFS
331
DB
102
}
 70
     0
280
     1
281
     0
  0
BLOCK_RECORD
  5
E2
330
1
100
AcDbSymbolTableRecord
100
AcDbBlockTableRecord
  2
*G13
340
0
102
{BLKREFS
331
E8
102
}
 70
     0
280
     1
281
     0
  0
BLOCK_RECORD
  5
FE
330
1
100
AcDbSymbolTableRecord
100
AcDbBlockTableRecord
  2
*G14
340
0
102
{BLKREFS
331
10A
102
}
 70
     0
280
     1
281
     0
  0
BLOCK_RECORD
  5
115
330
1
100
AcDbSymbolTableRecord
100
AcDbBlockTableRecord
  2
*G15
340
0
102
{BLKREFS
331
11B
102
}
 70
     0
280
     1
281
     0
  0
BLOCK_RECORD
  5
129
330
1
100
AcDbSymbolTableRecord
100
AcDbBlockTableRecord
  2
*G16
340
0
102
{BLKREFS
331
135
102
}
 70
     0
280
     1
281
     0
  0
BLOCK_RECORD
  5
217
330
1
100
AcDbSymbolTableRecord
100
AcDbBlockTableRecord
  2
Dim1
340
0
 70
     0
280
     1
281
     0
  0
BLOCK_RECORD
  5
22B
330
1
100
AcDbSymbolTableRecord
100
AcDbBlockTableRecord
  2
Dim2
340
0
 70
     0
280
     1
281
     0
  0
BLOCK_RECORD
  5
23F
330
1
100
AcDbSymbolTableRecord
100
AcDbBlockTableRecord
  2
Dim3
340
0
 70
     0
280
     1
281
     0
  0
BLOCK_RECORD
  5
253
330
1
100
AcDbSymbolTableRecord
100
AcDbBlockTableRecord
  2
Dim4
340
0
 70
     0
280
     1
281
     0
  0
BLOCK_RECORD
  5
267
330
1
100
AcDbSymbolTableRecord
100
AcDbBlockTableRecord
  2
Dim5
340
0
 70
     0
280
     1
281
     0
  0
BLOCK_RECORD
  5
27B
330
1
100
AcDbSymbolTableRecord
100
AcDbBlockTableRecord
  2
Dim6
340
0
 70
     0
280
     1
281
     0
  0
BLOCK_RECORD
  5
28F
330
1
100
AcDbSymbolTableRecord
100
AcDbBlockTableRecord
  2
Dim7
340
0
 70
     0
280
     1
281
     0
  0
BLOCK_RECORD
  5
2A3
330
1
100
AcDbSymbolTableRecord
100
AcDbBlockTableRecord
  2
Dim8
340
0
 70
     0
280
     1
281
     0
  0
BLOCK_RECORD
  5
2B7
330
1
100
AcDbSymbolTableRecord
100
AcDbBlockTableRecord
  2
Dim9
340
0
 70
     0
280
     1
281
     0
  0
BLOCK_RECORD
  5
2CB
330
1
100
AcDbSymbolTableRecord
100
AcDbBlockTableRecord
  2
Dim10
340
0
 70
     0
280
     1
281
     0
  0
BLOCK_RECORD
  5
307
330
1
100
AcDbSymbolTableRecord
100
AcDbBlockTableRecord
  2
*G27
340
0
102
{BLKREFS
331
311
102
}
 70
     0
280
     1
281
     0
  0
BLOCK_RECORD
  5
345
330
1
100
AcDbSymbolTableRecord
100
AcDbBlockTableRecord
  2
*G28
340
0
102
{BLKREFS
331
351
102
}
 70
     0
280
     1
281
     0
  0
BLOCK_RECORD
  5
432
330
1
100
AcDbSymbolTableRecord
100
AcDbBlockTableRecord
  2
*G29
340
0
102
{BLKREFS
331
43C
102
}
 70
     0
280
     1
281
     0
  0
BLOCK_RECORD
  5
573
330
1
100
AcDbSymbolTableRecord
100
AcDbBlockTableRecord
  2
Dim11
340
0
 70
     0
280
     1
281
     0
  0
BLOCK_RECORD
  5
587
330
1
100
AcDbSymbolTableRecord
100
AcDbBlockTableRecord
  2
Dim12
340
0
 70
     0
280
     1
281
     0
  0
BLOCK_RECORD
  5
59B
330
1
100
AcDbSymbolTableRecord
100
AcDbBlockTableRecord
  2
Dim13
340
0
 70
     0
280
     1
281
     0
  0
BLOCK_RECORD
  5
5AF
330
1
100
AcDbSymbolTableRecord
100
AcDbBlockTableRecord
  2
Dim14
340
0
 70
     0
280
     1
281
     0
  0
BLOCK_RECORD
  5
5C2
330
1
100
AcDbSymbolTableRecord
100
AcDbBlockTableRecord
  2
Dim15
340
0
 70
     0
280
     1
281
     0
  0
BLOCK_RECORD
  5
5D5
330
1
100
AcDbSymbolTableRecord
100
AcDbBlockTableRecord
  2
Dim16
340
0
 70
     0
280
     1
281
     0
  0
BLOCK_RECORD
  5
5E9
330
1
100
AcDbSymbolTableRecord
100
AcDbBlockTableRecord
  2
Dim17
340
0
 70
     0
280
     1
281
     0
  0
BLOCK_RECORD
  5
628
330
1
100
AcDbSymbolTableRecord
100
AcDbBlockTableRecord
  2
Dim18
340
0
 70
     0
280
     1
281
     0
  0
BLOCK_RECORD
  5
65B
330
1
100
AcDbSymbolTableRecord
100
AcDbBlockTableRecord
  2
*G38
340
0
102
{BLKREFS
331
67C
102
}
 70
     0
280
     1
281
     0
  0
BLOCK_RECORD
  5
6A7
330
1
100
AcDbSymbolTableRecord
100
AcDbBlockTableRecord
  2
*G39
340
0
102
{BLKREFS
331
6AB
102
}
 70
     0
280
     1
281
     0
  0
BLOCK_RECORD
  5
6AC
330
1
100
AcDbSymbolTableRecord
100
AcDbBlockTableRecord
  2
Dim19
340
0
 70
     0
280
     1
281
     0
  0
BLOCK_RECORD
  5
6C0
330
1
100
AcDbSymbolTableRecord
100
AcDbBlockTableRecord
  2
Dim20
340
0
 70
     0
280
     1
281
     0
  0
ENDTAB
  0
ENDSEC
  0
SECTION
  2
BLOCKS
  0
BLOCK
  5
20
330
1F
100
AcDbEntity
  8
0
100
AcDbBlockBegin
  2
*Model_Space
 70
     0
 71
     0
 10
0.0
 20
0.0
 30
0.0
  3
*Model_Space
  1

  0
ENDBLK
  5
21
330
1F
100
AcDbEntity
  8
0
100
AcDbBlockEnd
  0
BLOCK
  5
1C
330
1B
100
AcDbEntity
 67
     1
  8
0
100
AcDbBlockBegin
  2
*Paper_Space
 70
     0
 71
     0
 10
0.0
 20
0.0
 30
0.0
  3
*Paper_Space
  1

  0
ENDBLK
  5
1D
330
1B
100
AcDbEntity
 67
     1
  8
0
100
AcDbBlockEnd
  0
BLOCK
  5
24
330
23
100
AcDbEntity
  8
0
100
AcDbBlockBegin
  2
*Paper_Space0
 70
     0
 71
     0
 10
0.0
 20
0.0
 30
0.0
  3
*Paper_Space0
  1

  0
ENDBLK
  5
25
330
23
100
AcDbEntity
  8
0
100
AcDbBlockEnd
  0
BLOCK
  5
41
330
3E
100
AcDbEntity
  8
0
100
AcDbBlockBegin
  2
_ORIGIN
 70
     0
 71
     0
 10
0.0
 20
0.0
 30
0.0
  3
_ORIGIN
  1

  0
CIRCLE
  5
3F
330
3E
100
AcDbEntity
  8
0
100
AcDbCircle
 10
0.0
 20
0.0
 30
0.0
 40
0.5
  0
LINE
  5
40
330
3E
100
AcDbEntity
  8
0
100
AcDbLine
 10
0.0
 20
0.0
 30
0.0
 11
-1.0
 21
0.0
 31
0.0
  0
ENDBLK
  5
42
330
3E
100
AcDbEntity
  8
0
100
AcDbBlockEnd
  0
BLOCK
  5
46
330
43
100
AcDbEntity
  8
0
100
AcDbBlockBegin
  2
_DOTBLANK
 70
     0
 71
     0
 10
0.0
 20
0.0
 30
0.0
  3
_DOTBLANK
  1

  0
CIRCLE
  5
44
330
43
100
AcDbEntity
  8
0
100
AcDbCircle
 10
0.0
 20
0.0
 30
0.0
 40
0.5
  0
LINE
  5
45
330
43
100
AcDbEntity
  8
0
100
AcDbLine
 10
-0.5
 20
0.0
 30
0.0
 11
-1.0
 21
0.0
 31
0.0
  0
ENDBLK
  5
47
330
43
100
AcDbEntity
  8
0
100
AcDbBlockEnd
  0
BLOCK
  5
4B
330
48
100
AcDbEntity
  8
0
100
AcDbBlockBegin
  2
_DOT
 70
     0
 71
     0
 10
0.0
 20
0.0
 30
0.0
  3
_DOT
  1

  0
LWPOLYLINE
  5
49
330
48
100
AcDbEntity
  8
0
100
AcDbPolyline
 90
        2
 70
     1
 43
0.5
 10
-0.25
 20
0.0
 42
1.0
 10
0.25
 20
0.0
 42
1.0
  0
LINE
  5
4A
330
48
100
AcDbEntity
  8
0
100
AcDbLine
 10
-0.5
 20
0.0
 30
0.0
 11
-1.0
 21
0.0
 31
0.0
  0
ENDBLK
  5
4C
330
48
100
AcDbEntity
  8
0
100
AcDbBlockEnd
  0
BLOCK
  5
51
330
4D
100
AcDbEntity
  8
0
100
AcDbBlockBegin
  2
_OPEN
 70
     0
 71
     0
 10
0.0
 20
0.0
 30
0.0
  3
_OPEN
  1

  0
LINE
  5
4E
330
4D
100
AcDbEntity
  8
0
100
AcDbLine
 10
-1.0
 20
0.1666666666666667
 30
0.0
 11
0.0
 21
0.0
 31
0.0
  0
LINE
  5
4F
330
4D
100
AcDbEntity
  8
0
100
AcDbLine
 10
-1.0
 20
-0.1666666666666667
 30
0.0
 11
0.0
 21
0.0
 31
0.0
  0
LINE
  5
50
330
4D
100
AcDbEntity
  8
0
100
AcDbLine
 10
0.0
 20
0.0
 30
0.0
 11
-1.0
 21
0.0
 31
0.0
  0
ENDBLK
  5
52
330
4D
100
AcDbEntity
  8
0
100
AcDbBlockEnd
  0
BLOCK
  5
58
330
53
100
AcDbEntity
  8
0
100
AcDbBlockBegin
  2
_CLOSED
 70
     0
 71
     0
 10
0.0
 20
0.0
 30
0.0
  3
_CLOSED
  1

  0
LINE
  5
54
330
53
100
AcDbEntity
  8
0
100
AcDbLine
 10
-1.0
 20
0.1666666666666667
 30
0.0
 11
0.0
 21
0.0
 31
0.0
  0
LINE
  5
55
330
53
100
AcDbEntity
  8
0
100
AcDbLine
 10
0.0
 20
0.0
 30
0.0
 11
-1.0
 21
-0.1666666666666667
 31
0.0
  0
LINE
  5
56
330
53
100
AcDbEntity
  8
0
100
AcDbLine
 10
-1.0
 20
0.1666666666666667
 30
0.0
 11
-1.0
 21
-0.1666666666666667
 31
0.0
  0
LINE
  5
57
330
53
100
AcDbEntity
  8
0
100
AcDbLine
 10
0.0
 20
0.0
 30
0.0
 11
-1.0
 21
0.0
 31
0.0
  0
ENDBLK
  5
59
330
53
100
AcDbEntity
  8
0
100
AcDbBlockEnd
  0
BLOCK
  5
5E
330
5A
100
AcDbEntity
  8
0
100
AcDbBlockBegin
  2
_CLOSEDBLANK
 70
     0
 71
     0
 10
0.0
 20
0.0
 30
0.0
  3
_CLOSEDBLANK
  1

  0
LINE
  5
5B
330
5A
100
AcDbEntity
  8
0
100
AcDbLine
 10
-1.0
 20
0.1666666666666667
 30
0.0
 11
0.0
 21
0.0
 31
0.0
  0
LINE
  5
5C
330
5A
100
AcDbEntity
  8
0
100
AcDbLine
 10
0.0
 20
0.0
 30
0.0
 11
-1.0
 21
-0.1666666666666667
 31
0.0
  0
LINE
  5
5D
330
5A
100
AcDbEntity
  8
0
100
AcDbLine
 10
-1.0
 20
0.1666666666666667
 30
0.0
 11
-1.0
 21
-0.1666666666666667
 31
0.0
  0
ENDBLK
  5
5F
330
5A
100
AcDbEntity
  8
0
100
AcDbBlockEnd
  0
BLOCK
  5
66
330
60
100
AcDbEntity
  8
0
100
AcDbBlockBegin
  2
_BOXBLANK
 70
     0
 71
     0
 10
0.0
 20
0.0
 30
0.0
  3
_BOXBLANK
  1

  0
LINE
  5
61
330
60
100
AcDbEntity
  8
0
100
AcDbLine
 10
-0.5
 20
-0.5
 30
0.0
 11
0.5
 21
-0.5
 31
0.0
  0
LINE
  5
62
330
60
100
AcDbEntity
  8
0
100
AcDbLine
 10
0.5
 20
-0.5
 30
0.0
 11
0.5
 21
0.5
 31
0.0
  0
LINE
  5
63
330
60
100
AcDbEntity
  8
0
100
AcDbLine
 10
0.5
 20
0.5
 30
0.0
 11
-0.5
 21
0.5
 31
0.0
  0
LINE
  5
64
330
60
100
AcDbEntity
  8
0
100
AcDbLine
 10
-0.5
 20
0.5
 30
0.0
 11
-0.5
 21
-0.5
 31
0.0
  0
LINE
  5
65
330
60
100
AcDbEntity
  8
0
100
AcDbLine
 10
-0.5
 20
0.0
 30
0.0
 11
-1.0
 21
0.0
 31
0.0
  0
ENDBLK
  5
67
330
60
100
AcDbEntity
  8
0
100
AcDbBlockEnd
  0
BLOCK
  5
6B
330
68
100
AcDbEntity
  8
0
100
AcDbBlockBegin
  2
_BOXFILLED
 70
     0
 71
     0
 10
0.0
 20
0.0
 30
0.0
  3
_BOXFILLED
  1

  0
SOLID
  5
69
330
68
100
AcDbEntity
  8
0
100
AcDbTrace
 10
-0.5
 20
0.5
 30
0.0
 11
0.5
 21
0.5
 31
0.0
 12
-0.5
 22
-0.5
 32
0.0
 13
0.5
 23
-0.5
 33
0.0
  0
LINE
  5
6A
330
68
100
AcDbEntity
  8
0
100
AcDbLine
 10
-0.5
 20
0.0
 30
0.0
 11
-1.0
 21
0.0
 31
0.0
  0
ENDBLK
  5
6C
330
68
100
AcDbEntity
  8
0
100
AcDbBlockEnd
  0
BLOCK
  5
70
330
6D
100
AcDbEntity
  8
0
100
AcDbBlockBegin
  2
_INTEGRAL
 70
     0
 71
     0
 10
0.0
 20
0.0
 30
0.0
  3
_INTEGRAL
  1

  0
ARC
  5
6E
330
6D
100
AcDbEntity
  8
0
100
AcDbCircle
 10
0.444888
 20
-0.0913346
 30
0.0
 40
0.4541666
100
AcDbArc
 50
84.16951033439696
 51
265.6909581978302
  0
ARC
  5
6F
330
6D
100
AcDbEntity
  8
0
100
AcDbCircle
 10
-0.444888
 20
0.0913346
 30
0.0
 40
0.4541666
100
AcDbArc
 50
317.4098226892151
 51
138.9312705526484
  0
ENDBLK
  5
71
330
6D
100
AcDbEntity
  8
0
100
AcDbBlockEnd
  0
BLOCK
  5
74
330
72
100
AcDbEntity
  8
0
100
AcDbBlockBegin
  2
_OBLIQUE
 70
     0
 71
     0
 10
0.0
 20
0.0
 30
0.0
  3
_OBLIQUE
  1

  0
LINE
  5
73
330
72
100
AcDbEntity
  8
0
100
AcDbLine
 10
-0.5
 20
-0.5
 30
0.0
 11
0.5
 21
0.5
 31
0.0
  0
ENDBLK
  5
75
330
72
100
AcDbEntity
  8
0
100
AcDbBlockEnd
  0
BLOCK
  5
77
330
76
100
AcDbEntity
  8
0
100
AcDbBlockBegin
  2
_NONE
 70
     0
 71
     0
 10
0.0
 20
0.0
 30
0.0
  3
_NONE
  1

  0
ENDBLK
  5
78
330
76
100
AcDbEntity
  8
0
100
AcDbBlockEnd
  0
BLOCK
  5
D2
330
D1
100
AcDbEntity
  8
0
100
AcDbBlockBegin
  2
*G12
 70
     1
 71
     0
 10
0.0
 20
0.0
 30
0.0
  3
*G12
  1

  0
LINE
  5
D4
330
D1
100
AcDbEntity
  8
1
  6
Continuous
 62
     7
370
     9
100
AcDbLine
 10
215.75
 20
412.0306122448978
 30
0.0
 11
229.75
 21
412.0306122448978
 31
0.0
  0
LINE
  5
D5
330
D1
100
AcDbEntity
  8
1
  6
Continuous
 62
     7
370
     9
100
AcDbLine
 10
215.75
 20
413.5306122448978
 30
0.0
 11
229.75
 21
413.5306122448978
 31
0.0
  0
LINE
  5
D6
330
D1
100
AcDbEntity
  8
1
  6
Continuous
 62
     7
370
     9
100
AcDbLine
 10
215.75
 20
415.0306122448978
 30
0.0
 11
229.75
 21
415.0306122448978
 31
0.0
  0
LINE
  5
D7
330
D1
100
AcDbEntity
  8
1
  6
Continuous
 62
     7
370
     9
100
AcDbLine
 10
215.75
 20
416.5306122448978
 30
0.0
 11
229.75
 21
416.5306122448978
 31
0.0
  0
LINE
  5
D8
330
D1
100
AcDbEntity
  8
1
  6
Continuous
 62
     7
370
     9
100
AcDbLine
 10
215.75
 20
418.0306122448978
 30
0.0
 11
229.75
 21
418.0306122448978
 31
0.0
  0
LINE
  5
D9
330
D1
100
AcDbEntity
  8
1
  6
Continuous
 62
     7
370
     9
100
AcDbLine
 10
215.75
 20
419.5306122448978
 30
0.0
 11
229.75
 21
419.5306122448978
 31
0.0
  0
LINE
  5
DA
330
D1
100
AcDbEntity
  8
1
  6
Continuous
 62
     7
370
     9
100
AcDbLine
 10
215.75
 20
421.0306122448978
 30
0.0
 11
229.75
 21
421.0306122448978
 31
0.0
  0
ENDBLK
  5
D3
330
D1
100
AcDbEntity
  8
0
100
AcDbBlockEnd
  0
BLOCK
  5
E3
330
E2
100
AcDbEntity
  8
0
100
AcDbBlockBegin
  2
*G13
 70
     1
 71
     0
 10
0.0
 20
0.0
 30
0.0
  3
*G13
  1

  0
LINE
  5
E5
330
E2
100
AcDbEntity
  8
1
  6
Continuous
 62
     7
370
     9
100
AcDbLine
 10
259.75
 20
251.4938102300778
 30
0.0
 11
259.75
 21
241.2011746987143
 31
0.0
  0
LINE
  5
E6
330
E2
100
AcDbEntity
  8
1
  6
Continuous
 62
     7
370
     9
100
AcDbLine
 10
258.25
 20
251.4938102300778
 30
0.0
 11
258.25
 21
241.2011746987143
 31
0.0
  0
LINE
  5
E7
330
E2
100
AcDbEntity
  8
1
  6
Continuous
 62
     7
370
     9
100
AcDbLine
 10
256.75
 20
251.4938102300778
 30
0.0
 11
256.75
 21
241.2011746987143
 31
0.0
  0
ENDBLK
  5
E4
330
E2
100
AcDbEntity
  8
0
100
AcDbBlockEnd
  0
BLOCK
  5
FF
330
FE
100
AcDbEntity
  8
0
100
AcDbBlockBegin
  2
*G14
 70
     1
 71
     0
 10
0.0
 20
0.0
 30
0.0
  3
*G14
  1

  0
LINE
  5
101
330
FE
100
AcDbEntity
  8
1
  6
Continuous
 62
     7
370
     9
100
AcDbLine
 10
276.25
 20
240.847492464396
 30
0.0
 11
279.25
 21
240.847492464396
 31
0.0
  0
LINE
  5
102
330
FE
100
AcDbEntity
  8
1
  6
Continuous
 62
     7
370
     9
100
AcDbLine
 10
276.25
 20
242.347492464396
 30
0.0
 11
279.25
 21
242.347492464396
 31
0.0
  0
LINE
  5
103
330
FE
100
AcDbEntity
  8
1
  6
Continuous
 62
     7
370
     9
100
AcDbLine
 10
276.25
 20
243.847492464396
 30
0.0
 11
279.25
 21
243.847492464396
 31
0.0
  0
LINE
  5
104
330
FE
100
AcDbEntity
  8
1
  6
Continuous
 62
     7
370
     9
100
AcDbLine
 10
276.25
 20
245.347492464396
 30
0.0
 11
279.25
 21
245.347492464396
 31
0.0
  0
LINE
  5
105
330
FE
100
AcDbEntity
  8
1
  6
Continuous
 62
     7
370
     9
100
AcDbLine
 10
276.25
 20
246.847492464396
 30
0.0
 11
279.25
 21
246.847492464396
 31
0.0
  0
LINE
  5
106
330
FE
100
AcDbEntity
  8
1
  6
Continuous
 62
     7
370
     9
100
AcDbLine
 10
276.25
 20
248.347492464396
 30
0.0
 11
279.25
 21
248.347492464396
 31
0.0
  0
LINE
  5
107
330
FE
100
AcDbEntity
  8
1
  6
Continuous
 62
     7
370
     9
100
AcDbLine
 10
276.25
 20
249.847492464396
 30
0.0
 11
279.25
 21
249.847492464396
 31
0.0
  0
LINE
  5
108
330
FE
100
AcDbEntity
  8
1
  6
Continuous
 62
     7
370
     9
100
AcDbLine
 10
276.25
 20
251.347492464396
 30
0.0
 11
279.25
 21
251.347492464396
 31
0.0
  0
LINE
  5
109
330
FE
100
AcDbEntity
  8
1
  6
Continuous
 62
     7
370
     9
100
AcDbLine
 10
276.25
 20
252.847492464396
 30
0.0
 11
279.25
 21
252.847492464396
 31
0.0
  0
ENDBLK
  5
100
330
FE
100
AcDbEntity
  8
0
100
AcDbBlockEnd
  0
BLOCK
  5
116
330
115
100
AcDbEntity
  8
0
100
AcDbBlockBegin
  2
*G15
 70
     1
 71
     0
 10
0.0
 20
0.0
 30
0.0
  3
*G15
  1

  0
LINE
  5
118
330
115
100
AcDbEntity
  8
1
  6
Continuous
 62
     7
370
     9
100
AcDbLine
 10
259.75
 20
299.4085391673507
 30
0.0
 11
259.75
 21
309.7011746987142
 31
0.0
  0
LINE
  5
119
330
115
100
AcDbEntity
  8
1
  6
Continuous
 62
     7
370
     9
100
AcDbLine
 10
258.25
 20
299.4085391673507
 30
0.0
 11
258.25
 21
309.7011746987142
 31
0.0
  0
LINE
  5
11A
330
115
100
AcDbEntity
  8
1
  6
Continuous
 62
     7
370
     9
100
AcDbLine
 10
256.75
 20
299.4085391673507
 30
0.0
 11
256.75
 21
309.7011746987142
 31
0.0
  0
ENDBLK
  5
117
330
115
100
AcDbEntity
  8
0
100
AcDbBlockEnd
  0
BLOCK
  5
12A
330
129
100
AcDbEntity
  8
0
100
AcDbBlockBegin
  2
*G16
 70
     1
 71
     0
 10
0.0
 20
0.0
 30
0.0
  3
*G16
  1

  0
LINE
  5
12C
330
129
100
AcDbEntity
  8
1
  6
Continuous
 62
     7
370
     9
100
AcDbLine
 10
276.25
 20
298.5548569330325
 30
0.0
 11
279.25
 21
298.5548569330325
 31
0.0
  0
LINE
  5
12D
330
129
100
AcDbEntity
  8
1
  6
Continuous
 62
     7
370
     9
100
AcDbLine
 10
276.25
 20
300.0548569330325
 30
0.0
 11
279.25
 21
300.0548569330325
 31
0.0
  0
LINE
  5
12E
330
129
100
AcDbEntity
  8
1
  6
Continuous
 62
     7
370
     9
100
AcDbLine
 10
276.25
 20
301.5548569330325
 30
0.0
 11
279.25
 21
301.5548569330325
 31
0.0
  0
LINE
  5
12F
330
129
100
AcDbEntity
  8
1
  6
Continuous
 62
     7
370
     9
100
AcDbLine
 10
276.25
 20
303.0548569330325
 30
0.0
 11
279.25
 21
303.0548569330325
 31
0.0
  0
LINE
  5
130
330
129
100
AcDbEntity
  8
1
  6
Continuous
 62
     7
370
     9
100
AcDbLine
 10
276.25
 20
304.5548569330325
 30
0.0
 11
279.25
 21
304.5548569330325
 31
0.0
  0
LINE
  5
131
330
129
100
AcDbEntity
  8
1
  6
Continuous
 62
     7
370
     9
100
AcDbLine
 10
276.25
 20
306.0548569330325
 30
0.0
 11
279.25
 21
306.0548569330325
 31
0.0
  0
LINE
  5
132
330
129
100
AcDbEntity
  8
1
  6
Continuous
 62
     7
370
     9
100
AcDbLine
 10
276.25
 20
307.5548569330325
 30
0.0
 11
279.25
 21
307.5548569330325
 31
0.0
  0
LINE
  5
133
330
129
100
AcDbEntity
  8
1
  6
Continuous
 62
     7
370
     9
100
AcDbLine
 10
276.25
 20
309.0548569330325
 30
0.0
 11
279.25
 21
309.0548569330325
 31
0.0
  0
LINE
  5
134
330
129
100
AcDbEntity
  8
1
  6
Continuous
 62
     7
370
     9
100
AcDbLine
 10
276.25
 20
310.5548569330325
 30
0.0
 11
279.25
 21
310.5548569330325
 31
0.0
  0
ENDBLK
  5
12B
330
129
100
AcDbEntity
  8
0
100
AcDbBlockEnd
  0
BLOCK
  5
218
330
217
100
AcDbEntity
  8
0
100
AcDbBlockBegin
  2
Dim1
 70
     0
 71
     0
 10
0.0
 20
0.0
 30
0.0
  3
Dim1
  1

  0
LINE
  5
21A
330
217
100
AcDbEntity
  8
1
  6
Continuous
 62
     7
370
     9
100
AcDbLine
 10
190.25
 20
259.5922557172557
 30
0.0
 11
255.25
 21
259.5922557172557
 31
0.0
  0
LINE
  5
21B
330
217
100
AcDbEntity
  8
1
  6
Continuous
 62
     7
370
     9
100
AcDbLine
 10
190.25
 20
259.5922557172557
 30
0.0
 11
190.25
 21
263.0452182952183
 31
0.0
  0
LINE
  5
21C
330
217
100
AcDbEntity
  8
1
  6
Continuous
 62
     7
370
     9
100
AcDbLine
 10
255.25
 20
259.5922557172557
 30
0.0
 11
255.25
 21
261.6559251559252
 31
0.0
  0
LINE
  5
21D
330
217
100
AcDbEntity
  8
1
  6
Continuous
 62
     7
370
     9
100
AcDbLine
 10
190.25
 20
259.5922557172557
 30
0.0
 11
193.1477774788672
 21
260.3687128525633
 31
0.0
  0
LINE
  5
21E
330
217
100
AcDbEntity
  8
1
  6
Continuous
 62
     7
370
     9
100
AcDbLine
 10
190.25
 20
259.5922557172557
 30
0.0
 11
193.1477774788672
 21
258.8157985819482
 31
0.0
  0
LINE
  5
21F
330
217
100
AcDbEntity
  8
1
  6
Continuous
 62
     7
370
     9
100
AcDbLine
 10
193.1477774788672
 20
260.3687128525633
 30
0.0
 11
193.1477774788672
 21
258.8157985819482
 31
0.0
  0
LINE
  5
220
330
217
100
AcDbEntity
  8
1
  6
Continuous
 62
     7
370
     9
100
AcDbLine
 10
190.9744443697168
 20
259.5922557172557
 30
0.0
 11
192.4233331091504
 21
259.9804842849095
 31
0.0
  0
LINE
  5
221
330
217
100
AcDbEntity
  8
1
  6
Continuous
 62
     7
370
     9
100
AcDbLine
 10
190.9744443697168
 20
259.5922557172557
 30
0.0
 11
192.4233331091504
 21
259.204027149602
 31
0.0
  0
LINE
  5
222
330
217
100
AcDbEntity
  8
1
  6
Continuous
 62
     7
370
     9
100
AcDbLine
 10
192.4233331091504
 20
259.9804842849095
 30
0.0
 11
192.4233331091504
 21
259.204027149602
 31
0.0
  0
LINE
  5
223
330
217
100
AcDbEntity
  8
1
  6
Continuous
 62
     7
370
     9
100
AcDbLine
 10
255.25
 20
259.5922557172557
 30
0.0
 11
252.3522225211328
 21
258.8157985819482
 31
0.0
  0
LINE
  5
224
330
217
100
AcDbEntity
  8
1
  6
Continuous
 62
     7
370
     9
100
AcDbLine
 10
255.25
 20
259.5922557172557
 30
0.0
 11
252.3522225211328
 21
260.3687128525633
 31
0.0
  0
LINE
  5
225
330
217
100
AcDbEntity
  8
1
  6
Continuous
 62
     7
370
     9
100
AcDbLine
 10
252.3522225211328
 20
258.8157985819482
 30
0.0
 11
252.3522225211328
 21
260.3687128525633
 31
0.0
  0
LINE
  5
226
330
217
100
AcDbEntity
  8
1
  6
Continuous
 62
     7
370
     9
100
AcDbLine
 10
254.5255556302832
 20
259.5922557172557
 30
0.0
 11
253.0766668908496
 21
259.204027149602
 31
0.0
  0
LINE
  5
227
330
217
100
AcDbEntity
  8
1
  6
Continuous
 62
     7
370
     9
100
AcDbLine
 10
254.5255556302832
 20
259.5922557172557
 30
0.0
 11
253.0766668908496
 21
259.9804842849096
 31
0.0
  0
LINE
  5
228
330
217
100
AcDbEntity
  8
1
  6
Continuous
 62
     7
370
     9
100
AcDbLine
 10
253.0766668908496
 20
259.204027149602
 30
0.0
 11
253.0766668908496
 21
259.9804842849096
 31
0.0
  0
MTEXT
  5
229
330
217
100
AcDbEntity
  8
1
  6
Continuous
 62
     7
370
     9
100
AcDbMText
 10
222.75
 20
264.8422557172557
 30
0.0
 40
10.5
 41
0.0
 46
0.0
 71
     8
 72
     1
  1
65
 73
     1
 44
1.0
  0
ENDBLK
  5
219
330
217
100
AcDbEntity
  8
0
100
AcDbBlockEnd
  0
BLOCK
  5
22C
330
22B
100
AcDbEntity
  8
0
100
AcDbBlockBegin
  2
Dim2
 70
     0
 71
     0
 10
0.0
 20
0.0
 30
0.0
  3
Dim2
  1

  0
LINE
  5
22E
330
22B
100
AcDbEntity
  8
1
  6
Continuous
 62
     7
370
     9
100
AcDbLine
 10
73.75
 20
102.4284693347199
 30
0.0
 11
107.75
 21
102.4284693347199
 31
0.0
  0
LINE
  5
22F
330
22B
100
AcDbEntity
  8
1
  6
Continuous
 62
     7
370
     9
100
AcDbLine
 10
73.75
 20
102.4284693347199
 30
0.0
 11
73.75000000000001
 21
99.09128118503176
 31
0.0
  0
LINE
  5
230
330
22B
100
AcDbEntity
  8
1
  6
Continuous
 62
     7
370
     9
100
AcDbLine
 10
107.75
 20
102.4284693347199
 30
0.0
 11
107.75
 21
99.09128118503176
 31
0.0
  0
LINE
  5
231
330
22B
100
AcDbEntity
  8
1
  6
Continuous
 62
     7
370
     9
100
AcDbLine
 10
73.75
 20
102.4284693347199
 30
0.0
 11
76.6477774788672
 21
103.2049264700275
 31
0.0
  0
LINE
  5
232
330
22B
100
AcDbEntity
  8
1
  6
Continuous
 62
     7
370
     9
100
AcDbLine
 10
73.75
 20
102.4284693347199
 30
0.0
 11
76.6477774788672
 21
101.6520121994124
 31
0.0
  0
LINE
  5
233
330
22B
100
AcDbEntity
  8
1
  6
Continuous
 62
     7
370
     9
100
AcDbLine
 10
76.6477774788672
 20
103.2049264700275
 30
0.0
 11
76.6477774788672
 21
101.6520121994124
 31
0.0
  0
LINE
  5
234
330
22B
100
AcDbEntity
  8
1
  6
Continuous
 62
     7
370
     9
100
AcDbLine
 10
74.4744443697168
 20
102.4284693347199
 30
0.0
 11
75.9233331091504
 21
102.8166979023737
 31
0.0
  0
LINE
  5
235
330
22B
100
AcDbEntity
  8
1
  6
Continuous
 62
     7
370
     9
100
AcDbLine
 10
74.4744443697168
 20
102.4284693347199
 30
0.0
 11
75.9233331091504
 21
102.0402407670661
 31
0.0
  0
LINE
  5
236
330
22B
100
AcDbEntity
  8
1
  6
Continuous
 62
     7
370
     9
100
AcDbLine
 10
75.9233331091504
 20
102.8166979023737
 30
0.0
 11
75.9233331091504
 21
102.0402407670661
 31
0.0
  0
LINE
  5
237
330
22B
100
AcDbEntity
  8
1
  6
Continuous
 62
     7
370
     9
100
AcDbLine
 10
107.75
 20
102.4284693347199
 30
0.0
 11
104.8522225211328
 21
101.6520121994124
 31
0.0
  0
LINE
  5
238
330
22B
100
AcDbEntity
  8
1
  6
Continuous
 62
     7
370
     9
100
AcDbLine
 10
107.75
 20
102.4284693347199
 30
0.0
 11
104.8522225211328
 21
103.2049264700275
 31
0.0
  0
LINE
  5
239
330
22B
100
AcDbEntity
  8
1
  6
Continuous
 62
     7
370
     9
100
AcDbLine
 10
104.8522225211328
 20
101.6520121994124
 30
0.0
 11
104.8522225211328
 21
103.2049264700275
 31
0.0
  0
LINE
  5
23A
330
22B
100
AcDbEntity
  8
1
  6
Continuous
 62
     7
370
     9
100
AcDbLine
 10
107.0255556302832
 20
102.4284693347199
 30
0.0
 11
105.5766668908496
 21
102.0402407670662
 31
0.0
  0
LINE
  5
23B
330
22B
100
AcDbEntity
  8
1
  6
Continuous
 62
     7
370
     9
100
AcDbLine
 10
107.0255556302832
 20
102.4284693347199
 30
0.0
 11
105.5766668908496
 21
102.8166979023737
 31
0.0
  0
LINE
  5
23C
330
22B
100
AcDbEntity
  8
1
  6
Continuous
 62
     7
370
     9
100
AcDbLine
 10
105.5766668908496
 20
102.0402407670662
 30
0.0
 11
105.5766668908496
 21
102.8166979023737
 31
0.0
  0
MTEXT
  5
23D
330
22B
100
AcDbEntity
  8
1
  6
Continuous
 62
     7
370
     9
100
AcDbMText
 10
90.75
 20
107.6784693347199
 30
0.0
 40
10.5
 41
0.0
 46
0.0
 71
     8
 72
     1
  1
34
 73
     1
 44
1.0
  0
ENDBLK
  5
22D
330
22B
100
AcDbEntity
  8
0
100
AcDbBlockEnd
  0
BLOCK
  5
240
330
23F
100
AcDbEntity
  8
0
100
AcDbBlockBegin
  2
Dim3
 70
     0
 71
     0
 10
0.0
 20
0.0
 30
0.0
  3
Dim3
  1

  0
LINE
  5
242
330
23F
100
AcDbEntity
  8
1
  6
Continuous
 62
     7
370
     9
100
AcDbLine
 10
371.7500003061617
 20
102.4284693347199
 30
0.0
 11
337.7500003061617
 21
102.4284693347199
 31
0.0
  0
LINE
  5
243
330
23F
100
AcDbEntity
  8
1
  6
Continuous
 62
     7
370
     9
100
AcDbLine
 10
371.7500003061617
 20
102.4284693347199
 30
0.0
 11
371.7500003061617
 21
99.09128118503176
 31
0.0
  0
LINE
  5
244
330
23F
100
AcDbEntity
  8
1
  6
Continuous
 62
     7
370
     9
100
AcDbLine
 10
337.7500003061617
 20
102.4284693347199
 30
0.0
 11
337.7500003061617
 21
99.09128118503176
 31
0.0
  0
LINE
  5
245
330
23F
100
AcDbEntity
  8
1
  6
Continuous
 62
     7
370
     9
100
AcDbLine
 10
371.7500003061617
 20
102.4284693347199
 30
0.0
 11
368.8522228272944
 21
101.6520121994124
 31
0.0
  0
LINE
  5
246
330
23F
100
AcDbEntity
  8
1
  6
Continuous
 62
     7
370
     9
100
AcDbLine
 10
371.7500003061617
 20
102.4284693347199
 30
0.0
 11
368.8522228272944
 21
103.2049264700275
 31
0.0
  0
LINE
  5
247
330
23F
100
AcDbEntity
  8
1
  6
Continuous
 62
     7
370
     9
100
AcDbLine
 10
368.8522228272944
 20
101.6520121994124
 30
0.0
 11
368.8522228272944
 21
103.2049264700275
 31
0.0
  0
LINE
  5
248
330
23F
100
AcDbEntity
  8
1
  6
Continuous
 62
     7
370
     9
100
AcDbLine
 10
371.0255559364448
 20
102.4284693347199
 30
0.0
 11
369.5766671970113
 21
102.0402407670661
 31
0.0
  0
LINE
  5
249
330
23F
100
AcDbEntity
  8
1
  6
Continuous
 62
     7
370
     9
100
AcDbLine
 10
371.0255559364448
 20
102.4284693347199
 30
0.0
 11
369.5766671970113
 21
102.8166979023737
 31
0.0
  0
LINE
  5
24A
330
23F
100
AcDbEntity
  8
1
  6
Continuous
 62
     7
370
     9
100
AcDbLine
 10
369.5766671970113
 20
102.0402407670661
 30
0.0
 11
369.5766671970113
 21
102.8166979023737
 31
0.0
  0
LINE
  5
24B
330
23F
100
AcDbEntity
  8
1
  6
Continuous
 62
     7
370
     9
100
AcDbLine
 10
337.7500003061617
 20
102.4284693347199
 30
0.0
 11
340.6477777850289
 21
103.2049264700275
 31
0.0
  0
LINE
  5
24C
330
23F
100
AcDbEntity
  8
1
  6
Continuous
 62
     7
370
     9
100
AcDbLine
 10
337.7500003061617
 20
102.4284693347199
 30
0.0
 11
340.6477777850289
 21
101.6520121994124
 31
0.0
  0
LINE
  5
24D
330
23F
100
AcDbEntity
  8
1
  6
Continuous
 62
     7
370
     9
100
AcDbLine
 10
340.6477777850289
 20
103.2049264700275
 30
0.0
 11
340.6477777850289
 21
101.6520121994124
 31
0.0
  0
LINE
  5
24E
330
23F
100
AcDbEntity
  8
1
  6
Continuous
 62
     7
370
     9
100
AcDbLine
 10
338.4744446758785
 20
102.4284693347199
 30
0.0
 11
339.9233334153121
 21
102.8166979023737
 31
0.0
  0
LINE
  5
24F
330
23F
100
AcDbEntity
  8
1
  6
Continuous
 62
     7
370
     9
100
AcDbLine
 10
338.4744446758785
 20
102.4284693347199
 30
0.0
 11
339.9233334153121
 21
102.0402407670661
 31
0.0
  0
LINE
  5
250
330
23F
100
AcDbEntity
  8
1
  6
Continuous
 62
     7
370
     9
100
AcDbLine
 10
339.9233334153121
 20
102.8166979023737
 30
0.0
 11
339.9233334153121
 21
102.0402407670661
 31
0.0
  0
MTEXT
  5
251
330
23F
100
AcDbEntity
  8
1
  6
Continuous
 62
     7
370
     9
100
AcDbMText
 10
354.7500003061617
 20
107.6784693347199
 30
0.0
 40
10.5
 41
0.0
 46
0.0
 71
     8
 72
     1
  1
34
 73
     1
 44
1.0
  0
ENDBLK
  5
241
330
23F
100
AcDbEntity
  8
0
100
AcDbBlockEnd
  0
BLOCK
  5
254
330
253
100
AcDbEntity
  8
0
100
AcDbBlockBegin
  2
Dim4
 70
     0
 71
     0
 10
0.0
 20
0.0
 30
0.0
  3
Dim4
  1

  0
LINE
  5
256
330
253
100
AcDbEntity
  8
1
  6
Continuous
 62
     7
370
     9
100
AcDbLine
 10
205.75
 20
194.8598785083163
 30
0.0
 11
239.75
 21
194.8598785083163
 31
0.0
  0
LINE
  5
257
330
253
100
AcDbEntity
  8
1
  6
Continuous
 62
     7
370
     9
100
AcDbLine
 10
205.75
 20
194.8598785083163
 30
0.0
 11
205.75
 21
192.7962090696468
 31
0.0
  0
LINE
  5
258
330
253
100
AcDbEntity
  8
1
  6
Continuous
 62
     7
370
     9
100
AcDbLine
 10
239.75
 20
194.8598785083163
 30
0.0
 11
239.75
 21
191.1753670738048
 31
0.0
  0
LINE
  5
259
330
253
100
AcDbEntity
  8
1
  6
Continuous
 62
     7
370
     9
100
AcDbLine
 10
205.75
 20
194.8598785083163
 30
0.0
 11
208.6477774788672
 21
195.6363356436239
 31
0.0
  0
LINE
  5
25A
330
253
100
AcDbEntity
  8
1
  6
Continuous
 62
     7
370
     9
100
AcDbLine
 10
205.75
 20
194.8598785083163
 30
0.0
 11
208.6477774788672
 21
194.0834213730087
 31
0.0
  0
LINE
  5
25B
330
253
100
AcDbEntity
  8
1
  6
Continuous
 62
     7
370
     9
100
AcDbLine
 10
208.6477774788672
 20
195.6363356436239
 30
0.0
 11
208.6477774788672
 21
194.0834213730087
 31
0.0
  0
LINE
  5
25C
330
253
100
AcDbEntity
  8
1
  6
Continuous
 62
     7
370
     9
100
AcDbLine
 10
206.4744443697168
 20
194.8598785083163
 30
0.0
 11
207.9233331091504
 21
195.2481070759701
 31
0.0
  0
LINE
  5
25D
330
253
100
AcDbEntity
  8
1
  6
Continuous
 62
     7
370
     9
100
AcDbLine
 10
206.4744443697168
 20
194.8598785083163
 30
0.0
 11
207.9233331091504
 21
194.4716499406625
 31
0.0
  0
LINE
  5
25E
330
253
100
AcDbEntity
  8
1
  6
Continuous
 62
     7
370
     9
100
AcDbLine
 10
207.9233331091504
 20
195.2481070759701
 30
0.0
 11
207.9233331091504
 21
194.4716499406625
 31
0.0
  0
LINE
  5
25F
330
253
100
AcDbEntity
  8
1
  6
Continuous
 62
     7
370
     9
100
AcDbLine
 10
239.75
 20
194.8598785083163
 30
0.0
 11
236.8522225211328
 21
194.0834213730087
 31
0.0
  0
LINE
  5
260
330
253
100
AcDbEntity
  8
1
  6
Continuous
 62
     7
370
     9
100
AcDbLine
 10
239.75
 20
194.8598785083163
 30
0.0
 11
236.8522225211328
 21
195.6363356436239
 31
0.0
  0
LINE
  5
261
330
253
100
AcDbEntity
  8
1
  6
Continuous
 62
     7
370
     9
100
AcDbLine
 10
236.8522225211328
 20
194.0834213730087
 30
0.0
 11
236.8522225211328
 21
195.6363356436239
 31
0.0
  0
LINE
  5
262
330
253
100
AcDbEntity
  8
1
  6
Continuous
 62
     7
370
     9
100
AcDbLine
 10
239.0255556302832
 20
194.8598785083163
 30
0.0
 11
237.5766668908496
 21
194.4716499406625
 31
0.0
  0
LINE
  5
263
330
253
100
AcDbEntity
  8
1
  6
Continuous
 62
     7
370
     9
100
AcDbLine
 10
239.0255556302832
 20
194.8598785083163
 30
0.0
 11
237.5766668908496
 21
195.2481070759701
 31
0.0
  0
LINE
  5
264
330
253
100
AcDbEntity
  8
1
  6
Continuous
 62
     7
370
     9
100
AcDbLine
 10
237.5766668908496
 20
194.4716499406625
 30
0.0
 11
237.5766668908496
 21
195.2481070759701
 31
0.0
  0
MTEXT
  5
265
330
253
100
AcDbEntity
  8
1
  6
Continuous
 62
     7
370
     9
100
AcDbMText
 10
222.75
 20
200.1098785083163
 30
0.0
 40
10.5
 41
0.0
 46
0.0
 71
     8
 72
     1
  1
34
 73
     1
 44
1.0
  0
ENDBLK
  5
255
330
253
100
AcDbEntity
  8
0
100
AcDbBlockEnd
  0
BLOCK
  5
268
330
267
100
AcDbEntity
  8
0
100
AcDbBlockBegin
  2
Dim5
 70
     0
 71
     0
 10
0.0
 20
0.0
 30
0.0
  3
Dim5
  1

  0
LINE
  5
26A
330
267
100
AcDbEntity
  8
1
  6
Continuous
 62
     7
370
     9
100
AcDbLine
 10
90.75
 20
144.7295510654891
 30
0.0
 11
354.7500003061617
 21
144.7295510654891
 31
0.0
  0
LINE
  5
26B
330
267
100
AcDbEntity
  8
1
  6
Continuous
 62
     7
370
     9
100
AcDbLine
 10
90.75
 20
144.7295510654891
 30
0.0
 11
90.75000000000001
 21
131.5306122448978
 31
0.0
  0
LINE
  5
26C
330
267
100
AcDbEntity
  8
1
  6
Continuous
 62
     7
370
     9
100
AcDbLine
 10
354.7500003061617
 20
144.7295510654891
 30
0.0
 11
354.7500003061617
 21
131.5306122448978
 31
0.0
  0
LINE
  5
26D
330
267
100
AcDbEntity
  8
1
  6
Continuous
 62
     7
370
     9
100
AcDbLine
 10
90.75
 20
144.7295510654891
 30
0.0
 11
93.6477774788672
 21
145.5060082007966
 31
0.0
  0
LINE
  5
26E
330
267
100
AcDbEntity
  8
1
  6
Continuous
 62
     7
370
     9
100
AcDbLine
 10
90.75
 20
144.7295510654891
 30
0.0
 11
93.6477774788672
 21
143.9530939301815
 31
0.0
  0
LINE
  5
26F
330
267
100
AcDbEntity
  8
1
  6
Continuous
 62
     7
370
     9
100
AcDbLine
 10
93.6477774788672
 20
145.5060082007966
 30
0.0
 11
93.6477774788672
 21
143.9530939301815
 31
0.0
  0
LINE
  5
270
330
267
100
AcDbEntity
  8
1
  6
Continuous
 62
     7
370
     9
100
AcDbLine
 10
91.4744443697168
 20
144.7295510654891
 30
0.0
 11
92.9233331091504
 21
145.1177796331428
 31
0.0
  0
LINE
  5
271
330
267
100
AcDbEntity
  8
1
  6
Continuous
 62
     7
370
     9
100
AcDbLine
 10
91.4744443697168
 20
144.7295510654891
 30
0.0
 11
92.9233331091504
 21
144.3413224978353
 31
0.0
  0
LINE
  5
272
330
267
100
AcDbEntity
  8
1
  6
Continuous
 62
     7
370
     9
100
AcDbLine
 10
92.9233331091504
 20
145.1177796331428
 30
0.0
 11
92.9233331091504
 21
144.3413224978353
 31
0.0
  0
LINE
  5
273
330
267
100
AcDbEntity
  8
1
  6
Continuous
 62
     7
370
     9
100
AcDbLine
 10
354.7500003061617
 20
144.7295510654891
 30
0.0
 11
351.8522228272945
 21
143.9530939301815
 31
0.0
  0
LINE
  5
274
330
267
100
AcDbEntity
  8
1
  6
Continuous
 62
     7
370
     9
100
AcDbLine
 10
354.7500003061617
 20
144.7295510654891
 30
0.0
 11
351.8522228272945
 21
145.5060082007966
 31
0.0
  0
LINE
  5
275
330
267
100
AcDbEntity
  8
1
  6
Continuous
 62
     7
370
     9
100
AcDbLine
 10
351.8522228272945
 20
143.9530939301815
 30
0.0
 11
351.8522228272945
 21
145.5060082007966
 31
0.0
  0
LINE
  5
276
330
267
100
AcDbEntity
  8
1
  6
Continuous
 62
     7
370
     9
100
AcDbLine
 10
354.0255559364449
 20
144.7295510654891
 30
0.0
 11
352.5766671970113
 21
144.3413224978353
 31
0.0
  0
LINE
  5
277
330
267
100
AcDbEntity
  8
1
  6
Continuous
 62
     7
370
     9
100
AcDbLine
 10
354.0255559364449
 20
144.7295510654891
 30
0.0
 11
352.5766671970113
 21
145.1177796331428
 31
0.0
  0
LINE
  5
278
330
267
100
AcDbEntity
  8
1
  6
Continuous
 62
     7
370
     9
100
AcDbLine
 10
352.5766671970113
 20
144.3413224978353
 30
0.0
 11
352.5766671970113
 21
145.1177796331428
 31
0.0
  0
MTEXT
  5
279
330
267
100
AcDbEntity
  8
1
  6
Continuous
 62
     7
370
     9
100
AcDbMText
 10
222.7500001530808
 20
149.9795510654891
 30
0.0
 40
10.5
 41
0.0
 46
0.0
 71
     8
 72
     1
  1
264
 73
     1
 44
1.0
  0
ENDBLK
  5
269
330
267
100
AcDbEntity
  8
0
100
AcDbBlockEnd
  0
BLOCK
  5
27C
330
27B
100
AcDbEntity
  8
0
100
AcDbBlockBegin
  2
Dim6
 70
     0
 71
     0
 10
0.0
 20
0.0
 30
0.0
  3
Dim6
  1

  0
LINE
  5
27E
330
27B
100
AcDbEntity
  8
1
  6
Continuous
 62
     7
370
     9
100
AcDbLine
 10
136.75
 20
122.9639585498966
 30
0.0
 11
308.75
 21
122.9639585498966
 31
0.0
  0
LINE
  5
27F
330
27B
100
AcDbEntity
  8
1
  6
Continuous
 62
     7
370
     9
100
AcDbLine
 10
136.75
 20
122.9639585498966
 30
0.0
 11
136.75
 21
120.0148367559074
 31
0.0
  0
LINE
  5
280
330
27B
100
AcDbEntity
  8
1
  6
Continuous
 62
     7
370
     9
100
AcDbLine
 10
308.75
 20
122.9639585498966
 30
0.0
 11
308.75
 21
120.0148367559074
 31
0.0
  0
LINE
  5
281
330
27B
100
AcDbEntity
  8
1
  6
Continuous
 62
     7
370
     9
100
AcDbLine
 10
136.75
 20
122.9639585498966
 30
0.0
 11
139.6477774788672
 21
123.7404156852042
 31
0.0
  0
LINE
  5
282
330
27B
100
AcDbEntity
  8
1
  6
Continuous
 62
     7
370
     9
100
AcDbLine
 10
136.75
 20
122.9639585498966
 30
0.0
 11
139.6477774788672
 21
122.1875014145891
 31
0.0
  0
LINE
  5
283
330
27B
100
AcDbEntity
  8
1
  6
Continuous
 62
     7
370
     9
100
AcDbLine
 10
139.6477774788672
 20
123.7404156852042
 30
0.0
 11
139.6477774788672
 21
122.1875014145891
 31
0.0
  0
LINE
  5
284
330
27B
100
AcDbEntity
  8
1
  6
Continuous
 62
     7
370
     9
100
AcDbLine
 10
137.4744443697168
 20
122.9639585498966
 30
0.0
 11
138.9233331091504
 21
123.3521871175504
 31
0.0
  0
LINE
  5
285
330
27B
100
AcDbEntity
  8
1
  6
Continuous
 62
     7
370
     9
100
AcDbLine
 10
137.4744443697168
 20
122.9639585498966
 30
0.0
 11
138.9233331091504
 21
122.5757299822429
 31
0.0
  0
LINE
  5
286
330
27B
100
AcDbEntity
  8
1
  6
Continuous
 62
     7
370
     9
100
AcDbLine
 10
138.9233331091504
 20
123.3521871175504
 30
0.0
 11
138.9233331091504
 21
122.5757299822429
 31
0.0
  0
LINE
  5
287
330
27B
100
AcDbEntity
  8
1
  6
Continuous
 62
     7
370
     9
100
AcDbLine
 10
308.75
 20
122.9639585498966
 30
0.0
 11
305.8522225211328
 21
122.1875014145891
 31
0.0
  0
LINE
  5
288
330
27B
100
AcDbEntity
  8
1
  6
Continuous
 62
     7
370
     9
100
AcDbLine
 10
308.75
 20
122.9639585498966
 30
0.0
 11
305.8522225211328
 21
123.7404156852042
 31
0.0
  0
LINE
  5
289
330
27B
100
AcDbEntity
  8
1
  6
Continuous
 62
     7
370
     9
100
AcDbLine
 10
305.8522225211328
 20
122.1875014145891
 30
0.0
 11
305.8522225211328
 21
123.7404156852042
 31
0.0
  0
LINE
  5
28A
330
27B
100
AcDbEntity
  8
1
  6
Continuous
 62
     7
370
     9
100
AcDbLine
 10
308.0255556302832
 20
122.9639585498966
 30
0.0
 11
306.5766668908496
 21
122.5757299822429
 31
0.0
  0
LINE
  5
28B
330
27B
100
AcDbEntity
  8
1
  6
Continuous
 62
     7
370
     9
100
AcDbLine
 10
308.0255556302832
 20
122.9639585498966
 30
0.0
 11
306.5766668908496
 21
123.3521871175504
 31
0.0
  0
LINE
  5
28C
330
27B
100
AcDbEntity
  8
1
  6
Continuous
 62
     7
370
     9
100
AcDbLine
 10
306.5766668908496
 20
122.5757299822429
 30
0.0
 11
306.5766668908496
 21
123.3521871175504
 31
0.0
  0
MTEXT
  5
28D
330
27B
100
AcDbEntity
  8
1
  6
Continuous
 62
     7
370
     9
100
AcDbMText
 10
222.75
 20
128.2139585498966
 30
0.0
 40
10.5
 41
0.0
 46
0.0
 71
     8
 72
     1
  1
172
 73
     1
 44
1.0
  0
ENDBLK
  5
27D
330
27B
100
AcDbEntity
  8
0
100
AcDbBlockEnd
  0
BLOCK
  5
290
330
28F
100
AcDbEntity
  8
0
100
AcDbBlockBegin
  2
Dim7
 70
     0
 71
     0
 10
0.0
 20
0.0
 30
0.0
  3
Dim7
  1

  0
LINE
  5
292
330
28F
100
AcDbEntity
  8
1
  6
Continuous
 62
     7
370
     9
100
AcDbLine
 10
372.7500003061614
 20
58.13027871621723
 30
0.0
 11
72.74999999999983
 21
58.13027871621723
 31
0.0
  0
LINE
  5
293
330
28F
100
AcDbEntity
  8
1
  6
Continuous
 62
     7
370
     9
100
AcDbLine
 10
372.7500003061614
 20
58.13027871621723
 30
0.0
 11
372.7500003061616
 21
77.53061224489784
 31
0.0
  0
LINE
  5
294
330
28F
100
AcDbEntity
  8
1
  6
Continuous
 62
     7
370
     9
100
AcDbLine
 10
72.74999999999983
 20
58.13027871621723
 30
0.0
 11
72.74999999999994
 21
71.53061224489784
 31
0.0
  0
LINE
  5
295
330
28F
100
AcDbEntity
  8
1
  6
Continuous
 62
     7
370
     9
100
AcDbLine
 10
372.7500003061614
 20
58.13027871621723
 30
0.0
 11
369.8522228272942
 21
57.35382158090968
 31
0.0
  0
LINE
  5
296
330
28F
100
AcDbEntity
  8
1
  6
Continuous
 62
     7
370
     9
100
AcDbLine
 10
372.7500003061614
 20
58.13027871621723
 30
0.0
 11
369.8522228272942
 21
58.90673585152481
 31
0.0
  0
LINE
  5
297
330
28F
100
AcDbEntity
  8
1
  6
Continuous
 62
     7
370
     9
100
AcDbLine
 10
369.8522228272942
 20
57.35382158090968
 30
0.0
 11
369.8522228272942
 21
58.90673585152481
 31
0.0
  0
LINE
  5
298
330
28F
100
AcDbEntity
  8
1
  6
Continuous
 62
     7
370
     9
100
AcDbLine
 10
372.0255559364446
 20
58.13027871621723
 30
0.0
 11
370.576667197011
 21
57.74205014856346
 31
0.0
  0
LINE
  5
299
330
28F
100
AcDbEntity
  8
1
  6
Continuous
 62
     7
370
     9
100
AcDbLine
 10
372.0255559364446
 20
58.13027871621723
 30
0.0
 11
370.576667197011
 21
58.51850728387102
 31
0.0
  0
LINE
  5
29A
330
28F
100
AcDbEntity
  8
1
  6
Continuous
 62
     7
370
     9
100
AcDbLine
 10
370.576667197011
 20
57.74205014856346
 30
0.0
 11
370.576667197011
 21
58.51850728387102
 31
0.0
  0
LINE
  5
29B
330
28F
100
AcDbEntity
  8
1
  6
Continuous
 62
     7
370
     9
100
AcDbLine
 10
72.74999999999983
 20
58.13027871621723
 30
0.0
 11
75.64777747886703
 21
58.90673585152479
 31
0.0
  0
LINE
  5
29C
330
28F
100
AcDbEntity
  8
1
  6
Continuous
 62
     7
370
     9
100
AcDbLine
 10
72.74999999999983
 20
58.13027871621723
 30
0.0
 11
75.64777747886703
 21
57.35382158090967
 31
0.0
  0
LINE
  5
29D
330
28F
100
AcDbEntity
  8
1
  6
Continuous
 62
     7
370
     9
100
AcDbLine
 10
75.64777747886703
 20
58.90673585152479
 30
0.0
 11
75.64777747886703
 21
57.35382158090967
 31
0.0
  0
LINE
  5
29E
330
28F
100
AcDbEntity
  8
1
  6
Continuous
 62
     7
370
     9
100
AcDbLine
 10
73.47444436971664
 20
58.13027871621723
 30
0.0
 11
74.92333310915024
 21
58.51850728387102
 31
0.0
  0
LINE
  5
29F
330
28F
100
AcDbEntity
  8
1
  6
Continuous
 62
     7
370
     9
100
AcDbLine
 10
73.47444436971664
 20
58.13027871621723
 30
0.0
 11
74.92333310915024
 21
57.74205014856345
 31
0.0
  0
LINE
  5
2A0
330
28F
100
AcDbEntity
  8
1
  6
Continuous
 62
     7
370
     9
100
AcDbLine
 10
74.92333310915024
 20
58.51850728387102
 30
0.0
 11
74.92333310915024
 21
57.74205014856345
 31
0.0
  0
MTEXT
  5
2A1
330
28F
100
AcDbEntity
  8
1
  6
Continuous
 62
     7
370
     9
100
AcDbMText
 10
222.7500001530806
 20
63.38027871621723
 30
0.0
 40
10.5
 41
0.0
 46
0.0
 71
     8
 72
     1
  1
300
 73
     1
 44
1.0
  0
ENDBLK
  5
291
330
28F
100
AcDbEntity
  8
0
100
AcDbBlockEnd
  0
BLOCK
  5
2A4
330
2A3
100
AcDbEntity
  8
0
100
AcDbBlockBegin
  2
Dim8
 70
     0
 71
     0
 10
0.0
 20
0.0
 30
0.0
  3
Dim8
  1

  0
LINE
  5
2A6
330
2A3
100
AcDbEntity
  8
1
  6
Continuous
 62
     7
370
     9
100
AcDbLine
 10
212.75
 20
351.7342288201665
 30
0.0
 11
232.75
 21
351.7342288201665
 31
0.0
  0
LINE
  5
2A7
330
2A3
100
AcDbEntity
  8
1
  6
Continuous
 62
     7
370
     9
100
AcDbLine
 10
212.75
 20
351.7342288201665
 30
0.0
 11
212.75
 21
346.7761986746363
 31
0.0
  0
LINE
  5
2A8
330
2A3
100
AcDbEntity
  8
1
  6
Continuous
 62
     7
370
     9
100
AcDbLine
 10
232.75
 20
351.7342288201665
 30
0.0
 11
232.75
 21
346.8919731029108
 31
0.0
  0
LINE
  5
2A9
330
2A3
100
AcDbEntity
  8
1
  6
Continuous
 62
     7
370
     9
100
AcDbLine
 10
212.75
 20
351.7342288201665
 30
0.0
 11
215.6477774788672
 21
352.5106859554741
 31
0.0
  0
LINE
  5
2AA
330
2A3
100
AcDbEntity
  8
1
  6
Continuous
 62
     7
370
     9
100
AcDbLine
 10
212.75
 20
351.7342288201665
 30
0.0
 11
215.6477774788672
 21
350.9577716848589
 31
0.0
  0
LINE
  5
2AB
330
2A3
100
AcDbEntity
  8
1
  6
Continuous
 62
     7
370
     9
100
AcDbLine
 10
215.6477774788672
 20
352.5106859554741
 30
0.0
 11
215.6477774788672
 21
350.9577716848589
 31
0.0
  0
LINE
  5
2AC
330
2A3
100
AcDbEntity
  8
1
  6
Continuous
 62
     7
370
     9
100
AcDbLine
 10
213.4744443697168
 20
351.7342288201665
 30
0.0
 11
214.9233331091504
 21
352.1224573878202
 31
0.0
  0
LINE
  5
2AD
330
2A3
100
AcDbEntity
  8
1
  6
Continuous
 62
     7
370
     9
100
AcDbLine
 10
213.4744443697168
 20
351.7342288201665
 30
0.0
 11
214.9233331091504
 21
351.3460002525127
 31
0.0
  0
LINE
  5
2AE
330
2A3
100
AcDbEntity
  8
1
  6
Continuous
 62
     7
370
     9
100
AcDbLine
 10
214.9233331091504
 20
352.1224573878202
 30
0.0
 11
214.9233331091504
 21
351.3460002525127
 31
0.0
  0
LINE
  5
2AF
330
2A3
100
AcDbEntity
  8
1
  6
Continuous
 62
     7
370
     9
100
AcDbLine
 10
232.75
 20
351.7342288201665
 30
0.0
 11
229.8522225211328
 21
350.9577716848589
 31
0.0
  0
LINE
  5
2B0
330
2A3
100
AcDbEntity
  8
1
  6
Continuous
 62
     7
370
     9
100
AcDbLine
 10
232.75
 20
351.7342288201665
 30
0.0
 11
229.8522225211328
 21
352.5106859554741
 31
0.0
  0
LINE
  5
2B1
330
2A3
100
AcDbEntity
  8
1
  6
Continuous
 62
     7
370
     9
100
AcDbLine
 10
229.8522225211328
 20
350.9577716848589
 30
0.0
 11
229.8522225211328
 21
352.5106859554741
 31
0.0
  0
LINE
  5
2B2
330
2A3
100
AcDbEntity
  8
1
  6
Continuous
 62
     7
370
     9
100
AcDbLine
 10
232.0255556302832
 20
351.7342288201665
 30
0.0
 11
230.5766668908496
 21
351.3460002525127
 31
0.0
  0
LINE
  5
2B3
330
2A3
100
AcDbEntity
  8
1
  6
Continuous
 62
     7
370
     9
100
AcDbLine
 10
232.0255556302832
 20
351.7342288201665
 30
0.0
 11
230.5766668908496
 21
352.1224573878203
 31
0.0
  0
LINE
  5
2B4
330
2A3
100
AcDbEntity
  8
1
  6
Continuous
 62
     7
370
     9
100
AcDbLine
 10
230.5766668908496
 20
351.3460002525127
 30
0.0
 11
230.5766668908496
 21
352.1224573878203
 31
0.0
  0
MTEXT
  5
2B5
330
2A3
100
AcDbEntity
  8
1
  6
Continuous
 62
     7
370
     9
100
AcDbMText
 10
222.7499999999999
 20
356.9842288201665
 30
0.0
 40
10.5
 41
0.0
 46
0.0
 71
     8
 72
     1
  1
20φ
 73
     1
 44
1.0
  0
ENDBLK
  5
2A5
330
2A3
100
AcDbEntity
  8
0
100
AcDbBlockEnd
  0
BLOCK
  5
2B8
330
2B7
100
AcDbEntity
  8
0
100
AcDbBlockBegin
  2
Dim9
 70
     0
 71
     0
 10
0.0
 20
0.0
 30
0.0
  3
Dim9
  1

  0
LINE
  5
2BA
330
2B7
100
AcDbEntity
  8
1
  6
Continuous
 62
     7
370
     9
100
AcDbLine
 10
194.7500000000001
 20
436.7126591735966
 30
0.0
 11
250.7500000000001
 21
436.7126591735966
 31
0.0
  0
LINE
  5
2BB
330
2B7
100
AcDbEntity
  8
1
  6
Continuous
 62
     7
370
     9
100
AcDbLine
 10
194.7500000000001
 20
436.7126591735966
 30
0.0
 11
194.75
 21
398.0237298596674
 31
0.0
  0
LINE
  5
2BC
330
2B7
100
AcDbEntity
  8
1
  6
Continuous
 62
     7
370
     9
100
AcDbLine
 10
250.7500000000001
 20
436.7126591735966
 30
0.0
 11
250.7500000000001
 21
400.5306122448978
 31
0.0
  0
LINE
  5
2BD
330
2B7
100
AcDbEntity
  8
1
  6
Continuous
 62
     7
370
     9
100
AcDbLine
 10
194.7500000000001
 20
436.7126591735966
 30
0.0
 11
197.6477774788673
 21
437.4891163089042
 31
0.0
  0
LINE
  5
2BE
330
2B7
100
AcDbEntity
  8
1
  6
Continuous
 62
     7
370
     9
100
AcDbLine
 10
194.7500000000001
 20
436.7126591735966
 30
0.0
 11
197.6477774788673
 21
435.936202038289
 31
0.0
  0
LINE
  5
2BF
330
2B7
100
AcDbEntity
  8
1
  6
Continuous
 62
     7
370
     9
100
AcDbLine
 10
197.6477774788673
 20
437.4891163089042
 30
0.0
 11
197.6477774788673
 21
435.936202038289
 31
0.0
  0
LINE
  5
2C0
330
2B7
100
AcDbEntity
  8
1
  6
Continuous
 62
     7
370
     9
100
AcDbLine
 10
195.4744443697169
 20
436.7126591735966
 30
0.0
 11
196.9233331091505
 21
437.1008877412503
 31
0.0
  0
LINE
  5
2C1
330
2B7
100
AcDbEntity
  8
1
  6
Continuous
 62
     7
370
     9
100
AcDbLine
 10
195.4744443697169
 20
436.7126591735966
 30
0.0
 11
196.9233331091505
 21
436.3244306059428
 31
0.0
  0
LINE
  5
2C2
330
2B7
100
AcDbEntity
  8
1
  6
Continuous
 62
     7
370
     9
100
AcDbLine
 10
196.9233331091505
 20
437.1008877412503
 30
0.0
 11
196.9233331091505
 21
436.3244306059428
 31
0.0
  0
LINE
  5
2C3
330
2B7
100
AcDbEntity
  8
1
  6
Continuous
 62
     7
370
     9
100
AcDbLine
 10
250.7500000000001
 20
436.7126591735966
 30
0.0
 11
247.8522225211329
 21
435.936202038289
 31
0.0
  0
LINE
  5
2C4
330
2B7
100
AcDbEntity
  8
1
  6
Continuous
 62
     7
370
     9
100
AcDbLine
 10
250.7500000000001
 20
436.7126591735966
 30
0.0
 11
247.8522225211329
 21
437.4891163089042
 31
0.0
  0
LINE
  5
2C5
330
2B7
100
AcDbEntity
  8
1
  6
Continuous
 62
     7
370
     9
100
AcDbLine
 10
247.8522225211329
 20
435.936202038289
 30
0.0
 11
247.8522225211329
 21
437.4891163089042
 31
0.0
  0
LINE
  5
2C6
330
2B7
100
AcDbEntity
  8
1
  6
Continuous
 62
     7
370
     9
100
AcDbLine
 10
250.0255556302833
 20
436.7126591735966
 30
0.0
 11
248.5766668908497
 21
436.3244306059428
 31
0.0
  0
LINE
  5
2C7
330
2B7
100
AcDbEntity
  8
1
  6
Continuous
 62
     7
370
     9
100
AcDbLine
 10
250.0255556302833
 20
436.7126591735966
 30
0.0
 11
248.5766668908497
 21
437.1008877412504
 31
0.0
  0
LINE
  5
2C8
330
2B7
100
AcDbEntity
  8
1
  6
Continuous
 62
     7
370
     9
100
AcDbLine
 10
248.5766668908497
 20
436.3244306059428
 30
0.0
 11
248.5766668908497
 21
437.1008877412504
 31
0.0
  0
MTEXT
  5
2C9
330
2B7
100
AcDbEntity
  8
1
  6
Continuous
 62
     7
370
     9
100
AcDbMText
 10
222.7500000000001
 20
441.9626591735966
 30
0.0
 40
10.5
 41
0.0
 46
0.0
 71
     8
 72
     1
  1
56
 73
     1
 44
1.0
  0
ENDBLK
  5
2B9
330
2B7
100
AcDbEntity
  8
0
100
AcDbBlockEnd
  0
BLOCK
  5
2CC
330
2CB
100
AcDbEntity
  8
0
100
AcDbBlockBegin
  2
Dim10
 70
     0
 71
     0
 10
0.0
 20
0.0
 30
0.0
  3
Dim10
  1

  0
LINE
  5
2CE
330
2CB
100
AcDbEntity
  8
1
  6
Continuous
 62
     7
370
     9
100
AcDbLine
 10
250.75
 20
334.4994517773507
 30
0.0
 11
260.25
 21
334.4994517773507
 31
0.0
  0
LINE
  5
2CF
330
2CB
100
AcDbEntity
  8
1
  6
Continuous
 62
     7
370
     9
100
AcDbLine
 10
250.75
 20
334.4994517773507
 30
0.0
 11
253.6477774788672
 21
335.2759089126583
 31
0.0
  0
LINE
  5
2D0
330
2CB
100
AcDbEntity
  8
1
  6
Continuous
 62
     7
370
     9
100
AcDbLine
 10
250.75
 20
334.4994517773507
 30
0.0
 11
253.6477774788672
 21
333.7229946420431
 31
0.0
  0
LINE
  5
2D1
330
2CB
100
AcDbEntity
  8
1
  6
Continuous
 62
     7
370
     9
100
AcDbLine
 10
253.6477774788672
 20
335.2759089126583
 30
0.0
 11
253.6477774788672
 21
333.7229946420431
 31
0.0
  0
LINE
  5
2D2
330
2CB
100
AcDbEntity
  8
1
  6
Continuous
 62
     7
370
     9
100
AcDbLine
 10
251.4744443697168
 20
334.4994517773507
 30
0.0
 11
252.9233331091504
 21
334.8876803450045
 31
0.0
  0
LINE
  5
2D3
330
2CB
100
AcDbEntity
  8
1
  6
Continuous
 62
     7
370
     9
100
AcDbLine
 10
251.4744443697168
 20
334.4994517773507
 30
0.0
 11
252.9233331091504
 21
334.111223209697
 31
0.0
  0
LINE
  5
2D4
330
2CB
100
AcDbEntity
  8
1
  6
Continuous
 62
     7
370
     9
100
AcDbLine
 10
252.9233331091504
 20
334.8876803450045
 30
0.0
 11
252.9233331091504
 21
334.111223209697
 31
0.0
  0
LINE
  5
2D5
330
2CB
100
AcDbEntity
  8
1
  6
Continuous
 62
     7
370
     9
100
AcDbLine
 10
260.25
 20
334.4994517773507
 30
0.0
 11
257.3522225211328
 21
333.7229946420431
 31
0.0
  0
LINE
  5
2D6
330
2CB
100
AcDbEntity
  8
1
  6
Continuous
 62
     7
370
     9
100
AcDbLine
 10
260.25
 20
334.4994517773507
 30
0.0
 11
257.3522225211328
 21
335.2759089126583
 31
0.0
  0
LINE
  5
2D7
330
2CB
100
AcDbEntity
  8
1
  6
Continuous
 62
     7
370
     9
100
AcDbLine
 10
257.3522225211328
 20
333.7229946420431
 30
0.0
 11
257.3522225211328
 21
335.2759089126583
 31
0.0
  0
LINE
  5
2D8
330
2CB
100
AcDbEntity
  8
1
  6
Continuous
 62
     7
370
     9
100
AcDbLine
 10
259.5255556302832
 20
334.4994517773507
 30
0.0
 11
258.0766668908496
 21
334.111223209697
 31
0.0
  0
LINE
  5
2D9
330
2CB
100
AcDbEntity
  8
1
  6
Continuous
 62
     7
370
     9
100
AcDbLine
 10
259.5255556302832
 20
334.4994517773507
 30
0.0
 11
258.0766668908496
 21
334.8876803450045
 31
0.0
  0
LINE
  5
2DA
330
2CB
100
AcDbEntity
  8
1
  6
Continuous
 62
     7
370
     9
100
AcDbLine
 10
258.0766668908496
 20
334.111223209697
 30
0.0
 11
258.0766668908496
 21
334.8876803450045
 31
0.0
  0
MTEXT
  5
2DB
330
2CB
100
AcDbEntity
  8
1
  6
Continuous
 62
     7
370
     9
100
AcDbMText
 10
255.5
 20
339.7494517773507
 30
0.0
 40
10.5
 41
0.0
 46
0.0
 71
     8
 72
     1
  1
6
 73
     1
 44
1.0
  0
ENDBLK
  5
2CD
330
2CB
100
AcDbEntity
  8
0
100
AcDbBlockEnd
  0
BLOCK
  5
308
330
307
100
AcDbEntity
  8
0
100
AcDbBlockBegin
  2
*G27
 70
     1
 71
     0
 10
0.0
 20
0.0
 30
0.0
  3
*G27
  1

  0
LINE
  5
30A
330
307
100
AcDbEntity
  8
1
  6
Continuous
 62
     7
370
     9
100
AcDbLine
 10
607.9370210870226
 20
412.0306122448978
 30
0.0
 11
621.9370210870226
 21
412.0306122448978
 31
0.0
  0
LINE
  5
30B
330
307
100
AcDbEntity
  8
1
  6
Continuous
 62
     7
370
     9
100
AcDbLine
 10
607.9370210870226
 20
413.5306122448978
 30
0.0
 11
621.9370210870226
 21
413.5306122448978
 31
0.0
  0
LINE
  5
30C
330
307
100
AcDbEntity
  8
1
  6
Continuous
 62
     7
370
     9
100
AcDbLine
 10
607.9370210870226
 20
415.0306122448978
 30
0.0
 11
621.9370210870226
 21
415.0306122448978
 31
0.0
  0
LINE
  5
30D
330
307
100
AcDbEntity
  8
1
  6
Continuous
 62
     7
370
     9
100
AcDbLine
 10
607.9370210870226
 20
416.5306122448978
 30
0.0
 11
621.9370210870226
 21
416.5306122448978
 31
0.0
  0
LINE
  5
30E
330
307
100
AcDbEntity
  8
1
  6
Continuous
 62
     7
370
     9
100
AcDbLine
 10
607.9370210870226
 20
418.0306122448978
 30
0.0
 11
621.9370210870226
 21
418.0306122448978
 31
0.0
  0
LINE
  5
30F
330
307
100
AcDbEntity
  8
1
  6
Continuous
 62
     7
370
     9
100
AcDbLine
 10
607.9370210870226
 20
419.5306122448978
 30
0.0
 11
621.9370210870226
 21
419.5306122448978
 31
0.0
  0
LINE
  5
310
330
307
100
AcDbEntity
  8
1
  6
Continuous
 62
     7
370
     9
100
AcDbLine
 10
607.9370210870226
 20
421.0306122448978
 30
0.0
 11
621.9370210870226
 21
421.0306122448978
 31
0.0
  0
ENDBLK
  5
309
330
307
100
AcDbEntity
  8
0
100
AcDbBlockEnd
  0
BLOCK
  5
346
330
345
100
AcDbEntity
  8
0
100
AcDbBlockBegin
  2
*G28
 70
     1
 71
     0
 10
0.0
 20
0.0
 30
0.0
  3
*G28
  1

  0
LINE
  5
348
330
345
100
AcDbEntity
  8
1
  6
Continuous
 62
     7
370
     9
100
AcDbLine
 10
660.4370210870226
 20
298.5471652571388
 30
0.0
 11
672.2675260684081
 21
298.5471652571388
 31
0.0
  0
LINE
  5
349
330
345
100
AcDbEntity
  8
1
  6
Continuous
 62
     7
370
     9
100
AcDbLine
 10
660.4370210870226
 20
300.0471652571388
 30
0.0
 11
672.4550260684081
 21
300.0471652571388
 31
0.0
  0
LINE
  5
34A
330
345
100
AcDbEntity
  8
1
  6
Continuous
 62
     7
370
     9
100
AcDbLine
 10
660.4370210870226
 20
301.5471652571388
 30
0.0
 11
672.6425260684081
 21
301.5471652571388
 31
0.0
  0
LINE
  5
34B
330
345
100
AcDbEntity
  8
1
  6
Continuous
 62
     7
370
     9
100
AcDbLine
 10
660.4370210870226
 20
303.0471652571388
 30
0.0
 11
672.8300260684081
 21
303.0471652571388
 31
0.0
  0
LINE
  5
34C
330
345
100
AcDbEntity
  8
1
  6
Continuous
 62
     7
370
     9
100
AcDbLine
 10
660.4370210870226
 20
304.5471652571388
 30
0.0
 11
672.7357586335588
 21
304.5471652571388
 31
0.0
  0
LINE
  5
34D
330
345
100
AcDbEntity
  8
1
  6
Continuous
 62
     7
370
     9
100
AcDbLine
 10
660.4370210870226
 20
306.0471652571388
 30
0.0
 11
672.2670086335588
 21
306.0471652571388
 31
0.0
  0
LINE
  5
34E
330
345
100
AcDbEntity
  8
1
  6
Continuous
 62
     7
370
     9
100
AcDbLine
 10
660.4370210870226
 20
307.5471652571388
 30
0.0
 11
671.7982586335588
 21
307.5471652571388
 31
0.0
  0
LINE
  5
34F
330
345
100
AcDbEntity
  8
1
  6
Continuous
 62
     7
370
     9
100
AcDbLine
 10
660.4370210870226
 20
309.0471652571388
 30
0.0
 11
671.3295086335588
 21
309.0471652571388
 31
0.0
  0
LINE
  5
350
330
345
100
AcDbEntity
  8
1
  6
Continuous
 62
     7
370
     9
100
AcDbLine
 10
660.4370210870226
 20
310.5471652571388
 30
0.0
 11
670.8607586335588
 21
310.5471652571388
 31
0.0
  0
ENDBLK
  5
347
330
345
100
AcDbEntity
  8
0
100
AcDbBlockEnd
  0
BLOCK
  5
433
330
432
100
AcDbEntity
  8
0
100
AcDbBlockBegin
  2
*G29
 70
     1
 71
     0
 10
0.0
 20
0.0
 30
0.0
  3
*G29
  1

  0
LINE
  5
435
330
432
100
AcDbEntity
  8
1
  6
Continuous
 62
     7
370
     9
100
AcDbLine
 10
766.7655925155939
 20
333.2401283572789
 30
0.0
 11
766.7655925155939
 21
319.2401283572789
 31
0.0
  0
LINE
  5
436
330
432
100
AcDbEntity
  8
1
  6
Continuous
 62
     7
370
     9
100
AcDbLine
 10
768.2655925155939
 20
333.2401283572789
 30
0.0
 11
768.2655925155939
 21
319.2401283572789
 31
0.0
  0
LINE
  5
437
330
432
100
AcDbEntity
  8
1
  6
Continuous
 62
     7
370
     9
100
AcDbLine
 10
769.7655925155939
 20
333.2401283572789
 30
0.0
 11
769.7655925155939
 21
319.2401283572789
 31
0.0
  0
LINE
  5
438
330
432
100
AcDbEntity
  8
1
  6
Continuous
 62
     7
370
     9
100
AcDbLine
 10
771.2655925155939
 20
333.2401283572789
 30
0.0
 11
771.2655925155939
 21
319.2401283572789
 31
0.0
  0
LINE
  5
439
330
432
100
AcDbEntity
  8
1
  6
Continuous
 62
     7
370
     9
100
AcDbLine
 10
772.7655925155939
 20
333.2401283572789
 30
0.0
 11
772.7655925155939
 21
319.2401283572789
 31
0.0
  0
LINE
  5
43A
330
432
100
AcDbEntity
  8
1
  6
Continuous
 62
     7
370
     9
100
AcDbLine
 10
774.2655925155939
 20
333.240128357279
 30
0.0
 11
774.2655925155939
 21
319.240128357279
 31
0.0
  0
LINE
  5
43B
330
432
100
AcDbEntity
  8
1
  6
Continuous
 62
     7
370
     9
100
AcDbLine
 10
775.7655925155939
 20
333.240128357279
 30
0.0
 11
775.7655925155939
 21
319.240128357279
 31
0.0
  0
ENDBLK
  5
434
330
432
100
AcDbEntity
  8
0
100
AcDbBlockEnd
  0
BLOCK
  5
574
330
573
100
AcDbEntity
  8
0
100
AcDbBlockBegin
  2
Dim11
 70
     0
 71
     0
 10
0.0
 20
0.0
 30
0.0
  3
Dim11
  1

  0
LINE
  5
576
330
573
100
AcDbEntity
  8
1
  6
Continuous
 62
     7
370
     9
100
AcDbLine
 10
681.4370210870226
 20
136.2346023908531
 30
0.0
 11
600.4370210870226
 21
136.2346023908531
 31
0.0
  0
LINE
  5
577
330
573
100
AcDbEntity
  8
1
  6
Continuous
 62
     7
370
     9
100
AcDbLine
 10
681.4370210870226
 20
136.2346023908531
 30
0.0
 11
681.4370210870226
 21
122.5306122448978
 31
0.0
  0
LINE
  5
578
330
573
100
AcDbEntity
  8
1
  6
Continuous
 62
     7
370
     9
100
AcDbLine
 10
600.4370210870226
 20
136.2346023908531
 30
0.0
 11
600.4370210870226
 21
122.5306122448978
 31
0.0
  0
LINE
  5
579
330
573
100
AcDbEntity
  8
1
  6
Continuous
 62
     7
370
     9
100
AcDbLine
 10
681.4370210870226
 20
136.2346023908531
 30
0.0
 11
678.5392436081554
 21
135.4581452555456
 31
0.0
  0
LINE
  5
57A
330
573
100
AcDbEntity
  8
1
  6
Continuous
 62
     7
370
     9
100
AcDbLine
 10
681.4370210870226
 20
136.2346023908531
 30
0.0
 11
678.5392436081554
 21
137.0110595261607
 31
0.0
  0
LINE
  5
57B
330
573
100
AcDbEntity
  8
1
  6
Continuous
 62
     7
370
     9
100
AcDbLine
 10
678.5392436081554
 20
135.4581452555456
 30
0.0
 11
678.5392436081554
 21
137.0110595261607
 31
0.0
  0
LINE
  5
57C
330
573
100
AcDbEntity
  8
1
  6
Continuous
 62
     7
370
     9
100
AcDbLine
 10
680.7125767173058
 20
136.2346023908531
 30
0.0
 11
679.2636879778721
 21
135.8463738231993
 31
0.0
  0
LINE
  5
57D
330
573
100
AcDbEntity
  8
1
  6
Continuous
 62
     7
370
     9
100
AcDbLine
 10
680.7125767173058
 20
136.2346023908531
 30
0.0
 11
679.2636879778721
 21
136.6228309585069
 31
0.0
  0
LINE
  5
57E
330
573
100
AcDbEntity
  8
1
  6
Continuous
 62
     7
370
     9
100
AcDbLine
 10
679.2636879778721
 20
135.8463738231993
 30
0.0
 11
679.2636879778721
 21
136.6228309585069
 31
0.0
  0
LINE
  5
57F
330
573
100
AcDbEntity
  8
1
  6
Continuous
 62
     7
370
     9
100
AcDbLine
 10
600.4370210870226
 20
136.2346023908531
 30
0.0
 11
603.3347985658897
 21
137.0110595261607
 31
0.0
  0
LINE
  5
580
330
573
100
AcDbEntity
  8
1
  6
Continuous
 62
     7
370
     9
100
AcDbLine
 10
600.4370210870226
 20
136.2346023908531
 30
0.0
 11
603.3347985658897
 21
135.4581452555455
 31
0.0
  0
LINE
  5
581
330
573
100
AcDbEntity
  8
1
  6
Continuous
 62
     7
370
     9
100
AcDbLine
 10
603.3347985658897
 20
137.0110595261607
 30
0.0
 11
603.3347985658897
 21
135.4581452555455
 31
0.0
  0
LINE
  5
582
330
573
100
AcDbEntity
  8
1
  6
Continuous
 62
     7
370
     9
100
AcDbLine
 10
601.1614654567394
 20
136.2346023908531
 30
0.0
 11
602.610354196173
 21
136.6228309585069
 31
0.0
  0
LINE
  5
583
330
573
100
AcDbEntity
  8
1
  6
Continuous
 62
     7
370
     9
100
AcDbLine
 10
601.1614654567394
 20
136.2346023908531
 30
0.0
 11
602.610354196173
 21
135.8463738231993
 31
0.0
  0
LINE
  5
584
330
573
100
AcDbEntity
  8
1
  6
Continuous
 62
     7
370
     9
100
AcDbLine
 10
602.610354196173
 20
136.6228309585069
 30
0.0
 11
602.610354196173
 21
135.8463738231993
 31
0.0
  0
MTEXT
  5
585
330
573
100
AcDbEntity
  8
1
  6
Continuous
 62
     7
370
     9
100
AcDbMText
 10
640.9370210870226
 20
141.4846023908531
 30
0.0
 40
10.5
 41
0.0
 46
0.0
 71
     8
 72
     1
  1
81
 73
     1
 44
1.0
  0
ENDBLK
  5
575
330
573
100
AcDbEntity
  8
0
100
AcDbBlockEnd
  0
BLOCK
  5
588
330
587
100
AcDbEntity
  8
0
100
AcDbBlockBegin
  2
Dim12
 70
     0
 71
     0
 10
0.0
 20
0.0
 30
0.0
  3
Dim12
  1

  0
LINE
  5
58A
330
587
100
AcDbEntity
  8
1
  6
Continuous
 62
     7
370
     9
100
AcDbLine
 10
470.4370210870226
 20
136.2346023908531
 30
0.0
 11
600.4370210870226
 21
136.2346023908531
 31
0.0
  0
LINE
  5
58B
330
587
100
AcDbEntity
  8
1
  6
Continuous
 62
     7
370
     9
100
AcDbLine
 10
470.4370210870226
 20
136.2346023908531
 30
0.0
 11
470.4370210870226
 21
122.5306122448978
 31
0.0
  0
LINE
  5
58C
330
587
100
AcDbEntity
  8
1
  6
Continuous
 62
     7
370
     9
100
AcDbLine
 10
600.4370210870226
 20
136.2346023908531
 30
0.0
 11
600.4370210870226
 21
122.5306122448978
 31
0.0
  0
LINE
  5
58D
330
587
100
AcDbEntity
  8
1
  6
Continuous
 62
     7
370
     9
100
AcDbLine
 10
470.4370210870226
 20
136.2346023908531
 30
0.0
 11
473.3347985658898
 21
137.0110595261607
 31
0.0
  0
LINE
  5
58E
330
587
100
AcDbEntity
  8
1
  6
Continuous
 62
     7
370
     9
100
AcDbLine
 10
470.4370210870226
 20
136.2346023908531
 30
0.0
 11
473.3347985658898
 21
135.4581452555455
 31
0.0
  0
LINE
  5
58F
330
587
100
AcDbEntity
  8
1
  6
Continuous
 62
     7
370
     9
100
AcDbLine
 10
473.3347985658898
 20
137.0110595261607
 30
0.0
 11
473.3347985658898
 21
135.4581452555455
 31
0.0
  0
LINE
  5
590
330
587
100
AcDbEntity
  8
1
  6
Continuous
 62
     7
370
     9
100
AcDbLine
 10
471.1614654567394
 20
136.2346023908531
 30
0.0
 11
472.610354196173
 21
136.6228309585069
 31
0.0
  0
LINE
  5
591
330
587
100
AcDbEntity
  8
1
  6
Continuous
 62
     7
370
     9
100
AcDbLine
 10
471.1614654567394
 20
136.2346023908531
 30
0.0
 11
472.610354196173
 21
135.8463738231993
 31
0.0
  0
LINE
  5
592
330
587
100
AcDbEntity
  8
1
  6
Continuous
 62
     7
370
     9
100
AcDbLine
 10
472.610354196173
 20
136.6228309585069
 30
0.0
 11
472.610354196173
 21
135.8463738231993
 31
0.0
  0
LINE
  5
593
330
587
100
AcDbEntity
  8
1
  6
Continuous
 62
     7
370
     9
100
AcDbLine
 10
600.4370210870226
 20
136.2346023908531
 30
0.0
 11
597.5392436081554
 21
135.4581452555456
 31
0.0
  0
LINE
  5
594
330
587
100
AcDbEntity
  8
1
  6
Continuous
 62
     7
370
     9
100
AcDbLine
 10
600.4370210870226
 20
136.2346023908531
 30
0.0
 11
597.5392436081554
 21
137.0110595261607
 31
0.0
  0
LINE
  5
595
330
587
100
AcDbEntity
  8
1
  6
Continuous
 62
     7
370
     9
100
AcDbLine
 10
597.5392436081554
 20
135.4581452555456
 30
0.0
 11
597.5392436081554
 21
137.0110595261607
 31
0.0
  0
LINE
  5
596
330
587
100
AcDbEntity
  8
1
  6
Continuous
 62
     7
370
     9
100
AcDbLine
 10
599.7125767173058
 20
136.2346023908531
 30
0.0
 11
598.2636879778721
 21
135.8463738231993
 31
0.0
  0
LINE
  5
597
330
587
100
AcDbEntity
  8
1
  6
Continuous
 62
     7
370
     9
100
AcDbLine
 10
599.7125767173058
 20
136.2346023908531
 30
0.0
 11
598.2636879778721
 21
136.6228309585069
 31
0.0
  0
LINE
  5
598
330
587
100
AcDbEntity
  8
1
  6
Continuous
 62
     7
370
     9
100
AcDbLine
 10
598.2636879778721
 20
135.8463738231993
 30
0.0
 11
598.2636879778721
 21
136.6228309585069
 31
0.0
  0
MTEXT
  5
599
330
587
100
AcDbEntity
  8
1
  6
Continuous
 62
     7
370
     9
100
AcDbMText
 10
535.4370210870226
 20
141.4846023908531
 30
0.0
 40
10.5
 41
0.0
 46
0.0
 71
     8
 72
     1
  1
130
 73
     1
 44
1.0
  0
ENDBLK
  5
589
330
587
100
AcDbEntity
  8
0
100
AcDbBlockEnd
  0
BLOCK
  5
59C
330
59B
100
AcDbEntity
  8
0
100
AcDbBlockBegin
  2
Dim13
 70
     0
 71
     0
 10
0.0
 20
0.0
 30
0.0
  3
Dim13
  1

  0
LINE
  5
59E
330
59B
100
AcDbEntity
  8
1
  6
Continuous
 62
     7
370
     9
100
AcDbLine
 10
681.4370210870226
 20
187.1753508316019
 30
0.0
 11
689.4370210870226
 21
187.1753508316019
 31
0.0
  0
LINE
  5
59F
330
59B
100
AcDbEntity
  8
1
  6
Continuous
 62
     7
370
     9
100
AcDbLine
 10
681.4370210870226
 20
187.1753508316019
 30
0.0
 11
681.4370210870226
 21
185.5342385654895
 31
0.0
  0
LINE
  5
5A0
330
59B
100
AcDbEntity
  8
1
  6
Continuous
 62
     7
370
     9
100
AcDbLine
 10
689.4370210870226
 20
187.1753508316019
 30
0.0
 11
689.4370210870226
 21
184.3764942827453
 31
0.0
  0
LINE
  5
5A1
330
59B
100
AcDbEntity
  8
1
  6
Continuous
 62
     7
370
     9
100
AcDbLine
 10
681.4370210870226
 20
187.1753508316019
 30
0.0
 11
684.3347985658897
 21
187.9518079669094
 31
0.0
  0
LINE
  5
5A2
330
59B
100
AcDbEntity
  8
1
  6
Continuous
 62
     7
370
     9
100
AcDbLine
 10
681.4370210870226
 20
187.1753508316019
 30
0.0
 11
684.3347985658897
 21
186.3988936962943
 31
0.0
  0
LINE
  5
5A3
330
59B
100
AcDbEntity
  8
1
  6
Continuous
 62
     7
370
     9
100
AcDbLine
 10
684.3347985658897
 20
187.9518079669094
 30
0.0
 11
684.3347985658897
 21
186.3988936962943
 31
0.0
  0
LINE
  5
5A4
330
59B
100
AcDbEntity
  8
1
  6
Continuous
 62
     7
370
     9
100
AcDbLine
 10
682.1614654567394
 20
187.1753508316019
 30
0.0
 11
683.610354196173
 21
187.5635793992556
 31
0.0
  0
LINE
  5
5A5
330
59B
100
AcDbEntity
  8
1
  6
Continuous
 62
     7
370
     9
100
AcDbLine
 10
682.1614654567394
 20
187.1753508316019
 30
0.0
 11
683.610354196173
 21
186.7871222639481
 31
0.0
  0
LINE
  5
5A6
330
59B
100
AcDbEntity
  8
1
  6
Continuous
 62
     7
370
     9
100
AcDbLine
 10
683.610354196173
 20
187.5635793992556
 30
0.0
 11
683.610354196173
 21
186.7871222639481
 31
0.0
  0
LINE
  5
5A7
330
59B
100
AcDbEntity
  8
1
  6
Continuous
 62
     7
370
     9
100
AcDbLine
 10
689.4370210870226
 20
187.1753508316019
 30
0.0
 11
686.5392436081554
 21
186.3988936962943
 31
0.0
  0
LINE
  5
5A8
330
59B
100
AcDbEntity
  8
1
  6
Continuous
 62
     7
370
     9
100
AcDbLine
 10
689.4370210870226
 20
187.1753508316019
 30
0.0
 11
686.5392436081554
 21
187.9518079669094
 31
0.0
  0
LINE
  5
5A9
330
59B
100
AcDbEntity
  8
1
  6
Continuous
 62
     7
370
     9
100
AcDbLine
 10
686.5392436081554
 20
186.3988936962943
 30
0.0
 11
686.5392436081554
 21
187.9518079669094
 31
0.0
  0
LINE
  5
5AA
330
59B
100
AcDbEntity
  8
1
  6
Continuous
 62
     7
370
     9
100
AcDbLine
 10
688.7125767173058
 20
187.1753508316019
 30
0.0
 11
687.2636879778721
 21
186.7871222639481
 31
0.0
  0
LINE
  5
5AB
330
59B
100
AcDbEntity
  8
1
  6
Continuous
 62
     7
370
     9
100
AcDbLine
 10
688.7125767173058
 20
187.1753508316019
 30
0.0
 11
687.2636879778721
 21
187.5635793992556
 31
0.0
  0
LINE
  5
5AC
330
59B
100
AcDbEntity
  8
1
  6
Continuous
 62
     7
370
     9
100
AcDbLine
 10
687.2636879778721
 20
186.7871222639481
 30
0.0
 11
687.2636879778721
 21
187.5635793992556
 31
0.0
  0
MTEXT
  5
5AD
330
59B
100
AcDbEntity
  8
1
  6
Continuous
 62
     7
370
     9
100
AcDbMText
 10
685.4370210870226
 20
192.4253508316019
 30
0.0
 40
10.5
 41
0.0
 46
0.0
 71
     8
 72
     1
  1
8
 73
     1
 44
1.0
  0
ENDBLK
  5
59D
330
59B
100
AcDbEntity
  8
0
100
AcDbBlockEnd
  0
BLOCK
  5
5B0
330
5AF
100
AcDbEntity
  8
0
100
AcDbBlockBegin
  2
Dim14
 70
     0
 71
     0
 10
0.0
 20
0.0
 30
0.0
  3
Dim14
  1

  0
LINE
  5
5B2
330
5AF
100
AcDbEntity
  8
1
  6
Continuous
 62
     7
370
     9
100
AcDbLine
 10
689.4370210870226
 20
187.1753508316019
 30
0.0
 11
702.4370210870226
 21
187.1753508316019
 31
0.0
  0
LINE
  5
5B3
330
5AF
100
AcDbEntity
  8
1
  6
Continuous
 62
     7
370
     9
100
AcDbLine
 10
702.4370210870226
 20
187.1753508316019
 30
0.0
 11
702.4370210870226
 21
183.9133965696475
 31
0.0
  0
LINE
  5
5B4
330
5AF
100
AcDbEntity
  8
1
  6
Continuous
 62
     7
370
     9
100
AcDbLine
 10
689.4370210870226
 20
187.1753508316019
 30
0.0
 11
692.3347985658897
 21
187.9518079669094
 31
0.0
  0
LINE
  5
5B5
330
5AF
100
AcDbEntity
  8
1
  6
Continuous
 62
     7
370
     9
100
AcDbLine
 10
689.4370210870226
 20
187.1753508316019
 30
0.0
 11
692.3347985658897
 21
186.3988936962943
 31
0.0
  0
LINE
  5
5B6
330
5AF
100
AcDbEntity
  8
1
  6
Continuous
 62
     7
370
     9
100
AcDbLine
 10
692.3347985658897
 20
187.9518079669094
 30
0.0
 11
692.3347985658897
 21
186.3988936962943
 31
0.0
  0
LINE
  5
5B7
330
5AF
100
AcDbEntity
  8
1
  6
Continuous
 62
     7
370
     9
100
AcDbLine
 10
690.1614654567394
 20
187.1753508316019
 30
0.0
 11
691.610354196173
 21
187.5635793992556
 31
0.0
  0
LINE
  5
5B8
330
5AF
100
AcDbEntity
  8
1
  6
Continuous
 62
     7
370
     9
100
AcDbLine
 10
690.1614654567394
 20
187.1753508316019
 30
0.0
 11
691.610354196173
 21
186.7871222639481
 31
0.0
  0
LINE
  5
5B9
330
5AF
100
AcDbEntity
  8
1
  6
Continuous
 62
     7
370
     9
100
AcDbLine
 10
691.610354196173
 20
187.5635793992556
 30
0.0
 11
691.610354196173
 21
186.7871222639481
 31
0.0
  0
LINE
  5
5BA
330
5AF
100
AcDbEntity
  8
1
  6
Continuous
 62
     7
370
     9
100
AcDbLine
 10
702.4370210870226
 20
187.1753508316019
 30
0.0
 11
699.5392436081554
 21
186.3988936962943
 31
0.0
  0
LINE
  5
5BB
330
5AF
100
AcDbEntity
  8
1
  6
Continuous
 62
     7
370
     9
100
AcDbLine
 10
702.4370210870226
 20
187.1753508316019
 30
0.0
 11
699.5392436081554
 21
187.9518079669094
 31
0.0
  0
LINE
  5
5BC
330
5AF
100
AcDbEntity
  8
1
  6
Continuous
 62
     7
370
     9
100
AcDbLine
 10
699.5392436081554
 20
186.3988936962943
 30
0.0
 11
699.5392436081554
 21
187.9518079669094
 31
0.0
  0
LINE
  5
5BD
330
5AF
100
AcDbEntity
  8
1
  6
Continuous
 62
     7
370
     9
100
AcDbLine
 10
701.7125767173058
 20
187.1753508316019
 30
0.0
 11
700.2636879778721
 21
186.7871222639481
 31
0.0
  0
LINE
  5
5BE
330
5AF
100
AcDbEntity
  8
1
  6
Continuous
 62
     7
370
     9
100
AcDbLine
 10
701.7125767173058
 20
187.1753508316019
 30
0.0
 11
700.2636879778721
 21
187.5635793992556
 31
0.0
  0
LINE
  5
5BF
330
5AF
100
AcDbEntity
  8
1
  6
Continuous
 62
     7
370
     9
100
AcDbLine
 10
700.2636879778721
 20
186.7871222639481
 30
0.0
 11
700.2636879778721
 21
187.5635793992556
 31
0.0
  0
MTEXT
  5
5C0
330
5AF
100
AcDbEntity
  8
1
  6
Continuous
 62
     7
370
     9
100
AcDbMText
 10
695.9370210870226
 20
192.4253508316019
 30
0.0
 40
10.5
 41
0.0
 46
0.0
 71
     8
 72
     1
  1
13
 73
     1
 44
1.0
  0
ENDBLK
  5
5B1
330
5AF
100
AcDbEntity
  8
0
100
AcDbBlockEnd
  0
BLOCK
  5
5C3
330
5C2
100
AcDbEntity
  8
0
100
AcDbBlockBegin
  2
Dim15
 70
     0
 71
     0
 10
0.0
 20
0.0
 30
0.0
  3
Dim15
  1

  0
LINE
  5
5C5
330
5C2
100
AcDbEntity
  8
1
  6
Continuous
 62
     7
370
     9
100
AcDbLine
 10
702.4370210870226
 20
187.1753508316019
 30
0.0
 11
749.4370210870226
 21
187.1753508316019
 31
0.0
  0
LINE
  5
5C6
330
5C2
100
AcDbEntity
  8
1
  6
Continuous
 62
     7
370
     9
100
AcDbLine
 10
749.4370210870226
 20
187.1753508316019
 30
0.0
 11
749.4370210870226
 21
181.8294568607078
 31
0.0
  0
LINE
  5
5C7
330
5C2
100
AcDbEntity
  8
1
  6
Continuous
 62
     7
370
     9
100
AcDbLine
 10
702.4370210870226
 20
187.1753508316019
 30
0.0
 11
705.3347985658897
 21
187.9518079669094
 31
0.0
  0
LINE
  5
5C8
330
5C2
100
AcDbEntity
  8
1
  6
Continuous
 62
     7
370
     9
100
AcDbLine
 10
702.4370210870226
 20
187.1753508316019
 30
0.0
 11
705.3347985658897
 21
186.3988936962943
 31
0.0
  0
LINE
  5
5C9
330
5C2
100
AcDbEntity
  8
1
  6
Continuous
 62
     7
370
     9
100
AcDbLine
 10
705.3347985658897
 20
187.9518079669094
 30
0.0
 11
705.3347985658897
 21
186.3988936962943
 31
0.0
  0
LINE
  5
5CA
330
5C2
100
AcDbEntity
  8
1
  6
Continuous
 62
     7
370
     9
100
AcDbLine
 10
703.1614654567394
 20
187.1753508316019
 30
0.0
 11
704.610354196173
 21
187.5635793992556
 31
0.0
  0
LINE
  5
5CB
330
5C2
100
AcDbEntity
  8
1
  6
Continuous
 62
     7
370
     9
100
AcDbLine
 10
703.1614654567394
 20
187.1753508316019
 30
0.0
 11
704.610354196173
 21
186.7871222639481
 31
0.0
  0
LINE
  5
5CC
330
5C2
100
AcDbEntity
  8
1
  6
Continuous
 62
     7
370
     9
100
AcDbLine
 10
704.610354196173
 20
187.5635793992556
 30
0.0
 11
704.610354196173
 21
186.7871222639481
 31
0.0
  0
LINE
  5
5CD
330
5C2
100
AcDbEntity
  8
1
  6
Continuous
 62
     7
370
     9
100
AcDbLine
 10
749.4370210870226
 20
187.1753508316019
 30
0.0
 11
746.5392436081554
 21
186.3988936962943
 31
0.0
  0
LINE
  5
5CE
330
5C2
100
AcDbEntity
  8
1
  6
Continuous
 62
     7
370
     9
100
AcDbLine
 10
749.4370210870226
 20
187.1753508316019
 30
0.0
 11
746.5392436081554
 21
187.9518079669094
 31
0.0
  0
LINE
  5
5CF
330
5C2
100
AcDbEntity
  8
1
  6
Continuous
 62
     7
370
     9
100
AcDbLine
 10
746.5392436081554
 20
186.3988936962943
 30
0.0
 11
746.5392436081554
 21
187.9518079669094
 31
0.0
  0
LINE
  5
5D0
330
5C2
100
AcDbEntity
  8
1
  6
Continuous
 62
     7
370
     9
100
AcDbLine
 10
748.7125767173058
 20
187.1753508316019
 30
0.0
 11
747.2636879778721
 21
186.7871222639481
 31
0.0
  0
LINE
  5
5D1
330
5C2
100
AcDbEntity
  8
1
  6
Continuous
 62
     7
370
     9
100
AcDbLine
 10
748.7125767173058
 20
187.1753508316019
 30
0.0
 11
747.2636879778721
 21
187.5635793992556
 31
0.0
  0
LINE
  5
5D2
330
5C2
100
AcDbEntity
  8
1
  6
Continuous
 62
     7
370
     9
100
AcDbLine
 10
747.2636879778721
 20
186.7871222639481
 30
0.0
 11
747.2636879778721
 21
187.5635793992556
 31
0.0
  0
MTEXT
  5
5D3
330
5C2
100
AcDbEntity
  8
1
  6
Continuous
 62
     7
370
     9
100
AcDbMText
 10
725.9370210870226
 20
192.4253508316019
 30
0.0
 40
10.5
 41
0.0
 46
0.0
 71
     8
 72
     1
  1
47
 73
     1
 44
1.0
  0
ENDBLK
  5
5C4
330
5C2
100
AcDbEntity
  8
0
100
AcDbBlockEnd
  0
BLOCK
  5
5D6
330
5D5
100
AcDbEntity
  8
0
100
AcDbBlockBegin
  2
Dim16
 70
     0
 71
     0
 10
0.0
 20
0.0
 30
0.0
  3
Dim16
  1

  0
LINE
  5
5D8
330
5D5
100
AcDbEntity
  8
1
  6
Continuous
 62
     7
370
     9
100
AcDbLine
 10
585.4370210870226
 20
202.7470114345125
 30
0.0
 11
615.4370210870226
 21
202.7470114345125
 31
0.0
  0
LINE
  5
5D9
330
5D5
100
AcDbEntity
  8
1
  6
Continuous
 62
     7
370
     9
100
AcDbLine
 10
585.4370210870226
 20
202.7470114345125
 30
0.0
 11
585.4370210870226
 21
210.2011746987142
 31
0.0
  0
LINE
  5
5DA
330
5D5
100
AcDbEntity
  8
1
  6
Continuous
 62
     7
370
     9
100
AcDbLine
 10
615.4370210870226
 20
202.7470114345125
 30
0.0
 11
615.4370210870226
 21
210.2011746987142
 31
0.0
  0
LINE
  5
5DB
330
5D5
100
AcDbEntity
  8
1
  6
Continuous
 62
     7
370
     9
100
AcDbLine
 10
585.4370210870226
 20
202.7470114345125
 30
0.0
 11
588.3347985658897
 21
203.52346856982
 31
0.0
  0
LINE
  5
5DC
330
5D5
100
AcDbEntity
  8
1
  6
Continuous
 62
     7
370
     9
100
AcDbLine
 10
585.4370210870226
 20
202.7470114345125
 30
0.0
 11
588.3347985658897
 21
201.9705542992049
 31
0.0
  0
LINE
  5
5DD
330
5D5
100
AcDbEntity
  8
1
  6
Continuous
 62
     7
370
     9
100
AcDbLine
 10
588.3347985658897
 20
203.52346856982
 30
0.0
 11
588.3347985658897
 21
201.9705542992049
 31
0.0
  0
LINE
  5
5DE
330
5D5
100
AcDbEntity
  8
1
  6
Continuous
 62
     7
370
     9
100
AcDbLine
 10
586.1614654567394
 20
202.7470114345125
 30
0.0
 11
587.610354196173
 21
203.1352400021663
 31
0.0
  0
LINE
  5
5DF
330
5D5
100
AcDbEntity
  8
1
  6
Continuous
 62
     7
370
     9
100
AcDbLine
 10
586.1614654567394
 20
202.7470114345125
 30
0.0
 11
587.610354196173
 21
202.3587828668587
 31
0.0
  0
LINE
  5
5E0
330
5D5
100
AcDbEntity
  8
1
  6
Continuous
 62
     7
370
     9
100
AcDbLine
 10
587.610354196173
 20
203.1352400021663
 30
0.0
 11
587.610354196173
 21
202.3587828668587
 31
0.0
  0
LINE
  5
5E1
330
5D5
100
AcDbEntity
  8
1
  6
Continuous
 62
     7
370
     9
100
AcDbLine
 10
615.4370210870226
 20
202.7470114345125
 30
0.0
 11
612.5392436081554
 21
201.9705542992049
 31
0.0
  0
LINE
  5
5E2
330
5D5
100
AcDbEntity
  8
1
  6
Continuous
 62
     7
370
     9
100
AcDbLine
 10
615.4370210870226
 20
202.7470114345125
 30
0.0
 11
612.5392436081554
 21
203.52346856982
 31
0.0
  0
LINE
  5
5E3
330
5D5
100
AcDbEntity
  8
1
  6
Continuous
 62
     7
370
     9
100
AcDbLine
 10
612.5392436081554
 20
201.9705542992049
 30
0.0
 11
612.5392436081554
 21
203.52346856982
 31
0.0
  0
LINE
  5
5E4
330
5D5
100
AcDbEntity
  8
1
  6
Continuous
 62
     7
370
     9
100
AcDbLine
 10
614.7125767173058
 20
202.7470114345125
 30
0.0
 11
613.2636879778721
 21
202.3587828668587
 31
0.0
  0
LINE
  5
5E5
330
5D5
100
AcDbEntity
  8
1
  6
Continuous
 62
     7
370
     9
100
AcDbLine
 10
614.7125767173058
 20
202.7470114345125
 30
0.0
 11
613.2636879778721
 21
203.1352400021663
 31
0.0
  0
LINE
  5
5E6
330
5D5
100
AcDbEntity
  8
1
  6
Continuous
 62
     7
370
     9
100
AcDbLine
 10
613.2636879778721
 20
202.3587828668587
 30
0.0
 11
613.2636879778721
 21
203.1352400021663
 31
0.0
  0
MTEXT
  5
5E7
330
5D5
100
AcDbEntity
  8
1
  6
Continuous
 62
     7
370
     9
100
AcDbMText
 10
600.4370210870226
 20
207.9970114345125
 30
0.0
 40
10.5
 41
0.0
 46
0.0
 71
     8
 72
     1
  1
30φ
 73
     1
 44
1.0
  0
ENDBLK
  5
5D7
330
5D5
100
AcDbEntity
  8
0
100
AcDbBlockEnd
  0
BLOCK
  5
5EA
330
5E9
100
AcDbEntity
  8
0
100
AcDbBlockBegin
  2
Dim17
 70
     0
 71
     0
 10
0.0
 20
0.0
 30
0.0
  3
Dim17
  1

  0
LINE
  5
5EC
330
5E9
100
AcDbEntity
  8
1
  6
Continuous
 62
     7
370
     9
100
AcDbLine
 10
467.265592515594
 20
58.13027871621723
 30
0.0
 11
767.265592515594
 21
58.13027871621723
 31
0.0
  0
LINE
  5
5ED
330
5E9
100
AcDbEntity
  8
1
  6
Continuous
 62
     7
370
     9
100
AcDbLine
 10
467.265592515594
 20
58.13027871621723
 30
0.0
 11
467.2655925155941
 21
73.53061224489784
 31
0.0
  0
LINE
  5
5EE
330
5E9
100
AcDbEntity
  8
1
  6
Continuous
 62
     7
370
     9
100
AcDbLine
 10
767.265592515594
 20
58.13027871621723
 30
0.0
 11
767.2655925155941
 21
73.9103430353433
 31
0.0
  0
LINE
  5
5EF
330
5E9
100
AcDbEntity
  8
1
  6
Continuous
 62
     7
370
     9
100
AcDbLine
 10
467.265592515594
 20
58.13027871621723
 30
0.0
 11
470.1633699944612
 21
58.90673585152479
 31
0.0
  0
LINE
  5
5F0
330
5E9
100
AcDbEntity
  8
1
  6
Continuous
 62
     7
370
     9
100
AcDbLine
 10
467.265592515594
 20
58.13027871621723
 30
0.0
 11
470.1633699944612
 21
57.35382158090967
 31
0.0
  0
LINE
  5
5F1
330
5E9
100
AcDbEntity
  8
1
  6
Continuous
 62
     7
370
     9
100
AcDbLine
 10
470.1633699944612
 20
58.90673585152479
 30
0.0
 11
470.1633699944612
 21
57.35382158090967
 31
0.0
  0
LINE
  5
5F2
330
5E9
100
AcDbEntity
  8
1
  6
Continuous
 62
     7
370
     9
100
AcDbLine
 10
467.9900368853108
 20
58.13027871621723
 30
0.0
 11
469.4389256247444
 21
58.51850728387102
 31
0.0
  0
LINE
  5
5F3
330
5E9
100
AcDbEntity
  8
1
  6
Continuous
 62
     7
370
     9
100
AcDbLine
 10
467.9900368853108
 20
58.13027871621723
 30
0.0
 11
469.4389256247444
 21
57.74205014856345
 31
0.0
  0
LINE
  5
5F4
330
5E9
100
AcDbEntity
  8
1
  6
Continuous
 62
     7
370
     9
100
AcDbLine
 10
469.4389256247444
 20
58.51850728387102
 30
0.0
 11
469.4389256247444
 21
57.74205014856345
 31
0.0
  0
LINE
  5
5F5
330
5E9
100
AcDbEntity
  8
1
  6
Continuous
 62
     7
370
     9
100
AcDbLine
 10
767.265592515594
 20
58.13027871621723
 30
0.0
 11
764.3678150367268
 21
57.35382158090968
 31
0.0
  0
LINE
  5
5F6
330
5E9
100
AcDbEntity
  8
1
  6
Continuous
 62
     7
370
     9
100
AcDbLine
 10
767.265592515594
 20
58.13027871621723
 30
0.0
 11
764.3678150367268
 21
58.90673585152481
 31
0.0
  0
LINE
  5
5F7
330
5E9
100
AcDbEntity
  8
1
  6
Continuous
 62
     7
370
     9
100
AcDbLine
 10
764.3678150367268
 20
57.35382158090968
 30
0.0
 11
764.3678150367268
 21
58.90673585152481
 31
0.0
  0
LINE
  5
5F8
330
5E9
100
AcDbEntity
  8
1
  6
Continuous
 62
     7
370
     9
100
AcDbLine
 10
766.5411481458772
 20
58.13027871621723
 30
0.0
 11
765.0922594064435
 21
57.74205014856346
 31
0.0
  0
LINE
  5
5F9
330
5E9
100
AcDbEntity
  8
1
  6
Continuous
 62
     7
370
     9
100
AcDbLine
 10
766.5411481458772
 20
58.13027871621723
 30
0.0
 11
765.0922594064435
 21
58.51850728387102
 31
0.0
  0
LINE
  5
5FA
330
5E9
100
AcDbEntity
  8
1
  6
Continuous
 62
     7
370
     9
100
AcDbLine
 10
765.0922594064435
 20
57.74205014856346
 30
0.0
 11
765.0922594064435
 21
58.51850728387102
 31
0.0
  0
MTEXT
  5
5FB
330
5E9
100
AcDbEntity
  8
1
  6
Continuous
 62
     7
370
     9
100
AcDbMText
 10
617.265592515594
 20
63.38027871621723
 30
0.0
 40
10.5
 41
0.0
 46
0.0
 71
     8
 72
     1
  1
300±3
 73
     1
 44
1.0
  0
ENDBLK
  5
5EB
330
5E9
100
AcDbEntity
  8
0
100
AcDbBlockEnd
  0
BLOCK
  5
629
330
628
100
AcDbEntity
  8
0
100
AcDbBlockBegin
  2
Dim18
 70
     0
 71
     0
 10
0.0
 20
0.0
 30
0.0
  3
Dim18
  1

  0
LINE
  5
62B
330
628
100
AcDbEntity
  8
1
  6
Continuous
 62
     7
370
     9
100
AcDbLine
 10
260.2500000000001
 20
400.4637474012513
 30
0.0
 11
333.2500000000001
 21
400.4637474012513
 31
0.0
  0
LINE
  5
62C
330
628
100
AcDbEntity
  8
1
  6
Continuous
 62
     7
370
     9
100
AcDbLine
 10
260.2500000000001
 20
400.4637474012513
 30
0.0
 11
260.25
 21
354.4925448284826
 31
0.0
  0
LINE
  5
62D
330
628
100
AcDbEntity
  8
1
  6
Continuous
 62
     7
370
     9
100
AcDbLine
 10
333.2500000000001
 20
400.4637474012513
 30
0.0
 11
333.25
 21
354.2609959719337
 31
0.0
  0
LINE
  5
62E
330
628
100
AcDbEntity
  8
1
  6
Continuous
 62
     7
370
     9
100
AcDbLine
 10
260.2500000000001
 20
400.4637474012513
 30
0.0
 11
263.1477774788673
 21
401.2402045365588
 31
0.0
  0
LINE
  5
62F
330
628
100
AcDbEntity
  8
1
  6
Continuous
 62
     7
370
     9
100
AcDbLine
 10
260.2500000000001
 20
400.4637474012513
 30
0.0
 11
263.1477774788673
 21
399.6872902659437
 31
0.0
  0
LINE
  5
630
330
628
100
AcDbEntity
  8
1
  6
Continuous
 62
     7
370
     9
100
AcDbLine
 10
263.1477774788673
 20
401.2402045365588
 30
0.0
 11
263.1477774788673
 21
399.6872902659437
 31
0.0
  0
LINE
  5
631
330
628
100
AcDbEntity
  8
1
  6
Continuous
 62
     7
370
     9
100
AcDbLine
 10
260.9744443697169
 20
400.4637474012513
 30
0.0
 11
262.4233331091505
 21
400.851975968905
 31
0.0
  0
LINE
  5
632
330
628
100
AcDbEntity
  8
1
  6
Continuous
 62
     7
370
     9
100
AcDbLine
 10
260.9744443697169
 20
400.4637474012513
 30
0.0
 11
262.4233331091505
 21
400.0755188335975
 31
0.0
  0
LINE
  5
633
330
628
100
AcDbEntity
  8
1
  6
Continuous
 62
     7
370
     9
100
AcDbLine
 10
262.4233331091505
 20
400.851975968905
 30
0.0
 11
262.4233331091505
 21
400.0755188335975
 31
0.0
  0
LINE
  5
634
330
628
100
AcDbEntity
  8
1
  6
Continuous
 62
     7
370
     9
100
AcDbLine
 10
333.2500000000001
 20
400.4637474012513
 30
0.0
 11
330.3522225211328
 21
399.6872902659437
 31
0.0
  0
LINE
  5
635
330
628
100
AcDbEntity
  8
1
  6
Continuous
 62
     7
370
     9
100
AcDbLine
 10
333.2500000000001
 20
400.4637474012513
 30
0.0
 11
330.3522225211328
 21
401.2402045365588
 31
0.0
  0
LINE
  5
636
330
628
100
AcDbEntity
  8
1
  6
Continuous
 62
     7
370
     9
100
AcDbLine
 10
330.3522225211328
 20
399.6872902659437
 30
0.0
 11
330.3522225211328
 21
401.2402045365588
 31
0.0
  0
LINE
  5
637
330
628
100
AcDbEntity
  8
1
  6
Continuous
 62
     7
370
     9
100
AcDbLine
 10
332.5255556302832
 20
400.4637474012513
 30
0.0
 11
331.0766668908497
 21
400.0755188335975
 31
0.0
  0
LINE
  5
638
330
628
100
AcDbEntity
  8
1
  6
Continuous
 62
     7
370
     9
100
AcDbLine
 10
332.5255556302832
 20
400.4637474012513
 30
0.0
 11
331.0766668908497
 21
400.8519759689051
 31
0.0
  0
LINE
  5
639
330
628
100
AcDbEntity
  8
1
  6
Continuous
 62
     7
370
     9
100
AcDbLine
 10
331.0766668908497
 20
400.0755188335975
 30
0.0
 11
331.0766668908497
 21
400.8519759689051
 31
0.0
  0
MTEXT
  5
63A
330
628
100
AcDbEntity
  8
1
  6
Continuous
 62
     7
370
     9
100
AcDbMText
 10
296.7500000000001
 20
405.7137474012513
 30
0.0
 40
10.5
 41
0.0
 46
0.0
 71
     8
 72
     1
  1
73
 73
     1
 44
1.0
  0
ENDBLK
  5
62A
330
628
100
AcDbEntity
  8
0
100
AcDbBlockEnd
  0
BLOCK
  5
65C
330
65B
100
AcDbEntity
  8
0
100
AcDbBlockBegin
  2
*G38
 70
     1
 71
     0
 10
0.0
 20
0.0
 30
0.0
  3
*G38
  1

  0
LINE
  5
65E
330
65B
100
AcDbEntity
  8
1
  6
Continuous
 62
     7
370
     9
100
AcDbLine
 10
446.0831830000545
 20
353.0909563409563
 30
0.0
 11
446.1067328012729
 21
353.1145061421747
 31
0.0
  0
LINE
  5
65F
330
65B
100
AcDbEntity
  8
1
  6
Continuous
 62
     7
370
     9
100
AcDbLine
 10
450.0831830000545
 20
357.0909563409564
 30
0.0
 11
451.627338877339
 21
358.6351122182407
 31
0.0
  0
LINE
  5
660
330
65B
100
AcDbEntity
  8
1
  6
Continuous
 62
     7
370
     9
100
AcDbLine
 10
443.9618626564949
 20
353.0909563409563
 30
0.0
 11
445.1167833076117
 21
354.2458769920732
 31
0.0
  0
LINE
  5
661
330
65B
100
AcDbEntity
  8
1
  6
Continuous
 62
     7
370
     9
100
AcDbLine
 10
447.9618626564949
 20
357.0909563409564
 30
0.0
 11
451.627338877339
 21
360.7564325618004
 31
0.0
  0
LINE
  5
662
330
65B
100
AcDbEntity
  8
1
  6
Continuous
 62
     7
370
     9
100
AcDbLine
 10
441.8405423129352
 20
353.0909563409563
 30
0.0
 11
444.1268338139506
 21
355.3772478419717
 31
0.0
  0
LINE
  5
663
330
65B
100
AcDbEntity
  8
1
  6
Continuous
 62
     7
370
     9
100
AcDbLine
 10
445.8405423129352
 20
357.0909563409564
 30
0.0
 11
451.627338877339
 21
362.8777529053601
 31
0.0
  0
LINE
  5
664
330
65B
100
AcDbEntity
  8
1
  6
Continuous
 62
     7
370
     9
100
AcDbLine
 10
439.7192219693756
 20
353.0909563409563
 30
0.0
 11
443.1368843202894
 21
356.5086186918702
 31
0.0
  0
LINE
  5
665
330
65B
100
AcDbEntity
  8
1
  6
Continuous
 62
     7
370
     9
100
AcDbLine
 10
443.7192219693756
 20
357.0909563409564
 30
0.0
 11
450.2192219693756
 21
363.5909563409564
 31
0.0
  0
LINE
  5
666
330
65B
100
AcDbEntity
  8
1
  6
Continuous
 62
     7
370
     9
100
AcDbLine
 10
437.5979016258159
 20
353.0909563409563
 30
0.0
 11
448.0979016258159
 21
363.5909563409564
 31
0.0
  0
LINE
  5
667
330
65B
100
AcDbEntity
  8
1
  6
Continuous
 62
     7
370
     9
100
AcDbLine
 10
435.4765812822562
 20
353.0909563409564
 30
0.0
 11
445.9765812822562
 21
363.5909563409564
 31
0.0
  0
LINE
  5
668
330
65B
100
AcDbEntity
  8
1
  6
Continuous
 62
     7
370
     9
100
AcDbLine
 10
433.3552609386966
 20
353.0909563409564
 30
0.0
 11
443.8552609386966
 21
363.5909563409564
 31
0.0
  0
LINE
  5
669
330
65B
100
AcDbEntity
  8
1
  6
Continuous
 62
     7
370
     9
100
AcDbLine
 10
431.2339405951369
 20
353.0909563409564
 30
0.0
 11
441.733948855239
 21
363.5909646010584
 31
0.0
  0
LINE
  5
66A
330
65B
100
AcDbEntity
  8
1
  6
Continuous
 62
     7
370
     9
100
AcDbLine
 10
429.2303692576709
 20
353.2087053470499
 30
0.0
 11
440.2413676898708
 21
364.2197037792499
 31
0.0
  0
LINE
  5
66B
330
65B
100
AcDbEntity
  8
1
  6
Continuous
 62
     7
370
     9
100
AcDbLine
 10
430.9912999080176
 20
357.0909563409564
 30
0.0
 11
439.639838877339
 21
365.7394953102777
 31
0.0
  0
LINE
  5
66C
330
65B
100
AcDbEntity
  8
1
  6
Continuous
 62
     7
370
     9
100
AcDbLine
 10
428.8699795644579
 20
357.0909563409564
 30
0.0
 11
439.639838877339
 21
367.8608156538374
 31
0.0
  0
LINE
  5
66D
330
65B
100
AcDbEntity
  8
1
  6
Continuous
 62
     7
370
     9
100
AcDbLine
 10
426.7486592208983
 20
357.0909563409564
 30
0.0
 11
433.2486592208983
 21
363.5909563409564
 31
0.0
  0
LINE
  5
66E
330
65B
100
AcDbEntity
  8
1
  6
Continuous
 62
     7
370
     9
100
AcDbLine
 10
435.614838877339
 20
365.9571359973971
 30
0.0
 11
439.639838877339
 21
369.9821359973971
 31
0.0
  0
LINE
  5
66F
330
65B
100
AcDbEntity
  8
1
  6
Continuous
 62
     7
370
     9
100
AcDbLine
 10
424.6273388773386
 20
357.0909563409564
 30
0.0
 11
431.1273388773386
 21
363.5909563409564
 31
0.0
  0
LINE
  5
670
330
65B
100
AcDbEntity
  8
1
  6
Continuous
 62
     7
370
     9
100
AcDbLine
 10
435.614838877339
 20
368.0784563409568
 30
0.0
 11
439.639838877339
 21
372.1034563409567
 31
0.0
  0
LINE
  5
671
330
65B
100
AcDbEntity
  8
1
  6
Continuous
 62
     7
370
     9
100
AcDbLine
 10
423.627338877339
 20
358.2122766845164
 30
0.0
 11
429.006018533779
 21
363.5909563409564
 31
0.0
  0
LINE
  5
672
330
65B
100
AcDbEntity
  8
1
  6
Continuous
 62
     7
370
     9
100
AcDbLine
 10
435.614838877339
 20
370.1997766845165
 30
0.0
 11
439.639838877339
 21
374.2247766845164
 31
0.0
  0
LINE
  5
673
330
65B
100
AcDbEntity
  8
1
  6
Continuous
 62
     7
370
     9
100
AcDbLine
 10
423.627338877339
 20
360.333597028076
 30
0.0
 11
426.8846981902193
 21
363.5909563409564
 31
0.0
  0
LINE
  5
674
330
65B
100
AcDbEntity
  8
1
  6
Continuous
 62
     7
370
     9
100
AcDbLine
 10
435.614838877339
 20
372.3210970280761
 30
0.0
 11
439.639838877339
 21
376.346097028076
 31
0.0
  0
LINE
  5
675
330
65B
100
AcDbEntity
  8
1
  6
Continuous
 62
     7
370
     9
100
AcDbLine
 10
423.627338877339
 20
362.4549173716357
 30
0.0
 11
424.7633778466596
 21
363.5909563409564
 31
0.0
  0
LINE
  5
676
330
65B
100
AcDbEntity
  8
1
  6
Continuous
 62
     7
370
     9
100
AcDbLine
 10
435.614838877339
 20
374.4424173716357
 30
0.0
 11
439.639838877339
 21
378.4674173716357
 31
0.0
  0
LINE
  5
677
330
65B
100
AcDbEntity
  8
1
  6
Continuous
 62
     7
370
     9
100
AcDbLine
 10
435.614838877339
 20
376.5637377151954
 30
0.0
 11
439.639838877339
 21
380.5887377151954
 31
0.0
  0
LINE
  5
678
330
65B
100
AcDbEntity
  8
1
  6
Continuous
 62
     7
370
     9
100
AcDbLine
 10
435.614838877339
 20
378.685058058755
 30
0.0
 11
439.639838877339
 21
382.710058058755
 31
0.0
  0
LINE
  5
679
330
65B
100
AcDbEntity
  8
1
  6
Continuous
 62
     7
370
     9
100
AcDbLine
 10
435.614838877339
 20
380.8063784023147
 30
0.0
 11
439.639838877339
 21
384.8313784023147
 31
0.0
  0
LINE
  5
67A
330
65B
100
AcDbEntity
  8
1
  6
Continuous
 62
     7
370
     9
100
AcDbLine
 10
435.614838877339
 20
382.9276987458744
 30
0.0
 11
439.6072308491175
 21
386.9200907176528
 31
0.0
  0
LINE
  5
67B
330
65B
100
AcDbEntity
  8
1
  6
Continuous
 62
     7
370
     9
100
AcDbLine
 10
435.614838877339
 20
385.049019089434
 30
0.0
 11
437.6565824496514
 21
387.0907626617465
 31
0.0
  0
ENDBLK
  5
65D
330
65B
100
AcDbEntity
  8
0
100
AcDbBlockEnd
  0
BLOCK
  5
6A8
330
6A7
100
AcDbEntity
  8
0
100
AcDbBlockBegin
  2
*G39
 70
     1
 71
     0
 10
0.0
 20
0.0
 30
0.0
  3
*G39
  1

  0
TEXT
  5
6AA
330
6A7
100
AcDbEntity
  8
1
  6
Continuous
 62
     7
370
     9
100
AcDbText
 10
408.3942957380524
 20
258.2062394908431
 30
0.0
 40
9.0
  1
ベース面
100
AcDbText
  0
ENDBLK
  5
6A9
330
6A7
100
AcDbEntity
  8
0
100
AcDbBlockEnd
  0
BLOCK
  5
6AD
330
6AC
100
AcDbEntity
  8
0
100
AcDbBlockBegin
  2
Dim19
 70
     0
 71
     0
 10
0.0
 20
0.0
 30
0.0
  3
Dim19
  1

  0
LINE
  5
6AF
330
6AC
100
AcDbEntity
  8
1
  6
Continuous
 62
     7
370
     9
100
AcDbLine
 10
437.6273388773388
 20
284.6158191426078
 30
0.0
 11
462.6273388773388
 21
284.6158191426078
 31
0.0
  0
LINE
  5
6B0
330
6AC
100
AcDbEntity
  8
1
  6
Continuous
 62
     7
370
     9
100
AcDbLine
 10
437.6273388773388
 20
284.6158191426078
 30
0.0
 11
437.627338877339
 21
306.5909563409563
 31
0.0
  0
LINE
  5
6B1
330
6AC
100
AcDbEntity
  8
1
  6
Continuous
 62
     7
370
     9
100
AcDbLine
 10
462.6273388773388
 20
284.6158191426078
 30
0.0
 11
462.627338877339
 21
306.5909563409564
 31
0.0
  0
LINE
  5
6B2
330
6AC
100
AcDbEntity
  8
1
  6
Continuous
 62
     7
370
     9
100
AcDbLine
 10
437.6273388773388
 20
284.6158191426078
 30
0.0
 11
440.525116356206
 21
285.3922762779154
 31
0.0
  0
LINE
  5
6B3
330
6AC
100
AcDbEntity
  8
1
  6
Continuous
 62
     7
370
     9
100
AcDbLine
 10
437.6273388773388
 20
284.6158191426078
 30
0.0
 11
440.525116356206
 21
283.8393620073002
 31
0.0
  0
LINE
  5
6B4
330
6AC
100
AcDbEntity
  8
1
  6
Continuous
 62
     7
370
     9
100
AcDbLine
 10
440.525116356206
 20
285.3922762779154
 30
0.0
 11
440.525116356206
 21
283.8393620073002
 31
0.0
  0
LINE
  5
6B5
330
6AC
100
AcDbEntity
  8
1
  6
Continuous
 62
     7
370
     9
100
AcDbLine
 10
438.3517832470556
 20
284.6158191426078
 30
0.0
 11
439.8006719864892
 21
285.0040477102615
 31
0.0
  0
LINE
  5
6B6
330
6AC
100
AcDbEntity
  8
1
  6
Continuous
 62
     7
370
     9
100
AcDbLine
 10
438.3517832470556
 20
284.6158191426078
 30
0.0
 11
439.8006719864892
 21
284.227590574954
 31
0.0
  0
LINE
  5
6B7
330
6AC
100
AcDbEntity
  8
1
  6
Continuous
 62
     7
370
     9
100
AcDbLine
 10
439.8006719864892
 20
285.0040477102615
 30
0.0
 11
439.8006719864892
 21
284.227590574954
 31
0.0
  0
LINE
  5
6B8
330
6AC
100
AcDbEntity
  8
1
  6
Continuous
 62
     7
370
     9
100
AcDbLine
 10
462.6273388773388
 20
284.6158191426078
 30
0.0
 11
459.7295613984716
 21
283.8393620073002
 31
0.0
  0
LINE
  5
6B9
330
6AC
100
AcDbEntity
  8
1
  6
Continuous
 62
     7
370
     9
100
AcDbLine
 10
462.6273388773388
 20
284.6158191426078
 30
0.0
 11
459.7295613984716
 21
285.3922762779154
 31
0.0
  0
LINE
  5
6BA
330
6AC
100
AcDbEntity
  8
1
  6
Continuous
 62
     7
370
     9
100
AcDbLine
 10
459.7295613984716
 20
283.8393620073002
 30
0.0
 11
459.7295613984716
 21
285.3922762779154
 31
0.0
  0
LINE
  5
6BB
330
6AC
100
AcDbEntity
  8
1
  6
Continuous
 62
     7
370
     9
100
AcDbLine
 10
461.902894507622
 20
284.6158191426078
 30
0.0
 11
460.4540057681884
 21
284.227590574954
 31
0.0
  0
LINE
  5
6BC
330
6AC
100
AcDbEntity
  8
1
  6
Continuous
 62
     7
370
     9
100
AcDbLine
 10
461.902894507622
 20
284.6158191426078
 30
0.0
 11
460.4540057681884
 21
285.0040477102616
 31
0.0
  0
LINE
  5
6BD
330
6AC
100
AcDbEntity
  8
1
  6
Continuous
 62
     7
370
     9
100
AcDbLine
 10
460.4540057681884
 20
284.227590574954
 30
0.0
 11
460.4540057681884
 21
285.0040477102616
 31
0.0
  0
MTEXT
  5
6BE
330
6AC
100
AcDbEntity
  8
1
  6
Continuous
 62
     7
370
     9
100
AcDbMText
 10
450.1273388773387
 20
289.8658191426078
 30
0.0
 40
10.5
 41
0.0
 46
0.0
 71
     8
 72
     1
  1
50
 73
     1
 44
1.0
  0
ENDBLK
  5
6AE
330
6AC
100
AcDbEntity
  8
0
100
AcDbBlockEnd
  0
BLOCK
  5
6C1
330
6C0
100
AcDbEntity
  8
0
100
AcDbBlockBegin
  2
Dim20
 70
     0
 71
     0
 10
0.0
 20
0.0
 30
0.0
  3
Dim20
  1

  0
LINE
  5
6C3
330
6C0
100
AcDbEntity
  8
1
  6
Continuous
 62
     7
370
     9
100
AcDbLine
 10
412.6273388773388
 20
284.6158191426078
 30
0.0
 11
437.6273388773388
 21
284.6158191426078
 31
0.0
  0
LINE
  5
6C4
330
6C0
100
AcDbEntity
  8
1
  6
Continuous
 62
     7
370
     9
100
AcDbLine
 10
412.6273388773388
 20
284.6158191426078
 30
0.0
 11
412.627338877339
 21
306.5909563409563
 31
0.0
  0
LINE
  5
6C5
330
6C0
100
AcDbEntity
  8
1
  6
Continuous
 62
     7
370
     9
100
AcDbLine
 10
437.6273388773388
 20
284.6158191426078
 30
0.0
 11
437.627338877339
 21
306.5909563409563
 31
0.0
  0
LINE
  5
6C6
330
6C0
100
AcDbEntity
  8
1
  6
Continuous
 62
     7
370
     9
100
AcDbLine
 10
412.6273388773388
 20
284.6158191426078
 30
0.0
 11
415.5251163562061
 21
285.3922762779154
 31
0.0
  0
LINE
  5
6C7
330
6C0
100
AcDbEntity
  8
1
  6
Continuous
 62
     7
370
     9
100
AcDbLine
 10
412.6273388773388
 20
284.6158191426078
 30
0.0
 11
415.5251163562061
 21
283.8393620073002
 31
0.0
  0
LINE
  5
6C8
330
6C0
100
AcDbEntity
  8
1
  6
Continuous
 62
     7
370
     9
100
AcDbLine
 10
415.5251163562061
 20
285.3922762779154
 30
0.0
 11
415.5251163562061
 21
283.8393620073002
 31
0.0
  0
LINE
  5
6C9
330
6C0
100
AcDbEntity
  8
1
  6
Continuous
 62
     7
370
     9
100
AcDbLine
 10
413.3517832470557
 20
284.6158191426078
 30
0.0
 11
414.8006719864892
 21
285.0040477102615
 31
0.0
  0
LINE
  5
6CA
330
6C0
100
AcDbEntity
  8
1
  6
Continuous
 62
     7
370
     9
100
AcDbLine
 10
413.3517832470557
 20
284.6158191426078
 30
0.0
 11
414.8006719864892
 21
284.227590574954
 31
0.0
  0
LINE
  5
6CB
330
6C0
100
AcDbEntity
  8
1
  6
Continuous
 62
     7
370
     9
100
AcDbLine
 10
414.8006719864892
 20
285.0040477102615
 30
0.0
 11
414.8006719864892
 21
284.227590574954
 31
0.0
  0
LINE
  5
6CC
330
6C0
100
AcDbEntity
  8
1
  6
Continuous
 62
     7
370
     9
100
AcDbLine
 10
437.6273388773388
 20
284.6158191426078
 30
0.0
 11
434.7295613984716
 21
283.8393620073002
 31
0.0
  0
LINE
  5
6CD
330
6C0
100
AcDbEntity
  8
1
  6
Continuous
 62
     7
370
     9
100
AcDbLine
 10
437.6273388773388
 20
284.6158191426078
 30
0.0
 11
434.7295613984716
 21
285.3922762779154
 31
0.0
  0
LINE
  5
6CE
330
6C0
100
AcDbEntity
  8
1
  6
Continuous
 62
     7
370
     9
100
AcDbLine
 10
434.7295613984716
 20
283.8393620073002
 30
0.0
 11
434.7295613984716
 21
285.3922762779154
 31
0.0
  0
LINE
  5
6CF
330
6C0
100
AcDbEntity
  8
1
  6
Continuous
 62
     7
370
     9
100
AcDbLine
 10
436.902894507622
 20
284.6158191426078
 30
0.0
 11
435.4540057681884
 21
284.227590574954
 31
0.0
  0
LINE
  5
6D0
330
6C0
100
AcDbEntity
  8
1
  6
Continuous
 62
     7
370
     9
100
AcDbLine
 10
436.902894507622
 20
284.6158191426078
 30
0.0
 11
435.4540057681884
 21
285.0040477102616
 31
0.0
  0
LINE
  5
6D1
330
6C0
100
AcDbEntity
  8
1
  6
Continuous
 62
     7
370
     9
100
AcDbLine
 10
435.4540057681884
 20
284.227590574954
 30
0.0
 11
435.4540057681884
 21
285.0040477102616
 31
0.0
  0
MTEXT
  5
6D2
330
6C0
100
AcDbEntity
  8
1
  6
Continuous
 62
     7
370
     9
100
AcDbMText
 10
425.1273388773388
 20
289.8658191426078
 30
0.0
 40
10.5
 41
0.0
 46
0.0
 71
     8
 72
     1
  1
50
 73
     1
 44
1.0
  0
ENDBLK
  5
6C2
330
6C0
100
AcDbEntity
  8
0
100
AcDbBlockEnd
  0
ENDSEC
  0
SECTION
  2
ENTITIES
  0
CIRCLE
  5
96
330
1F
100
AcDbEntity
  8
1
  6
Continuous
 62
     7
370
     9
100
AcDbCircle
 10
222.75
 20
221.5368393483556
 30
0.0
 40
3.0
  0
LINE
  5
97
330
1F
100
AcDbEntity
  8
1
  6
Continuous
 62
     7
370
     9
100
AcDbLine
 10
207.75
 20
228.2011746987142
 30
0.0
 11
207.75
 21
216.2011746987142
 31
0.0
  0
ARC
  5
98
330
1F
100
AcDbEntity
  8
1
  6
Continuous
 62
     7
370
     9
100
AcDbCircle
 10
209.75
 20
216.2011746987142
 30
0.0
 40
2.0
100
AcDbArc
 50
179.9999999999998
 51
269.9999999999998
  0
LINE
  5
99
330
1F
100
AcDbEntity
  8
1
  6
Continuous
 62
     7
370
     9
100
AcDbLine
 10
209.75
 20
214.2011746987142
 30
0.0
 11
235.75
 21
214.2011746987142
 31
0.0
  0
ARC
  5
9A
330
1F
100
AcDbEntity
  8
1
  6
Continuous
 62
     7
370
     9
100
AcDbCircle
 10
235.75
 20
216.2011746987142
 30
0.0
 40
2.0
100
AcDbArc
 50
270.0000000000005
 51
0.0000000000008142
  0
LINE
  5
9B
330
1F
100
AcDbEntity
  8
1
  6
Continuous
 62
     7
370
     9
100
AcDbLine
 10
208.0179491924312
 20
215.2011746987142
 30
0.0
 11
237.4820508075689
 21
215.2011746987142
 31
0.0
  0
LINE
  5
9C
330
1F
100
AcDbEntity
  8
1
  6
Continuous
 62
     7
370
     9
100
AcDbLine
 10
203.75
 20
228.2011746987142
 30
0.0
 11
203.75
 21
236.2011746987142
 31
0.0
  0
LINE
  5
9D
330
1F
100
AcDbEntity
  8
1
  6
Continuous
 62
     7
370
     9
100
AcDbLine
 10
241.7500003061616
 20
228.2011746987142
 30
0.0
 11
241.7500003061616
 21
236.2011746987142
 31
0.0
  0
LINE
  5
9E
330
1F
100
AcDbEntity
  8
1
  6
Continuous
 62
     7
370
     9
100
AcDbLine
 10
237.75
 20
228.2011746987142
 30
0.0
 11
237.75
 21
216.2011746987142
 31
0.0
  0
LINE
  5
9F
330
1F
100
AcDbEntity
  8
1
  6
Continuous
 62
     7
370
     9
100
AcDbLine
 10
191.25
 20
236.2011746987142
 30
0.0
 11
191.25
 21
230.2011746987142
 31
0.0
  0
ARC
  5
A0
330
1F
100
AcDbEntity
  8
1
  6
Continuous
 62
     7
370
     9
100
AcDbCircle
 10
193.25
 20
230.2011746987142
 30
0.0
 40
2.0
100
AcDbArc
 50
179.9999999999998
 51
270.0000000000005
  0
LINE
  5
A1
330
1F
100
AcDbEntity
  8
1
  6
Continuous
 62
     7
370
     9
100
AcDbLine
 10
193.25
 20
228.2011746987142
 30
0.0
 11
252.25
 21
228.2011746987142
 31
0.0
  0
LINE
  5
A2
330
1F
100
AcDbEntity
  8
1
  6
Continuous
 62
     7
370
     9
100
AcDbLine
 10
254.25
 20
236.2011746987142
 30
0.0
 11
254.25
 21
230.2011746987142
 31
0.0
  0
ARC
  5
A3
330
1F
100
AcDbEntity
  8
1
  6
Continuous
 62
     7
370
     9
100
AcDbCircle
 10
252.25
 20
230.2011746987142
 30
0.0
 40
2.0
100
AcDbArc
 50
270.0000000000005
 51
0.0
  0
ARC
  5
A4
330
1F
100
AcDbEntity
  8
1
  6
Continuous
 62
     7
370
     9
100
AcDbCircle
 10
191.25
 20
314.2011746987142
 30
0.0
 40
2.0
100
AcDbArc
 50
89.99999999999991
 51
179.9999999999998
  0
ARC
  5
A5
330
1F
100
AcDbEntity
  8
1
  6
Continuous
 62
     7
370
     9
100
AcDbCircle
 10
192.25
 20
313.2011746987142
 30
0.0
 40
2.0
100
AcDbArc
 50
89.99999999999991
 51
179.9999999999998
  0
LINE
  5
A6
330
1F
100
AcDbEntity
  8
1
  6
Continuous
 62
     7
370
     9
100
AcDbLine
 10
192.25
 20
315.2011746987142
 30
0.0
 11
253.25
 21
315.2011746987142
 31
0.0
  0
ARC
  5
A7
330
1F
100
AcDbEntity
  8
1
  6
Continuous
 62
     7
370
     9
100
AcDbCircle
 10
253.25
 20
313.2011746987142
 30
0.0
 40
2.0
100
AcDbArc
 50
0.0
 51
89.99999999999991
  0
LINE
  5
A8
330
1F
100
AcDbEntity
  8
1
  6
Continuous
 62
     7
370
     9
100
AcDbLine
 10
191.25
 20
316.2011746987142
 30
0.0
 11
254.25
 21
316.2011746987142
 31
0.0
  0
ARC
  5
A9
330
1F
100
AcDbEntity
  8
1
  6
Continuous
 62
     7
370
     9
100
AcDbCircle
 10
254.25
 20
314.2011746987142
 30
0.0
 40
2.0
100
AcDbArc
 50
0.0
 51
89.99999999999991
  0
LINE
  5
AA
330
1F
100
AcDbEntity
  8
1
  6
Continuous
 62
     7
370
     9
100
AcDbLine
 10
189.25
 20
314.2011746987142
 30
0.0
 11
189.25
 21
238.2011746987142
 31
0.0
  0
ARC
  5
AB
330
1F
100
AcDbEntity
  8
1
  6
Continuous
 62
     7
370
     9
100
AcDbCircle
 10
191.25
 20
238.2011746987142
 30
0.0
 40
2.0
100
AcDbArc
 50
179.9999999999992
 51
270.0000000000005
  0
LINE
  5
AC
330
1F
100
AcDbEntity
  8
1
  6
Continuous
 62
     7
370
     9
100
AcDbLine
 10
190.25
 20
313.2011746987142
 30
0.0
 11
190.25
 21
239.2011746987142
 31
0.0
  0
ARC
  5
AD
330
1F
100
AcDbEntity
  8
1
  6
Continuous
 62
     7
370
     9
100
AcDbCircle
 10
192.25
 20
239.2011746987142
 30
0.0
 40
2.0
100
AcDbArc
 50
179.9999999999992
 51
270.0000000000005
  0
LINE
  5
AE
330
1F
100
AcDbEntity
  8
1
  6
Continuous
 62
     7
370
     9
100
AcDbLine
 10
192.25
 20
237.2011746987142
 30
0.0
 11
253.25
 21
237.2011746987142
 31
0.0
  0
LINE
  5
AF
330
1F
100
AcDbEntity
  8
1
  6
Continuous
 62
     7
370
     9
100
AcDbLine
 10
255.25
 20
313.2011746987142
 30
0.0
 11
255.25
 21
239.2011746987142
 31
0.0
  0
ARC
  5
B0
330
1F
100
AcDbEntity
  8
1
  6
Continuous
 62
     7
370
     9
100
AcDbCircle
 10
253.25
 20
239.2011746987142
 30
0.0
 40
2.0
100
AcDbArc
 50
270.0000000000005
 51
0.0000000000008142
  0
LINE
  5
B1
330
1F
100
AcDbEntity
  8
1
  6
Continuous
 62
     7
370
     9
100
AcDbLine
 10
191.25
 20
236.2011746987142
 30
0.0
 11
254.25
 21
236.2011746987142
 31
0.0
  0
LINE
  5
B2
330
1F
100
AcDbEntity
  8
1
  6
Continuous
 62
     7
370
     9
100
AcDbLine
 10
256.25
 20
314.2011746987142
 30
0.0
 11
256.25
 21
238.2011746987142
 31
0.0
  0
ARC
  5
B3
330
1F
100
AcDbEntity
  8
1
  6
Continuous
 62
     7
370
     9
100
AcDbCircle
 10
254.25
 20
238.2011746987142
 30
0.0
 40
2.0
100
AcDbArc
 50
270.0000000000005
 51
0.0000000000008142
  0
LINE
  5
B4
330
1F
100
AcDbEntity
  8
1
  6
Continuous
 62
     7
370
     9
100
AcDbLine
 10
203.75
 20
324.2011746987142
 30
0.0
 11
203.75
 21
316.2011746987142
 31
0.0
  0
LINE
  5
B5
330
1F
100
AcDbEntity
  8
1
  6
Continuous
 62
     7
370
     9
100
AcDbLine
 10
241.7500003061616
 20
324.2011746987142
 30
0.0
 11
241.7500003061616
 21
316.2011746987142
 31
0.0
  0
LINE
  5
B6
330
1F
100
AcDbEntity
  8
1
  6
Continuous
 62
     7
370
     9
100
AcDbLine
 10
191.25
 20
316.2011746987142
 30
0.0
 11
191.25
 21
322.2011746987142
 31
0.0
  0
ARC
  5
B7
330
1F
100
AcDbEntity
  8
1
  6
Continuous
 62
     7
370
     9
100
AcDbCircle
 10
193.25
 20
322.2011746987142
 30
0.0
 40
2.0
100
AcDbArc
 50
89.99999999999919
 51
179.9999999999998
  0
LINE
  5
B8
330
1F
100
AcDbEntity
  8
1
  6
Continuous
 62
     7
370
     9
100
AcDbLine
 10
193.25
 20
324.2011746987142
 30
0.0
 11
252.25
 21
324.2011746987142
 31
0.0
  0
LINE
  5
B9
330
1F
100
AcDbEntity
  8
1
  6
Continuous
 62
     7
370
     9
100
AcDbLine
 10
254.25
 20
316.2011746987142
 30
0.0
 11
254.25
 21
322.2011746987142
 31
0.0
  0
ARC
  5
BA
330
1F
100
AcDbEntity
  8
1
  6
Continuous
 62
     7
370
     9
100
AcDbCircle
 10
252.25
 20
322.2011746987142
 30
0.0
 40
2.0
100
AcDbArc
 50
0.0
 51
89.99999999999919
  0
LINE
  5
BB
330
1F
100
AcDbEntity
  8
1
  6
Continuous
 62
     7
370
     9
100
AcDbLine
 10
212.75
 20
401.5306122448978
 30
0.0
 11
212.75
 21
324.2011746987142
 31
0.0
  0
LINE
  5
BC
330
1F
100
AcDbEntity
  8
1
  6
Continuous
 62
     7
370
     9
100
AcDbLine
 10
212.75
 20
401.5306122448978
 30
0.0
 11
232.75
 21
401.5306122448978
 31
0.0
  0
LINE
  5
BD
330
1F
100
AcDbEntity
  8
1
  6
Continuous
 62
     7
370
     9
100
AcDbLine
 10
232.75
 20
324.2011746987142
 30
0.0
 11
232.75
 21
401.5306122448978
 31
0.0
  0
LINE
  5
BE
330
1F
100
AcDbEntity
  8
1
  6
Continuous
 62
     7
370
     9
100
AcDbLine
 10
205.75
 20
324.2011746987142
 30
0.0
 11
205.75
 21
396.5306122448978
 31
0.0
  0
LINE
  5
BF
330
1F
100
AcDbEntity
  8
1
  6
Continuous
 62
     7
370
     9
100
AcDbLine
 10
212.75
 20
398.5306122448978
 30
0.0
 11
207.75
 21
398.5306122448978
 31
0.0
  0
ARC
  5
C0
330
1F
100
AcDbEntity
  8
1
  6
Continuous
 62
     7
370
     9
100
AcDbCircle
 10
207.75
 20
396.5306122448978
 30
0.0
 40
2.0
100
AcDbArc
 50
90.00000000000082
 51
179.9999999999998
  0
LINE
  5
C1
330
1F
100
AcDbEntity
  8
1
  6
Continuous
 62
     7
370
     9
100
AcDbLine
 10
232.75
 20
398.5306122448978
 30
0.0
 11
237.75
 21
398.5306122448978
 31
0.0
  0
LINE
  5
C2
330
1F
100
AcDbEntity
  8
1
  6
Continuous
 62
     7
370
     9
100
AcDbLine
 10
239.75
 20
324.2011746987142
 30
0.0
 11
239.75
 21
396.5306122448978
 31
0.0
  0
ARC
  5
C3
330
1F
100
AcDbEntity
  8
1
  6
Continuous
 62
     7
370
     9
100
AcDbCircle
 10
237.75
 20
396.5306122448978
 30
0.0
 40
2.0
100
AcDbArc
 50
0.0
 51
89.99999999999991
  0
LINE
  5
C4
330
1F
100
AcDbEntity
  8
1
  6
Continuous
 62
     7
370
     9
100
AcDbLine
 10
194.75
 20
324.2011746987142
 30
0.0
 11
194.75
 21
394.5306122448978
 31
0.0
  0
ARC
  5
C5
330
1F
100
AcDbEntity
  8
1
  6
Continuous
 62
     7
370
     9
100
AcDbCircle
 10
196.75
 20
394.5306122448978
 30
0.0
 40
2.0
100
AcDbArc
 50
89.99999999999991
 51
179.9999999999998
  0
LINE
  5
C6
330
1F
100
AcDbEntity
  8
1
  6
Continuous
 62
     7
370
     9
100
AcDbLine
 10
250.75
 20
324.2011746987142
 30
0.0
 11
250.75
 21
394.5306122448978
 31
0.0
  0
ARC
  5
C7
330
1F
100
AcDbEntity
  8
1
  6
Continuous
 62
     7
370
     9
100
AcDbCircle
 10
248.75
 20
394.5306122448978
 30
0.0
 40
2.0
100
AcDbArc
 50
0.0
 51
89.99999999999991
  0
LINE
  5
C8
330
1F
100
AcDbEntity
  8
1
  6
Continuous
 62
     7
370
     9
100
AcDbLine
 10
222.75
 20
411.5306122448978
 30
0.0
 11
222.75
 21
401.5306122448978
 31
0.0
  0
LINE
  5
C9
330
1F
100
AcDbEntity
  8
1
  6
Continuous
 62
     7
370
     9
100
AcDbLine
 10
213.75
 20
401.5306122448978
 30
0.0
 11
213.75
 21
410.5306122448978
 31
0.0
  0
LINE
  5
CA
330
1F
100
AcDbEntity
  8
1
  6
Continuous
 62
     7
370
     9
100
AcDbLine
 10
213.75
 20
410.5306122448978
 30
0.0
 11
214.75
 21
411.5306122448978
 31
0.0
  0
LINE
  5
CB
330
1F
100
AcDbEntity
  8
1
  6
Continuous
 62
     7
370
     9
100
AcDbLine
 10
214.75
 20
411.5306122448978
 30
0.0
 11
230.75
 21
411.5306122448978
 31
0.0
  0
LINE
  5
CC
330
1F
100
AcDbEntity
  8
1
  6
Continuous
 62
     7
370
     9
100
AcDbLine
 10
231.75
 20
401.5306122448978
 30
0.0
 11
231.75
 21
410.5306122448978
 31
0.0
  0
LINE
  5
CD
330
1F
100
AcDbEntity
  8
1
  6
Continuous
 62
     7
370
     9
100
AcDbLine
 10
230.75
 20
411.5306122448978
 30
0.0
 11
231.75
 21
410.5306122448978
 31
0.0
  0
LINE
  5
CE
330
1F
100
AcDbEntity
  8
1
  6
Continuous
 62
     7
370
     9
100
AcDbLine
 10
215.75
 20
411.5306122448978
 30
0.0
 11
215.75
 21
421.5306122448978
 31
0.0
  0
LINE
  5
CF
330
1F
100
AcDbEntity
  8
1
  6
Continuous
 62
     7
370
     9
100
AcDbLine
 10
215.75
 20
421.5306122448978
 30
0.0
 11
229.75
 21
421.5306122448978
 31
0.0
  0
LINE
  5
D0
330
1F
100
AcDbEntity
  8
1
  6
Continuous
 62
     7
370
     9
100
AcDbLine
 10
229.75
 20
411.5306122448978
 30
0.0
 11
229.75
 21
421.5306122448978
 31
0.0
  0
INSERT
  5
DB
330
1F
100
AcDbEntity
  8
0
100
AcDbBlockReference
  2
*G12
 10
0.0
 20
0.0
 30
0.0
  0
LINE
  5
DC
330
1F
100
AcDbEntity
  8
1
  6
Continuous
 62
     7
370
     9
100
AcDbLine
 10
212.75
 20
396.5306122448978
 30
0.0
 11
196.75
 21
396.5306122448978
 31
0.0
  0
LINE
  5
DD
330
1F
100
AcDbEntity
  8
1
  6
Continuous
 62
     7
370
     9
100
AcDbLine
 10
232.75
 20
396.5306122448978
 30
0.0
 11
248.75
 21
396.5306122448978
 31
0.0
  0
LINE
  5
DE
330
1F
100
AcDbEntity
  8
1
  6
Continuous
 62
     7
370
     9
100
AcDbLine
 10
209.2500000000001
 20
396.5306122448978
 30
0.0
 11
209.2500000000001
 21
324.2011746987142
 31
0.0
  0
LINE
  5
DF
330
1F
100
AcDbEntity
  8
1
  6
Continuous
 62
     7
370
     9
100
AcDbLine
 10
236.2500003061616
 20
396.5306122448978
 30
0.0
 11
236.2500003061616
 21
324.2011746987142
 31
0.0
  0
LINE
  5
E0
330
1F
100
AcDbEntity
  8
1
  6
Continuous
 62
     7
370
     9
100
AcDbLine
 10
260.25
 20
241.2011746987143
 30
0.0
 11
256.25
 21
241.2011746987143
 31
0.0
  0
LINE
  5
E1
330
1F
100
AcDbEntity
  8
1
  6
Continuous
 62
     7
370
     9
100
AcDbLine
 10
256.25
 20
251.4938102300778
 30
0.0
 11
260.25
 21
251.4938102300778
 31
0.0
  0
INSERT
  5
E8
330
1F
100
AcDbEntity
  8
0
100
AcDbBlockReference
  2
*G13
 10
0.0
 20
0.0
 30
0.0
  0
ARC
  5
E9
330
1F
100
AcDbEntity
  8
1
  6
Continuous
 62
     7
370
     9
100
AcDbCircle
 10
262.25
 20
351.2011746987142
 30
0.0
 40
2.0
100
AcDbArc
 50
90.00000000000162
 51
180.0000000000013
  0
LINE
  5
EA
330
1F
100
AcDbEntity
  8
1
  6
Continuous
 62
     7
370
     9
100
AcDbLine
 10
262.2499999999999
 20
353.2011746987142
 30
0.0
 11
331.2499999999999
 21
353.2011746987142
 31
0.0
  0
ARC
  5
EB
330
1F
100
AcDbEntity
  8
1
  6
Continuous
 62
     7
370
     9
100
AcDbCircle
 10
331.25
 20
351.2011746987142
 30
0.0
 40
2.0
100
AcDbArc
 50
359.999999999998
 51
90.00000000000162
  0
LINE
  5
EC
330
1F
100
AcDbEntity
  8
1
  6
Continuous
 62
     7
370
     9
100
AcDbLine
 10
333.25
 20
351.2011746987142
 30
0.0
 11
333.25
 21
242.2011746987143
 31
0.0
  0
ARC
  5
ED
330
1F
100
AcDbEntity
  8
1
  6
Continuous
 62
     7
370
     9
100
AcDbCircle
 10
331.25
 20
242.2011746987143
 30
0.0
 40
2.0
100
AcDbArc
 50
269.9999999999998
 51
0.0000000000008142
  0
LINE
  5
EE
330
1F
100
AcDbEntity
  8
1
  6
Continuous
 62
     7
370
     9
100
AcDbLine
 10
262.25
 20
240.2011746987143
 30
0.0
 11
331.25
 21
240.2011746987143
 31
0.0
  0
CIRCLE
  5
EF
330
1F
100
AcDbEntity
  8
1
  6
Continuous
 62
     7
370
     9
100
AcDbCircle
 10
263.25
 20
350.2011746987142
 30
0.0
 40
2.0
  0
CIRCLE
  5
F0
330
1F
100
AcDbEntity
  8
1
  6
Continuous
 62
     7
370
     9
100
AcDbCircle
 10
330.2500003061617
 20
350.2011746987142
 30
0.0
 40
2.0
  0
CIRCLE
  5
F1
330
1F
100
AcDbEntity
  8
1
  6
Continuous
 62
     7
370
     9
100
AcDbCircle
 10
330.2500003061617
 20
243.2011746987142
 30
0.0
 40
2.0
  0
LINE
  5
F2
330
1F
100
AcDbEntity
  8
1
  6
Continuous
 62
     7
370
     9
100
AcDbLine
 10
273.25
 20
253.4938102300777
 30
0.0
 11
273.25
 21
240.2011746987142
 31
0.0
  0
LINE
  5
F3
330
1F
100
AcDbEntity
  8
1
  6
Continuous
 62
     7
370
     9
100
AcDbLine
 10
275.75
 20
253.4938102300777
 30
0.0
 11
275.75
 21
240.2011746987142
 31
0.0
  0
LINE
  5
F4
330
1F
100
AcDbEntity
  8
1
  6
Continuous
 62
     7
370
     9
100
AcDbLine
 10
276.25
 20
253.4938102300777
 30
0.0
 11
276.25
 21
240.2011746987142
 31
0.0
  0
LINE
  5
F5
330
1F
100
AcDbEntity
  8
1
  6
Continuous
 62
     7
370
     9
100
AcDbLine
 10
276.25
 20
252.4938102300777
 30
0.0
 11
275.75
 21
252.4938102300777
 31
0.0
  0
LINE
  5
F6
330
1F
100
AcDbEntity
  8
1
  6
Continuous
 62
     7
370
     9
100
AcDbLine
 10
276.25
 20
241.2011746987142
 30
0.0
 11
275.75
 21
241.2011746987142
 31
0.0
  0
LINE
  5
F7
330
1F
100
AcDbEntity
  8
1
  6
Continuous
 62
     7
370
     9
100
AcDbLine
 10
260.25
 20
253.4938102300777
 30
0.0
 11
275.75
 21
253.4938102300777
 31
0.0
  0
LINE
  5
F8
330
1F
100
AcDbEntity
  8
1
  6
Continuous
 62
     7
370
     9
100
AcDbLine
 10
276.25
 20
253.4938102300777
 30
0.0
 11
279.25
 21
253.4938102300777
 31
0.0
  0
LINE
  5
F9
330
1F
100
AcDbEntity
  8
1
  6
Continuous
 62
     7
370
     9
100
AcDbLine
 10
276.25
 20
240.2011746987142
 30
0.0
 11
279.25
 21
240.2011746987142
 31
0.0
  0
LINE
  5
FA
330
1F
100
AcDbEntity
  8
1
  6
Continuous
 62
     7
370
     9
100
AcDbLine
 10
279.25
 20
253.4938102300777
 30
0.0
 11
279.25
 21
240.2011746987142
 31
0.0
  0
LINE
  5
FB
330
1F
100
AcDbEntity
  8
1
  6
Continuous
 62
     7
370
     9
100
AcDbLine
 10
273.25
 20
250.4938102300777
 30
0.0
 11
275.75
 21
250.4938102300777
 31
0.0
  0
LINE
  5
FC
330
1F
100
AcDbEntity
  8
1
  6
Continuous
 62
     7
370
     9
100
AcDbLine
 10
273.25
 20
243.2011746987142
 30
0.0
 11
275.75
 21
243.2011746987142
 31
0.0
  0
LINE
  5
FD
330
1F
100
AcDbEntity
  8
1
  6
Continuous
 62
     7
370
     9
100
AcDbLine
 10
276.0
 20
252.4938102300777
 30
0.0
 11
276.0
 21
241.2011746987142
 31
0.0
  0
INSERT
  5
10A
330
1F
100
AcDbEntity
  8
0
100
AcDbBlockReference
  2
*G14
 10
0.0
 20
0.0
 30
0.0
  0
LINE
  5
10B
330
1F
100
AcDbEntity
  8
1
  6
Continuous
 62
     7
370
     9
100
AcDbLine
 10
279.25
 20
249.3474924643959
 30
0.0
 11
283.25
 21
249.3474924643959
 31
0.0
  0
LINE
  5
10C
330
1F
100
AcDbEntity
  8
1
  6
Continuous
 62
     7
370
     9
100
AcDbLine
 10
279.25
 20
244.347492464396
 30
0.0
 11
283.25
 21
244.347492464396
 31
0.0
  0
LINE
  5
10D
330
1F
100
AcDbEntity
  8
1
  6
Continuous
 62
     7
370
     9
100
AcDbLine
 10
283.25
 20
243.347492464396
 30
0.0
 11
284.75
 21
243.347492464396
 31
0.0
  0
LINE
  5
10E
330
1F
100
AcDbEntity
  8
1
  6
Continuous
 62
     7
370
     9
100
AcDbLine
 10
284.75
 20
250.3474924643959
 30
0.0
 11
284.75
 21
243.347492464396
 31
0.0
  0
LINE
  5
10F
330
1F
100
AcDbEntity
  8
1
  6
Continuous
 62
     7
370
     9
100
AcDbLine
 10
283.25
 20
250.3474924643959
 30
0.0
 11
284.75
 21
250.3474924643959
 31
0.0
  0
LINE
  5
110
330
1F
100
AcDbEntity
  8
1
  6
Continuous
 62
     7
370
     9
100
AcDbLine
 10
283.25
 20
250.3474924643959
 30
0.0
 11
283.25
 21
243.347492464396
 31
0.0
  0
LINE
  5
111
330
1F
100
AcDbEntity
  8
1
  6
Continuous
 62
     7
370
     9
100
AcDbLine
 10
260.25
 20
351.2011746987142
 30
0.0
 11
260.25
 21
240.2011746987142
 31
0.0
  0
LINE
  5
112
330
1F
100
AcDbEntity
  8
1
  6
Continuous
 62
     7
370
     9
100
AcDbLine
 10
260.25
 20
240.2011746987142
 30
0.0
 11
275.75
 21
240.2011746987142
 31
0.0
  0
LINE
  5
113
330
1F
100
AcDbEntity
  8
1
  6
Continuous
 62
     7
370
     9
100
AcDbLine
 10
260.25
 20
309.7011746987142
 30
0.0
 11
256.25
 21
309.7011746987142
 31
0.0
  0
LINE
  5
114
330
1F
100
AcDbEntity
  8
1
  6
Continuous
 62
     7
370
     9
100
AcDbLine
 10
256.25
 20
299.4085391673507
 30
0.0
 11
260.25
 21
299.4085391673507
 31
0.0
  0
INSERT
  5
11B
330
1F
100
AcDbEntity
  8
0
100
AcDbBlockReference
  2
*G15
 10
0.0
 20
0.0
 30
0.0
  0
LINE
  5
11C
330
1F
100
AcDbEntity
  8
1
  6
Continuous
 62
     7
370
     9
100
AcDbLine
 10
273.25
 20
311.2011746987142
 30
0.0
 11
273.25
 21
297.9085391673507
 31
0.0
  0
LINE
  5
11D
330
1F
100
AcDbEntity
  8
1
  6
Continuous
 62
     7
370
     9
100
AcDbLine
 10
275.75
 20
311.2011746987142
 30
0.0
 11
275.75
 21
297.9085391673507
 31
0.0
  0
LINE
  5
11E
330
1F
100
AcDbEntity
  8
1
  6
Continuous
 62
     7
370
     9
100
AcDbLine
 10
276.25
 20
311.2011746987142
 30
0.0
 11
276.25
 21
297.9085391673507
 31
0.0
  0
LINE
  5
11F
330
1F
100
AcDbEntity
  8
1
  6
Continuous
 62
     7
370
     9
100
AcDbLine
 10
276.25
 20
310.2011746987142
 30
0.0
 11
275.75
 21
310.2011746987142
 31
0.0
  0
LINE
  5
120
330
1F
100
AcDbEntity
  8
1
  6
Continuous
 62
     7
370
     9
100
AcDbLine
 10
276.25
 20
298.9085391673507
 30
0.0
 11
275.75
 21
298.9085391673507
 31
0.0
  0
LINE
  5
121
330
1F
100
AcDbEntity
  8
1
  6
Continuous
 62
     7
370
     9
100
AcDbLine
 10
260.25
 20
311.2011746987142
 30
0.0
 11
275.75
 21
311.2011746987142
 31
0.0
  0
LINE
  5
122
330
1F
100
AcDbEntity
  8
1
  6
Continuous
 62
     7
370
     9
100
AcDbLine
 10
260.25
 20
297.9085391673507
 30
0.0
 11
275.75
 21
297.9085391673507
 31
0.0
  0
LINE
  5
123
330
1F
100
AcDbEntity
  8
1
  6
Continuous
 62
     7
370
     9
100
AcDbLine
 10
276.25
 20
311.2011746987142
 30
0.0
 11
279.25
 21
311.2011746987142
 31
0.0
  0
LINE
  5
124
330
1F
100
AcDbEntity
  8
1
  6
Continuous
 62
     7
370
     9
100
AcDbLine
 10
276.25
 20
297.9085391673507
 30
0.0
 11
279.25
 21
297.9085391673507
 31
0.0
  0
LINE
  5
125
330
1F
100
AcDbEntity
  8
1
  6
Continuous
 62
     7
370
     9
100
AcDbLine
 10
279.25
 20
311.2011746987142
 30
0.0
 11
279.25
 21
297.9085391673507
 31
0.0
  0
LINE
  5
126
330
1F
100
AcDbEntity
  8
1
  6
Continuous
 62
     7
370
     9
100
AcDbLine
 10
273.25
 20
308.2011746987142
 30
0.0
 11
275.75
 21
308.2011746987142
 31
0.0
  0
LINE
  5
127
330
1F
100
AcDbEntity
  8
1
  6
Continuous
 62
     7
370
     9
100
AcDbLine
 10
273.25
 20
300.9085391673507
 30
0.0
 11
275.75
 21
300.9085391673507
 31
0.0
  0
LINE
  5
128
330
1F
100
AcDbEntity
  8
1
  6
Continuous
 62
     7
370
     9
100
AcDbLine
 10
276.0
 20
310.2011746987142
 30
0.0
 11
276.0
 21
298.9085391673507
 31
0.0
  0
INSERT
  5
135
330
1F
100
AcDbEntity
  8
0
100
AcDbBlockReference
  2
*G16
 10
0.0
 20
0.0
 30
0.0
  0
LINE
  5
136
330
1F
100
AcDbEntity
  8
1
  6
Continuous
 62
     7
370
     9
100
AcDbLine
 10
279.25
 20
307.0548569330323
 30
0.0
 11
283.25
 21
307.0548569330323
 31
0.0
  0
LINE
  5
137
330
1F
100
AcDbEntity
  8
1
  6
Continuous
 62
     7
370
     9
100
AcDbLine
 10
279.25
 20
302.0548569330325
 30
0.0
 11
283.25
 21
302.0548569330325
 31
0.0
  0
LINE
  5
138
330
1F
100
AcDbEntity
  8
1
  6
Continuous
 62
     7
370
     9
100
AcDbLine
 10
283.25
 20
301.0548569330325
 30
0.0
 11
284.75
 21
301.0548569330325
 31
0.0
  0
LINE
  5
139
330
1F
100
AcDbEntity
  8
1
  6
Continuous
 62
     7
370
     9
100
AcDbLine
 10
284.75
 20
308.0548569330323
 30
0.0
 11
284.75
 21
301.0548569330325
 31
0.0
  0
LINE
  5
13A
330
1F
100
AcDbEntity
  8
1
  6
Continuous
 62
     7
370
     9
100
AcDbLine
 10
283.25
 20
308.0548569330323
 30
0.0
 11
284.75
 21
308.0548569330323
 31
0.0
  0
LINE
  5
13B
330
1F
100
AcDbEntity
  8
1
  6
Continuous
 62
     7
370
     9
100
AcDbLine
 10
283.25
 20
308.0548569330323
 30
0.0
 11
283.25
 21
301.0548569330325
 31
0.0
  0
LINE
  5
13C
330
1F
100
AcDbEntity
  8
1
  6
Continuous
 62
     7
370
     9
100
AcDbLine
 10
261.75
 20
294.4085391673506
 30
0.0
 11
261.75
 21
297.9085391673507
 31
0.0
  0
ARC
  5
13D
330
1F
100
AcDbEntity
  8
1
  6
Continuous
 62
     7
370
     9
100
AcDbCircle
 10
262.25
 20
294.4085391673507
 30
0.0
 40
0.5
100
AcDbArc
 50
180.0000000000062
 51
269.9999999999931
  0
LINE
  5
13E
330
1F
100
AcDbEntity
  8
1
  6
Continuous
 62
     7
370
     9
100
AcDbLine
 10
262.2499999999999
 20
293.9085391673507
 30
0.0
 11
273.2499999999999
 21
293.9085391673507
 31
0.0
  0
LINE
  5
13F
330
1F
100
AcDbEntity
  8
1
  6
Continuous
 62
     7
370
     9
100
AcDbLine
 10
273.75
 20
297.9085391673507
 30
0.0
 11
273.75
 21
294.4085391673506
 31
0.0
  0
ARC
  5
140
330
1F
100
AcDbEntity
  8
1
  6
Continuous
 62
     7
370
     9
100
AcDbCircle
 10
273.25
 20
294.4085391673507
 30
0.0
 40
0.5
100
AcDbArc
 50
269.9999999999931
 51
359.9999999999931
  0
LINE
  5
141
330
1F
100
AcDbEntity
  8
1
  6
Continuous
 62
     7
370
     9
100
AcDbLine
 10
261.75
 20
294.9085391673507
 30
0.0
 11
273.75
 21
294.9085391673507
 31
0.0
  0
LINE
  5
142
330
1F
100
AcDbEntity
  8
1
  6
Continuous
 62
     7
370
     9
100
AcDbLine
 10
264.75
 20
286.7011746987143
 30
0.0
 11
264.75
 21
280.7011746987143
 31
0.0
  0
LINE
  5
143
330
1F
100
AcDbEntity
  8
1
  6
Continuous
 62
     7
370
     9
100
AcDbLine
 10
264.75
 20
280.7011746987143
 30
0.0
 11
270.75
 21
277.7011746987143
 31
0.0
  0
LINE
  5
144
330
1F
100
AcDbEntity
  8
1
  6
Continuous
 62
     7
370
     9
100
AcDbLine
 10
270.75
 20
277.7011746987143
 30
0.0
 11
276.75
 21
280.7011746987143
 31
0.0
  0
LINE
  5
145
330
1F
100
AcDbEntity
  8
1
  6
Continuous
 62
     7
370
     9
100
AcDbLine
 10
276.75
 20
286.7011746987143
 30
0.0
 11
276.75
 21
280.7011746987143
 31
0.0
  0
LINE
  5
146
330
1F
100
AcDbEntity
  8
1
  6
Continuous
 62
     7
370
     9
100
AcDbLine
 10
272.4751169438736
 20
293.9085391673507
 30
0.0
 11
273.6790359870832
 21
283.0525236473998
 31
0.0
  0
LINE
  5
147
330
1F
100
AcDbEntity
  8
1
  6
Continuous
 62
     7
370
     9
100
AcDbLine
 10
266.6180155769683
 20
293.9085391673507
 30
0.0
 11
267.7499999999996
 21
283.7011746987143
 31
0.0
  0
ARC
  5
148
330
1F
100
AcDbEntity
  8
1
  6
Continuous
 62
     7
370
     9
100
AcDbCircle
 10
270.75
 20
283.7011746987143
 30
0.0
 40
3.0
100
AcDbArc
 50
179.9999999999998
 51
347.5130631865539
  0
LINE
  5
149
330
1F
100
AcDbEntity
  8
1
  6
Continuous
 62
     7
370
     9
100
AcDbLine
 10
267.2771733727122
 20
287.9647613850703
 30
0.0
 11
264.75
 21
286.7011746987143
 31
0.0
  0
LINE
  5
14A
330
1F
100
AcDbEntity
  8
1
  6
Continuous
 62
     7
370
     9
100
AcDbLine
 10
273.0703718144093
 20
288.5409887915096
 30
0.0
 11
276.75
 21
286.7011746987143
 31
0.0
  0
LINE
  5
14B
330
1F
100
AcDbEntity
  8
1
  6
Continuous
 62
     7
370
     9
100
AcDbLine
 10
261.75
 20
256.9938102300778
 30
0.0
 11
261.75
 21
253.4938102300778
 31
0.0
  0
ARC
  5
14C
330
1F
100
AcDbEntity
  8
1
  6
Continuous
 62
     7
370
     9
100
AcDbCircle
 10
262.25
 20
256.9938102300778
 30
0.0
 40
0.5
100
AcDbArc
 50
90.00000000000651
 51
179.9999999999935
  0
LINE
  5
14D
330
1F
100
AcDbEntity
  8
1
  6
Continuous
 62
     7
370
     9
100
AcDbLine
 10
262.2499999999999
 20
257.4938102300778
 30
0.0
 11
273.2499999999999
 21
257.4938102300778
 31
0.0
  0
LINE
  5
14E
330
1F
100
AcDbEntity
  8
1
  6
Continuous
 62
     7
370
     9
100
AcDbLine
 10
273.75
 20
253.4938102300778
 30
0.0
 11
273.75
 21
256.9938102300778
 31
0.0
  0
ARC
  5
14F
330
1F
100
AcDbEntity
  8
1
  6
Continuous
 62
     7
370
     9
100
AcDbCircle
 10
273.25
 20
256.9938102300778
 30
0.0
 40
0.5
100
AcDbArc
 50
0.0000000000065138
 51
90.00000000000651
  0
LINE
  5
150
330
1F
100
AcDbEntity
  8
1
  6
Continuous
 62
     7
370
     9
100
AcDbLine
 10
261.75
 20
256.4938102300778
 30
0.0
 11
273.75
 21
256.4938102300778
 31
0.0
  0
LINE
  5
151
330
1F
100
AcDbEntity
  8
1
  6
Continuous
 62
     7
370
     9
100
AcDbLine
 10
264.75
 20
264.7011746987142
 30
0.0
 11
264.75
 21
270.7011746987142
 31
0.0
  0
LINE
  5
152
330
1F
100
AcDbEntity
  8
1
  6
Continuous
 62
     7
370
     9
100
AcDbLine
 10
264.75
 20
270.7011746987142
 30
0.0
 11
270.75
 21
273.7011746987142
 31
0.0
  0
LINE
  5
153
330
1F
100
AcDbEntity
  8
1
  6
Continuous
 62
     7
370
     9
100
AcDbLine
 10
270.75
 20
273.7011746987142
 30
0.0
 11
276.75
 21
270.7011746987142
 31
0.0
  0
LINE
  5
154
330
1F
100
AcDbEntity
  8
1
  6
Continuous
 62
     7
370
     9
100
AcDbLine
 10
276.75
 20
264.7011746987142
 30
0.0
 11
276.75
 21
270.7011746987142
 31
0.0
  0
LINE
  5
155
330
1F
100
AcDbEntity
  8
1
  6
Continuous
 62
     7
370
     9
100
AcDbLine
 10
272.4751169438736
 20
257.4938102300778
 30
0.0
 11
273.6790359870832
 21
268.3498257500287
 31
0.0
  0
LINE
  5
156
330
1F
100
AcDbEntity
  8
1
  6
Continuous
 62
     7
370
     9
100
AcDbLine
 10
266.6180155769683
 20
257.4938102300778
 30
0.0
 11
267.7499999999996
 21
267.7011746987142
 31
0.0
  0
ARC
  5
157
330
1F
100
AcDbEntity
  8
1
  6
Continuous
 62
     7
370
     9
100
AcDbCircle
 10
270.75
 20
267.7011746987142
 30
0.0
 40
3.0
100
AcDbArc
 50
12.48693681344573
 51
179.9999999999998
  0
LINE
  5
158
330
1F
100
AcDbEntity
  8
1
  6
Continuous
 62
     7
370
     9
100
AcDbLine
 10
267.2771733727122
 20
263.4375880123581
 30
0.0
 11
264.75
 21
264.7011746987142
 31
0.0
  0
LINE
  5
159
330
1F
100
AcDbEntity
  8
1
  6
Continuous
 62
     7
370
     9
100
AcDbLine
 10
273.0703718144093
 20
262.8613606059188
 30
0.0
 11
276.75
 21
264.7011746987142
 31
0.0
  0
CIRCLE
  5
15A
330
1F
100
AcDbEntity
  8
1
  6
Continuous
 62
     7
370
     9
100
AcDbCircle
 10
284.7499999999999
 20
337.2011746987142
 30
0.0
 40
10.0
  0
ARC
  5
15B
330
1F
100
AcDbEntity
  8
1
  6
Continuous
 62
     7
370
     9
100
AcDbCircle
 10
284.7499999999995
 20
301.2011746987142
 30
0.0
 40
10.0
100
AcDbArc
 50
199.2240822697987
 51
123.3670129692282
  0
CIRCLE
  5
15C
330
1F
100
AcDbEntity
  8
1
  6
Continuous
 62
     7
370
     9
100
AcDbCircle
 10
284.75
 20
337.2011746987142
 30
0.0
 40
7.0
  0
ARC
  5
15D
330
1F
100
AcDbEntity
  8
1
  6
Continuous
 62
     7
370
     9
100
AcDbCircle
 10
284.7499999999999
 20
301.2011746987142
 30
0.0
 40
7.0
100
AcDbArc
 50
209.6270194249705
 51
123.2547895534376
  0
CIRCLE
  5
15E
330
1F
100
AcDbEntity
  8
1
  6
Continuous
 62
     7
370
     9
100
AcDbCircle
 10
318.8619554801249
 20
340.2011746987143
 30
0.0
 40
7.0
  0
CIRCLE
  5
15F
330
1F
100
AcDbEntity
  8
1
  6
Continuous
 62
     7
370
     9
100
AcDbCircle
 10
318.8619554801249
 20
340.2011746987143
 30
0.0
 40
4.961046341435349
  0
LINE
  5
160
330
1F
100
AcDbEntity
  8
1
  6
Continuous
 62
     7
370
     9
100
AcDbLine
 10
311.8619554801249
 20
313.9031254060547
 30
0.0
 11
324.8619554801249
 21
313.9031254060547
 31
0.0
  0
LINE
  5
161
330
1F
100
AcDbEntity
  8
1
  6
Continuous
 62
     7
370
     9
100
AcDbLine
 10
324.8619554801249
 20
313.9031254060547
 30
0.0
 11
324.8619554801249
 21
293.9031254060547
 31
0.0
  0
LINE
  5
162
330
1F
100
AcDbEntity
  8
1
  6
Continuous
 62
     7
370
     9
100
AcDbLine
 10
311.8619554801249
 20
313.9031254060547
 30
0.0
 11
311.8619554801249
 21
293.9031254060547
 31
0.0
  0
LINE
  5
163
330
1F
100
AcDbEntity
  8
1
  6
Continuous
 62
     7
370
     9
100
AcDbLine
 10
311.8619554801249
 20
293.9031254060547
 30
0.0
 11
324.8619554801249
 21
293.9031254060547
 31
0.0
  0
LINE
  5
164
330
1F
100
AcDbEntity
  8
1
  6
Continuous
 62
     7
370
     9
100
AcDbLine
 10
313.8619554801249
 20
311.9031254060547
 30
0.0
 11
322.8619554801249
 21
311.9031254060547
 31
0.0
  0
LINE
  5
165
330
1F
100
AcDbEntity
  8
1
  6
Continuous
 62
     7
370
     9
100
AcDbLine
 10
322.8619554801249
 20
311.9031254060547
 30
0.0
 11
322.8619554801249
 21
295.9031254060547
 31
0.0
  0
LINE
  5
166
330
1F
100
AcDbEntity
  8
1
  6
Continuous
 62
     7
370
     9
100
AcDbLine
 10
322.8619554801249
 20
295.9031254060547
 30
0.0
 11
313.8619554801249
 21
295.9031254060547
 31
0.0
  0
LINE
  5
167
330
1F
100
AcDbEntity
  8
1
  6
Continuous
 62
     7
370
     9
100
AcDbLine
 10
313.8619554801249
 20
295.9031254060547
 30
0.0
 11
313.8619554801249
 21
311.9031254060547
 31
0.0
  0
LINE
  5
168
330
1F
100
AcDbEntity
  8
1
  6
Continuous
 62
     7
370
     9
100
AcDbLine
 10
313.8619554801249
 20
303.9031254060547
 30
0.0
 11
322.8619554801249
 21
303.9031254060547
 31
0.0
  0
LINE
  5
169
330
1F
100
AcDbEntity
  8
1
  6
Continuous
 62
     7
370
     9
100
AcDbLine
 10
307.8619554801249
 20
275.929112932043
 30
0.0
 11
324.8619554801249
 21
275.929112932043
 31
0.0
  0
LINE
  5
16A
330
1F
100
AcDbEntity
  8
1
  6
Continuous
 62
     7
370
     9
100
AcDbLine
 10
307.8619554801249
 20
275.929112932043
 30
0.0
 11
307.8619554801249
 21
254.6266181295487
 31
0.0
  0
LINE
  5
16B
330
1F
100
AcDbEntity
  8
1
  6
Continuous
 62
     7
370
     9
100
AcDbLine
 10
324.8619554801249
 20
254.6266181295487
 30
0.0
 11
307.8619554801249
 21
254.6266181295487
 31
0.0
  0
LINE
  5
16C
330
1F
100
AcDbEntity
  8
1
  6
Continuous
 62
     7
370
     9
100
AcDbLine
 10
324.8619554801249
 20
275.929112932043
 30
0.0
 11
324.8619554801249
 21
254.6266181295487
 31
0.0
  0
CIRCLE
  5
16D
330
1F
100
AcDbEntity
  8
1
  6
Continuous
 62
     7
370
     9
100
AcDbCircle
 10
316.3619554801249
 20
264.2937828904631
 30
0.0
 40
7.322017931392793
  0
CIRCLE
  5
16E
330
1F
100
AcDbEntity
  8
1
  6
Continuous
 62
     7
370
     9
100
AcDbCircle
 10
311.446252517547
 20
274.163552900858
 30
0.0
 40
0.6657029625779387
  0
CIRCLE
  5
16F
330
1F
100
AcDbEntity
  8
1
  6
Continuous
 62
     7
370
     9
100
AcDbCircle
 10
321.2776587488645
 20
274.163552900858
 30
0.0
 40
0.6657029625779387
  0
CIRCLE
  5
170
330
1F
100
AcDbEntity
  8
1
  6
Continuous
 62
     7
370
     9
100
AcDbCircle
 10
301.8619554801249
 20
273.2663010817313
 30
0.0
 40
1.5
  0
CIRCLE
  5
171
330
1F
100
AcDbEntity
  8
1
  6
Continuous
 62
     7
370
     9
100
AcDbCircle
 10
301.8619554801249
 20
259.9522418301723
 30
0.0
 40
1.5
  0
CIRCLE
  5
172
330
1F
100
AcDbEntity
  8
1
  6
Continuous
 62
     7
370
     9
100
AcDbCircle
 10
316.3619554801249
 20
264.2937828904631
 30
0.0
 40
6.309706340956296
  0
LINE
  5
173
330
1F
100
AcDbEntity
  8
1
  6
Continuous
 62
     7
370
     9
100
AcDbLine
 10
212.75
 20
376.5306122448978
 30
0.0
 11
232.75
 21
376.5306122448978
 31
0.0
  0
LINE
  5
174
330
1F
100
AcDbEntity
  8
1
  6
Continuous
 62
     7
370
     9
100
AcDbLine
 10
72.75
 20
86.53061224489784
 30
0.0
 11
372.75
 21
86.53061224489784
 31
0.0
  0
LINE
  5
175
330
1F
100
AcDbEntity
  8
1
  6
Continuous
 62
     7
370
     9
100
AcDbLine
 10
136.75
 20
83.53061224489784
 30
0.0
 11
136.75
 21
79.53061224489784
 31
0.0
  0
LINE
  5
176
330
1F
100
AcDbEntity
  8
1
  6
Continuous
 62
     7
370
     9
100
AcDbLine
 10
136.75
 20
79.53061224489784
 30
0.0
 11
166.75
 21
79.53061224489784
 31
0.0
  0
LINE
  5
177
330
1F
100
AcDbEntity
  8
1
  6
Continuous
 62
     7
370
     9
100
AcDbLine
 10
166.75
 20
83.53061224489784
 30
0.0
 11
166.75
 21
79.53061224489784
 31
0.0
  0
LINE
  5
178
330
1F
100
AcDbEntity
  8
1
  6
Continuous
 62
     7
370
     9
100
AcDbLine
 10
194.75
 20
228.2011746987142
 30
0.0
 11
194.75
 21
114.0148367559074
 31
0.0
  0
LINE
  5
179
330
1F
100
AcDbEntity
  8
1
  6
Continuous
 62
     7
370
     9
100
AcDbLine
 10
205.75
 20
228.2011746987142
 30
0.0
 11
205.75
 21
114.0148367559074
 31
0.0
  0
LINE
  5
17A
330
1F
100
AcDbEntity
  8
1
  6
Continuous
 62
     7
370
     9
100
AcDbLine
 10
239.75
 20
228.2011746987142
 30
0.0
 11
239.75
 21
114.0148367559074
 31
0.0
  0
LINE
  5
17B
330
1F
100
AcDbEntity
  8
1
  6
Continuous
 62
     7
370
     9
100
AcDbLine
 10
250.75
 20
228.2011746987142
 30
0.0
 11
250.75
 21
114.0148367559074
 31
0.0
  0
LINE
  5
17C
330
1F
100
AcDbEntity
  8
1
  6
Continuous
 62
     7
370
     9
100
AcDbLine
 10
308.7500003061617
 20
83.53061224489784
 30
0.0
 11
308.7500003061617
 21
79.53061224489784
 31
0.0
  0
LINE
  5
17D
330
1F
100
AcDbEntity
  8
1
  6
Continuous
 62
     7
370
     9
100
AcDbLine
 10
308.7500003061617
 20
79.53061224489784
 30
0.0
 11
278.7500003061617
 21
79.53061224489784
 31
0.0
  0
LINE
  5
17E
330
1F
100
AcDbEntity
  8
1
  6
Continuous
 62
     7
370
     9
100
AcDbLine
 10
278.7500003061617
 20
83.53061224489784
 30
0.0
 11
278.7500003061617
 21
79.53061224489784
 31
0.0
  0
LINE
  5
17F
330
1F
100
AcDbEntity
  8
1
  6
Continuous
 62
     7
370
     9
100
AcDbLine
 10
163.4734927234919
 20
95.53061224489784
 30
0.0
 11
167.6413721413713
 21
95.53061224489784
 31
0.0
  0
CIRCLE
  5
180
330
1F
100
AcDbEntity
  8
1
  6
Continuous
 62
     7
370
     9
100
AcDbCircle
 10
165.75
 20
95.53061224489784
 30
0.0
 40
4.0
  0
LINE
  5
181
330
1F
100
AcDbEntity
  8
1
  6
Continuous
 62
     7
370
     9
100
AcDbLine
 10
73.75
 20
121.5306122448978
 30
0.0
 11
75.75
 21
123.5306122448978
 31
0.0
  0
LINE
  5
182
330
1F
100
AcDbEntity
  8
1
  6
Continuous
 62
     7
370
     9
100
AcDbLine
 10
75.75
 20
125.5306122448978
 30
0.0
 11
75.75
 21
123.5306122448978
 31
0.0
  0
LINE
  5
183
330
1F
100
AcDbEntity
  8
1
  6
Continuous
 62
     7
370
     9
100
AcDbLine
 10
75.75
 20
125.5306122448978
 30
0.0
 11
105.7500003061617
 21
125.5306122448978
 31
0.0
  0
LINE
  5
184
330
1F
100
AcDbEntity
  8
1
  6
Continuous
 62
     7
370
     9
100
AcDbLine
 10
105.7500003061617
 20
125.5306122448978
 30
0.0
 11
105.7500003061617
 21
123.5306122448978
 31
0.0
  0
LINE
  5
185
330
1F
100
AcDbEntity
  8
1
  6
Continuous
 62
     7
370
     9
100
AcDbLine
 10
73.75
 20
86.53061224489784
 30
0.0
 11
73.75
 21
121.5306122448978
 31
0.0
  0
LINE
  5
186
330
1F
100
AcDbEntity
  8
1
  6
Continuous
 62
     7
370
     9
100
AcDbLine
 10
73.75
 20
121.5306122448978
 30
0.0
 11
107.75
 21
121.5306122448978
 31
0.0
  0
LINE
  5
187
330
1F
100
AcDbEntity
  8
1
  6
Continuous
 62
     7
370
     9
100
AcDbLine
 10
107.75
 20
121.5306122448978
 30
0.0
 11
107.75
 21
86.53061224489784
 31
0.0
  0
LINE
  5
188
330
1F
100
AcDbEntity
  8
1
  6
Continuous
 62
     7
370
     9
100
AcDbLine
 10
105.75
 20
123.5306122448978
 30
0.0
 11
126.4068542494924
 21
102.8737579954055
 31
0.0
  0
ARC
  5
189
330
1F
100
AcDbEntity
  8
1
  6
Continuous
 62
     7
370
     9
100
AcDbCircle
 10
132.0637084989847
 20
108.5306122448978
 30
0.0
 40
8.0
100
AcDbArc
 50
224.9999999999996
 51
269.9999999999998
  0
LINE
  5
18A
330
1F
100
AcDbEntity
  8
1
  6
Continuous
 62
     7
370
     9
100
AcDbLine
 10
371.7500003061617
 20
121.5306122448978
 30
0.0
 11
369.7500003061617
 21
123.5306122448978
 31
0.0
  0
LINE
  5
18B
330
1F
100
AcDbEntity
  8
1
  6
Continuous
 62
     7
370
     9
100
AcDbLine
 10
369.7500003061617
 20
125.5306122448978
 30
0.0
 11
369.7500003061617
 21
123.5306122448978
 31
0.0
  0
LINE
  5
18C
330
1F
100
AcDbEntity
  8
1
  6
Continuous
 62
     7
370
     9
100
AcDbLine
 10
369.7500003061617
 20
125.5306122448978
 30
0.0
 11
339.75
 21
125.5306122448978
 31
0.0
  0
LINE
  5
18D
330
1F
100
AcDbEntity
  8
1
  6
Continuous
 62
     7
370
     9
100
AcDbLine
 10
339.75
 20
125.5306122448978
 30
0.0
 11
339.75
 21
123.5306122448978
 31
0.0
  0
LINE
  5
18E
330
1F
100
AcDbEntity
  8
1
  6
Continuous
 62
     7
370
     9
100
AcDbLine
 10
371.7500003061617
 20
86.53061224489784
 30
0.0
 11
371.7500003061617
 21
121.5306122448978
 31
0.0
  0
LINE
  5
18F
330
1F
100
AcDbEntity
  8
1
  6
Continuous
 62
     7
370
     9
100
AcDbLine
 10
371.7500003061617
 20
121.5306122448978
 30
0.0
 11
337.7500003061617
 21
121.5306122448978
 31
0.0
  0
LINE
  5
190
330
1F
100
AcDbEntity
  8
1
  6
Continuous
 62
     7
370
     9
100
AcDbLine
 10
337.7500003061617
 20
121.5306122448978
 30
0.0
 11
337.7500003061617
 21
86.53061224489784
 31
0.0
  0
LINE
  5
191
330
1F
100
AcDbEntity
  8
1
  6
Continuous
 62
     7
370
     9
100
AcDbLine
 10
339.7500003061617
 20
123.5306122448978
 30
0.0
 11
319.0931460566693
 21
102.8737579954055
 31
0.0
  0
LINE
  5
192
330
1F
100
AcDbEntity
  8
1
  6
Continuous
 62
     7
370
     9
100
AcDbLine
 10
308.75
 20
114.0148367559074
 30
0.0
 11
136.75
 21
114.0148367559074
 31
0.0
  0
LINE
  5
193
330
1F
100
AcDbEntity
  8
1
  6
Continuous
 62
     7
370
     9
100
AcDbLine
 10
308.75
 20
114.0148367559074
 30
0.0
 11
308.75
 21
100.5306122448978
 31
0.0
  0
LINE
  5
194
330
1F
100
AcDbEntity
  8
1
  6
Continuous
 62
     7
370
     9
100
AcDbLine
 10
132.0637084989847
 20
100.5306122448978
 30
0.0
 11
313.436291807177
 21
100.5306122448978
 31
0.0
  0
ARC
  5
195
330
1F
100
AcDbEntity
  8
1
  6
Continuous
 62
     7
370
     9
100
AcDbCircle
 10
313.436291807177
 20
108.5306122448978
 30
0.0
 40
8.0
100
AcDbArc
 50
269.9999999999998
 51
314.9999999999993
  0
CIRCLE
  5
196
330
1F
100
AcDbEntity
  8
1
  6
Continuous
 62
     7
370
     9
100
AcDbCircle
 10
165.75
 20
95.53061224489784
 30
0.0
 40
3.5
  0
LINE
  5
197
330
1F
100
AcDbEntity
  8
1
  6
Continuous
 62
     7
370
     9
100
AcDbLine
 10
282.0265075826698
 20
95.53061224489784
 30
0.0
 11
277.8586281647904
 21
95.53061224489784
 31
0.0
  0
CIRCLE
  5
198
330
1F
100
AcDbEntity
  8
1
  6
Continuous
 62
     7
370
     9
100
AcDbCircle
 10
279.7500003061617
 20
95.53061224489784
 30
0.0
 40
4.0
  0
CIRCLE
  5
199
330
1F
100
AcDbEntity
  8
1
  6
Continuous
 62
     7
370
     9
100
AcDbCircle
 10
279.7500003061617
 20
95.53061224489784
 30
0.0
 40
3.5
  0
LINE
  5
19A
330
1F
100
AcDbEntity
  8
1
  6
Continuous
 62
     7
370
     9
100
AcDbLine
 10
107.75
 20
91.53061224489784
 30
0.0
 11
337.7500003061617
 21
91.53061224489784
 31
0.0
  0
LINE
  5
19B
330
1F
100
AcDbEntity
  8
1
  6
Continuous
 62
     7
370
     9
100
AcDbLine
 10
73.75
 20
100.5306122448978
 30
0.0
 11
72.75
 21
100.5306122448978
 31
0.0
  0
LINE
  5
19C
330
1F
100
AcDbEntity
  8
1
  6
Continuous
 62
     7
370
     9
100
AcDbLine
 10
371.7500003061617
 20
100.5306122448978
 30
0.0
 11
372.7500003061617
 21
100.5306122448978
 31
0.0
  0
LINE
  5
19D
330
1F
100
AcDbEntity
  8
1
  6
Continuous
 62
     7
370
     9
100
AcDbLine
 10
372.7500003061617
 20
100.5306122448978
 30
0.0
 11
372.7500003061617
 21
83.53061224489784
 31
0.0
  0
LINE
  5
19E
330
1F
100
AcDbEntity
  8
1
  6
Continuous
 62
     7
370
     9
100
AcDbLine
 10
369.7500003061617
 20
123.5306122448978
 30
0.0
 11
339.7500003061617
 21
123.5306122448978
 31
0.0
  0
LINE
  5
19F
330
1F
100
AcDbEntity
  8
1
  6
Continuous
 62
     7
370
     9
100
AcDbLine
 10
75.75
 20
123.5306122448978
 30
0.0
 11
105.75
 21
123.5306122448978
 31
0.0
  0
LINE
  5
1A0
330
1F
100
AcDbEntity
  8
1
  6
Continuous
 62
     7
370
     9
100
AcDbLine
 10
60.34742073804392
 20
78.53061224489784
 30
0.0
 11
72.75
 21
78.53061224489784
 31
0.0
  0
LINE
  5
1A1
330
1F
100
AcDbEntity
  8
1
  6
Continuous
 62
     7
370
     9
100
AcDbLine
 10
72.75
 20
100.5306122448978
 30
0.0
 11
72.75
 21
77.53061224489784
 31
0.0
  0
LINE
  5
1A2
330
1F
100
AcDbEntity
  8
1
  6
Continuous
 62
     7
370
     9
100
AcDbLine
 10
72.75
 20
77.53061224489784
 30
0.0
 11
80.75
 21
77.53061224489784
 31
0.0
  0
LINE
  5
1A3
330
1F
100
AcDbEntity
  8
1
  6
Continuous
 62
     7
370
     9
100
AcDbLine
 10
80.75
 20
86.53061224489784
 30
0.0
 11
80.75
 21
77.53061224489784
 31
0.0
  0
LINE
  5
1A4
330
1F
100
AcDbEntity
  8
1
  6
Continuous
 62
     7
370
     9
100
AcDbLine
 10
80.75
 20
78.53061224489784
 30
0.0
 11
88.75
 21
78.53061224489784
 31
0.0
  0
LINE
  5
1A5
330
1F
100
AcDbEntity
  8
1
  6
Continuous
 62
     7
370
     9
100
AcDbLine
 10
90.75
 20
83.53061224489784
 30
0.0
 11
90.75
 21
80.53061224489784
 31
0.0
  0
ARC
  5
1A6
330
1F
100
AcDbEntity
  8
1
  6
Continuous
 62
     7
370
     9
100
AcDbCircle
 10
88.75
 20
80.53061224489784
 30
0.0
 40
2.0
100
AcDbArc
 50
269.9999999999998
 51
0.0
  0
LINE
  5
1A7
330
1F
100
AcDbEntity
  8
1
  6
Continuous
 62
     7
370
     9
100
AcDbLine
 10
56.29531574843895
 20
83.53061224489784
 30
0.0
 11
372.75
 21
83.53061224489784
 31
0.0
  0
POLYLINE
  5
1A8
330
1F
100
AcDbEntity
  8
1
  6
Continuous
 62
     7
370
     9
100
AcDb2dPolyline
 66
     1
 10
0.0
 20
0.0
 30
0.0
 70
     2
  0
VERTEX
  5
1AA
330
1A8
100
AcDbEntity
  8
1
  6
Continuous
 62
     7
370
     9
100
AcDbVertex
100
AcDb2dVertex
 10
56.29531574843895
 20
83.53061224489784
 30
0.0
  0
VERTEX
  5
1AB
330
1A8
100
AcDbEntity
  8
1
  6
Continuous
 62
     7
370
     9
100
AcDbVertex
100
AcDb2dVertex
 10
56.29384215476735
 20
83.51762239712161
 30
0.0
  0
VERTEX
  5
1AC
330
1A8
100
AcDbEntity
  8
1
  6
Continuous
 62
     7
370
     9
100
AcDbVertex
100
AcDb2dVertex
 10
56.28947044568007
 20
83.47901000357683
 30
0.0
  0
VERTEX
  5
1AD
330
1A8
100
AcDbEntity
  8
1
  6
Continuous
 62
     7
370
     9
100
AcDbVertex
100
AcDb2dVertex
 10
56.2823964550208
 20
83.41585264638024
 30
0.0
  0
VERTEX
  5
1AE
330
1A8
100
AcDbEntity
  8
1
  6
Continuous
 62
     7
370
     9
100
AcDbVertex
100
AcDb2dVertex
 10
56.27308961895711
 20
83.32996095034297
 30
0.0
  0
VERTEX
  5
1AF
330
1A8
100
AcDbEntity
  8
1
  6
Continuous
 62
     7
370
     9
100
AcDbVertex
100
AcDb2dVertex
 10
56.26244639146483
 20
83.22388201428143
 30
0.0
  0
VERTEX
  5
1B0
330
1A8
100
AcDbEntity
  8
1
  6
Continuous
 62
     7
370
     9
100
AcDbVertex
100
AcDb2dVertex
 10
56.25190074763631
 20
83.10087281829446
 30
0.0
  0
VERTEX
  5
1B1
330
1A8
100
AcDbEntity
  8
1
  6
Continuous
 62
     7
370
     9
100
AcDbVertex
100
AcDb2dVertex
 10
56.24342481889568
 20
82.96482401342752
 30
0.0
  0
VERTEX
  5
1B2
330
1A8
100
AcDbEntity
  8
1
  6
Continuous
 62
     7
370
     9
100
AcDbVertex
100
AcDb2dVertex
 10
56.23937587899886
 20
82.82012226557615
 30
0.0
  0
VERTEX
  5
1B3
330
1A8
100
AcDbEntity
  8
1
  6
Continuous
 62
     7
370
     9
100
AcDbVertex
100
AcDb2dVertex
 10
56.24218452223589
 20
82.67145194293863
 30
0.0
  0
VERTEX
  5
1B4
330
1A8
100
AcDbEntity
  8
1
  6
Continuous
 62
     7
370
     9
100
AcDbVertex
100
AcDb2dVertex
 10
56.25392349120181
 20
82.52355139208568
 30
0.0
  0
VERTEX
  5
1B5
330
1A8
100
AcDbEntity
  8
1
  6
Continuous
 62
     7
370
     9
100
AcDbVertex
100
AcDb2dVertex
 10
56.27583580178607
 20
82.38095170551394
 30
0.0
  0
VERTEX
  5
1B6
330
1A8
100
AcDbEntity
  8
1
  6
Continuous
 62
     7
370
     9
100
AcDbVertex
100
AcDb2dVertex
 10
56.30792401780272
 20
82.24773338218077
 30
0.0
  0
VERTEX
  5
1B7
330
1A8
100
AcDbEntity
  8
1
  6
Continuous
 62
     7
370
     9
100
AcDbVertex
100
AcDb2dVertex
 10
56.34870271197278
 20
82.12733638305421
 30
0.0
  0
VERTEX
  5
1B8
330
1A8
100
AcDbEntity
  8
1
  6
Continuous
 62
     7
370
     9
100
AcDbVertex
100
AcDb2dVertex
 10
56.39519165539564
 20
82.02245125801505
 30
0.0
  0
VERTEX
  5
1B9
330
1A8
100
AcDbEntity
  8
1
  6
Continuous
 62
     7
370
     9
100
AcDbVertex
100
AcDb2dVertex
 10
56.44318239698387
 20
81.93500463379762
 30
0.0
  0
VERTEX
  5
1BA
330
1A8
100
AcDbEntity
  8
1
  6
Continuous
 62
     7
370
     9
100
AcDbVertex
100
AcDb2dVertex
 10
56.48775501148023
 20
81.86623439040234
 30
0.0
  0
VERTEX
  5
1BB
330
1A8
100
AcDbEntity
  8
1
  6
Continuous
 62
     7
370
     9
100
AcDbVertex
100
AcDb2dVertex
 10
56.52396727836654
 20
81.81683225158515
 30
0.0
  0
VERTEX
  5
1BC
330
1A8
100
AcDbEntity
  8
1
  6
Continuous
 62
     7
370
     9
100
AcDbVertex
100
AcDb2dVertex
 10
56.5475978961498
 20
81.78711825081157
 30
0.0
  0
VERTEX
  5
1BD
330
1A8
100
AcDbEntity
  8
1
  6
Continuous
 62
     7
370
     9
100
AcDbVertex
100
AcDb2dVertex
 10
56.55580821205643
 20
81.77720569126879
 30
0.0
  0
VERTEX
  5
1BE
330
1A8
100
AcDbEntity
  8
1
  6
Continuous
 62
     7
370
     9
100
AcDbVertex
100
AcDb2dVertex
 10
56.5641511545898
 20
81.76733523575295
 30
0.0
  0
VERTEX
  5
1BF
330
1A8
100
AcDbEntity
  8
1
  6
Continuous
 62
     7
370
     9
100
AcDbVertex
100
AcDb2dVertex
 10
56.58972562004023
 20
81.7382363972411
 30
0.0
  0
VERTEX
  5
1C0
330
1A8
100
AcDbEntity
  8
1
  6
Continuous
 62
     7
370
     9
100
AcDbVertex
100
AcDb2dVertex
 10
56.63400078942895
 20
81.69137059753612
 30
0.0
  0
VERTEX
  5
1C1
330
1A8
100
AcDbEntity
  8
1
  6
Continuous
 62
     7
370
     9
100
AcDbVertex
100
AcDb2dVertex
 10
56.6989039751807
 20
81.6289371151635
 30
0.0
  0
VERTEX
  5
1C2
330
1A8
100
AcDbEntity
  8
1
  6
Continuous
 62
     7
370
     9
100
AcDbVertex
100
AcDb2dVertex
 10
56.78616224521955
 20
81.55357530012616
 30
0.0
  0
VERTEX
  5
1C3
330
1A8
100
AcDbEntity
  8
1
  6
Continuous
 62
     7
370
     9
100
AcDbVertex
100
AcDb2dVertex
 10
56.89659882809044
 20
81.46804719741189
 30
0.0
  0
VERTEX
  5
1C4
330
1A8
100
AcDbEntity
  8
1
  6
Continuous
 62
     7
370
     9
100
AcDbVertex
100
AcDb2dVertex
 10
57.0295415192007
 20
81.37497051877911
 30
0.0
  0
VERTEX
  5
1C5
330
1A8
100
AcDbEntity
  8
1
  6
Continuous
 62
     7
370
     9
100
AcDbVertex
100
AcDb2dVertex
 10
57.18247441378752
 20
81.27665777381483
 30
0.0
  0
VERTEX
  5
1C6
330
1A8
100
AcDbEntity
  8
1
  6
Continuous
 62
     7
370
     9
100
AcDbVertex
100
AcDb2dVertex
 10
57.3510094334848
 20
81.17508977128584
 30
0.0
  0
VERTEX
  5
1C7
330
1A8
100
AcDbEntity
  8
1
  6
Continuous
 62
     7
370
     9
100
AcDbVertex
100
AcDb2dVertex
 10
57.5291833456406
 20
81.07201734511881
 30
0.0
  0
VERTEX
  5
1C8
330
1A8
100
AcDbEntity
  8
1
  6
Continuous
 62
     7
370
     9
100
AcDbVertex
100
AcDb2dVertex
 10
57.71001586780027
 20
80.96915241471852
 30
0.0
  0
VERTEX
  5
1C9
330
1A8
100
AcDbEntity
  8
1
  6
Continuous
 62
     7
370
     9
100
AcDbVertex
100
AcDb2dVertex
 10
57.88621114210465
 20
80.86838635627042
 30
0.0
  0
VERTEX
  5
1CA
330
1A8
100
AcDbEntity
  8
1
  6
Continuous
 62
     7
370
     9
100
AcDbVertex
100
AcDb2dVertex
 10
58.05086025039225
 20
80.77196583312434
 30
0.0
  0
VERTEX
  5
1CB
330
1A8
100
AcDbEntity
  8
1
  6
Continuous
 62
     7
370
     9
100
AcDbVertex
100
AcDb2dVertex
 10
58.19801140562333
 20
80.68256571230542
 30
0.0
  0
VERTEX
  5
1CC
330
1A8
100
AcDbEntity
  8
1
  6
Continuous
 62
     7
370
     9
100
AcDbVertex
100
AcDb2dVertex
 10
58.3230138096047
 20
80.60322329881426
 30
0.0
  0
VERTEX
  5
1CD
330
1A8
100
AcDbEntity
  8
1
  6
Continuous
 62
     7
370
     9
100
AcDbVertex
100
AcDb2dVertex
 10
58.42260052830807
 20
80.53713199724643
 30
0.0
  0
VERTEX
  5
1CE
330
1A8
100
AcDbEntity
  8
1
  6
Continuous
 62
     7
370
     9
100
AcDbVertex
100
AcDb2dVertex
 10
58.49474013069172
 20
80.48732753907163
 30
0.0
  0
VERTEX
  5
1CF
330
1A8
100
AcDbEntity
  8
1
  6
Continuous
 62
     7
370
     9
100
AcDbVertex
100
AcDb2dVertex
 10
58.53834038550416
 20
80.4563276520585
 30
0.0
  0
VERTEX
  5
1D0
330
1A8
100
AcDbEntity
  8
1
  6
Continuous
 62
     7
370
     9
100
AcDbVertex
100
AcDb2dVertex
 10
58.55291709979031
 20
80.44579976611284
 30
0.0
  0
VERTEX
  5
1D1
330
1A8
100
AcDbEntity
  8
1
  6
Continuous
 62
     7
370
     9
100
AcDbVertex
100
AcDb2dVertex
 10
58.56744669444252
 20
80.43522075834153
 30
0.0
  0
VERTEX
  5
1D2
330
1A8
100
AcDbEntity
  8
1
  6
Continuous
 62
     7
370
     9
100
AcDbVertex
100
AcDb2dVertex
 10
58.61036254607831
 20
80.40347288464423
 30
0.0
  0
VERTEX
  5
1D3
330
1A8
100
AcDbEntity
  8
1
  6
Continuous
 62
     7
370
     9
100
AcDbVertex
100
AcDb2dVertex
 10
58.6797123287835
 20
80.35057597378025
 30
0.0
  0
VERTEX
  5
1D4
330
1A8
100
AcDbEntity
  8
1
  6
Continuous
 62
     7
370
     9
100
AcDbVertex
100
AcDb2dVertex
 10
58.77245233607677
 20
80.27672586686009
 30
0.0
  0
VERTEX
  5
1D5
330
1A8
100
AcDbEntity
  8
1
  6
Continuous
 62
     7
370
     9
100
AcDbVertex
100
AcDb2dVertex
 10
58.88472523952385
 20
80.18249987198618
 30
0.0
  0
VERTEX
  5
1D6
330
1A8
100
AcDbEntity
  8
1
  6
Continuous
 62
     7
370
     9
100
AcDbVertex
100
AcDb2dVertex
 10
59.01218206570581
 20
80.06907565503379
 30
0.0
  0
VERTEX
  5
1D7
330
1A8
100
AcDbEntity
  8
1
  6
Continuous
 62
     7
370
     9
100
AcDbVertex
100
AcDb2dVertex
 10
59.15029854918153
 20
79.93841314937316
 30
0.0
  0
VERTEX
  5
1D8
330
1A8
100
AcDbEntity
  8
1
  6
Continuous
 62
     7
370
     9
100
AcDbVertex
100
AcDb2dVertex
 10
59.29464174838343
 20
79.79335611189221
 30
0.0
  0
VERTEX
  5
1D9
330
1A8
100
AcDbEntity
  8
1
  6
Continuous
 62
     7
370
     9
100
AcDbVertex
100
AcDb2dVertex
 10
59.44105697773276
 20
79.63762601075885
 30
0.0
  0
VERTEX
  5
1DA
330
1A8
100
AcDbEntity
  8
1
  6
Continuous
 62
     7
370
     9
100
AcDbVertex
100
AcDb2dVertex
 10
59.5857642744378
 20
79.47570226041715
 30
0.0
  0
VERTEX
  5
1DB
330
1A8
100
AcDbEntity
  8
1
  6
Continuous
 62
     7
370
     9
100
AcDbVertex
100
AcDb2dVertex
 10
59.7253733389023
 20
79.31260459534673
 30
0.0
  0
VERTEX
  5
1DC
330
1A8
100
AcDbEntity
  8
1
  6
Continuous
 62
     7
370
     9
100
AcDbVertex
100
AcDb2dVertex
 10
59.85684176190831
 20
79.15361081986376
 30
0.0
  0
VERTEX
  5
1DD
330
1A8
100
AcDbEntity
  8
1
  6
Continuous
 62
     7
370
     9
100
AcDbVertex
100
AcDb2dVertex
 10
59.97741003965066
 20
79.00395266394945
 30
0.0
  0
VERTEX
  5
1DE
330
1A8
100
AcDbEntity
  8
1
  6
Continuous
 62
     7
370
     9
100
AcDbVertex
100
AcDb2dVertex
 10
60.08454685094144
 20
78.86853235794459
 30
0.0
  0
VERTEX
  5
1DF
330
1A8
100
AcDbEntity
  8
1
  6
Continuous
 62
     7
370
     9
100
AcDbVertex
100
AcDb2dVertex
 10
60.17592991925053
 20
78.75169345277273
 30
0.0
  0
VERTEX
  5
1E0
330
1A8
100
AcDbEntity
  8
1
  6
Continuous
 62
     7
370
     9
100
AcDbVertex
100
AcDb2dVertex
 10
60.24947400893536
 20
78.65706407401541
 30
0.0
  0
VERTEX
  5
1E1
330
1A8
100
AcDbEntity
  8
1
  6
Continuous
 62
     7
370
     9
100
AcDbVertex
100
AcDb2dVertex
 10
60.3034019670899
 20
78.58747328630223
 30
0.0
  0
VERTEX
  5
1E2
330
1A8
100
AcDbEntity
  8
1
  6
Continuous
 62
     7
370
     9
100
AcDbVertex
100
AcDb2dVertex
 10
60.33634128121714
 20
78.54492597133242
 30
0.0
  0
VERTEX
  5
1E3
330
1A8
100
AcDbEntity
  8
1
  6
Continuous
 62
     7
370
     9
100
AcDbVertex
100
AcDb2dVertex
 10
60.34742073804393
 20
78.53061224489784
 30
0.0
  0
SEQEND
  5
1A9
330
1A8
100
AcDbEntity
  8
1
  6
Continuous
370
     9
  0
LINE
  5
1E4
330
1F
100
AcDbEntity
  8
1
  6
Continuous
 62
     7
370
     9
100
AcDbLine
 10
136.75
 20
114.0148367559074
 30
0.0
 11
136.75
 21
100.5306122448978
 31
0.0
  0
LINE
  5
1E5
330
1F
100
AcDbEntity
  8
1
  6
Continuous
 62
     7
370
     9
100
AcDbLine
 10
336.3536577442792
 20
353.2011746987142
 30
0.0
 11
346.0787097193311
 21
353.2011746987142
 31
0.0
  0
LINE
  5
1E6
330
1F
100
AcDbEntity
  8
1
  6
Continuous
 62
     7
370
     9
100
AcDbLine
 10
336.3536577442792
 20
240.2011746987143
 30
0.0
 11
346.0787097193311
 21
240.2011746987143
 31
0.0
  0
LINE
  5
1E7
330
1F
100
AcDbEntity
  8
1
  6
Continuous
 62
     7
370
     9
100
AcDbLine
 10
343.5316722972937
 20
240.2011746987143
 30
0.0
 11
342.7552151619861
 21
243.0989521775815
 31
0.0
  0
LINE
  5
1E8
330
1F
100
AcDbEntity
  8
1
  6
Continuous
 62
     7
370
     9
100
AcDbLine
 10
343.5316722972937
 20
240.2011746987143
 30
0.0
 11
344.3081294326013
 21
243.0989521775815
 31
0.0
  0
LINE
  5
1E9
330
1F
100
AcDbEntity
  8
1
  6
Continuous
 62
     7
370
     9
100
AcDbLine
 10
342.7552151619861
 20
243.0989521775815
 30
0.0
 11
344.3081294326013
 21
243.0989521775815
 31
0.0
  0
LINE
  5
1EA
330
1F
100
AcDbEntity
  8
1
  6
Continuous
 62
     7
370
     9
100
AcDbLine
 10
343.5316722972937
 20
240.925619068431
 30
0.0
 11
343.14344372964
 21
242.3745078078647
 31
0.0
  0
LINE
  5
1EB
330
1F
100
AcDbEntity
  8
1
  6
Continuous
 62
     7
370
     9
100
AcDbLine
 10
343.5316722972937
 20
240.925619068431
 30
0.0
 11
343.9199008649475
 21
242.3745078078647
 31
0.0
  0
LINE
  5
1EC
330
1F
100
AcDbEntity
  8
1
  6
Continuous
 62
     7
370
     9
100
AcDbLine
 10
343.14344372964
 20
242.3745078078647
 30
0.0
 11
343.9199008649475
 21
242.3745078078647
 31
0.0
  0
POLYLINE
  5
1ED
330
1F
100
AcDbEntity
  8
1
  6
Continuous
 62
     7
370
     9
100
AcDb2dPolyline
 66
     1
 10
0.0
 20
0.0
 30
0.0
  0
VERTEX
  5
1EF
330
1ED
100
AcDbEntity
  8
1
  6
Continuous
 62
     7
370
     9
100
AcDbVertex
100
AcDb2dVertex
 10
343.5316722972937
 20
240.2011746987143
 30
0.0
  0
VERTEX
  5
1F0
330
1ED
100
AcDbEntity
  8
1
  6
Continuous
 62
     7
370
     9
100
AcDbVertex
100
AcDb2dVertex
 10
343.5316722972937
 20
245.5690780925162
 30
0.0
  0
SEQEND
  5
1EE
330
1ED
100
AcDbEntity
  8
1
  6
Continuous
370
     9
  0
LINE
  5
1F1
330
1F
100
AcDbEntity
  8
1
  6
Continuous
 62
     7
370
     9
100
AcDbLine
 10
343.5316722972937
 20
353.2011746987142
 30
0.0
 11
344.3081294326013
 21
350.303397219847
 31
0.0
  0
LINE
  5
1F2
330
1F
100
AcDbEntity
  8
1
  6
Continuous
 62
     7
370
     9
100
AcDbLine
 10
343.5316722972937
 20
353.2011746987142
 30
0.0
 11
342.7552151619861
 21
350.303397219847
 31
0.0
  0
LINE
  5
1F3
330
1F
100
AcDbEntity
  8
1
  6
Continuous
 62
     7
370
     9
100
AcDbLine
 10
344.3081294326013
 20
350.303397219847
 30
0.0
 11
342.7552151619861
 21
350.303397219847
 31
0.0
  0
LINE
  5
1F4
330
1F
100
AcDbEntity
  8
1
  6
Continuous
 62
     7
370
     9
100
AcDbLine
 10
343.5316722972937
 20
352.4767303289974
 30
0.0
 11
343.9199008649475
 21
351.0278415895638
 31
0.0
  0
LINE
  5
1F5
330
1F
100
AcDbEntity
  8
1
  6
Continuous
 62
     7
370
     9
100
AcDbLine
 10
343.5316722972937
 20
352.4767303289974
 30
0.0
 11
343.14344372964
 21
351.0278415895638
 31
0.0
  0
LINE
  5
1F6
330
1F
100
AcDbEntity
  8
1
  6
Continuous
 62
     7
370
     9
100
AcDbLine
 10
343.9199008649475
 20
351.0278415895638
 30
0.0
 11
343.14344372964
 21
351.0278415895638
 31
0.0
  0
POLYLINE
  5
1F7
330
1F
100
AcDbEntity
  8
1
  6
Continuous
 62
     7
370
     9
100
AcDb2dPolyline
 66
     1
 10
0.0
 20
0.0
 30
0.0
  0
VERTEX
  5
1F9
330
1F7
100
AcDbEntity
  8
1
  6
Continuous
 62
     7
370
     9
100
AcDbVertex
100
AcDb2dVertex
 10
343.5316722972937
 20
353.2011746987142
 30
0.0
  0
VERTEX
  5
1FA
330
1F7
100
AcDbEntity
  8
1
  6
Continuous
 62
     7
370
     9
100
AcDbVertex
100
AcDb2dVertex
 10
343.5316722972937
 20
345.1350864085241
 30
0.0
  0
SEQEND
  5
1F8
330
1F7
100
AcDbEntity
  8
1
  6
Continuous
370
     9
  0
LINE
  5
1FB
330
1F
100
AcDbEntity
  8
1
  6
Continuous
 62
     7
370
     9
100
AcDbLine
 10
373.5172492203706
 20
123.5306122448978
 30
0.0
 11
388.5679248960462
 21
123.5306122448978
 31
0.0
  0
LINE
  5
1FC
330
1F
100
AcDbEntity
  8
1
  6
Continuous
 62
     7
370
     9
100
AcDbLine
 10
375.9485122141336
 20
83.53061224489784
 30
0.0
 11
388.5679248960462
 21
83.53061224489784
 31
0.0
  0
LINE
  5
1FD
330
1F
100
AcDbEntity
  8
1
  6
Continuous
 62
     7
370
     9
100
AcDbLine
 10
388.5679248960462
 20
83.53061224489784
 30
0.0
 11
387.7914677607386
 21
86.42838972376505
 31
0.0
  0
LINE
  5
1FE
330
1F
100
AcDbEntity
  8
1
  6
Continuous
 62
     7
370
     9
100
AcDbLine
 10
388.5679248960462
 20
83.53061224489784
 30
0.0
 11
389.3443820313537
 21
86.42838972376504
 31
0.0
  0
LINE
  5
1FF
330
1F
100
AcDbEntity
  8
1
  6
Continuous
 62
     7
370
     9
100
AcDbLine
 10
387.7914677607386
 20
86.42838972376505
 30
0.0
 11
389.3443820313537
 21
86.42838972376504
 31
0.0
  0
LINE
  5
200
330
1F
100
AcDbEntity
  8
1
  6
Continuous
 62
     7
370
     9
100
AcDbLine
 10
388.5679248960462
 20
84.25505661461465
 30
0.0
 11
388.1796963283924
 21
85.70394535404824
 31
0.0
  0
LINE
  5
201
330
1F
100
AcDbEntity
  8
1
  6
Continuous
 62
     7
370
     9
100
AcDbLine
 10
388.5679248960462
 20
84.25505661461465
 30
0.0
 11
388.9561534636999
 21
85.70394535404824
 31
0.0
  0
LINE
  5
202
330
1F
100
AcDbEntity
  8
1
  6
Continuous
 62
     7
370
     9
100
AcDbLine
 10
388.1796963283924
 20
85.70394535404824
 30
0.0
 11
388.9561534636999
 21
85.70394535404824
 31
0.0
  0
POLYLINE
  5
203
330
1F
100
AcDbEntity
  8
1
  6
Continuous
 62
     7
370
     9
100
AcDb2dPolyline
 66
     1
 10
0.0
 20
0.0
 30
0.0
  0
VERTEX
  5
205
330
203
100
AcDbEntity
  8
1
  6
Continuous
 62
     7
370
     9
100
AcDbVertex
100
AcDb2dVertex
 10
388.5679248960462
 20
83.53061224489784
 30
0.0
  0
VERTEX
  5
206
330
203
100
AcDbEntity
  8
1
  6
Continuous
 62
     7
370
     9
100
AcDbVertex
100
AcDb2dVertex
 10
388.5679248960462
 20
85.45304378898228
 30
0.0
  0
SEQEND
  5
204
330
203
100
AcDbEntity
  8
1
  6
Continuous
370
     9
  0
LINE
  5
207
330
1F
100
AcDbEntity
  8
1
  6
Continuous
 62
     7
370
     9
100
AcDbLine
 10
388.5679248960462
 20
123.5306122448978
 30
0.0
 11
389.3443820313537
 21
120.6328347660306
 31
0.0
  0
LINE
  5
208
330
1F
100
AcDbEntity
  8
1
  6
Continuous
 62
     7
370
     9
100
AcDbLine
 10
388.5679248960462
 20
123.5306122448978
 30
0.0
 11
387.7914677607386
 21
120.6328347660306
 31
0.0
  0
LINE
  5
209
330
1F
100
AcDbEntity
  8
1
  6
Continuous
 62
     7
370
     9
100
AcDbLine
 10
389.3443820313537
 20
120.6328347660306
 30
0.0
 11
387.7914677607386
 21
120.6328347660306
 31
0.0
  0
LINE
  5
20A
330
1F
100
AcDbEntity
  8
1
  6
Continuous
 62
     7
370
     9
100
AcDbLine
 10
388.5679248960462
 20
122.806167875181
 30
0.0
 11
388.9561534636999
 21
121.3572791357474
 31
0.0
  0
LINE
  5
20B
330
1F
100
AcDbEntity
  8
1
  6
Continuous
 62
     7
370
     9
100
AcDbLine
 10
388.5679248960462
 20
122.806167875181
 30
0.0
 11
388.1796963283924
 21
121.3572791357474
 31
0.0
  0
LINE
  5
20C
330
1F
100
AcDbEntity
  8
1
  6
Continuous
 62
     7
370
     9
100
AcDbLine
 10
388.9561534636999
 20
121.3572791357474
 30
0.0
 11
388.1796963283924
 21
121.3572791357474
 31
0.0
  0
POLYLINE
  5
20D
330
1F
100
AcDbEntity
  8
1
  6
Continuous
 62
     7
370
     9
100
AcDb2dPolyline
 66
     1
 10
0.0
 20
0.0
 30
0.0
  0
VERTEX
  5
20F
330
20D
100
AcDbEntity
  8
1
  6
Continuous
 62
     7
370
     9
100
AcDbVertex
100
AcDb2dVertex
 10
388.5679248960462
 20
123.5306122448978
 30
0.0
  0
VERTEX
  5
210
330
20D
100
AcDbEntity
  8
1
  6
Continuous
 62
     7
370
     9
100
AcDbVertex
100
AcDb2dVertex
 10
388.5679248960462
 20
120.7642444126828
 30
0.0
  0
SEQEND
  5
20E
330
20D
100
AcDbEntity
  8
1
  6
Continuous
370
     9
  0
TEXT
  5
211
330
1F
100
AcDbEntity
  8
1
  6
Continuous
 62
     7
370
     9
100
AcDbText
 10
335.4364538406613
 20
285.3592569665962
 30
0.0
 40
10.5
  1
113
 41
0.5
100
AcDbText
  0
TEXT
  5
212
330
1F
100
AcDbEntity
  8
1
  6
Continuous
 62
     7
370
     9
100
AcDbText
 10
384.3800933936737
 20
98.49932973166716
 30
0.0
 40
10.5
  1
40
 41
0.5
100
AcDbText
  0
LINE
  5
213
330
1F
100
AcDbEntity
  8
1
  6
Continuous
 62
     7
370
     9
100
AcDbLine
 10
343.5316722972937
 20
353.2011746987142
 30
0.0
 11
343.5316722972937
 21
297.5662681912709
 31
0.0
  0
LINE
  5
214
330
1F
100
AcDbEntity
  8
1
  6
Continuous
 62
     7
370
     9
100
AcDbLine
 10
343.5316722972937
 20
285.9888253638279
 30
0.0
 11
343.5316722972937
 21
240.2011746987143
 31
0.0
  0
LINE
  5
215
330
1F
100
AcDbEntity
  8
1
  6
Continuous
 62
     7
370
     9
100
AcDbLine
 10
388.5679248960462
 20
123.5306122448978
 30
0.0
 11
388.5679248960462
 21
107.2331081081089
 31
0.0
  0
LINE
  5
216
330
1F
100
AcDbEntity
  8
1
  6
Continuous
 62
     7
370
     9
100
AcDbLine
 10
388.5679248960462
 20
98.89734927235
 30
0.0
 11
388.5679248960462
 21
83.53061224489784
 31
0.0
  0
DIMENSION
  5
22A
330
1F
100
AcDbEntity
  8
1
  6
Continuous
 62
     7
370
     9
100
AcDbDimension
  2
Dim1
 10
190.25
 20
259.5922557172557
 30
0.0
 11
222.75
 21
264.8422557172557
 31
0.0
 70
   160
  1
<>
 71
     5
 42
-1.0
 73
     0
 74
     0
 75
     0
  3
Standard
100
AcDbAlignedDimension
 13
190.25
 23
257.0452182952183
 33
0.0
 14
255.25
 24
255.6559251559252
 34
0.0
100
AcDbRotatedDimension
1001
ACAD
1000
DSTYLE
1002
{
1070
   344
1005
0
1070
   343
1005
0
1070
   173
1070
     1
1070
   289
1070
     2
1070
   279
1070
     2
1070
   288
1070
     1
1070
    77
1070
     3
1070
   172
1070
     1
1070
   174
1070
     0
1070
    74
1070
     0
1070
    73
1070
     0
1070
   284
1070
     8
1070
    78
1070
     8
1070
   140
1040
4.0
1070
    40
1040
3.0
1070
    42
1040
2.0
1070
    44
1040
0.0
1070
    43
1040
10.0
1070
   271
1070
     2
1070
    41
1040
4.0
1002
}
  0
DIMENSION
  5
23E
330
1F
100
AcDbEntity
  8
1
  6
Continuous
 62
     7
370
     9
100
AcDbDimension
  2
Dim2
 10
73.75
 20
102.4284693347199
 30
0.0
 11
90.75
 21
107.6784693347199
 31
0.0
 70
   160
  1
<>
 71
     5
 42
-1.0
 73
     0
 74
     0
 75
     0
  3
Standard
100
AcDbAlignedDimension
 13
73.75
 23
105.0912811850318
 33
0.0
 14
107.75
 24
105.0912811850318
 34
0.0
100
AcDbRotatedDimension
1001
ACAD
1000
DSTYLE
1002
{
1070
   344
1005
0
1070
   343
1005
0
1070
   173
1070
     1
1070
   289
1070
     2
1070
   279
1070
     2
1070
   288
1070
     1
1070
    77
1070
     3
1070
   172
1070
     1
1070
   174
1070
     0
1070
    74
1070
     0
1070
    73
1070
     0
1070
   284
1070
     8
1070
    78
1070
     8
1070
   140
1040
4.0
1070
    40
1040
3.0
1070
    42
1040
2.0
1070
    44
1040
0.0
1070
    43
1040
10.0
1070
   271
1070
     2
1070
    41
1040
4.0
1002
}
  0
DIMENSION
  5
252
330
1F
100
AcDbEntity
  8
1
  6
Continuous
 62
     7
370
     9
100
AcDbDimension
  2
Dim3
 10
371.7500003061617
 20
102.4284693347199
 30
0.0
 11
354.7500003061617
 21
107.6784693347199
 31
0.0
 70
   160
  1
<>
 71
     5
 42
-1.0
 73
     0
 74
     0
 75
     0
  3
Standard
100
AcDbAlignedDimension
 13
371.7500003061617
 23
105.0912811850318
 33
0.0
 14
337.7500003061617
 24
105.0912811850318
 34
0.0
 50
-0.0000000000001781
100
AcDbRotatedDimension
1001
ACAD
1000
DSTYLE
1002
{
1070
   344
1005
0
1070
   343
1005
0
1070
   173
1070
     1
1070
   289
1070
     2
1070
   279
1070
     2
1070
   288
1070
     1
1070
    77
1070
     3
1070
   172
1070
     1
1070
   174
1070
     0
1070
    74
1070
     0
1070
    73
1070
     0
1070
   284
1070
     8
1070
    78
1070
     8
1070
   140
1040
4.0
1070
    40
1040
3.0
1070
    42
1040
2.0
1070
    44
1040
0.0
1070
    43
1040
10.0
1070
   271
1070
     2
1070
    41
1040
4.0
1002
}
  0
DIMENSION
  5
266
330
1F
100
AcDbEntity
  8
1
  6
Continuous
 62
     7
370
     9
100
AcDbDimension
  2
Dim4
 10
205.75
 20
194.8598785083163
 30
0.0
 11
222.75
 21
200.1098785083163
 31
0.0
 70
   160
  1
<>
 71
     5
 42
-1.0
 73
     0
 74
     0
 75
     0
  3
Standard
100
AcDbAlignedDimension
 13
205.75
 23
198.7962090696468
 33
0.0
 14
239.75
 24
197.1753670738048
 34
0.0
100
AcDbRotatedDimension
1001
ACAD
1000
DSTYLE
1002
{
1070
   344
1005
0
1070
   343
1005
0
1070
   173
1070
     1
1070
   289
1070
     2
1070
   279
1070
     2
1070
   288
1070
     1
1070
    77
1070
     3
1070
   172
1070
     1
1070
   174
1070
     0
1070
    74
1070
     0
1070
    73
1070
     0
1070
   284
1070
     8
1070
    78
1070
     8
1070
   140
1040
4.0
1070
    40
1040
3.0
1070
    42
1040
2.0
1070
    44
1040
0.0
1070
    43
1040
10.0
1070
   271
1070
     2
1070
    41
1040
4.0
1002
}
  0
DIMENSION
  5
27A
330
1F
100
AcDbEntity
  8
1
  6
Continuous
 62
     7
370
     9
100
AcDbDimension
  2
Dim5
 10
90.75
 20
144.7295510654891
 30
0.0
 11
222.7500001530808
 21
149.9795510654891
 31
0.0
 70
   160
  1
<>
 71
     5
 42
-1.0
 73
     0
 74
     0
 75
     0
  3
Standard
100
AcDbAlignedDimension
 13
90.75
 23
125.5306122448978
 33
0.0
 14
354.7500003061617
 24
125.5306122448978
 34
0.0
100
AcDbRotatedDimension
1001
ACAD
1000
DSTYLE
1002
{
1070
   344
1005
0
1070
   343
1005
0
1070
   173
1070
     1
1070
   289
1070
     2
1070
   279
1070
     2
1070
   288
1070
     1
1070
    77
1070
     3
1070
   172
1070
     1
1070
   174
1070
     0
1070
    74
1070
     0
1070
    73
1070
     0
1070
   284
1070
     8
1070
    78
1070
     8
1070
   140
1040
4.0
1070
    40
1040
3.0
1070
    42
1040
2.0
1070
    44
1040
0.0
1070
    43
1040
10.0
1070
   271
1070
     2
1070
    41
1040
4.0
1002
}
  0
DIMENSION
  5
28E
330
1F
100
AcDbEntity
  8
1
  6
Continuous
 62
     7
370
     9
100
AcDbDimension
  2
Dim6
 10
136.75
 20
122.9639585498966
 30
0.0
 11
222.75
 21
128.2139585498966
 31
0.0
 70
   160
  1
<>
 71
     5
 42
-1.0
 73
     0
 74
     0
 75
     0
  3
Standard
100
AcDbAlignedDimension
 13
136.75
 23
114.0148367559074
 33
0.0
 14
308.75
 24
114.0148367559074
 34
0.0
100
AcDbRotatedDimension
1001
ACAD
1000
DSTYLE
1002
{
1070
   344
1005
0
1070
   343
1005
0
1070
   173
1070
     1
1070
   289
1070
     2
1070
   279
1070
     2
1070
   288
1070
     1
1070
    77
1070
     3
1070
   172
1070
     1
1070
   174
1070
     0
1070
    74
1070
     0
1070
    73
1070
     0
1070
   284
1070
     8
1070
    78
1070
     8
1070
   140
1040
4.0
1070
    40
1040
3.0
1070
    42
1040
2.0
1070
    44
1040
0.0
1070
    43
1040
10.0
1070
   271
1070
     2
1070
    41
1040
4.0
1002
}
  0
DIMENSION
  5
2A2
330
1F
100
AcDbEntity
  8
1
  6
Continuous
 62
     7
370
     9
100
AcDbDimension
  2
Dim7
 10
372.7500003061614
 20
58.13027871621723
 30
0.0
 11
222.7500001530806
 21
63.38027871621723
 31
0.0
 70
   160
  1
<>
 71
     5
 42
-1.0
 73
     0
 74
     0
 75
     0
  3
Standard
100
AcDbAlignedDimension
 13
372.7500003061617
 23
83.53061224489784
 33
0.0
 14
72.75
 24
77.53061224489784
 34
0.0
100
AcDbRotatedDimension
1001
ACAD
1000
DSTYLE
1002
{
1070
   344
1005
0
1070
   343
1005
0
1070
   173
1070
     1
1070
   289
1070
     2
1070
   279
1070
     2
1070
   288
1070
     1
1070
    77
1070
     3
1070
   172
1070
     1
1070
   174
1070
     0
1070
    74
1070
     0
1070
    73
1070
     0
1070
   284
1070
     8
1070
    78
1070
     8
1070
   140
1040
4.0
1070
    40
1040
3.0
1070
    42
1040
2.0
1070
    44
1040
0.0
1070
    43
1040
10.0
1070
   271
1070
     2
1070
    41
1040
4.0
1002
}
  0
DIMENSION
  5
2B6
330
1F
100
AcDbEntity
  8
1
  6
Continuous
 62
     7
370
     9
100
AcDbDimension
  2
Dim8
 10
212.75
 20
351.7342288201665
 30
0.0
 11
222.7499999999999
 21
356.9842288201665
 31
0.0
 70
   160
  1
<>
 71
     5
 42
-1.0
 73
     0
 74
     0
 75
     0
  3
Standard
100
AcDbAlignedDimension
 13
212.75
 23
352.7761986746363
 33
0.0
 14
232.75
 24
352.8919731029108
 34
0.0
100
AcDbRotatedDimension
1001
ACAD
1000
DSTYLE
1002
{
1070
   344
1005
0
1070
   343
1005
0
1070
   173
1070
     1
1070
   289
1070
     2
1070
   279
1070
     2
1070
   288
1070
     1
1070
    77
1070
     3
1070
   172
1070
     1
1070
   174
1070
     0
1070
    74
1070
     0
1070
    73
1070
     0
1070
   284
1070
     8
1070
    78
1070
     8
1070
   140
1040
4.0
1070
    40
1040
3.0
1070
    42
1040
2.0
1070
    44
1040
0.0
1070
    43
1040
10.0
1070
   271
1070
     2
1070
    41
1040
4.0
1002
}
  0
DIMENSION
  5
2CA
330
1F
100
AcDbEntity
  8
1
  6
Continuous
 62
     7
370
     9
100
AcDbDimension
  2
Dim9
 10
194.7500000000001
 20
436.7126591735966
 30
0.0
 11
222.7500000000001
 21
441.9626591735966
 31
0.0
 70
   160
  1
<>
 71
     5
 42
-1.0
 73
     0
 74
     0
 75
     0
  3
Standard
100
AcDbAlignedDimension
 13
194.75
 23
392.0237298596674
 33
0.0
 14
250.7500000000001
 24
394.5306122448978
 34
0.0
100
AcDbRotatedDimension
1001
ACAD
1000
DSTYLE
1002
{
1070
   344
1005
0
1070
   343
1005
0
1070
   173
1070
     1
1070
   289
1070
     2
1070
   279
1070
     2
1070
   288
1070
     1
1070
    77
1070
     3
1070
   172
1070
     1
1070
   174
1070
     0
1070
    74
1070
     0
1070
    73
1070
     0
1070
   284
1070
     8
1070
    78
1070
     8
1070
   140
1040
4.0
1070
    40
1040
3.0
1070
    42
1040
2.0
1070
    44
1040
0.0
1070
    43
1040
10.0
1070
   271
1070
     2
1070
    41
1040
4.0
1002
}
  0
DIMENSION
  5
2DC
330
1F
100
AcDbEntity
  8
1
  6
Continuous
 62
     7
370
     9
100
AcDbDimension
  2
Dim10
 10
250.75
 20
334.4994517773507
 30
0.0
 11
255.5
 21
339.7494517773507
 31
0.0
 70
   160
  1
6
 71
     5
 42
-1.0
 73
     0
 74
     0
 75
     0
  3
Standard
100
AcDbAlignedDimension
 13
250.75
 23
334.4994517773507
 33
0.0
 14
260.25
 24
334.4994517773507
 34
0.0
100
AcDbRotatedDimension
1001
ACAD
1000
DSTYLE
1002
{
1070
   344
1005
0
1070
   343
1005
0
1070
   173
1070
     1
1070
   289
1070
     2
1070
   279
1070
     2
1070
   288
1070
     1
1070
    77
1070
     3
1070
   172
1070
     1
1070
   174
1070
     0
1070
    74
1070
     0
1070
    73
1070
     0
1070
   284
1070
     8
1070
    78
1070
     8
1070
   140
1040
4.0
1070
    40
1040
3.0
1070
    42
1040
2.0
1070
    44
1040
0.0
1070
    43
1040
10.0
1070
   271
1070
     2
1070
    41
1040
4.0
1002
}
  0
LINE
  5
2DD
330
1F
100
AcDbEntity
  8
1
  6
Continuous
 62
     7
370
     9
100
AcDbLine
 10
678.8355540099614
 20
79.53061224489784
 30
0.0
 11
726.8355540099614
 21
79.53061224489784
 31
0.0
  0
LINE
  5
2DE
330
1F
100
AcDbEntity
  8
1
  6
Continuous
 62
     7
370
     9
100
AcDbLine
 10
730.8355540099614
 20
83.53061224489784
 30
0.0
 11
726.8355540099614
 21
79.53061224489784
 31
0.0
  0
LINE
  5
2DF
330
1F
100
AcDbEntity
  8
1
  6
Continuous
 62
     7
370
     9
100
AcDbLine
 10
678.8355540099614
 20
79.53061224489784
 30
0.0
 11
674.8355540099614
 21
83.53061224489784
 31
0.0
  0
LINE
  5
2E0
330
1F
100
AcDbEntity
  8
1
  6
Continuous
 62
     7
370
     9
100
AcDbLine
 10
673.4370210870226
 20
353.2011746987142
 30
0.0
 11
756.2655925155939
 21
353.2011746987142
 31
0.0
  0
LINE
  5
2E1
330
1F
100
AcDbEntity
  8
1
  6
Continuous
 62
     7
370
     9
100
AcDbLine
 10
673.4370210870226
 20
353.2011746987142
 30
0.0
 11
673.4370210870226
 21
240.2011746987143
 31
0.0
  0
LINE
  5
2E2
330
1F
100
AcDbEntity
  8
1
  6
Continuous
 62
     7
370
     9
100
AcDbLine
 10
756.2655925155939
 20
353.2011746987142
 30
0.0
 11
756.2655925155939
 21
240.2011746987143
 31
0.0
  0
LINE
  5
2E3
330
1F
100
AcDbEntity
  8
1
  6
Continuous
 62
     7
370
     9
100
AcDbLine
 10
681.4370210870226
 20
116.5306122448978
 30
0.0
 11
681.4370210870226
 21
240.2011746987143
 31
0.0
  0
LINE
  5
2E4
330
1F
100
AcDbEntity
  8
1
  6
Continuous
 62
     7
370
     9
100
AcDbLine
 10
689.4370210870226
 20
116.5306122448978
 30
0.0
 11
689.4370210870226
 21
240.2011746987143
 31
0.0
  0
LINE
  5
2E5
330
1F
100
AcDbEntity
  8
1
  6
Continuous
 62
     7
370
     9
100
AcDbLine
 10
702.4370210870226
 20
116.5306122448978
 30
0.0
 11
702.4370210870226
 21
240.2011746987143
 31
0.0
  0
LINE
  5
2E6
330
1F
100
AcDbEntity
  8
1
  6
Continuous
 62
     7
370
     9
100
AcDbLine
 10
749.4370210870226
 20
116.5306122448978
 30
0.0
 11
749.4370210870226
 21
240.2011746987143
 31
0.0
  0
ARC
  5
2E7
330
1F
100
AcDbEntity
  8
1
  6
Continuous
 62
     7
370
     9
100
AcDbCircle
 10
725.9370210870229
 20
240.096927381107
 30
0.0
 40
18.98700623700586
100
AcDbArc
 50
179.3944148298676
 51
0.3145815227220368
  0
ARC
  5
2E8
330
1F
100
AcDbEntity
  8
1
  6
Continuous
 62
     7
370
     9
100
AcDbCircle
 10
587.4370210870226
 20
216.2011746987142
 30
0.0
 40
2.0
100
AcDbArc
 50
179.9999999999998
 51
269.9999999999998
  0
LINE
  5
2E9
330
1F
100
AcDbEntity
  8
1
  6
Continuous
 62
     7
370
     9
100
AcDbLine
 10
587.4370210870226
 20
214.2011746987142
 30
0.0
 11
613.4370210870226
 21
214.2011746987142
 31
0.0
  0
ARC
  5
2EA
330
1F
100
AcDbEntity
  8
1
  6
Continuous
 62
     7
370
     9
100
AcDbCircle
 10
613.4370210870226
 20
216.2011746987142
 30
0.0
 40
2.0
100
AcDbArc
 50
269.9999999999998
 51
0.0000000000008142
  0
LINE
  5
2EB
330
1F
100
AcDbEntity
  8
1
  6
Continuous
 62
     7
370
     9
100
AcDbLine
 10
585.7049702794537
 20
215.2011746987142
 30
0.0
 11
615.1690718945914
 21
215.2011746987142
 31
0.0
  0
LINE
  5
2EC
330
1F
100
AcDbEntity
  8
1
  6
Continuous
 62
     7
370
     9
100
AcDbLine
 10
573.4370210870226
 20
236.2011746987142
 30
0.0
 11
681.4370210870226
 21
236.2011746987142
 31
0.0
  0
ARC
  5
2ED
330
1F
100
AcDbEntity
  8
1
  6
Continuous
 62
     7
370
     9
100
AcDbCircle
 10
573.4370210870226
 20
239.2011746987142
 30
0.0
 40
3.0
100
AcDbArc
 50
179.9999999999995
 51
269.9999999999998
  0
LINE
  5
2EE
330
1F
100
AcDbEntity
  8
1
  6
Continuous
 62
     7
370
     9
100
AcDbLine
 10
673.4370210870226
 20
316.2011746987142
 30
0.0
 11
573.4370210870226
 21
316.2011746987142
 31
0.0
  0
LINE
  5
2EF
330
1F
100
AcDbEntity
  8
1
  6
Continuous
 62
     7
370
     9
100
AcDbLine
 10
570.4370210870226
 20
239.2011746987142
 30
0.0
 11
570.4370210870226
 21
313.2011746987142
 31
0.0
  0
ARC
  5
2F0
330
1F
100
AcDbEntity
  8
1
  6
Continuous
 62
     7
370
     9
100
AcDbCircle
 10
573.4370210870226
 20
313.2011746987142
 30
0.0
 40
3.0
100
AcDbArc
 50
89.99999999999991
 51
179.9999999999998
  0
LINE
  5
2F1
330
1F
100
AcDbEntity
  8
1
  6
Continuous
 62
     7
370
     9
100
AcDbLine
 10
673.4370210870226
 20
315.2011746987142
 30
0.0
 11
574.4370210870226
 21
315.2011746987142
 31
0.0
  0
ARC
  5
2F2
330
1F
100
AcDbEntity
  8
1
  6
Continuous
 62
     7
370
     9
100
AcDbCircle
 10
574.4370210870226
 20
312.2011746987142
 30
0.0
 40
3.0
100
AcDbArc
 50
89.99999999999991
 51
179.9999999999998
  0
LINE
  5
2F3
330
1F
100
AcDbEntity
  8
1
  6
Continuous
 62
     7
370
     9
100
AcDbLine
 10
571.4370210870226
 20
240.2011746987142
 30
0.0
 11
571.4370210870226
 21
312.2011746987142
 31
0.0
  0
LINE
  5
2F4
330
1F
100
AcDbEntity
  8
1
  6
Continuous
 62
     7
370
     9
100
AcDbLine
 10
574.4370210870226
 20
237.2011746987142
 30
0.0
 11
681.4370210870226
 21
237.2011746987142
 31
0.0
  0
ARC
  5
2F5
330
1F
100
AcDbEntity
  8
1
  6
Continuous
 62
     7
370
     9
100
AcDbCircle
 10
574.4370210870226
 20
240.2011746987142
 30
0.0
 40
3.0
100
AcDbArc
 50
179.9999999999995
 51
269.9999999999998
  0
ARC
  5
2F6
330
1F
100
AcDbEntity
  8
1
  6
Continuous
 62
     7
370
     9
100
AcDbCircle
 10
604.9370210870226
 20
396.5306122448978
 30
0.0
 40
2.0
100
AcDbArc
 50
89.99999999999991
 51
179.9999999999998
  0
LINE
  5
2F7
330
1F
100
AcDbEntity
  8
1
  6
Continuous
 62
     7
370
     9
100
AcDbLine
 10
636.9370210870226
 20
324.2011746987142
 30
0.0
 11
636.9370210870226
 21
396.5306122448978
 31
0.0
  0
ARC
  5
2F8
330
1F
100
AcDbEntity
  8
1
  6
Continuous
 62
     7
370
     9
100
AcDbCircle
 10
634.9370210870226
 20
396.5306122448978
 30
0.0
 40
2.0
100
AcDbArc
 50
0.0
 51
89.99999999999991
  0
LINE
  5
2F9
330
1F
100
AcDbEntity
  8
1
  6
Continuous
 62
     7
370
     9
100
AcDbLine
 10
602.9370210870226
 20
396.5306122448978
 30
0.0
 11
636.9370210870226
 21
396.5306122448978
 31
0.0
  0
LINE
  5
2FA
330
1F
100
AcDbEntity
  8
1
  6
Continuous
 62
     7
370
     9
100
AcDbLine
 10
619.9370210870226
 20
398.5306122448978
 30
0.0
 11
604.9370210870226
 21
398.5306122448978
 31
0.0
  0
LINE
  5
2FB
330
1F
100
AcDbEntity
  8
1
  6
Continuous
 62
     7
370
     9
100
AcDbLine
 10
619.9370210870226
 20
398.5306122448978
 30
0.0
 11
634.9370210870226
 21
398.5306122448978
 31
0.0
  0
LINE
  5
2FC
330
1F
100
AcDbEntity
  8
1
  6
Continuous
 62
     7
370
     9
100
AcDbLine
 10
586.4370210870226
 20
401.5306122448978
 30
0.0
 11
624.9370210870226
 21
401.5306122448978
 31
0.0
  0
LINE
  5
2FD
330
1F
100
AcDbEntity
  8
1
  6
Continuous
 62
     7
370
     9
100
AcDbLine
 10
624.9370210870226
 20
398.5306122448978
 30
0.0
 11
624.9370210870226
 21
401.5306122448978
 31
0.0
  0
LINE
  5
2FE
330
1F
100
AcDbEntity
  8
1
  6
Continuous
 62
     7
370
     9
100
AcDbLine
 10
614.9370210870226
 20
411.5306122448978
 30
0.0
 11
614.9370210870226
 21
401.5306122448978
 31
0.0
  0
LINE
  5
2FF
330
1F
100
AcDbEntity
  8
1
  6
Continuous
 62
     7
370
     9
100
AcDbLine
 10
605.9370210870226
 20
401.5306122448978
 30
0.0
 11
605.9370210870226
 21
410.5306122448978
 31
0.0
  0
LINE
  5
300
330
1F
100
AcDbEntity
  8
1
  6
Continuous
 62
     7
370
     9
100
AcDbLine
 10
605.9370210870226
 20
410.5306122448978
 30
0.0
 11
606.9370210870226
 21
411.5306122448978
 31
0.0
  0
LINE
  5
301
330
1F
100
AcDbEntity
  8
1
  6
Continuous
 62
     7
370
     9
100
AcDbLine
 10
606.9370210870226
 20
411.5306122448978
 30
0.0
 11
622.9370210870226
 21
411.5306122448978
 31
0.0
  0
LINE
  5
302
330
1F
100
AcDbEntity
  8
1
  6
Continuous
 62
     7
370
     9
100
AcDbLine
 10
623.9370210870226
 20
401.5306122448978
 30
0.0
 11
623.9370210870226
 21
410.5306122448978
 31
0.0
  0
LINE
  5
303
330
1F
100
AcDbEntity
  8
1
  6
Continuous
 62
     7
370
     9
100
AcDbLine
 10
622.9370210870226
 20
411.5306122448978
 30
0.0
 11
623.9370210870226
 21
410.5306122448978
 31
0.0
  0
LINE
  5
304
330
1F
100
AcDbEntity
  8
1
  6
Continuous
 62
     7
370
     9
100
AcDbLine
 10
607.9370210870226
 20
411.5306122448978
 30
0.0
 11
607.9370210870226
 21
421.5306122448978
 31
0.0
  0
LINE
  5
305
330
1F
100
AcDbEntity
  8
1
  6
Continuous
 62
     7
370
     9
100
AcDbLine
 10
607.9370210870226
 20
421.5306122448978
 30
0.0
 11
621.9370210870226
 21
421.5306122448978
 31
0.0
  0
LINE
  5
306
330
1F
100
AcDbEntity
  8
1
  6
Continuous
 62
     7
370
     9
100
AcDbLine
 10
621.9370210870226
 20
411.5306122448978
 30
0.0
 11
621.9370210870226
 21
421.5306122448978
 31
0.0
  0
INSERT
  5
311
330
1F
100
AcDbEntity
  8
0
100
AcDbBlockReference
  2
*G27
 10
0.0
 20
0.0
 30
0.0
  0
LINE
  5
312
330
1F
100
AcDbEntity
  8
1
  6
Continuous
 62
     7
370
     9
100
AcDbLine
 10
602.9370210870226
 20
376.5306122448978
 30
0.0
 11
586.4370210870226
 21
376.5306122448978
 31
0.0
  0
CIRCLE
  5
313
330
1F
100
AcDbEntity
  8
1
  6
Continuous
 62
     7
370
     9
100
AcDbCircle
 10
600.446952191655
 20
307.1081339811995
 30
0.0
 40
6.0
  0
CIRCLE
  5
314
330
1F
100
AcDbEntity
  8
1
  6
Continuous
 62
     7
370
     9
100
AcDbCircle
 10
600.446952191655
 20
307.1081339811995
 30
0.0
 40
5.0
  0
LINE
  5
315
330
1F
100
AcDbEntity
  8
1
  6
Continuous
 62
     7
370
     9
100
AcDbLine
 10
622.6098753120663
 20
306.6312304783074
 30
0.0
 11
619.1641548739677
 21
295.2735053401383
 31
0.0
  0
LINE
  5
316
330
1F
100
AcDbEntity
  8
1
  6
Continuous
 62
     7
370
     9
100
AcDbLine
 10
623.5668064684693
 20
306.3409155425824
 30
0.0
 11
620.1210860303709
 21
294.9831904044132
 31
0.0
  0
LINE
  5
317
330
1F
100
AcDbEntity
  8
1
  6
Continuous
 62
     7
370
     9
100
AcDbLine
 10
619.1641548739677
 20
295.2735053401383
 30
0.0
 11
620.1210860303709
 21
294.9831904044132
 31
0.0
  0
LINE
  5
318
330
1F
100
AcDbEntity
  8
1
  6
Continuous
 62
     7
370
     9
100
AcDbLine
 10
622.6098753120663
 20
306.6312304783074
 30
0.0
 11
623.5668064684693
 21
306.3409155425824
 31
0.0
  0
LINE
  5
319
330
1F
100
AcDbEntity
  8
1
  6
Continuous
 62
     7
370
     9
100
AcDbLine
 10
619.3093123418302
 20
295.7519709183399
 30
0.0
 11
618.8308467636286
 21
295.8971283862023
 31
0.0
  0
LINE
  5
31A
330
1F
100
AcDbEntity
  8
1
  6
Continuous
 62
     7
370
     9
100
AcDbLine
 10
622.4647178442036
 20
306.1527649001059
 30
0.0
 11
621.9862522660021
 21
306.2979223679684
 31
0.0
  0
LINE
  5
31B
330
1F
100
AcDbEntity
  8
1
  6
Continuous
 62
     7
370
     9
100
AcDbLine
 10
601.689670469022
 20
312.978027615934
 30
0.0
 11
622.1314097338646
 21
306.77638794617
 31
0.0
  0
LINE
  5
31C
330
1F
100
AcDbEntity
  8
1
  6
Continuous
 62
     7
370
     9
100
AcDbLine
 10
597.64746025824
 20
301.8012662690039
 30
0.0
 11
618.6856892957662
 21
295.4186628080009
 31
0.0
  0
LINE
  5
31D
330
1F
100
AcDbEntity
  8
1
  6
Continuous
 62
     7
370
     9
100
AcDbLine
 10
622.1314097338646
 20
306.77638794617
 30
0.0
 11
618.6856892957662
 21
295.4186628080009
 31
0.0
  0
CIRCLE
  5
31E
330
1F
100
AcDbEntity
  8
1
  6
Continuous
 62
     7
370
     9
100
AcDbCircle
 10
600.446952191655
 20
245.294215416229
 30
0.0
 40
6.0
  0
CIRCLE
  5
31F
330
1F
100
AcDbEntity
  8
1
  6
Continuous
 62
     7
370
     9
100
AcDbCircle
 10
600.446952191655
 20
245.294215416229
 30
0.0
 40
5.0
  0
LINE
  5
320
330
1F
100
AcDbEntity
  8
1
  6
Continuous
 62
     7
370
     9
100
AcDbLine
 10
622.6098753120663
 20
245.771118919121
 30
0.0
 11
619.1641548739677
 21
257.1288440572901
 31
0.0
  0
LINE
  5
321
330
1F
100
AcDbEntity
  8
1
  6
Continuous
 62
     7
370
     9
100
AcDbLine
 10
623.5668064684693
 20
246.0614338548461
 30
0.0
 11
620.1210860303709
 21
257.4191589930152
 31
0.0
  0
LINE
  5
322
330
1F
100
AcDbEntity
  8
1
  6
Continuous
 62
     7
370
     9
100
AcDbLine
 10
619.1641548739677
 20
257.1288440572901
 30
0.0
 11
620.1210860303709
 21
257.4191589930152
 31
0.0
  0
LINE
  5
323
330
1F
100
AcDbEntity
  8
1
  6
Continuous
 62
     7
370
     9
100
AcDbLine
 10
622.6098753120663
 20
245.771118919121
 30
0.0
 11
623.5668064684693
 21
246.0614338548461
 31
0.0
  0
LINE
  5
324
330
1F
100
AcDbEntity
  8
1
  6
Continuous
 62
     7
370
     9
100
AcDbLine
 10
619.3093123418302
 20
256.6503784790886
 30
0.0
 11
618.8308467636286
 21
256.5052210112261
 31
0.0
  0
LINE
  5
325
330
1F
100
AcDbEntity
  8
1
  6
Continuous
 62
     7
370
     9
100
AcDbLine
 10
622.4647178442036
 20
246.2495844973226
 30
0.0
 11
621.9862522660021
 21
246.1044270294601
 31
0.0
  0
LINE
  5
326
330
1F
100
AcDbEntity
  8
1
  6
Continuous
 62
     7
370
     9
100
AcDbLine
 10
601.689670469022
 20
239.4243217814945
 30
0.0
 11
622.1314097338646
 21
245.6259614512585
 31
0.0
  0
LINE
  5
327
330
1F
100
AcDbEntity
  8
1
  6
Continuous
 62
     7
370
     9
100
AcDbLine
 10
597.64746025824
 20
250.6010831284246
 30
0.0
 11
618.6856892957662
 21
256.9836865894275
 31
0.0
  0
LINE
  5
328
330
1F
100
AcDbEntity
  8
1
  6
Continuous
 62
     7
370
     9
100
AcDbLine
 10
622.1314097338646
 20
245.6259614512585
 30
0.0
 11
618.6856892957662
 21
256.9836865894275
 31
0.0
  0
LINE
  5
329
330
1F
100
AcDbEntity
  8
1
  6
Continuous
 62
     7
370
     9
100
AcDbLine
 10
660.4370210870226
 20
315.2011746987142
 30
0.0
 11
660.4370210870226
 21
240.2011746987143
 31
0.0
  0
LINE
  5
32A
330
1F
100
AcDbEntity
  8
1
  6
Continuous
 62
     7
370
     9
100
AcDbLine
 10
660.4370210870226
 20
240.2011746987143
 30
0.0
 11
756.2655925155939
 21
240.2011746987143
 31
0.0
  0
LINE
  5
32B
330
1F
100
AcDbEntity
  8
1
  6
Continuous
 62
     7
370
     9
100
AcDbLine
 10
660.4370210870226
 20
277.7011746987143
 30
0.0
 11
659.5763934070444
 21
277.7011746987143
 31
0.0
  0
LINE
  5
32C
330
1F
100
AcDbEntity
  8
1
  6
Continuous
 62
     7
370
     9
100
AcDbLine
 10
660.4370210870226
 20
289.701174749592
 30
0.0
 11
659.2869573363583
 21
289.701174749592
 31
0.0
  0
LINE
  5
32D
330
1F
100
AcDbEntity
  8
1
  6
Continuous
 62
     7
370
     9
100
AcDbLine
 10
659.4370210870226
 20
289.701174749592
 30
0.0
 11
659.4370210870226
 21
277.7011746987143
 31
0.0
  0
LINE
  5
32E
330
1F
100
AcDbEntity
  8
1
  6
Continuous
 62
     7
370
     9
100
AcDbLine
 10
673.4370210870226
 20
290.201174749592
 30
0.0
 11
672.9370210870226
 21
290.201174749592
 31
0.0
  0
LINE
  5
32F
330
1F
100
AcDbEntity
  8
1
  6
Continuous
 62
     7
370
     9
100
AcDbLine
 10
672.9370210870226
 20
277.2011746987143
 30
0.0
 11
673.4370210870226
 21
277.2011746987143
 31
0.0
  0
LINE
  5
330
330
1F
100
AcDbEntity
  8
1
  6
Continuous
 62
     7
370
     9
100
AcDbLine
 10
672.9370210870226
 20
290.201174749592
 30
0.0
 11
672.9370210870226
 21
277.2315752501241
 31
0.0
  0
LINE
  5
331
330
1F
100
AcDbEntity
  8
1
  6
Continuous
 62
     7
370
     9
100
AcDbLine
 10
660.4370210870226
 20
289.701174749592
 30
0.0
 11
672.9370210870226
 21
289.701174749592
 31
0.0
  0
LINE
  5
332
330
1F
100
AcDbEntity
  8
1
  6
Continuous
 62
     7
370
     9
100
AcDbLine
 10
660.4370210870226
 20
283.7011747241531
 30
0.0
 11
672.9370210870226
 21
283.7011747241531
 31
0.0
  0
LINE
  5
333
330
1F
100
AcDbEntity
  8
1
  6
Continuous
 62
     7
370
     9
100
AcDbLine
 10
660.4370210870226
 20
277.7011746987143
 30
0.0
 11
672.9370210870226
 21
277.7011746987143
 31
0.0
  0
LINE
  5
334
330
1F
100
AcDbEntity
  8
1
  6
Continuous
 62
     7
370
     9
100
AcDbLine
 10
660.4370210870226
 20
262.7011746478365
 30
0.0
 11
659.2869573363583
 21
262.7011746478365
 31
0.0
  0
LINE
  5
335
330
1F
100
AcDbEntity
  8
1
  6
Continuous
 62
     7
370
     9
100
AcDbLine
 10
673.4370210870226
 20
262.2011746478365
 30
0.0
 11
672.9370210870226
 21
262.2011746478365
 31
0.0
  0
LINE
  5
336
330
1F
100
AcDbEntity
  8
1
  6
Continuous
 62
     7
370
     9
100
AcDbLine
 10
672.9370210870226
 20
275.2011746987142
 30
0.0
 11
673.4370210870226
 21
275.2011746987142
 31
0.0
  0
LINE
  5
337
330
1F
100
AcDbEntity
  8
1
  6
Continuous
 62
     7
370
     9
100
AcDbLine
 10
672.4370210870226
 20
275.7011746987142
 30
0.0
 11
672.9370210870226
 21
275.7011746987142
 31
0.0
  0
LINE
  5
338
330
1F
100
AcDbEntity
  8
1
  6
Continuous
 62
     7
370
     9
100
AcDbLine
 10
672.4370210870226
 20
275.7011746987142
 30
0.0
 11
672.4370210870226
 21
261.7011746478365
 31
0.0
  0
LINE
  5
339
330
1F
100
AcDbEntity
  8
1
  6
Continuous
 62
     7
370
     9
100
AcDbLine
 10
672.4370210870226
 20
261.7011746478365
 30
0.0
 11
672.9370210870226
 21
261.7011746478365
 31
0.0
  0
LINE
  5
33A
330
1F
100
AcDbEntity
  8
1
  6
Continuous
 62
     7
370
     9
100
AcDbLine
 10
672.9370210870226
 20
261.7011746478365
 30
0.0
 11
672.9370210870226
 21
275.7011746987142
 31
0.0
  0
LINE
  5
33B
330
1F
100
AcDbEntity
  8
1
  6
Continuous
 62
     7
370
     9
100
AcDbLine
 10
660.4370210870226
 20
268.7011746732753
 30
0.0
 11
672.4370210870226
 21
268.7011746732753
 31
0.0
  0
LINE
  5
33C
330
1F
100
AcDbEntity
  8
1
  6
Continuous
 62
     7
370
     9
100
AcDbLine
 10
672.9370210870226
 20
311.9031254060547
 30
0.0
 11
670.4370210870226
 21
311.9031254060547
 31
0.0
  0
LINE
  5
33D
330
1F
100
AcDbEntity
  8
1
  6
Continuous
 62
     7
370
     9
100
AcDbLine
 10
670.4370210870226
 20
311.9031254060547
 30
0.0
 11
672.9370210870226
 21
303.9031254060547
 31
0.0
  0
LINE
  5
33E
330
1F
100
AcDbEntity
  8
1
  6
Continuous
 62
     7
370
     9
100
AcDbLine
 10
672.9370210870226
 20
303.9031254060547
 30
0.0
 11
671.9370210870226
 21
295.9031254060547
 31
0.0
  0
LINE
  5
33F
330
1F
100
AcDbEntity
  8
1
  6
Continuous
 62
     7
370
     9
100
AcDbLine
 10
672.9370210870226
 20
295.9031254060547
 30
0.0
 11
671.9370210870226
 21
295.9031254060547
 31
0.0
  0
LINE
  5
340
330
1F
100
AcDbEntity
  8
1
  6
Continuous
 62
     7
370
     9
100
AcDbLine
 10
673.4370210870226
 20
313.9031254060547
 30
0.0
 11
672.9370210870226
 21
313.9031254060547
 31
0.0
  0
LINE
  5
341
330
1F
100
AcDbEntity
  8
1
  6
Continuous
 62
     7
370
     9
100
AcDbLine
 10
672.9370210870226
 20
313.9031254060547
 30
0.0
 11
672.9370210870226
 21
293.9031254060547
 31
0.0
  0
LINE
  5
342
330
1F
100
AcDbEntity
  8
1
  6
Continuous
 62
     7
370
     9
100
AcDbLine
 10
673.4370210870226
 20
293.9031254060547
 30
0.0
 11
672.9370210870226
 21
293.9031254060547
 31
0.0
  0
LINE
  5
343
330
1F
100
AcDbEntity
  8
1
  6
Continuous
 62
     7
370
     9
100
AcDbLine
 10
660.4370210870226
 20
297.9031254060547
 30
0.0
 11
672.1870210870226
 21
297.9031254060547
 31
0.0
  0
LINE
  5
344
330
1F
100
AcDbEntity
  8
1
  6
Continuous
 62
     7
370
     9
100
AcDbLine
 10
660.4370210870226
 20
311.1912051082229
 30
0.0
 11
670.6594961800951
 21
311.1912051082229
 31
0.0
  0
INSERT
  5
351
330
1F
100
AcDbEntity
  8
0
100
AcDbBlockReference
  2
*G28
 10
0.0
 20
0.0
 30
0.0
  0
LINE
  5
352
330
1F
100
AcDbEntity
  8
1
  6
Continuous
 62
     7
370
     9
100
AcDbLine
 10
659.4370210870226
 20
274.7011746987142
 30
0.0
 11
672.4370210870226
 21
274.7011746987142
 31
0.0
  0
LINE
  5
353
330
1F
100
AcDbEntity
  8
1
  6
Continuous
 62
     7
370
     9
100
AcDbLine
 10
659.4370210870226
 20
262.7011746478365
 30
0.0
 11
659.4370210870226
 21
274.7011746987142
 31
0.0
  0
LINE
  5
354
330
1F
100
AcDbEntity
  8
1
  6
Continuous
 62
     7
370
     9
100
AcDbLine
 10
659.4370210870226
 20
262.7011746478365
 30
0.0
 11
672.4370210870226
 21
262.7011746478365
 31
0.0
  0
POLYLINE
  5
355
330
1F
100
AcDbEntity
  8
1
  6
Continuous
 62
     7
370
     9
100
AcDb2dPolyline
 66
     1
 10
0.0
 20
0.0
 30
0.0
 70
     2
  0
VERTEX
  5
357
330
355
100
AcDbEntity
  8
1
  6
Continuous
 62
     7
370
     9
100
AcDbVertex
100
AcDb2dVertex
 10
659.4370210870226
 20
286.7011747241531
 30
0.0
  0
VERTEX
  5
358
330
355
100
AcDbEntity
  8
1
  6
Continuous
 62
     7
370
     9
100
AcDbVertex
100
AcDb2dVertex
 10
659.3129681434879
 20
286.722797496002
 30
0.0
  0
VERTEX
  5
359
330
355
100
AcDbEntity
  8
1
  6
Continuous
 62
     7
370
     9
100
AcDbVertex
100
AcDb2dVertex
 10
658.9441920609036
 20
286.7871084308962
 30
0.0
  0
VERTEX
  5
35A
330
355
100
AcDbEntity
  8
1
  6
Continuous
 62
     7
370
     9
100
AcDbVertex
100
AcDb2dVertex
 10
658.3407426597371
 20
286.8926331255179
 30
0.0
  0
VERTEX
  5
35B
330
355
100
AcDbEntity
  8
1
  6
Continuous
 62
     7
370
     9
100
AcDbVertex
100
AcDb2dVertex
 10
657.5190464247017
 20
287.0375033478921
 30
0.0
  0
VERTEX
  5
35C
330
355
100
AcDbEntity
  8
1
  6
Continuous
 62
     7
370
     9
100
AcDbVertex
100
AcDb2dVertex
 10
656.5014379667269
 20
287.2201153451433
 30
0.0
  0
VERTEX
  5
35D
330
355
100
AcDbEntity
  8
1
  6
Continuous
 62
     7
370
     9
100
AcDbVertex
100
AcDb2dVertex
 10
655.3155341761407
 20
287.4396667016132
 30
0.0
  0
VERTEX
  5
35E
330
355
100
AcDbEntity
  8
1
  6
Continuous
 62
     7
370
     9
100
AcDbVertex
100
AcDb2dVertex
 10
653.9934760115285
 20
287.6963234689783
 30
0.0
  0
VERTEX
  5
35F
330
355
100
AcDbEntity
  8
1
  6
Continuous
 62
     7
370
     9
100
AcDbVertex
100
AcDb2dVertex
 10
652.571063994825
 20
287.9908531024771
 30
0.0
  0
VERTEX
  5
360
330
355
100
AcDbEntity
  8
1
  6
Continuous
 62
     7
370
     9
100
AcDbVertex
100
AcDb2dVertex
 10
651.0868121431587
 20
288.3236991164333
 30
0.0
  0
VERTEX
  5
361
330
355
100
AcDbEntity
  8
1
  6
Continuous
 62
     7
370
     9
100
AcDbVertex
100
AcDb2dVertex
 10
649.5809423327133
 20
288.6936357933379
 30
0.0
  0
VERTEX
  5
362
330
355
100
AcDbEntity
  8
1
  6
Continuous
 62
     7
370
     9
100
AcDbVertex
100
AcDb2dVertex
 10
648.0943382901667
 20
289.0962840364033
 30
0.0
  0
VERTEX
  5
363
330
355
100
AcDbEntity
  8
1
  6
Continuous
 62
     7
370
     9
100
AcDbVertex
100
AcDb2dVertex
 10
646.667476788082
 20
289.5228539735033
 30
0.0
  0
VERTEX
  5
364
330
355
100
AcDbEntity
  8
1
  6
Continuous
 62
     7
370
     9
100
AcDbVertex
100
AcDb2dVertex
 10
645.3393540143702
 20
289.9594805032501
 30
0.0
  0
VERTEX
  5
365
330
355
100
AcDbEntity
  8
1
  6
Continuous
 62
     7
370
     9
100
AcDbVertex
100
AcDb2dVertex
 10
644.1464276854639
 20
290.3874285646094
 30
0.0
  0
VERTEX
  5
366
330
355
100
AcDbEntity
  8
1
  6
Continuous
 62
     7
370
     9
100
AcDbVertex
100
AcDb2dVertex
 10
643.1215997609411
 20
290.784281192675
 30
0.0
  0
VERTEX
  5
367
330
355
100
AcDbEntity
  8
1
  6
Continuous
 62
     7
370
     9
100
AcDbVertex
100
AcDb2dVertex
 10
642.2932694723521
 20
291.1260196751541
 30
0.0
  0
VERTEX
  5
368
330
355
100
AcDbEntity
  8
1
  6
Continuous
 62
     7
370
     9
100
AcDbVertex
100
AcDb2dVertex
 10
641.6844903332669
 20
291.3897065284626
 30
0.0
  0
VERTEX
  5
369
330
355
100
AcDbEntity
  8
1
  6
Continuous
 62
     7
370
     9
100
AcDbVertex
100
AcDb2dVertex
 10
641.3122663882017
 20
291.5563341965934
 30
0.0
  0
VERTEX
  5
36A
330
355
100
AcDbEntity
  8
1
  6
Continuous
 62
     7
370
     9
100
AcDbVertex
100
AcDb2dVertex
 10
641.1870210870226
 20
291.6133406705748
 30
0.0
  0
VERTEX
  5
36B
330
355
100
AcDbEntity
  8
1
  6
Continuous
 62
     7
370
     9
100
AcDbVertex
100
AcDb2dVertex
 10
641.0617594492
 20
291.6708319411534
 30
0.0
  0
VERTEX
  5
36C
330
355
100
AcDbEntity
  8
1
  6
Continuous
 62
     7
370
     9
100
AcDbVertex
100
AcDb2dVertex
 10
640.6892957535335
 20
291.8445743067038
 30
0.0
  0
VERTEX
  5
36D
330
355
100
AcDbEntity
  8
1
  6
Continuous
 62
     7
370
     9
100
AcDbVertex
100
AcDb2dVertex
 10
640.0795196877401
 20
292.1378453689576
 30
0.0
  0
VERTEX
  5
36E
330
355
100
AcDbEntity
  8
1
  6
Continuous
 62
     7
370
     9
100
AcDbVertex
100
AcDb2dVertex
 10
639.2486662167565
 20
292.5544603238665
 30
0.0
  0
VERTEX
  5
36F
330
355
100
AcDbEntity
  8
1
  6
Continuous
 62
     7
370
     9
100
AcDbVertex
100
AcDb2dVertex
 10
638.2189400348045
 20
293.0966707501221
 30
0.0
  0
VERTEX
  5
370
330
355
100
AcDbEntity
  8
1
  6
Continuous
 62
     7
370
     9
100
AcDbVertex
100
AcDb2dVertex
 10
637.0179847905359
 20
293.7628801678504
 30
0.0
  0
VERTEX
  5
371
330
355
100
AcDbEntity
  8
1
  6
Continuous
 62
     7
370
     9
100
AcDbVertex
100
AcDb2dVertex
 10
635.6781973733051
 20
294.5456597781835
 30
0.0
  0
VERTEX
  5
372
330
355
100
AcDbEntity
  8
1
  6
Continuous
 62
     7
370
     9
100
AcDbVertex
100
AcDb2dVertex
 10
634.2358937019653
 20
295.4304824214089
 30
0.0
  0
VERTEX
  5
373
330
355
100
AcDbEntity
  8
1
  6
Continuous
 62
     7
370
     9
100
AcDbVertex
100
AcDb2dVertex
 10
632.7303409351817
 20
296.3954418278685
 30
0.0
  0
VERTEX
  5
374
330
355
100
AcDbEntity
  8
1
  6
Continuous
 62
     7
370
     9
100
AcDbVertex
100
AcDb2dVertex
 10
631.2026805381789
 20
297.4120230980965
 30
0.0
  0
VERTEX
  5
375
330
355
100
AcDbEntity
  8
1
  6
Continuous
 62
     7
370
     9
100
AcDbVertex
100
AcDb2dVertex
 10
629.6947755805149
 20
298.4467847336654
 30
0.0
  0
VERTEX
  5
376
330
355
100
AcDbEntity
  8
1
  6
Continuous
 62
     7
370
     9
100
AcDbVertex
100
AcDb2dVertex
 10
628.2480224237944
 20
299.463647680492
 30
0.0
  0
VERTEX
  5
377
330
355
100
AcDbEntity
  8
1
  6
Continuous
 62
     7
370
     9
100
AcDbVertex
100
AcDb2dVertex
 10
626.9021703974637
 20
300.4263970532067
 30
0.0
  0
VERTEX
  5
378
330
355
100
AcDbEntity
  8
1
  6
Continuous
 62
     7
370
     9
100
AcDbVertex
100
AcDb2dVertex
 10
625.6941926148749
 20
301.3010031758243
 30
0.0
  0
VERTEX
  5
379
330
355
100
AcDbEntity
  8
1
  6
Continuous
 62
     7
370
     9
100
AcDbVertex
100
AcDb2dVertex
 10
624.657246966375
 20
302.0574542328944
 30
0.0
  0
VERTEX
  5
37A
330
355
100
AcDbEntity
  8
1
  6
Continuous
 62
     7
370
     9
100
AcDbVertex
100
AcDb2dVertex
 10
623.8197594418377
 20
302.670937447908
 30
0.0
  0
VERTEX
  5
37B
330
355
100
AcDbEntity
  8
1
  6
Continuous
 62
     7
370
     9
100
AcDbVertex
100
AcDb2dVertex
 10
623.2046536381258
 20
303.1223706688489
 30
0.0
  0
VERTEX
  5
37C
330
355
100
AcDbEntity
  8
1
  6
Continuous
 62
     7
370
     9
100
AcDbVertex
100
AcDb2dVertex
 10
622.8287420799783
 20
303.398429767636
 30
0.0
  0
VERTEX
  5
37D
330
355
100
AcDbEntity
  8
1
  6
Continuous
 62
     7
370
     9
100
AcDbVertex
100
AcDb2dVertex
 10
622.7022880845113
 20
303.491304740347
 30
0.0
  0
SEQEND
  5
356
330
355
100
AcDbEntity
  8
1
  6
Continuous
370
     9
  0
POLYLINE
  5
37E
330
1F
100
AcDbEntity
  8
1
  6
Continuous
 62
     7
370
     9
100
AcDb2dPolyline
 66
     1
 10
0.0
 20
0.0
 30
0.0
 70
     2
  0
VERTEX
  5
380
330
37E
100
AcDbEntity
  8
1
  6
Continuous
 62
     7
370
     9
100
AcDbVertex
100
AcDb2dVertex
 10
659.4370210870226
 20
280.7011747241531
 30
0.0
  0
VERTEX
  5
381
330
37E
100
AcDbEntity
  8
1
  6
Continuous
 62
     7
370
     9
100
AcDbVertex
100
AcDb2dVertex
 10
659.3159376432944
 20
280.7165572850267
 30
0.0
  0
VERTEX
  5
382
330
37E
100
AcDbEntity
  8
1
  6
Continuous
 62
     7
370
     9
100
AcDbVertex
100
AcDb2dVertex
 10
658.955980949818
 20
280.7623242865685
 30
0.0
  0
VERTEX
  5
383
330
37E
100
AcDbEntity
  8
1
  6
Continuous
 62
     7
370
     9
100
AcDbVertex
100
AcDb2dVertex
 10
658.3668902816042
 20
280.8375630912241
 30
0.0
  0
VERTEX
  5
384
330
37E
100
AcDbEntity
  8
1
  6
Continuous
 62
     7
370
     9
100
AcDbVertex
100
AcDb2dVertex
 10
657.564447839094
 20
280.9414335177636
 30
0.0
  0
VERTEX
  5
385
330
37E
100
AcDbEntity
  8
1
  6
Continuous
 62
     7
370
     9
100
AcDbVertex
100
AcDb2dVertex
 10
656.5698759093425
 20
281.0739195093873
 30
0.0
  0
VERTEX
  5
386
330
37E
100
AcDbEntity
  8
1
  6
Continuous
 62
     7
370
     9
100
AcDbVertex
100
AcDb2dVertex
 10
655.4091180513681
 20
281.2364212519786
 30
0.0
  0
VERTEX
  5
387
330
37E
100
AcDbEntity
  8
1
  6
Continuous
 62
     7
370
     9
100
AcDbVertex
100
AcDb2dVertex
 10
654.1120902093741
 20
281.4318912555388
 30
0.0
  0
VERTEX
  5
388
330
37E
100
AcDbEntity
  8
1
  6
Continuous
 62
     7
370
     9
100
AcDbVertex
100
AcDb2dVertex
 10
652.711967556913
 20
281.6643188159606
 30
0.0
  0
VERTEX
  5
389
330
37E
100
AcDbEntity
  8
1
  6
Continuous
 62
     7
370
     9
100
AcDbVertex
100
AcDb2dVertex
 10
651.2445362010985
 20
281.9375360041898
 30
0.0
  0
VERTEX
  5
38A
330
37E
100
AcDbEntity
  8
1
  6
Continuous
 62
     7
370
     9
100
AcDbVertex
100
AcDb2dVertex
 10
649.7475953392089
 20
282.253513451817
 30
0.0
  0
VERTEX
  5
38B
330
37E
100
AcDbEntity
  8
1
  6
Continuous
 62
     7
370
     9
100
AcDbVertex
100
AcDb2dVertex
 10
648.2603568258136
 20
282.6104856655045
 30
0.0
  0
VERTEX
  5
38C
330
37E
100
AcDbEntity
  8
1
  6
Continuous
 62
     7
370
     9
100
AcDbVertex
100
AcDb2dVertex
 10
646.8227662710542
 20
283.0013471202415
 30
0.0
  0
VERTEX
  5
38D
330
37E
100
AcDbEntity
  8
1
  6
Continuous
 62
     7
370
     9
100
AcDbVertex
100
AcDb2dVertex
 10
645.474670010633
 20
283.4127611161694
 30
0.0
  0
VERTEX
  5
38E
330
37E
100
AcDbEntity
  8
1
  6
Continuous
 62
     7
370
     9
100
AcDbVertex
100
AcDb2dVertex
 10
644.254777273647
 20
283.8253160668917
 30
0.0
  0
VERTEX
  5
38F
330
37E
100
AcDbEntity
  8
1
  6
Continuous
 62
     7
370
     9
100
AcDbVertex
100
AcDb2dVertex
 10
643.199412186013
 20
284.2148673373333
 30
0.0
  0
VERTEX
  5
390
330
37E
100
AcDbEntity
  8
1
  6
Continuous
 62
     7
370
     9
100
AcDbVertex
100
AcDb2dVertex
 10
642.3411061887087
 20
284.5549581016392
 30
0.0
  0
VERTEX
  5
391
330
37E
100
AcDbEntity
  8
1
  6
Continuous
 62
     7
370
     9
100
AcDbVertex
100
AcDb2dVertex
 10
641.7071352517637
 20
284.8199741640761
 30
0.0
  0
VERTEX
  5
392
330
37E
100
AcDbEntity
  8
1
  6
Continuous
 62
     7
370
     9
100
AcDbVertex
100
AcDb2dVertex
 10
641.318145049125
 20
284.9885100328362
 30
0.0
  0
VERTEX
  5
393
330
37E
100
AcDbEntity
  8
1
  6
Continuous
 62
     7
370
     9
100
AcDbVertex
100
AcDb2dVertex
 10
641.1870210870226
 20
285.0463491586468
 30
0.0
  0
VERTEX
  5
394
330
37E
100
AcDbEntity
  8
1
  6
Continuous
 62
     7
370
     9
100
AcDbVertex
100
AcDb2dVertex
 10
641.0557595585026
 20
285.104769987246
 30
0.0
  0
VERTEX
  5
395
330
37E
100
AcDbEntity
  8
1
  6
Continuous
 62
     7
370
     9
100
AcDbVertex
100
AcDb2dVertex
 10
640.6647504814708
 20
285.2818427132257
 30
0.0
  0
VERTEX
  5
396
330
37E
100
AcDbEntity
  8
1
  6
Continuous
 62
     7
370
     9
100
AcDbVertex
100
AcDb2dVertex
 10
640.0223846967399
 20
285.5823565843286
 30
0.0
  0
VERTEX
  5
397
330
37E
100
AcDbEntity
  8
1
  6
Continuous
 62
     7
370
     9
100
AcDbVertex
100
AcDb2dVertex
 10
639.1428316689689
 20
286.0122909100024
 30
0.0
  0
VERTEX
  5
398
330
37E
100
AcDbEntity
  8
1
  6
Continuous
 62
     7
370
     9
100
AcDbVertex
100
AcDb2dVertex
 10
638.0462196920719
 20
286.5762556088309
 30
0.0
  0
VERTEX
  5
399
330
37E
100
AcDbEntity
  8
1
  6
Continuous
 62
     7
370
     9
100
AcDbVertex
100
AcDb2dVertex
 10
636.7587176496057
 20
287.2746980766581
 30
0.0
  0
VERTEX
  5
39A
330
37E
100
AcDbEntity
  8
1
  6
Continuous
 62
     7
370
     9
100
AcDbVertex
100
AcDb2dVertex
 10
635.3123966089472
 20
288.1014578351352
 30
0.0
  0
VERTEX
  5
39B
330
37E
100
AcDbEntity
  8
1
  6
Continuous
 62
     7
370
     9
100
AcDbVertex
100
AcDb2dVertex
 10
633.7447717604701
 20
289.0421723183169
 30
0.0
  0
VERTEX
  5
39C
330
37E
100
AcDbEntity
  8
1
  6
Continuous
 62
     7
370
     9
100
AcDbVertex
100
AcDb2dVertex
 10
632.097971210661
 20
290.0738563056344
 30
0.0
  0
VERTEX
  5
39D
330
37E
100
AcDbEntity
  8
1
  6
Continuous
 62
     7
370
     9
100
AcDbVertex
100
AcDb2dVertex
 10
630.4175377651919
 20
291.1657364008918
 30
0.0
  0
VERTEX
  5
39E
330
37E
100
AcDbEntity
  8
1
  6
Continuous
 62
     7
370
     9
100
AcDbVertex
100
AcDb2dVertex
 10
628.7509300578017
 20
292.2811754136677
 30
0.0
  0
VERTEX
  5
39F
330
37E
100
AcDbEntity
  8
1
  6
Continuous
 62
     7
370
     9
100
AcDbVertex
100
AcDb2dVertex
 10
627.1458373070263
 20
293.3803237911645
 30
0.0
  0
VERTEX
  5
3A0
330
37E
100
AcDbEntity
  8
1
  6
Continuous
 62
     7
370
     9
100
AcDbVertex
100
AcDb2dVertex
 10
625.6484478479406
 20
294.4230275420094
 30
0.0
  0
VERTEX
  5
3A1
330
37E
100
AcDbEntity
  8
1
  6
Continuous
 62
     7
370
     9
100
AcDbVertex
100
AcDb2dVertex
 10
624.301810926463
 20
295.3715232179676
 30
0.0
  0
VERTEX
  5
3A2
330
37E
100
AcDbEntity
  8
1
  6
Continuous
 62
     7
370
     9
100
AcDbVertex
100
AcDb2dVertex
 10
623.1444057916834
 20
296.1925531956142
 30
0.0
  0
VERTEX
  5
3A3
330
37E
100
AcDbEntity
  8
1
  6
Continuous
 62
     7
370
     9
100
AcDbVertex
100
AcDb2dVertex
 10
622.2089892091182
 20
296.8587078590541
 30
0.0
  0
VERTEX
  5
3A4
330
37E
100
AcDbEntity
  8
1
  6
Continuous
 62
     7
370
     9
100
AcDbVertex
100
AcDb2dVertex
 10
621.5217431556562
 20
297.3489989879385
 30
0.0
  0
VERTEX
  5
3A5
330
37E
100
AcDbEntity
  8
1
  6
Continuous
 62
     7
370
     9
100
AcDbVertex
100
AcDb2dVertex
 10
621.101700569462
 20
297.6488405811365
 30
0.0
  0
VERTEX
  5
3A6
330
37E
100
AcDbEntity
  8
1
  6
Continuous
 62
     7
370
     9
100
AcDbVertex
100
AcDb2dVertex
 10
620.9603985225679
 20
297.7497179746726
 30
0.0
  0
SEQEND
  5
37F
330
37E
100
AcDbEntity
  8
1
  6
Continuous
370
     9
  0
POLYLINE
  5
3A7
330
1F
100
AcDbEntity
  8
1
  6
Continuous
 62
     7
370
     9
100
AcDb2dPolyline
 66
     1
 10
0.0
 20
0.0
 30
0.0
 70
     2
  0
VERTEX
  5
3A9
330
3A7
100
AcDbEntity
  8
1
  6
Continuous
 62
     7
370
     9
100
AcDbVertex
100
AcDb2dVertex
 10
659.4370210870226
 20
271.7011746732753
 30
0.0
  0
VERTEX
  5
3AA
330
3A7
100
AcDbEntity
  8
1
  6
Continuous
 62
     7
370
     9
100
AcDbVertex
100
AcDb2dVertex
 10
659.3159376432944
 20
271.6973978394324
 30
0.0
  0
VERTEX
  5
3AB
330
3A7
100
AcDbEntity
  8
1
  6
Continuous
 62
     7
370
     9
100
AcDbVertex
100
AcDb2dVertex
 10
658.955980949818
 20
271.6861208797368
 30
0.0
  0
VERTEX
  5
3AC
330
3A7
100
AcDbEntity
  8
1
  6
Continuous
 62
     7
370
     9
100
AcDbVertex
100
AcDb2dVertex
 10
658.3668902816042
 20
271.6672244741292
 30
0.0
  0
VERTEX
  5
3AD
330
3A7
100
AcDbEntity
  8
1
  6
Continuous
 62
     7
370
     9
100
AcDbVertex
100
AcDb2dVertex
 10
657.564447839094
 20
271.6396828403816
 30
0.0
  0
VERTEX
  5
3AE
330
3A7
100
AcDbEntity
  8
1
  6
Continuous
 62
     7
370
     9
100
AcDbVertex
100
AcDb2dVertex
 10
656.5698759093425
 20
271.6006651122949
 30
0.0
  0
VERTEX
  5
3AF
330
3A7
100
AcDbEntity
  8
1
  6
Continuous
 62
     7
370
     9
100
AcDbVertex
100
AcDb2dVertex
 10
655.4091180513681
 20
271.5448602396112
 30
0.0
  0
VERTEX
  5
3B0
330
3A7
100
AcDbEntity
  8
1
  6
Continuous
 62
     7
370
     9
100
AcDbVertex
100
AcDb2dVertex
 10
654.1120902093741
 20
271.4644002699429
 30
0.0
  0
VERTEX
  5
3B1
330
3A7
100
AcDbEntity
  8
1
  6
Continuous
 62
     7
370
     9
100
AcDbVertex
100
AcDb2dVertex
 10
652.711967556913
 20
271.3496280683475
 30
0.0
  0
VERTEX
  5
3B2
330
3A7
100
AcDbEntity
  8
1
  6
Continuous
 62
     7
370
     9
100
AcDbVertex
100
AcDb2dVertex
 10
651.2445362010985
 20
271.190740557018
 30
0.0
  0
VERTEX
  5
3B3
330
3A7
100
AcDbEntity
  8
1
  6
Continuous
 62
     7
370
     9
100
AcDbVertex
100
AcDb2dVertex
 10
649.7475953392089
 20
270.9800901104537
 30
0.0
  0
VERTEX
  5
3B4
330
3A7
100
AcDbEntity
  8
1
  6
Continuous
 62
     7
370
     9
100
AcDbVertex
100
AcDb2dVertex
 10
648.2603568258136
 20
270.714708469263
 30
0.0
  0
VERTEX
  5
3B5
330
3A7
100
AcDbEntity
  8
1
  6
Continuous
 62
     7
370
     9
100
AcDbVertex
100
AcDb2dVertex
 10
646.8227662710542
 20
270.3984882993423
 30
0.0
  0
VERTEX
  5
3B6
330
3A7
100
AcDbEntity
  8
1
  6
Continuous
 62
     7
370
     9
100
AcDbVertex
100
AcDb2dVertex
 10
645.474670010633
 20
270.0434565360399
 30
0.0
  0
VERTEX
  5
3B7
330
3A7
100
AcDbEntity
  8
1
  6
Continuous
 62
     7
370
     9
100
AcDbVertex
100
AcDb2dVertex
 10
644.254777273647
 20
269.669710158674
 30
0.0
  0
VERTEX
  5
3B8
330
3A7
100
AcDbEntity
  8
1
  6
Continuous
 62
     7
370
     9
100
AcDbVertex
100
AcDb2dVertex
 10
643.199412186013
 20
269.30383511026
 30
0.0
  0
VERTEX
  5
3B9
330
3A7
100
AcDbEntity
  8
1
  6
Continuous
 62
     7
370
     9
100
AcDbVertex
100
AcDb2dVertex
 10
642.3411061887087
 20
268.9759404029113
 30
0.0
  0
VERTEX
  5
3BA
330
3A7
100
AcDbEntity
  8
1
  6
Continuous
 62
     7
370
     9
100
AcDbVertex
100
AcDb2dVertex
 10
641.7071352517637
 20
268.7157430864117
 30
0.0
  0
VERTEX
  5
3BB
330
3A7
100
AcDbEntity
  8
1
  6
Continuous
 62
     7
370
     9
100
AcDbVertex
100
AcDb2dVertex
 10
641.318145049125
 20
268.5483660763978
 30
0.0
  0
VERTEX
  5
3BC
330
3A7
100
AcDbEntity
  8
1
  6
Continuous
 62
     7
370
     9
100
AcDbVertex
100
AcDb2dVertex
 10
641.1870210870226
 20
268.4906059154039
 30
0.0
  0
VERTEX
  5
3BD
330
3A7
100
AcDbEntity
  8
1
  6
Continuous
 62
     7
370
     9
100
AcDbVertex
100
AcDb2dVertex
 10
641.0557595585026
 20
268.4321061219881
 30
0.0
  0
VERTEX
  5
3BE
330
3A7
100
AcDbEntity
  8
1
  6
Continuous
 62
     7
370
     9
100
AcDbVertex
100
AcDb2dVertex
 10
640.6647504814708
 20
268.2538745372621
 30
0.0
  0
VERTEX
  5
3BF
330
3A7
100
AcDbEntity
  8
1
  6
Continuous
 62
     7
370
     9
100
AcDbVertex
100
AcDb2dVertex
 10
640.0223846967399
 20
267.9485419202218
 30
0.0
  0
VERTEX
  5
3C0
330
3A7
100
AcDbEntity
  8
1
  6
Continuous
 62
     7
370
     9
100
AcDbVertex
100
AcDb2dVertex
 10
639.1428316689689
 20
267.5064115375909
 30
0.0
  0
VERTEX
  5
3C1
330
3A7
100
AcDbEntity
  8
1
  6
Continuous
 62
     7
370
     9
100
AcDbVertex
100
AcDb2dVertex
 10
638.0462196920719
 20
266.9187706167349
 30
0.0
  0
VERTEX
  5
3C2
330
3A7
100
AcDbEntity
  8
1
  6
Continuous
 62
     7
370
     9
100
AcDbVertex
100
AcDb2dVertex
 10
636.7587176496057
 20
266.1815195755512
 30
0.0
  0
VERTEX
  5
3C3
330
3A7
100
AcDbEntity
  8
1
  6
Continuous
 62
     7
370
     9
100
AcDbVertex
100
AcDb2dVertex
 10
635.3123966089472
 20
265.2983775844485
 30
0.0
  0
VERTEX
  5
3C4
330
3A7
100
AcDbEntity
  8
1
  6
Continuous
 62
     7
370
     9
100
AcDbVertex
100
AcDb2dVertex
 10
633.7447717604701
 20
264.2830218164507
 30
0.0
  0
VERTEX
  5
3C5
330
3A7
100
AcDbEntity
  8
1
  6
Continuous
 62
     7
370
     9
100
AcDbVertex
100
AcDb2dVertex
 10
632.097971210661
 20
263.1597472566363
 30
0.0
  0
VERTEX
  5
3C6
330
3A7
100
AcDbEntity
  8
1
  6
Continuous
 62
     7
370
     9
100
AcDbVertex
100
AcDb2dVertex
 10
630.4175377651919
 20
261.962540160316
 30
0.0
  0
VERTEX
  5
3C7
330
3A7
100
AcDbEntity
  8
1
  6
Continuous
 62
     7
370
     9
100
AcDbVertex
100
AcDb2dVertex
 10
628.7509300578017
 20
260.7327714706403
 30
0.0
  0
VERTEX
  5
3C8
330
3A7
100
AcDbEntity
  8
1
  6
Continuous
 62
     7
370
     9
100
AcDbVertex
100
AcDb2dVertex
 10
627.1458373070263
 20
259.5159677343171
 30
0.0
  0
VERTEX
  5
3C9
330
3A7
100
AcDbEntity
  8
1
  6
Continuous
 62
     7
370
     9
100
AcDbVertex
100
AcDb2dVertex
 10
625.6484478479406
 20
258.3582539495803
 30
0.0
  0
VERTEX
  5
3CA
330
3A7
100
AcDbEntity
  8
1
  6
Continuous
 62
     7
370
     9
100
AcDbVertex
100
AcDb2dVertex
 10
624.301810926463
 20
257.3030614037145
 30
0.0
  0
VERTEX
  5
3CB
330
3A7
100
AcDbEntity
  8
1
  6
Continuous
 62
     7
370
     9
100
AcDbVertex
100
AcDb2dVertex
 10
623.1444057916834
 20
256.3885631625312
 30
0.0
  0
VERTEX
  5
3CC
330
3A7
100
AcDbEntity
  8
1
  6
Continuous
 62
     7
370
     9
100
AcDbVertex
100
AcDb2dVertex
 10
622.2089892091182
 20
255.6460797062992
 30
0.0
  0
VERTEX
  5
3CD
330
3A7
100
AcDbEntity
  8
1
  6
Continuous
 62
     7
370
     9
100
AcDbVertex
100
AcDb2dVertex
 10
621.5217431556562
 20
255.0994461783669
 30
0.0
  0
VERTEX
  5
3CE
330
3A7
100
AcDbEntity
  8
1
  6
Continuous
 62
     7
370
     9
100
AcDbVertex
100
AcDb2dVertex
 10
621.101700569462
 20
254.7651145433225
 30
0.0
  0
VERTEX
  5
3CF
330
3A7
100
AcDbEntity
  8
1
  6
Continuous
 62
     7
370
     9
100
AcDbVertex
100
AcDb2dVertex
 10
620.9603985225679
 20
254.6526314227558
 30
0.0
  0
SEQEND
  5
3A8
330
3A7
100
AcDbEntity
  8
1
  6
Continuous
370
     9
  0
POLYLINE
  5
3D0
330
1F
100
AcDbEntity
  8
1
  6
Continuous
 62
     7
370
     9
100
AcDb2dPolyline
 66
     1
 10
0.0
 20
0.0
 30
0.0
 70
     2
  0
VERTEX
  5
3D2
330
3D0
100
AcDbEntity
  8
1
  6
Continuous
 62
     7
370
     9
100
AcDbVertex
100
AcDb2dVertex
 10
622.7022880845113
 20
248.9110446570815
 30
0.0
  0
VERTEX
  5
3D3
330
3D0
100
AcDbEntity
  8
1
  6
Continuous
 62
     7
370
     9
100
AcDbVertex
100
AcDb2dVertex
 10
622.8287420799783
 20
249.0039196297925
 30
0.0
  0
VERTEX
  5
3D4
330
3D0
100
AcDbEntity
  8
1
  6
Continuous
 62
     7
370
     9
100
AcDbVertex
100
AcDb2dVertex
 10
623.2046536381258
 20
249.2799787285796
 30
0.0
  0
VERTEX
  5
3D5
330
3D0
100
AcDbEntity
  8
1
  6
Continuous
 62
     7
370
     9
100
AcDbVertex
100
AcDb2dVertex
 10
623.8197594418378
 20
249.7314119495204
 30
0.0
  0
VERTEX
  5
3D6
330
3D0
100
AcDbEntity
  8
1
  6
Continuous
 62
     7
370
     9
100
AcDbVertex
100
AcDb2dVertex
 10
624.657246966375
 20
250.344895164534
 30
0.0
  0
VERTEX
  5
3D7
330
3D0
100
AcDbEntity
  8
1
  6
Continuous
 62
     7
370
     9
100
AcDbVertex
100
AcDb2dVertex
 10
625.694192614875
 20
251.1013462216041
 30
0.0
  0
VERTEX
  5
3D8
330
3D0
100
AcDbEntity
  8
1
  6
Continuous
 62
     7
370
     9
100
AcDbVertex
100
AcDb2dVertex
 10
626.9021703974638
 20
251.9759523442218
 30
0.0
  0
VERTEX
  5
3D9
330
3D0
100
AcDbEntity
  8
1
  6
Continuous
 62
     7
370
     9
100
AcDbVertex
100
AcDb2dVertex
 10
628.2480224237943
 20
252.9387017169365
 30
0.0
  0
VERTEX
  5
3DA
330
3D0
100
AcDbEntity
  8
1
  6
Continuous
 62
     7
370
     9
100
AcDbVertex
100
AcDb2dVertex
 10
629.6947755805149
 20
253.9555646637631
 30
0.0
  0
VERTEX
  5
3DB
330
3D0
100
AcDbEntity
  8
1
  6
Continuous
 62
     7
370
     9
100
AcDbVertex
100
AcDb2dVertex
 10
631.2026805381789
 20
254.9903262993319
 30
0.0
  0
VERTEX
  5
3DC
330
3D0
100
AcDbEntity
  8
1
  6
Continuous
 62
     7
370
     9
100
AcDbVertex
100
AcDb2dVertex
 10
632.7303409351819
 20
256.00690756956
 30
0.0
  0
VERTEX
  5
3DD
330
3D0
100
AcDbEntity
  8
1
  6
Continuous
 62
     7
370
     9
100
AcDbVertex
100
AcDb2dVertex
 10
634.2358937019653
 20
256.9718669760196
 30
0.0
  0
VERTEX
  5
3DE
330
3D0
100
AcDbEntity
  8
1
  6
Continuous
 62
     7
370
     9
100
AcDbVertex
100
AcDb2dVertex
 10
635.678197373305
 20
257.856689619245
 30
0.0
  0
VERTEX
  5
3DF
330
3D0
100
AcDbEntity
  8
1
  6
Continuous
 62
     7
370
     9
100
AcDbVertex
100
AcDb2dVertex
 10
637.0179847905359
 20
258.6394692295781
 30
0.0
  0
VERTEX
  5
3E0
330
3D0
100
AcDbEntity
  8
1
  6
Continuous
 62
     7
370
     9
100
AcDbVertex
100
AcDb2dVertex
 10
638.2189400348046
 20
259.3056786473063
 30
0.0
  0
VERTEX
  5
3E1
330
3D0
100
AcDbEntity
  8
1
  6
Continuous
 62
     7
370
     9
100
AcDbVertex
100
AcDb2dVertex
 10
639.2486662167565
 20
259.8478890735619
 30
0.0
  0
VERTEX
  5
3E2
330
3D0
100
AcDbEntity
  8
1
  6
Continuous
 62
     7
370
     9
100
AcDbVertex
100
AcDb2dVertex
 10
640.0795196877402
 20
260.2645040284708
 30
0.0
  0
VERTEX
  5
3E3
330
3D0
100
AcDbEntity
  8
1
  6
Continuous
 62
     7
370
     9
100
AcDbVertex
100
AcDb2dVertex
 10
640.6892957535335
 20
260.5577750907246
 30
0.0
  0
VERTEX
  5
3E4
330
3D0
100
AcDbEntity
  8
1
  6
Continuous
 62
     7
370
     9
100
AcDbVertex
100
AcDb2dVertex
 10
641.0617594492
 20
260.7315174562751
 30
0.0
  0
VERTEX
  5
3E5
330
3D0
100
AcDbEntity
  8
1
  6
Continuous
 62
     7
370
     9
100
AcDbVertex
100
AcDb2dVertex
 10
641.1870210870226
 20
260.7890087268536
 30
0.0
  0
VERTEX
  5
3E6
330
3D0
100
AcDbEntity
  8
1
  6
Continuous
 62
     7
370
     9
100
AcDbVertex
100
AcDb2dVertex
 10
641.3122663882016
 20
260.846015200835
 30
0.0
  0
VERTEX
  5
3E7
330
3D0
100
AcDbEntity
  8
1
  6
Continuous
 62
     7
370
     9
100
AcDbVertex
100
AcDb2dVertex
 10
641.6844903332669
 20
261.0126428689658
 30
0.0
  0
VERTEX
  5
3E8
330
3D0
100
AcDbEntity
  8
1
  6
Continuous
 62
     7
370
     9
100
AcDbVertex
100
AcDb2dVertex
 10
642.2932694723521
 20
261.2763297222745
 30
0.0
  0
VERTEX
  5
3E9
330
3D0
100
AcDbEntity
  8
1
  6
Continuous
 62
     7
370
     9
100
AcDbVertex
100
AcDb2dVertex
 10
643.121599760941
 20
261.6180682047535
 30
0.0
  0
VERTEX
  5
3EA
330
3D0
100
AcDbEntity
  8
1
  6
Continuous
 62
     7
370
     9
100
AcDbVertex
100
AcDb2dVertex
 10
644.1464276854638
 20
262.014920832819
 30
0.0
  0
VERTEX
  5
3EB
330
3D0
100
AcDbEntity
  8
1
  6
Continuous
 62
     7
370
     9
100
AcDbVertex
100
AcDb2dVertex
 10
645.3393540143703
 20
262.4428688941784
 30
0.0
  0
VERTEX
  5
3EC
330
3D0
100
AcDbEntity
  8
1
  6
Continuous
 62
     7
370
     9
100
AcDbVertex
100
AcDb2dVertex
 10
646.6674767880821
 20
262.8794954239251
 30
0.0
  0
VERTEX
  5
3ED
330
3D0
100
AcDbEntity
  8
1
  6
Continuous
 62
     7
370
     9
100
AcDbVertex
100
AcDb2dVertex
 10
648.0943382901667
 20
263.3060653610252
 30
0.0
  0
VERTEX
  5
3EE
330
3D0
100
AcDbEntity
  8
1
  6
Continuous
 62
     7
370
     9
100
AcDbVertex
100
AcDb2dVertex
 10
649.5809423327133
 20
263.7087136040905
 30
0.0
  0
VERTEX
  5
3EF
330
3D0
100
AcDbEntity
  8
1
  6
Continuous
 62
     7
370
     9
100
AcDbVertex
100
AcDb2dVertex
 10
651.0868121431587
 20
264.0786502809952
 30
0.0
  0
VERTEX
  5
3F0
330
3D0
100
AcDbEntity
  8
1
  6
Continuous
 62
     7
370
     9
100
AcDbVertex
100
AcDb2dVertex
 10
652.571063994825
 20
264.4114962949513
 30
0.0
  0
VERTEX
  5
3F1
330
3D0
100
AcDbEntity
  8
1
  6
Continuous
 62
     7
370
     9
100
AcDbVertex
100
AcDb2dVertex
 10
653.9934760115285
 20
264.7060259284502
 30
0.0
  0
VERTEX
  5
3F2
330
3D0
100
AcDbEntity
  8
1
  6
Continuous
 62
     7
370
     9
100
AcDbVertex
100
AcDb2dVertex
 10
655.3155341761407
 20
264.9626826958153
 30
0.0
  0
VERTEX
  5
3F3
330
3D0
100
AcDbEntity
  8
1
  6
Continuous
 62
     7
370
     9
100
AcDbVertex
100
AcDb2dVertex
 10
656.5014379667269
 20
265.1822340522851
 30
0.0
  0
VERTEX
  5
3F4
330
3D0
100
AcDbEntity
  8
1
  6
Continuous
 62
     7
370
     9
100
AcDbVertex
100
AcDb2dVertex
 10
657.5190464247017
 20
265.3648460495363
 30
0.0
  0
VERTEX
  5
3F5
330
3D0
100
AcDbEntity
  8
1
  6
Continuous
 62
     7
370
     9
100
AcDbVertex
100
AcDb2dVertex
 10
658.3407426597371
 20
265.5097162719106
 30
0.0
  0
VERTEX
  5
3F6
330
3D0
100
AcDbEntity
  8
1
  6
Continuous
 62
     7
370
     9
100
AcDbVertex
100
AcDb2dVertex
 10
658.9441920609036
 20
265.6152409665322
 30
0.0
  0
VERTEX
  5
3F7
330
3D0
100
AcDbEntity
  8
1
  6
Continuous
 62
     7
370
     9
100
AcDbVertex
100
AcDb2dVertex
 10
659.3129681434879
 20
265.6795519014264
 30
0.0
  0
VERTEX
  5
3F8
330
3D0
100
AcDbEntity
  8
1
  6
Continuous
 62
     7
370
     9
100
AcDbVertex
100
AcDb2dVertex
 10
659.4370210870227
 20
265.7011746732753
 30
0.0
  0
SEQEND
  5
3D1
330
3D0
100
AcDbEntity
  8
1
  6
Continuous
370
     9
  0
LINE
  5
3F9
330
1F
100
AcDbEntity
  8
1
  6
Continuous
 62
     7
370
     9
100
AcDbLine
 10
689.4370210870226
 20
353.2011746987142
 30
0.0
 11
689.4370210870226
 21
381.5306122448978
 31
0.0
  0
LINE
  5
3FA
330
1F
100
AcDbEntity
  8
1
  6
Continuous
 62
     7
370
     9
100
AcDbLine
 10
681.4370210870226
 20
353.2011746987142
 30
0.0
 11
681.4370210870226
 21
381.5306122448978
 31
0.0
  0
LINE
  5
3FB
330
1F
100
AcDbEntity
  8
1
  6
Continuous
 62
     7
370
     9
100
AcDbLine
 10
681.4370210870226
 20
381.5306122448978
 30
0.0
 11
702.4370210870226
 21
381.5306122448978
 31
0.0
  0
LINE
  5
3FC
330
1F
100
AcDbEntity
  8
1
  6
Continuous
 62
     7
370
     9
100
AcDbLine
 10
702.4370210870226
 20
353.2011746987142
 30
0.0
 11
702.4370210870226
 21
381.5306122448978
 31
0.0
  0
LINE
  5
3FD
330
1F
100
AcDbEntity
  8
1
  6
Continuous
 62
     7
370
     9
100
AcDbLine
 10
719.1245137150589
 20
392.2075727362316
 30
0.0
 11
742.1410776676424
 21
392.2075727362316
 31
0.0
  0
LINE
  5
3FE
330
1F
100
AcDbEntity
  8
1
  6
Continuous
 62
     7
370
     9
100
AcDbLine
 10
750.3073656653561
 20
353.2011746987142
 30
0.0
 11
750.3073656653561
 21
363.2011746987142
 31
0.0
  0
LINE
  5
3FF
330
1F
100
AcDbEntity
  8
1
  6
Continuous
 62
     7
370
     9
100
AcDbLine
 10
710.9582254111838
 20
353.2011746987142
 30
0.0
 11
710.9582254111838
 21
363.2011746987142
 31
0.0
  0
LINE
  5
400
330
1F
100
AcDbEntity
  8
1
  6
Continuous
 62
     7
370
     9
100
AcDbLine
 10
710.9582254111838
 20
363.2011746987142
 30
0.0
 11
750.3073656653561
 21
363.2011746987142
 31
0.0
  0
LINE
  5
401
330
1F
100
AcDbEntity
  8
1
  6
Continuous
 62
     7
370
     9
100
AcDbLine
 10
748.3073656653561
 20
363.2011746987142
 30
0.0
 11
748.3073656653561
 21
355.2011746987142
 31
0.0
  0
LINE
  5
402
330
1F
100
AcDbEntity
  8
1
  6
Continuous
 62
     7
370
     9
100
AcDbLine
 10
716.9582257173454
 20
363.2011746987142
 30
0.0
 11
716.9582257173454
 21
355.2011746987142
 31
0.0
  0
LINE
  5
403
330
1F
100
AcDbEntity
  8
1
  6
Continuous
 62
     7
370
     9
100
AcDbLine
 10
712.9582257173454
 20
363.2011746987142
 30
0.0
 11
712.9582257173454
 21
355.2011746987142
 31
0.0
  0
LINE
  5
404
330
1F
100
AcDbEntity
  8
1
  6
Continuous
 62
     7
370
     9
100
AcDbLine
 10
724.7955106278076
 20
363.2011746987142
 30
0.0
 11
724.7955106278076
 21
355.2011746987142
 31
0.0
  0
LINE
  5
405
330
1F
100
AcDbEntity
  8
1
  6
Continuous
 62
     7
370
     9
100
AcDbLine
 10
720.7955106278076
 20
363.2011746987142
 30
0.0
 11
720.7955106278076
 21
355.2011746987142
 31
0.0
  0
LINE
  5
406
330
1F
100
AcDbEntity
  8
1
  6
Continuous
 62
     7
370
     9
100
AcDbLine
 10
712.9582257173454
 20
355.2011746987142
 30
0.0
 11
716.9582257173454
 21
355.2011746987142
 31
0.0
  0
LINE
  5
407
330
1F
100
AcDbEntity
  8
1
  6
Continuous
 62
     7
370
     9
100
AcDbLine
 10
720.7955106278076
 20
355.2011746987142
 30
0.0
 11
724.7955106278076
 21
355.2011746987142
 31
0.0
  0
LINE
  5
408
330
1F
100
AcDbEntity
  8
1
  6
Continuous
 62
     7
370
     9
100
AcDbLine
 10
728.6327955382699
 20
363.2011746987142
 30
0.0
 11
728.6327955382699
 21
355.2011746987142
 31
0.0
  0
LINE
  5
409
330
1F
100
AcDbEntity
  8
1
  6
Continuous
 62
     7
370
     9
100
AcDbLine
 10
728.6327955382699
 20
355.2011746987142
 30
0.0
 11
732.6327955382699
 21
355.2011746987142
 31
0.0
  0
LINE
  5
40A
330
1F
100
AcDbEntity
  8
1
  6
Continuous
 62
     7
370
     9
100
AcDbLine
 10
732.6327955382699
 20
363.2011746987142
 30
0.0
 11
732.6327955382699
 21
355.2011746987142
 31
0.0
  0
LINE
  5
40B
330
1F
100
AcDbEntity
  8
1
  6
Continuous
 62
     7
370
     9
100
AcDbLine
 10
736.4700807548937
 20
363.2011746987142
 30
0.0
 11
736.4700807548937
 21
355.2011746987142
 31
0.0
  0
LINE
  5
40C
330
1F
100
AcDbEntity
  8
1
  6
Continuous
 62
     7
370
     9
100
AcDbLine
 10
736.4700807548937
 20
355.2011746987142
 30
0.0
 11
740.4700807548937
 21
355.2011746987142
 31
0.0
  0
LINE
  5
40D
330
1F
100
AcDbEntity
  8
1
  6
Continuous
 62
     7
370
     9
100
AcDbLine
 10
740.4700807548937
 20
363.2011746987142
 30
0.0
 11
740.4700807548937
 21
355.2011746987142
 31
0.0
  0
LINE
  5
40E
330
1F
100
AcDbEntity
  8
1
  6
Continuous
 62
     7
370
     9
100
AcDbLine
 10
744.3073656653561
 20
363.2011746987142
 30
0.0
 11
744.3073656653561
 21
355.2011746987142
 31
0.0
  0
LINE
  5
40F
330
1F
100
AcDbEntity
  8
1
  6
Continuous
 62
     7
370
     9
100
AcDbLine
 10
744.3073656653561
 20
355.2011746987142
 30
0.0
 11
748.3073656653561
 21
355.2011746987142
 31
0.0
  0
LINE
  5
410
330
1F
100
AcDbEntity
  8
1
  6
Continuous
 62
     7
370
     9
100
AcDbLine
 10
742.1410776676424
 20
363.2011746987142
 30
0.0
 11
742.1410776676424
 21
392.2075727362316
 31
0.0
  0
LINE
  5
411
330
1F
100
AcDbEntity
  8
1
  6
Continuous
 62
     7
370
     9
100
AcDbLine
 10
719.1245137150589
 20
363.2011746987142
 30
0.0
 11
719.1245137150589
 21
392.2075727362316
 31
0.0
  0
LINE
  5
412
330
1F
100
AcDbEntity
  8
1
  6
Continuous
 62
     7
370
     9
100
AcDbLine
 10
721.7955106278076
 20
390.2075727362316
 30
0.0
 11
719.1245137150589
 21
390.2075727362316
 31
0.0
  0
LINE
  5
413
330
1F
100
AcDbEntity
  8
1
  6
Continuous
 62
     7
370
     9
100
AcDbLine
 10
722.7955106278076
 20
390.2075727362316
 30
0.0
 11
727.1339341932293
 21
390.2075727362316
 31
0.0
  0
LINE
  5
414
330
1F
100
AcDbEntity
  8
1
  6
Continuous
 62
     7
370
     9
100
AcDbLine
 10
728.1339341932293
 20
390.2075727362316
 30
0.0
 11
733.1316571894721
 21
390.2075727362316
 31
0.0
  0
LINE
  5
415
330
1F
100
AcDbEntity
  8
1
  6
Continuous
 62
     7
370
     9
100
AcDbLine
 10
738.9700807548937
 20
390.2075727362316
 30
0.0
 11
742.1410776676424
 21
390.2075727362316
 31
0.0
  0
LINE
  5
416
330
1F
100
AcDbEntity
  8
1
  6
Continuous
 62
     7
370
     9
100
AcDbLine
 10
734.1316571894721
 20
390.2075727362316
 30
0.0
 11
737.9700807548937
 21
390.2075727362316
 31
0.0
  0
LINE
  5
417
330
1F
100
AcDbEntity
  8
1
  6
Continuous
 62
     7
370
     9
100
AcDbLine
 10
719.1245137150589
 20
365.2011746987142
 30
0.0
 11
721.7955106278076
 21
365.2011746987142
 31
0.0
  0
LINE
  5
418
330
1F
100
AcDbEntity
  8
1
  6
Continuous
 62
     7
370
     9
100
AcDbLine
 10
721.7955106278076
 20
390.2075727362316
 30
0.0
 11
721.7955106278076
 21
365.2011746987142
 31
0.0
  0
LINE
  5
419
330
1F
100
AcDbEntity
  8
1
  6
Continuous
 62
     7
370
     9
100
AcDbLine
 10
722.7955106278076
 20
390.2075727362316
 30
0.0
 11
722.7955106278076
 21
365.2011746987142
 31
0.0
  0
LINE
  5
41A
330
1F
100
AcDbEntity
  8
1
  6
Continuous
 62
     7
370
     9
100
AcDbLine
 10
722.7955106278076
 20
365.2011746987142
 30
0.0
 11
727.1339341932293
 21
365.2011746987142
 31
0.0
  0
LINE
  5
41B
330
1F
100
AcDbEntity
  8
1
  6
Continuous
 62
     7
370
     9
100
AcDbLine
 10
727.1339341932293
 20
390.2075727362316
 30
0.0
 11
727.1339341932293
 21
365.2011746987142
 31
0.0
  0
LINE
  5
41C
330
1F
100
AcDbEntity
  8
1
  6
Continuous
 62
     7
370
     9
100
AcDbLine
 10
728.1339341932293
 20
390.2075727362316
 30
0.0
 11
728.1339341932293
 21
365.2011746987142
 31
0.0
  0
LINE
  5
41D
330
1F
100
AcDbEntity
  8
1
  6
Continuous
 62
     7
370
     9
100
AcDbLine
 10
733.1316571894721
 20
390.2075727362316
 30
0.0
 11
733.1316571894721
 21
365.2011746987142
 31
0.0
  0
LINE
  5
41E
330
1F
100
AcDbEntity
  8
1
  6
Continuous
 62
     7
370
     9
100
AcDbLine
 10
728.1339341932293
 20
365.2011746987142
 30
0.0
 11
733.1316571894721
 21
365.2011746987142
 31
0.0
  0
LINE
  5
41F
330
1F
100
AcDbEntity
  8
1
  6
Continuous
 62
     7
370
     9
100
AcDbLine
 10
734.1316571894721
 20
390.2075727362316
 30
0.0
 11
734.1316571894721
 21
365.2011746987142
 31
0.0
  0
LINE
  5
420
330
1F
100
AcDbEntity
  8
1
  6
Continuous
 62
     7
370
     9
100
AcDbLine
 10
734.1316571894721
 20
365.2011746987142
 30
0.0
 11
737.9700807548937
 21
365.2011746987142
 31
0.0
  0
LINE
  5
421
330
1F
100
AcDbEntity
  8
1
  6
Continuous
 62
     7
370
     9
100
AcDbLine
 10
737.9700807548937
 20
390.2075727362316
 30
0.0
 11
737.9700807548937
 21
365.2011746987142
 31
0.0
  0
LINE
  5
422
330
1F
100
AcDbEntity
  8
1
  6
Continuous
 62
     7
370
     9
100
AcDbLine
 10
738.9700807548937
 20
390.2075727362316
 30
0.0
 11
738.9700807548937
 21
365.2011746987142
 31
0.0
  0
LINE
  5
423
330
1F
100
AcDbEntity
  8
1
  6
Continuous
 62
     7
370
     9
100
AcDbLine
 10
738.9700807548937
 20
365.2011746987142
 30
0.0
 11
742.1410776676424
 21
365.2011746987142
 31
0.0
  0
LINE
  5
424
330
1F
100
AcDbEntity
  8
1
  6
Continuous
 62
     7
370
     9
100
AcDbLine
 10
702.4370210870226
 20
381.5306122448978
 30
0.0
 11
718.0536410526998
 21
363.2011746987142
 31
0.0
  0
LINE
  5
425
330
1F
100
AcDbEntity
  8
1
  6
Continuous
 62
     7
370
     9
100
AcDbLine
 10
669.4370210870226
 20
345.1622210401496
 30
0.0
 11
669.4370210870226
 21
335.2401283572789
 31
0.0
  0
LINE
  5
426
330
1F
100
AcDbEntity
  8
1
  6
Continuous
 62
     7
370
     9
100
AcDbLine
 10
673.4370210870226
 20
335.2401283572789
 30
0.0
 11
669.4370210870226
 21
335.2401283572789
 31
0.0
  0
LINE
  5
427
330
1F
100
AcDbEntity
  8
1
  6
Continuous
 62
     7
370
     9
100
AcDbLine
 10
673.4370210870226
 20
345.1622210401496
 30
0.0
 11
669.4370210870226
 21
345.1622210401496
 31
0.0
  0
LINE
  5
428
330
1F
100
AcDbEntity
  8
1
  6
Continuous
 62
     7
370
     9
100
AcDbLine
 10
674.4370210870226
 20
353.2011746987142
 30
0.0
 11
674.4370210870226
 21
240.2011746987143
 31
0.0
  0
LINE
  5
429
330
1F
100
AcDbEntity
  8
1
  6
Continuous
 62
     7
370
     9
100
AcDbLine
 10
766.2655925155939
 20
326.2401283572789
 30
0.0
 11
756.2655925155939
 21
326.2401283572789
 31
0.0
  0
LINE
  5
42A
330
1F
100
AcDbEntity
  8
1
  6
Continuous
 62
     7
370
     9
100
AcDbLine
 10
756.2655925155939
 20
335.2401283572789
 30
0.0
 11
765.2655925155939
 21
335.2401283572789
 31
0.0
  0
LINE
  5
42B
330
1F
100
AcDbEntity
  8
1
  6
Continuous
 62
     7
370
     9
100
AcDbLine
 10
765.2655925155939
 20
335.2401283572789
 30
0.0
 11
766.2655925155939
 21
334.2401283572789
 31
0.0
  0
LINE
  5
42C
330
1F
100
AcDbEntity
  8
1
  6
Continuous
 62
     7
370
     9
100
AcDbLine
 10
766.2655925155939
 20
334.2401283572789
 30
0.0
 11
766.2655925155939
 21
318.2401283572789
 31
0.0
  0
LINE
  5
42D
330
1F
100
AcDbEntity
  8
1
  6
Continuous
 62
     7
370
     9
100
AcDbLine
 10
756.2655925155939
 20
317.2401283572789
 30
0.0
 11
765.2655925155939
 21
317.2401283572789
 31
0.0
  0
LINE
  5
42E
330
1F
100
AcDbEntity
  8
1
  6
Continuous
 62
     7
370
     9
100
AcDbLine
 10
766.2655925155939
 20
318.2401283572789
 30
0.0
 11
765.2655925155939
 21
317.2401283572789
 31
0.0
  0
LINE
  5
42F
330
1F
100
AcDbEntity
  8
1
  6
Continuous
 62
     7
370
     9
100
AcDbLine
 10
766.2655925155939
 20
333.2401283572789
 30
0.0
 11
776.2655925155939
 21
333.240128357279
 31
0.0
  0
LINE
  5
430
330
1F
100
AcDbEntity
  8
1
  6
Continuous
 62
     7
370
     9
100
AcDbLine
 10
776.2655925155939
 20
333.240128357279
 30
0.0
 11
776.2655925155939
 21
319.240128357279
 31
0.0
  0
LINE
  5
431
330
1F
100
AcDbEntity
  8
1
  6
Continuous
 62
     7
370
     9
100
AcDbLine
 10
766.2655925155939
 20
319.2401283572789
 30
0.0
 11
776.2655925155939
 21
319.240128357279
 31
0.0
  0
INSERT
  5
43C
330
1F
100
AcDbEntity
  8
0
100
AcDbBlockReference
  2
*G29
 10
0.0
 20
0.0
 30
0.0
  0
CIRCLE
  5
43D
330
1F
100
AcDbEntity
  8
1
  6
Continuous
 62
     7
370
     9
100
AcDbCircle
 10
729.7655925155939
 20
328.7011746987142
 30
0.0
 40
22.5
  0
CIRCLE
  5
43E
330
1F
100
AcDbEntity
  8
1
  6
Continuous
 62
     7
370
     9
100
AcDbCircle
 10
729.7655925155939
 20
328.7011746987142
 30
0.0
 40
21.69951743250556
  0
CIRCLE
  5
43F
330
1F
100
AcDbEntity
  8
1
  6
Continuous
 62
     7
370
     9
100
AcDbCircle
 10
729.7655925155939
 20
328.7011746987142
 30
0.0
 40
18.39994622668439
  0
CIRCLE
  5
440
330
1F
100
AcDbEntity
  8
1
  6
Continuous
 62
     7
370
     9
100
AcDbCircle
 10
729.7655925155939
 20
328.7011746987142
 30
0.0
 40
15.56347273396102
  0
LINE
  5
441
330
1F
100
AcDbEntity
  8
1
  6
Continuous
 62
     7
370
     9
100
AcDbLine
 10
729.7655925155939
 20
344.2646474326752
 30
0.0
 11
729.7655925155939
 21
341.1680032646724
 31
0.0
  0
LINE
  5
442
330
1F
100
AcDbEntity
  8
1
  6
Continuous
 62
     7
370
     9
100
AcDbLine
 10
729.7655925155939
 20
313.1377019647532
 30
0.0
 11
729.7655925155939
 21
315.1766441170638
 31
0.0
  0
LINE
  5
443
330
1F
100
AcDbEntity
  8
1
  6
Continuous
 62
     7
370
     9
100
AcDbLine
 10
721.9838561486134
 20
315.2228119399975
 30
0.0
 11
723.0094433864186
 21
316.9991811434705
 31
0.0
  0
LINE
  5
444
330
1F
100
AcDbEntity
  8
1
  6
Continuous
 62
     7
370
     9
100
AcDbLine
 10
716.2872297461744
 20
320.9194383502715
 30
0.0
 11
717.7920302301803
 21
321.788235314789
 31
0.0
  0
LINE
  5
445
330
1F
100
AcDbEntity
  8
1
  6
Continuous
 62
     7
370
     9
100
AcDbLine
 10
716.6748942516346
 20
328.7011746987142
 30
0.0
 11
714.2021197816329
 21
328.7011746987142
 31
0.0
  0
LINE
  5
446
330
1F
100
AcDbEntity
  8
1
  6
Continuous
 62
     7
370
     9
100
AcDbLine
 10
716.2872297324473
 20
336.4829110233808
 30
0.0
 11
718.8077123700409
 21
335.0277096940783
 31
0.0
  0
LINE
  5
447
330
1F
100
AcDbEntity
  8
1
  6
Continuous
 62
     7
370
     9
100
AcDbLine
 10
721.9838556847586
 20
342.1795371896243
 30
0.0
 11
723.4289425582932
 21
339.6765733033117
 31
0.0
  0
LINE
  5
448
330
1F
100
AcDbEntity
  8
1
  6
Continuous
 62
     7
370
     9
100
AcDbLine
 10
737.547329188736
 20
315.2228119399975
 30
0.0
 11
736.5217419509307
 21
316.9991811434705
 31
0.0
  0
LINE
  5
449
330
1F
100
AcDbEntity
  8
1
  6
Continuous
 62
     7
370
     9
100
AcDbLine
 10
743.243955591175
 20
320.9194383502715
 30
0.0
 11
741.739155107169
 21
321.788235314789
 31
0.0
  0
LINE
  5
44A
330
1F
100
AcDbEntity
  8
1
  6
Continuous
 62
     7
370
     9
100
AcDbLine
 10
742.8562910857148
 20
328.7011746987142
 30
0.0
 11
745.3290655557165
 21
328.7011746987142
 31
0.0
  0
LINE
  5
44B
330
1F
100
AcDbEntity
  8
1
  6
Continuous
 62
     7
370
     9
100
AcDbLine
 10
743.2439556049021
 20
336.4829110233808
 30
0.0
 11
740.7234729673085
 21
335.0277096940783
 31
0.0
  0
LINE
  5
44C
330
1F
100
AcDbEntity
  8
1
  6
Continuous
 62
     7
370
     9
100
AcDbLine
 10
737.5473296525907
 20
342.1795371896243
 30
0.0
 11
736.1022427790562
 21
339.6765733033117
 31
0.0
  0
HATCH
  5
44D
330
1F
100
AcDbEntity
  8
1
  6
Continuous
 62
     7
370
     9
100
AcDbHatch
 10
0.0
 20
0.0
 30
0.0
210
0.0
220
0.0
230
1.0
  2
SOLID
 70
     1
 71
     0
 91
        1
 92
        0
 93
        2
 72
     2
 10
729.7655923799522
 20
328.701174463776
 40
1.347041931310435
 50
179.9999999999998
 51
360.0
 73
     1
 72
     2
 10
729.7655923799522
 20
328.701174463776
 40
1.347041931310435
 50
0.0
 51
179.9999999999998
 73
     1
 97
        0
 75
     0
 76
     1
 98
        0
  0
LINE
  5
44E
330
1F
100
AcDbEntity
  8
1
  6
Continuous
 62
     7
370
    50
100
AcDbLine
 10
728.6017888607032
 20
328.0292522529053
 30
0.0
 11
733.7029537119722
 21
330.9744111529662
 31
0.0
  0
LINE
  5
44F
330
1F
100
AcDbEntity
  8
1
  6
Continuous
 62
     7
370
    50
100
AcDbLine
 10
719.6208766206224
 20
322.8441202640533
 30
0.0
 11
721.7421969915926
 21
324.9654405802025
 31
0.0
  0
LINE
  5
450
330
1F
100
AcDbEntity
  8
1
  6
Continuous
 62
     7
370
    50
100
AcDbLine
 10
719.6208766206224
 20
322.8441202640533
 30
0.0
 11
722.5186541095226
 21
323.6205773619175
 31
0.0
  0
LINE
  5
451
330
1F
100
AcDbEntity
  8
1
  6
Continuous
 62
     7
370
    50
100
AcDbLine
 10
721.7421969915926
 20
324.9654405802025
 30
0.0
 11
722.5186541095226
 21
323.6205773619175
 31
0.0
  0
LINE
  5
452
330
1F
100
AcDbEntity
  8
1
  6
Continuous
 62
     7
370
    50
100
AcDbLine
 10
720.2482638531062
 20
323.206342440805
 30
0.0
 11
721.3089240385913
 21
324.2670025988796
 31
0.0
  0
LINE
  5
453
330
1F
100
AcDbEntity
  8
1
  6
Continuous
 62
     7
370
    50
100
AcDbLine
 10
720.2482638531062
 20
323.206342440805
 30
0.0
 11
721.6971525975563
 21
323.5945709897371
 31
0.0
  0
LINE
  5
454
330
1F
100
AcDbEntity
  8
1
  6
Continuous
 62
     7
370
    50
100
AcDbLine
 10
721.3089240385913
 20
324.2670025988796
 30
0.0
 11
721.6971525975563
 21
323.5945709897371
 31
0.0
  0
POLYLINE
  5
455
330
1F
100
AcDbEntity
  8
1
  6
Continuous
 62
     7
370
    50
100
AcDb2dPolyline
 66
     1
 10
0.0
 20
0.0
 30
0.0
  0
VERTEX
  5
457
330
455
100
AcDbEntity
  8
1
  6
Continuous
 62
     7
370
    50
100
AcDbVertex
100
AcDb2dVertex
 10
719.6208766206224
 20
322.8441202640533
 30
0.0
  0
VERTEX
  5
458
330
455
100
AcDbEntity
  8
1
  6
Continuous
 62
     7
370
    50
100
AcDbVertex
100
AcDb2dVertex
 10
729.7655926450212
 20
328.7011746168137
 30
0.0
  0
SEQEND
  5
456
330
455
100
AcDbEntity
  8
1
  6
Continuous
370
    50
  0
CIRCLE
  5
459
330
1F
100
AcDbEntity
  8
1
  6
Continuous
 62
     7
370
     9
100
AcDbCircle
 10
741.015592515594
 20
280.6049623946234
 30
0.0
 40
8.124460763501304
  0
CIRCLE
  5
45A
330
1F
100
AcDbEntity
  8
1
  6
Continuous
 62
     7
370
     9
100
AcDbCircle
 10
741.015592515594
 20
280.6049623946234
 30
0.0
 40
5.808972198012782
  0
CIRCLE
  5
45B
330
1F
100
AcDbEntity
  8
1
  6
Continuous
 62
     7
370
     9
100
AcDbCircle
 10
738.1111064165877
 20
280.6049623946234
 30
0.0
 40
1.005937165867863
  0
CIRCLE
  5
45C
330
1F
100
AcDbEntity
  8
1
  6
Continuous
 62
     7
370
     9
100
AcDbCircle
 10
743.9200789207617
 20
280.6049623946234
 30
0.0
 40
1.005937165867863
  0
CIRCLE
  5
45D
330
1F
100
AcDbEntity
  8
1
  6
Continuous
 62
     7
370
     9
100
AcDbCircle
 10
741.015592515594
 20
258.3357705973506
 30
0.0
 40
8.124460763501304
  0
CIRCLE
  5
45E
330
1F
100
AcDbEntity
  8
1
  6
Continuous
 62
     7
370
     9
100
AcDbCircle
 10
741.015592515594
 20
258.3357705973506
 30
0.0
 40
5.808972198012782
  0
CIRCLE
  5
45F
330
1F
100
AcDbEntity
  8
1
  6
Continuous
 62
     7
370
     9
100
AcDbCircle
 10
738.1111064165877
 20
258.3357705973506
 30
0.0
 40
1.005937165867863
  0
CIRCLE
  5
460
330
1F
100
AcDbEntity
  8
1
  6
Continuous
 62
     7
370
     9
100
AcDbCircle
 10
743.9200789207617
 20
258.3357705973506
 30
0.0
 40
1.005937165867863
  0
LINE
  5
461
330
1F
100
AcDbEntity
  8
1
  6
Continuous
 62
     7
370
     9
100
AcDbLine
 10
456.127793659038
 20
121.5306122448978
 30
0.0
 11
454.127793659038
 21
123.5306122448978
 31
0.0
  0
LINE
  5
462
330
1F
100
AcDbEntity
  8
1
  6
Continuous
 62
     7
370
     9
100
AcDbLine
 10
454.127793659038
 20
125.5306122448978
 30
0.0
 11
454.127793659038
 21
123.5306122448978
 31
0.0
  0
LINE
  5
463
330
1F
100
AcDbEntity
  8
1
  6
Continuous
 62
     7
370
     9
100
AcDbLine
 10
454.127793659038
 20
125.5306122448978
 30
0.0
 11
424.1277933528764
 21
125.5306122448978
 31
0.0
  0
LINE
  5
464
330
1F
100
AcDbEntity
  8
1
  6
Continuous
 62
     7
370
     9
100
AcDbLine
 10
424.1277933528764
 20
125.5306122448978
 30
0.0
 11
424.1277933528764
 21
123.5306122448978
 31
0.0
  0
LINE
  5
465
330
1F
100
AcDbEntity
  8
1
  6
Continuous
 62
     7
370
     9
100
AcDbLine
 10
456.127793659038
 20
86.53061224489784
 30
0.0
 11
456.127793659038
 21
121.5306122448978
 31
0.0
  0
LINE
  5
466
330
1F
100
AcDbEntity
  8
1
  6
Continuous
 62
     7
370
     9
100
AcDbLine
 10
456.127793659038
 20
121.5306122448978
 30
0.0
 11
422.1277936590382
 21
121.5306122448978
 31
0.0
  0
LINE
  5
467
330
1F
100
AcDbEntity
  8
1
  6
Continuous
 62
     7
370
     9
100
AcDbLine
 10
456.127793659038
 20
100.5306122448978
 30
0.0
 11
457.127793659038
 21
100.5306122448978
 31
0.0
  0
LINE
  5
468
330
1F
100
AcDbEntity
  8
1
  6
Continuous
 62
     7
370
     9
100
AcDbLine
 10
454.127793659038
 20
123.5306122448978
 30
0.0
 11
424.1277936590382
 21
123.5306122448978
 31
0.0
  0
LINE
  5
469
330
1F
100
AcDbEntity
  8
1
  6
Continuous
 62
     7
370
     9
100
AcDbLine
 10
422.1277936590382
 20
86.53061224489784
 30
0.0
 11
457.127793659038
 21
86.53061224489784
 31
0.0
  0
LINE
  5
46A
330
1F
100
AcDbEntity
  8
1
  6
Continuous
 62
     7
370
     9
100
AcDbLine
 10
457.127793659038
 20
120.0306122448978
 30
0.0
 11
457.127793659038
 21
83.53061224489784
 31
0.0
  0
LINE
  5
46B
330
1F
100
AcDbEntity
  8
1
  6
Continuous
 62
     7
370
     9
100
AcDbLine
 10
460.127793659038
 20
120.0306122448978
 30
0.0
 11
457.127793659038
 21
120.0306122448978
 31
0.0
  0
LINE
  5
46C
330
1F
100
AcDbEntity
  8
1
  6
Continuous
 62
     7
370
     9
100
AcDbLine
 10
460.127793659038
 20
83.53061224489784
 30
0.0
 11
460.127793659038
 21
120.0306122448978
 31
0.0
  0
LINE
  5
46D
330
1F
100
AcDbEntity
  8
1
  6
Continuous
 62
     7
370
     9
100
AcDbLine
 10
457.127793659038
 20
90.53061224489784
 30
0.0
 11
456.127793659038
 21
90.53061224489784
 31
0.0
  0
LINE
  5
46E
330
1F
100
AcDbEntity
  8
1
  6
Continuous
 62
     7
370
     9
100
AcDbLine
 10
422.1277936590382
 20
121.5306122448978
 30
0.0
 11
422.1277936590382
 21
83.53061224489784
 31
0.0
  0
LINE
  5
46F
330
1F
100
AcDbEntity
  8
1
  6
Continuous
 62
     7
370
     9
100
AcDbLine
 10
422.1277936590382
 20
83.53061224489784
 30
0.0
 11
460.127793659038
 21
83.53061224489784
 31
0.0
  0
LINE
  5
470
330
1F
100
AcDbEntity
  8
1
  6
Continuous
 62
     7
370
     9
100
AcDbLine
 10
430.1277936590382
 20
86.53061224489784
 30
0.0
 11
430.1277936590382
 21
83.53061224489784
 31
0.0
  0
LINE
  5
471
330
1F
100
AcDbEntity
  8
1
  6
Continuous
 62
     7
370
     9
100
AcDbLine
 10
422.1277936590382
 20
121.5306122448978
 30
0.0
 11
424.1277933528764
 21
123.5306122448978
 31
0.0
  0
LINE
  5
472
330
1F
100
AcDbEntity
  8
1
  6
Continuous
 62
     7
370
     9
100
AcDbLine
 10
460.127793659038
 20
99.03061224489784
 30
0.0
 11
468.9370210870226
 21
99.03061224489784
 31
0.0
  0
LINE
  5
473
330
1F
100
AcDbEntity
  8
1
  6
Continuous
 62
     7
370
     9
100
AcDbLine
 10
460.127793659038
 20
91.53061224489784
 30
0.0
 11
468.2941639441655
 21
91.53061224489784
 31
0.0
  0
LINE
  5
474
330
1F
100
AcDbEntity
  8
1
  6
Continuous
 62
     7
370
     9
100
AcDbLine
 10
470.4370210870226
 20
116.5306122448978
 30
0.0
 11
467.2655925155941
 21
79.53061224489784
 31
0.0
  0
LINE
  5
475
330
1F
100
AcDbEntity
  8
1
  6
Continuous
 62
     7
370
     9
100
AcDbLine
 10
511.2222143014803
 20
83.53061224489784
 30
0.0
 11
674.8355540099614
 21
83.53061224489784
 31
0.0
  0
LINE
  5
476
330
1F
100
AcDbEntity
  8
1
  6
Continuous
 62
     7
370
     9
100
AcDbLine
 10
507.2222143014803
 20
79.53061224489784
 30
0.0
 11
511.2222143014803
 21
83.53061224489784
 31
0.0
  0
LINE
  5
477
330
1F
100
AcDbEntity
  8
1
  6
Continuous
 62
     7
370
     9
100
AcDbLine
 10
467.2655925155941
 20
79.53061224489784
 30
0.0
 11
507.2222143014803
 21
79.53061224489784
 31
0.0
  0
LINE
  5
478
330
1F
100
AcDbEntity
  8
1
  6
Continuous
 62
     7
370
     9
100
AcDbLine
 10
470.4370210870226
 20
116.5306122448978
 30
0.0
 11
764.4370210870225
 21
116.5306122448978
 31
0.0
  0
LINE
  5
479
330
1F
100
AcDbEntity
  8
1
  6
Continuous
 62
     7
370
     9
100
AcDbLine
 10
764.4370210870225
 20
116.5306122448978
 30
0.0
 11
767.265592515594
 21
83.53061224489784
 31
0.0
  0
LINE
  5
47A
330
1F
100
AcDbEntity
  8
1
  6
Continuous
 62
     7
370
     9
100
AcDbLine
 10
730.8355540099614
 20
83.53061224489784
 30
0.0
 11
767.265592515594
 21
83.53061224489784
 31
0.0
  0
LINE
  5
47B
330
1F
100
AcDbEntity
  8
1
  6
Continuous
 62
     7
370
     9
100
AcDbLine
 10
770.6529124591658
 20
116.5306122448978
 30
0.0
 11
788.0190767003302
 21
116.5306122448978
 31
0.0
  0
LINE
  5
47C
330
1F
100
AcDbEntity
  8
1
  6
Continuous
 62
     7
370
     9
100
AcDbLine
 10
770.6529124591658
 20
79.53061224489784
 30
0.0
 11
814.0104358479397
 21
79.53061224489784
 31
0.0
  0
LINE
  5
47D
330
1F
100
AcDbEntity
  8
1
  6
Continuous
 62
     7
370
     9
100
AcDbLine
 10
767.2655925155941
 20
381.5306122448978
 30
0.0
 11
814.0104358479397
 21
381.5306122448978
 31
0.0
  0
LINE
  5
47E
330
1F
100
AcDbEntity
  8
1
  6
Continuous
 62
     7
370
     9
100
AcDbLine
 10
562.6641520641537
 20
316.2011746987142
 30
0.0
 11
532.4470262845276
 21
316.2011746987142
 31
0.0
  0
LINE
  5
47F
330
1F
100
AcDbEntity
  8
1
  6
Continuous
 62
     7
370
     9
100
AcDbLine
 10
562.6641520641537
 20
236.2011746987142
 30
0.0
 11
532.4470262845276
 21
236.2011746987142
 31
0.0
  0
LINE
  5
480
330
1F
100
AcDbEntity
  8
1
  6
Continuous
 62
     7
370
     9
100
AcDbLine
 10
581.4370210870226
 20
325.2011746987142
 30
0.0
 11
581.4370210870226
 21
316.2011746987142
 31
0.0
  0
LINE
  5
481
330
1F
100
AcDbEntity
  8
1
  6
Continuous
 62
     7
370
     9
100
AcDbLine
 10
575.4370210870226
 20
326.2011746987142
 30
0.0
 11
575.4370210870226
 21
316.2011746987142
 31
0.0
  0
LINE
  5
482
330
1F
100
AcDbEntity
  8
1
  6
Continuous
 62
     7
370
     9
100
AcDbLine
 10
575.4370210870226
 20
326.2011746987142
 30
0.0
 11
636.9370210870226
 21
326.2011746987142
 31
0.0
  0
LINE
  5
483
330
1F
100
AcDbEntity
  8
1
  6
Continuous
 62
     7
370
     9
100
AcDbLine
 10
576.4370210870226
 20
325.2011746987142
 30
0.0
 11
576.4370210870226
 21
316.2011746987142
 31
0.0
  0
LINE
  5
484
330
1F
100
AcDbEntity
  8
1
  6
Continuous
 62
     7
370
     9
100
AcDbLine
 10
619.4370213931842
 20
325.2011746987142
 30
0.0
 11
619.4370213931842
 21
316.2011746987142
 31
0.0
  0
LINE
  5
485
330
1F
100
AcDbEntity
  8
1
  6
Continuous
 62
     7
370
     9
100
AcDbLine
 10
636.9370210870226
 20
316.2011746987142
 30
0.0
 11
636.9370210870226
 21
325.2011746987142
 31
0.0
  0
LINE
  5
486
330
1F
100
AcDbEntity
  8
1
  6
Continuous
 62
     7
370
     9
100
AcDbLine
 10
576.4370210870226
 20
325.2011746987142
 30
0.0
 11
635.9370210870226
 21
325.2011746987142
 31
0.0
  0
LINE
  5
487
330
1F
100
AcDbEntity
  8
1
  6
Continuous
 62
     7
370
     9
100
AcDbLine
 10
635.9370210870226
 20
316.2011746987142
 30
0.0
 11
635.9370210870226
 21
325.2011746987142
 31
0.0
  0
LINE
  5
488
330
1F
100
AcDbEntity
  8
1
  6
Continuous
 62
     7
370
     9
100
AcDbLine
 10
633.4370213931842
 20
396.5306122448978
 30
0.0
 11
633.4370213931842
 21
326.2011746987142
 31
0.0
  0
LINE
  5
489
330
1F
100
AcDbEntity
  8
1
  6
Continuous
 62
     7
370
     9
100
AcDbLine
 10
606.4370210870226
 20
396.5306122448978
 30
0.0
 11
606.4370210870226
 21
326.2011746987142
 31
0.0
  0
LINE
  5
48A
330
1F
100
AcDbEntity
  8
1
  6
Continuous
 62
     7
370
     9
100
AcDbLine
 10
602.9370210870226
 20
326.2011746987142
 30
0.0
 11
602.9370210870226
 21
396.5306122448978
 31
0.0
  0
LINE
  5
48B
330
1F
100
AcDbEntity
  8
1
  6
Continuous
 62
     7
370
     9
100
AcDbLine
 10
581.4370210870226
 20
227.2011746987142
 30
0.0
 11
581.4370210870226
 21
236.2011746987142
 31
0.0
  0
LINE
  5
48C
330
1F
100
AcDbEntity
  8
1
  6
Continuous
 62
     7
370
     9
100
AcDbLine
 10
576.4370210870226
 20
227.2011746987142
 30
0.0
 11
576.4370210870226
 21
236.2011746987142
 31
0.0
  0
LINE
  5
48D
330
1F
100
AcDbEntity
  8
1
  6
Continuous
 62
     7
370
     9
100
AcDbLine
 10
575.4370210870226
 20
226.2011746987142
 30
0.0
 11
575.4370210870226
 21
236.2011746987142
 31
0.0
  0
LINE
  5
48E
330
1F
100
AcDbEntity
  8
1
  6
Continuous
 62
     7
370
     9
100
AcDbLine
 10
619.4370213931842
 20
227.2011746987142
 30
0.0
 11
619.4370213931842
 21
236.2011746987142
 31
0.0
  0
LINE
  5
48F
330
1F
100
AcDbEntity
  8
1
  6
Continuous
 62
     7
370
     9
100
AcDbLine
 10
576.4370210870226
 20
227.2011746987142
 30
0.0
 11
635.9370210870226
 21
227.2011746987142
 31
0.0
  0
LINE
  5
490
330
1F
100
AcDbEntity
  8
1
  6
Continuous
 62
     7
370
     9
100
AcDbLine
 10
635.9370210870226
 20
236.2011746987142
 30
0.0
 11
635.9370210870226
 21
227.2011746987142
 31
0.0
  0
LINE
  5
491
330
1F
100
AcDbEntity
  8
1
  6
Continuous
 62
     7
370
     9
100
AcDbLine
 10
575.4370210870226
 20
226.2011746987142
 30
0.0
 11
636.9370210870226
 21
226.2011746987142
 31
0.0
  0
LINE
  5
492
330
1F
100
AcDbEntity
  8
1
  6
Continuous
 62
     7
370
     9
100
AcDbLine
 10
636.9370210870226
 20
236.2011746987142
 30
0.0
 11
636.9370210870226
 21
226.2011746987142
 31
0.0
  0
LINE
  5
493
330
1F
100
AcDbEntity
  8
1
  6
Continuous
 62
     7
370
     9
100
AcDbLine
 10
585.4370210870226
 20
226.2011746987142
 30
0.0
 11
585.4370210870226
 21
216.2011746987142
 31
0.0
  0
LINE
  5
494
330
1F
100
AcDbEntity
  8
1
  6
Continuous
 62
     7
370
     9
100
AcDbLine
 10
615.4370210870226
 20
226.2011746987142
 30
0.0
 11
615.4370210870226
 21
216.2011746987142
 31
0.0
  0
LINE
  5
495
330
1F
100
AcDbEntity
  8
1
  6
Continuous
 62
     7
370
     9
100
AcDbLine
 10
544.429679610931
 20
236.2011746987142
 30
0.0
 11
544.429679610931
 21
226.2011746987142
 31
0.0
  0
LINE
  5
496
330
1F
100
AcDbEntity
  8
1
  6
Continuous
 62
     7
370
     9
100
AcDbLine
 10
562.6641520641537
 20
226.2011746987142
 30
0.0
 11
544.429679610931
 21
226.2011746987142
 31
0.0
  0
LINE
  5
497
330
1F
100
AcDbEntity
  8
1
  6
Continuous
 62
     7
370
     9
100
AcDbLine
 10
544.429679610931
 20
316.2011746987142
 30
0.0
 11
544.429679610931
 21
326.2011746987142
 31
0.0
  0
LINE
  5
498
330
1F
100
AcDbEntity
  8
1
  6
Continuous
 62
     7
370
     9
100
AcDbLine
 10
562.6641520641537
 20
326.2011746987142
 30
0.0
 11
544.429679610931
 21
326.2011746987142
 31
0.0
  0
LINE
  5
499
330
1F
100
AcDbEntity
  8
1
  6
Continuous
 62
     7
370
     9
100
AcDbLine
 10
553.4600850163366
 20
214.2011746987142
 30
0.0
 11
553.4600850163366
 21
226.2011746987142
 31
0.0
  0
ARC
  5
49A
330
1F
100
AcDbEntity
  8
1
  6
Continuous
 62
     7
370
     9
100
AcDbCircle
 10
587.4370210870226
 20
180.5501559251568
 30
0.0
 40
2.0
100
AcDbArc
 50
179.9999999999998
 51
269.9999999999998
  0
LINE
  5
49B
330
1F
100
AcDbEntity
  8
1
  6
Continuous
 62
     7
370
     9
100
AcDbLine
 10
587.4370210870226
 20
178.5501559251568
 30
0.0
 11
613.4370210870226
 21
178.5501559251568
 31
0.0
  0
ARC
  5
49C
330
1F
100
AcDbEntity
  8
1
  6
Continuous
 62
     7
370
     9
100
AcDbCircle
 10
613.4370210870226
 20
180.5501559251568
 30
0.0
 40
2.0
100
AcDbArc
 50
269.9999999999998
 51
0.0000000000008142
  0
LINE
  5
49D
330
1F
100
AcDbEntity
  8
1
  6
Continuous
 62
     7
370
     9
100
AcDbLine
 10
585.7049702794537
 20
179.5501559251568
 30
0.0
 11
615.1690718945914
 21
179.5501559251568
 31
0.0
  0
LINE
  5
49E
330
1F
100
AcDbEntity
  8
1
  6
Continuous
 62
     7
370
     9
100
AcDbLine
 10
585.4370210870226
 20
197.5501559251568
 30
0.0
 11
585.4370210870226
 21
180.5501559251568
 31
0.0
  0
LINE
  5
49F
330
1F
100
AcDbEntity
  8
1
  6
Continuous
 62
     7
370
     9
100
AcDbLine
 10
615.4370210870226
 20
197.5501559251568
 30
0.0
 11
615.4370210870226
 21
180.5501559251568
 31
0.0
  0
LINE
  5
4A0
330
1F
100
AcDbEntity
  8
1
  6
Continuous
 62
     7
370
     9
100
AcDbLine
 10
585.4370210870226
 20
197.5501559251568
 30
0.0
 11
615.4370210870226
 21
197.5501559251568
 31
0.0
  0
LINE
  5
4A1
330
1F
100
AcDbEntity
  8
1
  6
DOT
 62
     7
370
     9
100
AcDbLine
 10
605.4370210870226
 20
197.5501559251568
 30
0.0
 11
605.4370210870226
 21
179.5501559251568
 31
0.0
  0
LINE
  5
4A2
330
1F
100
AcDbEntity
  8
1
  6
DOT
 62
     7
370
     9
100
AcDbLine
 10
595.4370210870226
 20
197.5501559251568
 30
0.0
 11
595.4370210870226
 21
179.5501559251568
 31
0.0
  0
LINE
  5
4A3
330
1F
100
AcDbEntity
  8
1
  6
DOT
 62
     7
370
     9
100
AcDbLine
 10
585.4370210870226
 20
187.0501559251568
 30
0.0
 11
595.4370210870226
 21
187.0501559251568
 31
0.0
  0
LINE
  5
4A4
330
1F
100
AcDbEntity
  8
1
  6
Continuous
 62
     7
370
     9
100
AcDbLine
 10
583.1562258687277
 20
184.5501559251568
 30
0.0
 11
568.5107606920124
 21
184.5501559251568
 31
0.0
  0
LINE
  5
4A5
330
1F
100
AcDbEntity
  8
1
  6
DOT
 62
     7
370
     9
100
AcDbLine
 10
585.4370210870226
 20
182.0501559251568
 30
0.0
 11
595.4370210870226
 21
182.0501559251568
 31
0.0
  0
LINE
  5
4A6
330
1F
100
AcDbEntity
  8
1
  6
Continuous
 62
     7
370
     9
100
AcDbLine
 10
560.6380995693512
 20
178.5501559251568
 30
0.0
 11
582.8667897980416
 21
178.5501559251568
 31
0.0
  0
LINE
  5
4A7
330
1F
100
AcDbEntity
  8
1
  6
Continuous
 62
     7
370
     9
100
AcDbLine
 10
595.4370210870226
 20
177.5660732848241
 30
0.0
 11
595.4370210870226
 21
172.4719984407492
 31
0.0
  0
LINE
  5
4A8
330
1F
100
AcDbEntity
  8
1
  6
Continuous
 62
     7
370
     9
100
AcDbLine
 10
605.4370210870226
 20
177.7397349272357
 30
0.0
 11
605.4370210870226
 21
171.7773518711026
 31
0.0
  0
LINE
  5
4A9
330
1F
100
AcDbEntity
  8
1
  6
Continuous
 62
     7
370
     9
100
AcDbLine
 10
605.4370210870226
 20
173.8034043659052
 30
0.0
 11
595.4370210870226
 21
173.8034043659052
 31
0.0
  0
LINE
  5
4AA
330
1F
100
AcDbEntity
  8
1
  6
Continuous
 62
     7
370
     9
100
AcDbLine
 10
595.4370210870226
 20
173.8034043659052
 30
0.0
 11
598.3347985658897
 21
174.5798615012127
 31
0.0
  0
LINE
  5
4AB
330
1F
100
AcDbEntity
  8
1
  6
Continuous
 62
     7
370
     9
100
AcDbLine
 10
595.4370210870226
 20
173.8034043659052
 30
0.0
 11
598.3347985658897
 21
173.0269472305976
 31
0.0
  0
LINE
  5
4AC
330
1F
100
AcDbEntity
  8
1
  6
Continuous
 62
     7
370
     9
100
AcDbLine
 10
598.3347985658897
 20
174.5798615012127
 30
0.0
 11
598.3347985658897
 21
173.0269472305976
 31
0.0
  0
LINE
  5
4AD
330
1F
100
AcDbEntity
  8
1
  6
Continuous
 62
     7
370
     9
100
AcDbLine
 10
596.1614654567394
 20
173.8034043659052
 30
0.0
 11
597.610354196173
 21
174.1916329335589
 31
0.0
  0
LINE
  5
4AE
330
1F
100
AcDbEntity
  8
1
  6
Continuous
 62
     7
370
     9
100
AcDbLine
 10
596.1614654567394
 20
173.8034043659052
 30
0.0
 11
597.610354196173
 21
173.4151757982514
 31
0.0
  0
LINE
  5
4AF
330
1F
100
AcDbEntity
  8
1
  6
Continuous
 62
     7
370
     9
100
AcDbLine
 10
597.610354196173
 20
174.1916329335589
 30
0.0
 11
597.610354196173
 21
173.4151757982514
 31
0.0
  0
POLYLINE
  5
4B0
330
1F
100
AcDbEntity
  8
1
  6
Continuous
 62
     7
370
     9
100
AcDb2dPolyline
 66
     1
 10
0.0
 20
0.0
 30
0.0
  0
VERTEX
  5
4B2
330
4B0
100
AcDbEntity
  8
1
  6
Continuous
 62
     7
370
     9
100
AcDbVertex
100
AcDb2dVertex
 10
595.4370210870226
 20
173.8034043659052
 30
0.0
  0
VERTEX
  5
4B3
330
4B0
100
AcDbEntity
  8
1
  6
Continuous
 62
     7
370
     9
100
AcDbVertex
100
AcDb2dVertex
 10
596.1229618354638
 20
173.8034043659052
 30
0.0
  0
SEQEND
  5
4B1
330
4B0
100
AcDbEntity
  8
1
  6
Continuous
370
     9
  0
LINE
  5
4B4
330
1F
100
AcDbEntity
  8
1
  6
Continuous
 62
     7
370
     9
100
AcDbLine
 10
605.4370210870226
 20
173.8034043659052
 30
0.0
 11
602.5392436081554
 21
173.0269472305976
 31
0.0
  0
LINE
  5
4B5
330
1F
100
AcDbEntity
  8
1
  6
Continuous
 62
     7
370
     9
100
AcDbLine
 10
605.4370210870226
 20
173.8034043659052
 30
0.0
 11
602.5392436081554
 21
174.5798615012127
 31
0.0
  0
LINE
  5
4B6
330
1F
100
AcDbEntity
  8
1
  6
Continuous
 62
     7
370
     9
100
AcDbLine
 10
602.5392436081554
 20
173.0269472305976
 30
0.0
 11
602.5392436081554
 21
174.5798615012127
 31
0.0
  0
LINE
  5
4B7
330
1F
100
AcDbEntity
  8
1
  6
Continuous
 62
     7
370
     9
100
AcDbLine
 10
604.7125767173058
 20
173.8034043659052
 30
0.0
 11
603.2636879778721
 21
173.4151757982514
 31
0.0
  0
LINE
  5
4B8
330
1F
100
AcDbEntity
  8
1
  6
Continuous
 62
     7
370
     9
100
AcDbLine
 10
604.7125767173058
 20
173.8034043659052
 30
0.0
 11
603.2636879778721
 21
174.1916329335589
 31
0.0
  0
LINE
  5
4B9
330
1F
100
AcDbEntity
  8
1
  6
Continuous
 62
     7
370
     9
100
AcDbLine
 10
603.2636879778721
 20
173.4151757982514
 30
0.0
 11
603.2636879778721
 21
174.1916329335589
 31
0.0
  0
POLYLINE
  5
4BA
330
1F
100
AcDbEntity
  8
1
  6
Continuous
 62
     7
370
     9
100
AcDb2dPolyline
 66
     1
 10
0.0
 20
0.0
 30
0.0
  0
VERTEX
  5
4BC
330
4BA
100
AcDbEntity
  8
1
  6
Continuous
 62
     7
370
     9
100
AcDbVertex
100
AcDb2dVertex
 10
605.4370210870226
 20
173.8034043659052
 30
0.0
  0
VERTEX
  5
4BD
330
4BA
100
AcDbEntity
  8
1
  6
Continuous
 62
     7
370
     9
100
AcDbVertex
100
AcDb2dVertex
 10
604.285059028811
 20
173.8034043659052
 30
0.0
  0
SEQEND
  5
4BB
330
4BA
100
AcDbEntity
  8
1
  6
Continuous
370
     9
  0
LINE
  5
4BE
330
1F
100
AcDbEntity
  8
1
  6
Continuous
 62
     7
370
     9
100
AcDbLine
 10
560.6380995693512
 20
178.5501559251568
 30
0.0
 11
559.8616424340437
 21
181.447933404024
 31
0.0
  0
LINE
  5
4BF
330
1F
100
AcDbEntity
  8
1
  6
Continuous
 62
     7
370
     9
100
AcDbLine
 10
560.6380995693512
 20
178.5501559251568
 30
0.0
 11
561.4145567046587
 21
181.447933404024
 31
0.0
  0
LINE
  5
4C0
330
1F
100
AcDbEntity
  8
1
  6
Continuous
 62
     7
370
     9
100
AcDbLine
 10
559.8616424340437
 20
181.447933404024
 30
0.0
 11
561.4145567046587
 21
181.447933404024
 31
0.0
  0
LINE
  5
4C1
330
1F
100
AcDbEntity
  8
1
  6
Continuous
 62
     7
370
     9
100
AcDbLine
 10
560.6380995693512
 20
179.2746002948736
 30
0.0
 11
560.2498710016974
 21
180.7234890343072
 31
0.0
  0
LINE
  5
4C2
330
1F
100
AcDbEntity
  8
1
  6
Continuous
 62
     7
370
     9
100
AcDbLine
 10
560.6380995693512
 20
179.2746002948736
 30
0.0
 11
561.026328137005
 21
180.7234890343072
 31
0.0
  0
LINE
  5
4C3
330
1F
100
AcDbEntity
  8
1
  6
Continuous
 62
     7
370
     9
100
AcDbLine
 10
560.2498710016974
 20
180.7234890343072
 30
0.0
 11
561.026328137005
 21
180.7234890343072
 31
0.0
  0
POLYLINE
  5
4C4
330
1F
100
AcDbEntity
  8
1
  6
Continuous
 62
     7
370
     9
100
AcDb2dPolyline
 66
     1
 10
0.0
 20
0.0
 30
0.0
  0
VERTEX
  5
4C6
330
4C4
100
AcDbEntity
  8
1
  6
Continuous
 62
     7
370
     9
100
AcDbVertex
100
AcDb2dVertex
 10
560.6380995693512
 20
178.5501559251568
 30
0.0
  0
VERTEX
  5
4C7
330
4C4
100
AcDbEntity
  8
1
  6
Continuous
 62
     7
370
     9
100
AcDbVertex
100
AcDb2dVertex
 10
560.6380995693512
 20
180.8077572765081
 30
0.0
  0
SEQEND
  5
4C5
330
4C4
100
AcDbEntity
  8
1
  6
Continuous
370
     9
  0
LINE
  5
4C8
330
1F
100
AcDbEntity
  8
1
  6
Continuous
 62
     7
370
     9
100
AcDbLine
 10
560.6380995693512
 20
214.2011746987142
 30
0.0
 11
561.4145567046587
 21
211.303397219847
 31
0.0
  0
LINE
  5
4C9
330
1F
100
AcDbEntity
  8
1
  6
Continuous
 62
     7
370
     9
100
AcDbLine
 10
560.6380995693512
 20
214.2011746987142
 30
0.0
 11
559.8616424340437
 21
211.303397219847
 31
0.0
  0
LINE
  5
4CA
330
1F
100
AcDbEntity
  8
1
  6
Continuous
 62
     7
370
     9
100
AcDbLine
 10
561.4145567046587
 20
211.303397219847
 30
0.0
 11
559.8616424340437
 21
211.303397219847
 31
0.0
  0
LINE
  5
4CB
330
1F
100
AcDbEntity
  8
1
  6
Continuous
 62
     7
370
     9
100
AcDbLine
 10
560.6380995693512
 20
213.4767303289974
 30
0.0
 11
561.026328137005
 21
212.0278415895638
 31
0.0
  0
LINE
  5
4CC
330
1F
100
AcDbEntity
  8
1
  6
Continuous
 62
     7
370
     9
100
AcDbLine
 10
560.6380995693512
 20
213.4767303289974
 30
0.0
 11
560.2498710016974
 21
212.0278415895638
 31
0.0
  0
LINE
  5
4CD
330
1F
100
AcDbEntity
  8
1
  6
Continuous
 62
     7
370
     9
100
AcDbLine
 10
561.026328137005
 20
212.0278415895638
 30
0.0
 11
560.2498710016974
 21
212.0278415895638
 31
0.0
  0
POLYLINE
  5
4CE
330
1F
100
AcDbEntity
  8
1
  6
Continuous
 62
     7
370
     9
100
AcDb2dPolyline
 66
     1
 10
0.0
 20
0.0
 30
0.0
  0
VERTEX
  5
4D0
330
4CE
100
AcDbEntity
  8
1
  6
Continuous
 62
     7
370
     9
100
AcDbVertex
100
AcDb2dVertex
 10
560.6380995693512
 20
214.2011746987142
 30
0.0
  0
VERTEX
  5
4D1
330
4CE
100
AcDbEntity
  8
1
  6
Continuous
 62
     7
370
     9
100
AcDbVertex
100
AcDb2dVertex
 10
560.6380995693512
 20
211.8353040540551
 30
0.0
  0
SEQEND
  5
4CF
330
4CE
100
AcDbEntity
  8
1
  6
Continuous
370
     9
  0
LINE
  5
4D2
330
1F
100
AcDbEntity
  8
1
  6
Continuous
 62
     7
370
     9
100
AcDbLine
 10
553.4600850163366
 20
214.2011746987142
 30
0.0
 11
552.6836278810291
 21
217.0989521775814
 31
0.0
  0
LINE
  5
4D3
330
1F
100
AcDbEntity
  8
1
  6
Continuous
 62
     7
370
     9
100
AcDbLine
 10
553.4600850163366
 20
214.2011746987142
 30
0.0
 11
554.2365421516441
 21
217.0989521775814
 31
0.0
  0
LINE
  5
4D4
330
1F
100
AcDbEntity
  8
1
  6
Continuous
 62
     7
370
     9
100
AcDbLine
 10
552.6836278810291
 20
217.0989521775814
 30
0.0
 11
554.2365421516441
 21
217.0989521775814
 31
0.0
  0
LINE
  5
4D5
330
1F
100
AcDbEntity
  8
1
  6
Continuous
 62
     7
370
     9
100
AcDbLine
 10
553.4600850163366
 20
214.925619068431
 30
0.0
 11
553.0718564486829
 21
216.3745078078646
 31
0.0
  0
LINE
  5
4D6
330
1F
100
AcDbEntity
  8
1
  6
Continuous
 62
     7
370
     9
100
AcDbLine
 10
553.4600850163366
 20
214.925619068431
 30
0.0
 11
553.8483135839904
 21
216.3745078078646
 31
0.0
  0
LINE
  5
4D7
330
1F
100
AcDbEntity
  8
1
  6
Continuous
 62
     7
370
     9
100
AcDbLine
 10
553.0718564486829
 20
216.3745078078646
 30
0.0
 11
553.8483135839904
 21
216.3745078078646
 31
0.0
  0
POLYLINE
  5
4D8
330
1F
100
AcDbEntity
  8
1
  6
Continuous
 62
     7
370
     9
100
AcDb2dPolyline
 66
     1
 10
0.0
 20
0.0
 30
0.0
  0
VERTEX
  5
4DA
330
4D8
100
AcDbEntity
  8
1
  6
Continuous
 62
     7
370
     9
100
AcDbVertex
100
AcDb2dVertex
 10
553.4600850163366
 20
214.2011746987142
 30
0.0
  0
VERTEX
  5
4DB
330
4D8
100
AcDbEntity
  8
1
  6
Continuous
 62
     7
370
     9
100
AcDbVertex
100
AcDb2dVertex
 10
553.4600850163366
 20
217.3924766112277
 30
0.0
  0
SEQEND
  5
4D9
330
4D8
100
AcDbEntity
  8
1
  6
Continuous
370
     9
  0
LINE
  5
4DC
330
1F
100
AcDbEntity
  8
1
  6
Continuous
 62
     7
370
     9
100
AcDbLine
 10
553.4600850163366
 20
226.2011746987142
 30
0.0
 11
554.2365421516441
 21
223.303397219847
 31
0.0
  0
LINE
  5
4DD
330
1F
100
AcDbEntity
  8
1
  6
Continuous
 62
     7
370
     9
100
AcDbLine
 10
553.4600850163366
 20
226.2011746987142
 30
0.0
 11
552.6836278810291
 21
223.303397219847
 31
0.0
  0
LINE
  5
4DE
330
1F
100
AcDbEntity
  8
1
  6
Continuous
 62
     7
370
     9
100
AcDbLine
 10
554.2365421516441
 20
223.303397219847
 30
0.0
 11
552.6836278810291
 21
223.303397219847
 31
0.0
  0
LINE
  5
4DF
330
1F
100
AcDbEntity
  8
1
  6
Continuous
 62
     7
370
     9
100
AcDbLine
 10
553.4600850163366
 20
225.4767303289974
 30
0.0
 11
553.8483135839904
 21
224.0278415895638
 31
0.0
  0
LINE
  5
4E0
330
1F
100
AcDbEntity
  8
1
  6
Continuous
 62
     7
370
     9
100
AcDbLine
 10
553.4600850163366
 20
225.4767303289974
 30
0.0
 11
553.0718564486829
 21
224.0278415895638
 31
0.0
  0
LINE
  5
4E1
330
1F
100
AcDbEntity
  8
1
  6
Continuous
 62
     7
370
     9
100
AcDbLine
 10
553.8483135839904
 20
224.0278415895638
 30
0.0
 11
553.0718564486829
 21
224.0278415895638
 31
0.0
  0
POLYLINE
  5
4E2
330
1F
100
AcDbEntity
  8
1
  6
Continuous
 62
     7
370
     9
100
AcDb2dPolyline
 66
     1
 10
0.0
 20
0.0
 30
0.0
  0
VERTEX
  5
4E4
330
4E2
100
AcDbEntity
  8
1
  6
Continuous
 62
     7
370
     9
100
AcDbVertex
100
AcDb2dVertex
 10
553.4600850163366
 20
226.2011746987142
 30
0.0
  0
VERTEX
  5
4E5
330
4E2
100
AcDbEntity
  8
1
  6
Continuous
 62
     7
370
     9
100
AcDbVertex
100
AcDb2dVertex
 10
553.4600850163366
 20
224.4547167359679
 30
0.0
  0
SEQEND
  5
4E3
330
4E2
100
AcDbEntity
  8
1
  6
Continuous
370
     9
  0
LINE
  5
4E6
330
1F
100
AcDbEntity
  8
1
  6
Continuous
 62
     7
370
     9
100
AcDbLine
 10
544.429679610931
 20
226.2011746987142
 30
0.0
 11
543.6532224756235
 21
229.0989521775814
 31
0.0
  0
LINE
  5
4E7
330
1F
100
AcDbEntity
  8
1
  6
Continuous
 62
     7
370
     9
100
AcDbLine
 10
544.429679610931
 20
226.2011746987142
 30
0.0
 11
545.2061367462385
 21
229.0989521775814
 31
0.0
  0
LINE
  5
4E8
330
1F
100
AcDbEntity
  8
1
  6
Continuous
 62
     7
370
     9
100
AcDbLine
 10
543.6532224756235
 20
229.0989521775814
 30
0.0
 11
545.2061367462385
 21
229.0989521775814
 31
0.0
  0
LINE
  5
4E9
330
1F
100
AcDbEntity
  8
1
  6
Continuous
 62
     7
370
     9
100
AcDbLine
 10
544.429679610931
 20
226.925619068431
 30
0.0
 11
544.0414510432772
 21
228.3745078078646
 31
0.0
  0
LINE
  5
4EA
330
1F
100
AcDbEntity
  8
1
  6
Continuous
 62
     7
370
     9
100
AcDbLine
 10
544.429679610931
 20
226.925619068431
 30
0.0
 11
544.8179081785847
 21
228.3745078078646
 31
0.0
  0
LINE
  5
4EB
330
1F
100
AcDbEntity
  8
1
  6
Continuous
 62
     7
370
     9
100
AcDbLine
 10
544.0414510432772
 20
228.3745078078646
 30
0.0
 11
544.8179081785847
 21
228.3745078078646
 31
0.0
  0
POLYLINE
  5
4EC
330
1F
100
AcDbEntity
  8
1
  6
Continuous
 62
     7
370
     9
100
AcDb2dPolyline
 66
     1
 10
0.0
 20
0.0
 30
0.0
  0
VERTEX
  5
4EE
330
4EC
100
AcDbEntity
  8
1
  6
Continuous
 62
     7
370
     9
100
AcDbVertex
100
AcDb2dVertex
 10
544.429679610931
 20
226.2011746987142
 30
0.0
  0
VERTEX
  5
4EF
330
4EC
100
AcDbEntity
  8
1
  6
Continuous
 62
     7
370
     9
100
AcDbVertex
100
AcDb2dVertex
 10
544.429679610931
 20
227.9279495842008
 30
0.0
  0
SEQEND
  5
4ED
330
4EC
100
AcDbEntity
  8
1
  6
Continuous
370
     9
  0
LINE
  5
4F0
330
1F
100
AcDbEntity
  8
1
  6
Continuous
 62
     7
370
     9
100
AcDbLine
 10
544.429679610931
 20
236.2011746987142
 30
0.0
 11
545.2061367462385
 21
233.303397219847
 31
0.0
  0
LINE
  5
4F1
330
1F
100
AcDbEntity
  8
1
  6
Continuous
 62
     7
370
     9
100
AcDbLine
 10
544.429679610931
 20
236.2011746987142
 30
0.0
 11
543.6532224756235
 21
233.303397219847
 31
0.0
  0
LINE
  5
4F2
330
1F
100
AcDbEntity
  8
1
  6
Continuous
 62
     7
370
     9
100
AcDbLine
 10
545.2061367462385
 20
233.303397219847
 30
0.0
 11
543.6532224756235
 21
233.303397219847
 31
0.0
  0
LINE
  5
4F3
330
1F
100
AcDbEntity
  8
1
  6
Continuous
 62
     7
370
     9
100
AcDbLine
 10
544.429679610931
 20
235.4767303289974
 30
0.0
 11
544.8179081785847
 21
234.0278415895638
 31
0.0
  0
LINE
  5
4F4
330
1F
100
AcDbEntity
  8
1
  6
Continuous
 62
     7
370
     9
100
AcDbLine
 10
544.429679610931
 20
235.4767303289974
 30
0.0
 11
544.0414510432772
 21
234.0278415895638
 31
0.0
  0
LINE
  5
4F5
330
1F
100
AcDbEntity
  8
1
  6
Continuous
 62
     7
370
     9
100
AcDbLine
 10
544.8179081785847
 20
234.0278415895638
 30
0.0
 11
544.0414510432772
 21
234.0278415895638
 31
0.0
  0
POLYLINE
  5
4F6
330
1F
100
AcDbEntity
  8
1
  6
Continuous
 62
     7
370
     9
100
AcDb2dPolyline
 66
     1
 10
0.0
 20
0.0
 30
0.0
  0
VERTEX
  5
4F8
330
4F6
100
AcDbEntity
  8
1
  6
Continuous
 62
     7
370
     9
100
AcDbVertex
100
AcDb2dVertex
 10
544.429679610931
 20
236.2011746987142
 30
0.0
  0
VERTEX
  5
4F9
330
4F6
100
AcDbEntity
  8
1
  6
Continuous
 62
     7
370
     9
100
AcDbVertex
100
AcDb2dVertex
 10
544.429679610931
 20
233.9482198544711
 30
0.0
  0
SEQEND
  5
4F7
330
4F6
100
AcDbEntity
  8
1
  6
Continuous
370
     9
  0
LINE
  5
4FA
330
1F
100
AcDbEntity
  8
1
  6
Continuous
 62
     7
370
     9
100
AcDbLine
 10
532.4470262845276
 20
236.2011746987142
 30
0.0
 11
531.6705691492201
 21
239.0989521775814
 31
0.0
  0
LINE
  5
4FB
330
1F
100
AcDbEntity
  8
1
  6
Continuous
 62
     7
370
     9
100
AcDbLine
 10
532.4470262845276
 20
236.2011746987142
 30
0.0
 11
533.2234834198351
 21
239.0989521775814
 31
0.0
  0
LINE
  5
4FC
330
1F
100
AcDbEntity
  8
1
  6
Continuous
 62
     7
370
     9
100
AcDbLine
 10
531.6705691492201
 20
239.0989521775814
 30
0.0
 11
533.2234834198351
 21
239.0989521775814
 31
0.0
  0
LINE
  5
4FD
330
1F
100
AcDbEntity
  8
1
  6
Continuous
 62
     7
370
     9
100
AcDbLine
 10
532.4470262845276
 20
236.925619068431
 30
0.0
 11
532.0587977168739
 21
238.3745078078646
 31
0.0
  0
LINE
  5
4FE
330
1F
100
AcDbEntity
  8
1
  6
Continuous
 62
     7
370
     9
100
AcDbLine
 10
532.4470262845276
 20
236.925619068431
 30
0.0
 11
532.8352548521814
 21
238.3745078078646
 31
0.0
  0
LINE
  5
4FF
330
1F
100
AcDbEntity
  8
1
  6
Continuous
 62
     7
370
     9
100
AcDbLine
 10
532.0587977168739
 20
238.3745078078646
 30
0.0
 11
532.8352548521814
 21
238.3745078078646
 31
0.0
  0
POLYLINE
  5
500
330
1F
100
AcDbEntity
  8
1
  6
Continuous
 62
     7
370
     9
100
AcDb2dPolyline
 66
     1
 10
0.0
 20
0.0
 30
0.0
  0
VERTEX
  5
502
330
500
100
AcDbEntity
  8
1
  6
Continuous
 62
     7
370
     9
100
AcDbVertex
100
AcDb2dVertex
 10
532.4470262845276
 20
236.2011746987142
 30
0.0
  0
VERTEX
  5
503
330
500
100
AcDbEntity
  8
1
  6
Continuous
 62
     7
370
     9
100
AcDbVertex
100
AcDb2dVertex
 10
532.4470262845276
 20
239.8527156964671
 30
0.0
  0
SEQEND
  5
501
330
500
100
AcDbEntity
  8
1
  6
Continuous
370
     9
  0
LINE
  5
504
330
1F
100
AcDbEntity
  8
1
  6
Continuous
 62
     7
370
     9
100
AcDbLine
 10
532.4470262845276
 20
316.2011746987142
 30
0.0
 11
533.2234834198351
 21
313.303397219847
 31
0.0
  0
LINE
  5
505
330
1F
100
AcDbEntity
  8
1
  6
Continuous
 62
     7
370
     9
100
AcDbLine
 10
532.4470262845276
 20
316.2011746987142
 30
0.0
 11
531.6705691492201
 21
313.303397219847
 31
0.0
  0
LINE
  5
506
330
1F
100
AcDbEntity
  8
1
  6
Continuous
 62
     7
370
     9
100
AcDbLine
 10
533.2234834198351
 20
313.303397219847
 30
0.0
 11
531.6705691492201
 21
313.303397219847
 31
0.0
  0
LINE
  5
507
330
1F
100
AcDbEntity
  8
1
  6
Continuous
 62
     7
370
     9
100
AcDbLine
 10
532.4470262845276
 20
315.4767303289974
 30
0.0
 11
532.8352548521814
 21
314.0278415895638
 31
0.0
  0
LINE
  5
508
330
1F
100
AcDbEntity
  8
1
  6
Continuous
 62
     7
370
     9
100
AcDbLine
 10
532.4470262845276
 20
315.4767303289974
 30
0.0
 11
532.0587977168739
 21
314.0278415895638
 31
0.0
  0
LINE
  5
509
330
1F
100
AcDbEntity
  8
1
  6
Continuous
 62
     7
370
     9
100
AcDbLine
 10
532.8352548521814
 20
314.0278415895638
 30
0.0
 11
532.0587977168739
 21
314.0278415895638
 31
0.0
  0
POLYLINE
  5
50A
330
1F
100
AcDbEntity
  8
1
  6
Continuous
 62
     7
370
     9
100
AcDb2dPolyline
 66
     1
 10
0.0
 20
0.0
 30
0.0
  0
VERTEX
  5
50C
330
50A
100
AcDbEntity
  8
1
  6
Continuous
 62
     7
370
     9
100
AcDbVertex
100
AcDb2dVertex
 10
532.4470262845276
 20
316.2011746987142
 30
0.0
  0
VERTEX
  5
50D
330
50A
100
AcDbEntity
  8
1
  6
Continuous
 62
     7
370
     9
100
AcDbVertex
100
AcDb2dVertex
 10
532.4470262845276
 20
312.7906055093574
 30
0.0
  0
SEQEND
  5
50B
330
50A
100
AcDbEntity
  8
1
  6
Continuous
370
     9
  0
LINE
  5
50E
330
1F
100
AcDbEntity
  8
1
  6
Continuous
 62
     7
370
     9
100
AcDbLine
 10
544.429679610931
 20
316.2011746987142
 30
0.0
 11
543.6532224756235
 21
319.0989521775815
 31
0.0
  0
LINE
  5
50F
330
1F
100
AcDbEntity
  8
1
  6
Continuous
 62
     7
370
     9
100
AcDbLine
 10
544.429679610931
 20
316.2011746987142
 30
0.0
 11
545.2061367462385
 21
319.0989521775815
 31
0.0
  0
LINE
  5
510
330
1F
100
AcDbEntity
  8
1
  6
Continuous
 62
     7
370
     9
100
AcDbLine
 10
543.6532224756235
 20
319.0989521775815
 30
0.0
 11
545.2061367462385
 21
319.0989521775815
 31
0.0
  0
LINE
  5
511
330
1F
100
AcDbEntity
  8
1
  6
Continuous
 62
     7
370
     9
100
AcDbLine
 10
544.429679610931
 20
316.925619068431
 30
0.0
 11
544.0414510432772
 21
318.3745078078646
 31
0.0
  0
LINE
  5
512
330
1F
100
AcDbEntity
  8
1
  6
Continuous
 62
     7
370
     9
100
AcDbLine
 10
544.429679610931
 20
316.925619068431
 30
0.0
 11
544.8179081785847
 21
318.3745078078646
 31
0.0
  0
LINE
  5
513
330
1F
100
AcDbEntity
  8
1
  6
Continuous
 62
     7
370
     9
100
AcDbLine
 10
544.0414510432772
 20
318.3745078078646
 30
0.0
 11
544.8179081785847
 21
318.3745078078646
 31
0.0
  0
POLYLINE
  5
514
330
1F
100
AcDbEntity
  8
1
  6
Continuous
 62
     7
370
     9
100
AcDb2dPolyline
 66
     1
 10
0.0
 20
0.0
 30
0.0
  0
VERTEX
  5
516
330
514
100
AcDbEntity
  8
1
  6
Continuous
 62
     7
370
     9
100
AcDbVertex
100
AcDb2dVertex
 10
544.429679610931
 20
316.2011746987142
 30
0.0
  0
VERTEX
  5
517
330
514
100
AcDbEntity
  8
1
  6
Continuous
 62
     7
370
     9
100
AcDbVertex
100
AcDb2dVertex
 10
544.429679610931
 20
319.5055223492743
 30
0.0
  0
SEQEND
  5
515
330
514
100
AcDbEntity
  8
1
  6
Continuous
370
     9
  0
LINE
  5
518
330
1F
100
AcDbEntity
  8
1
  6
Continuous
 62
     7
370
     9
100
AcDbLine
 10
544.429679610931
 20
326.2011746987142
 30
0.0
 11
545.2061367462385
 21
323.303397219847
 31
0.0
  0
LINE
  5
519
330
1F
100
AcDbEntity
  8
1
  6
Continuous
 62
     7
370
     9
100
AcDbLine
 10
544.429679610931
 20
326.2011746987142
 30
0.0
 11
543.6532224756235
 21
323.303397219847
 31
0.0
  0
LINE
  5
51A
330
1F
100
AcDbEntity
  8
1
  6
Continuous
 62
     7
370
     9
100
AcDbLine
 10
545.2061367462385
 20
323.303397219847
 30
0.0
 11
543.6532224756235
 21
323.303397219847
 31
0.0
  0
LINE
  5
51B
330
1F
100
AcDbEntity
  8
1
  6
Continuous
 62
     7
370
     9
100
AcDbLine
 10
544.429679610931
 20
325.4767303289974
 30
0.0
 11
544.8179081785847
 21
324.0278415895638
 31
0.0
  0
LINE
  5
51C
330
1F
100
AcDbEntity
  8
1
  6
Continuous
 62
     7
370
     9
100
AcDbLine
 10
544.429679610931
 20
325.4767303289974
 30
0.0
 11
544.0414510432772
 21
324.0278415895638
 31
0.0
  0
LINE
  5
51D
330
1F
100
AcDbEntity
  8
1
  6
Continuous
 62
     7
370
     9
100
AcDbLine
 10
544.8179081785847
 20
324.0278415895638
 30
0.0
 11
544.0414510432772
 21
324.0278415895638
 31
0.0
  0
POLYLINE
  5
51E
330
1F
100
AcDbEntity
  8
1
  6
Continuous
 62
     7
370
     9
100
AcDb2dPolyline
 66
     1
 10
0.0
 20
0.0
 30
0.0
  0
VERTEX
  5
520
330
51E
100
AcDbEntity
  8
1
  6
Continuous
 62
     7
370
     9
100
AcDbVertex
100
AcDb2dVertex
 10
544.429679610931
 20
326.2011746987142
 30
0.0
  0
VERTEX
  5
521
330
51E
100
AcDbEntity
  8
1
  6
Continuous
 62
     7
370
     9
100
AcDbVertex
100
AcDb2dVertex
 10
544.429679610931
 20
323.9049506237026
 30
0.0
  0
SEQEND
  5
51F
330
51E
100
AcDbEntity
  8
1
  6
Continuous
370
     9
  0
LINE
  5
522
330
1F
100
AcDbEntity
  8
1
  6
Continuous
 62
     7
370
     9
100
AcDbLine
 10
586.4370210870226
 20
326.2011746987142
 30
0.0
 11
586.4370210870226
 21
401.5306122448978
 31
0.0
  0
LINE
  5
523
330
1F
100
AcDbEntity
  8
1
  6
Continuous
 62
     7
370
     9
100
AcDbLine
 10
581.1301733739253
 20
184.5501559251568
 30
0.0
 11
581.1301733739253
 21
178.5501559251568
 31
0.0
  0
LINE
  5
524
330
1F
100
AcDbEntity
  8
1
  6
Continuous
 62
     7
370
     9
100
AcDbLine
 10
581.1301733739253
 20
184.5501559251568
 30
0.0
 11
581.9066305092329
 21
181.6523784462896
 31
0.0
  0
LINE
  5
525
330
1F
100
AcDbEntity
  8
1
  6
Continuous
 62
     7
370
     9
100
AcDbLine
 10
581.1301733739253
 20
184.5501559251568
 30
0.0
 11
580.3537162386178
 21
181.6523784462896
 31
0.0
  0
LINE
  5
526
330
1F
100
AcDbEntity
  8
1
  6
Continuous
 62
     7
370
     9
100
AcDbLine
 10
581.9066305092329
 20
181.6523784462896
 30
0.0
 11
580.3537162386178
 21
181.6523784462896
 31
0.0
  0
LINE
  5
527
330
1F
100
AcDbEntity
  8
1
  6
Continuous
 62
     7
370
     9
100
AcDbLine
 10
581.1301733739253
 20
183.82571155544
 30
0.0
 11
581.5184019415791
 21
182.3768228160064
 31
0.0
  0
LINE
  5
528
330
1F
100
AcDbEntity
  8
1
  6
Continuous
 62
     7
370
     9
100
AcDbLine
 10
581.1301733739253
 20
183.82571155544
 30
0.0
 11
580.7419448062716
 21
182.3768228160064
 31
0.0
  0
LINE
  5
529
330
1F
100
AcDbEntity
  8
1
  6
Continuous
 62
     7
370
     9
100
AcDbLine
 10
581.5184019415791
 20
182.3768228160064
 30
0.0
 11
580.7419448062716
 21
182.3768228160064
 31
0.0
  0
POLYLINE
  5
52A
330
1F
100
AcDbEntity
  8
1
  6
Continuous
 62
     7
370
     9
100
AcDb2dPolyline
 66
     1
 10
0.0
 20
0.0
 30
0.0
  0
VERTEX
  5
52C
330
52A
100
AcDbEntity
  8
1
  6
Continuous
 62
     7
370
     9
100
AcDbVertex
100
AcDb2dVertex
 10
581.1301733739253
 20
184.5501559251568
 30
0.0
  0
VERTEX
  5
52D
330
52A
100
AcDbEntity
  8
1
  6
Continuous
 62
     7
370
     9
100
AcDbVertex
100
AcDb2dVertex
 10
581.1301733739253
 20
183.5284563409573
 30
0.0
  0
SEQEND
  5
52B
330
52A
100
AcDbEntity
  8
1
  6
Continuous
370
     9
  0
LINE
  5
52E
330
1F
100
AcDbEntity
  8
1
  6
Continuous
 62
     7
370
     9
100
AcDbLine
 10
581.1301733739253
 20
178.5501559251568
 30
0.0
 11
580.3537162386178
 21
181.447933404024
 31
0.0
  0
LINE
  5
52F
330
1F
100
AcDbEntity
  8
1
  6
Continuous
 62
     7
370
     9
100
AcDbLine
 10
581.1301733739253
 20
178.5501559251568
 30
0.0
 11
581.9066305092329
 21
181.447933404024
 31
0.0
  0
LINE
  5
530
330
1F
100
AcDbEntity
  8
1
  6
Continuous
 62
     7
370
     9
100
AcDbLine
 10
580.3537162386178
 20
181.447933404024
 30
0.0
 11
581.9066305092329
 21
181.447933404024
 31
0.0
  0
LINE
  5
531
330
1F
100
AcDbEntity
  8
1
  6
Continuous
 62
     7
370
     9
100
AcDbLine
 10
581.1301733739253
 20
179.2746002948736
 30
0.0
 11
580.7419448062716
 21
180.7234890343072
 31
0.0
  0
LINE
  5
532
330
1F
100
AcDbEntity
  8
1
  6
Continuous
 62
     7
370
     9
100
AcDbLine
 10
581.1301733739253
 20
179.2746002948736
 30
0.0
 11
581.5184019415791
 21
180.7234890343072
 31
0.0
  0
LINE
  5
533
330
1F
100
AcDbEntity
  8
1
  6
Continuous
 62
     7
370
     9
100
AcDbLine
 10
580.7419448062716
 20
180.7234890343072
 30
0.0
 11
581.5184019415791
 21
180.7234890343072
 31
0.0
  0
POLYLINE
  5
534
330
1F
100
AcDbEntity
  8
1
  6
Continuous
 62
     7
370
     9
100
AcDb2dPolyline
 66
     1
 10
0.0
 20
0.0
 30
0.0
  0
VERTEX
  5
536
330
534
100
AcDbEntity
  8
1
  6
Continuous
 62
     7
370
     9
100
AcDbVertex
100
AcDb2dVertex
 10
581.1301733739253
 20
178.5501559251568
 30
0.0
  0
VERTEX
  5
537
330
534
100
AcDbEntity
  8
1
  6
Continuous
 62
     7
370
     9
100
AcDbVertex
100
AcDb2dVertex
 10
581.1301733739253
 20
179.4763513513523
 30
0.0
  0
SEQEND
  5
535
330
534
100
AcDbEntity
  8
1
  6
Continuous
370
     9
  0
LINE
  5
538
330
1F
100
AcDbEntity
  8
1
  6
Continuous
 62
     7
370
     9
100
AcDbLine
 10
788.0190767003302
 20
116.5306122448978
 30
0.0
 11
788.7955338356377
 21
113.6328347660306
 31
0.0
  0
LINE
  5
539
330
1F
100
AcDbEntity
  8
1
  6
Continuous
 62
     7
370
     9
100
AcDbLine
 10
788.0190767003302
 20
116.5306122448978
 30
0.0
 11
787.2426195650227
 21
113.6328347660306
 31
0.0
  0
LINE
  5
53A
330
1F
100
AcDbEntity
  8
1
  6
Continuous
 62
     7
370
     9
100
AcDbLine
 10
788.7955338356377
 20
113.6328347660306
 30
0.0
 11
787.2426195650227
 21
113.6328347660306
 31
0.0
  0
LINE
  5
53B
330
1F
100
AcDbEntity
  8
1
  6
Continuous
 62
     7
370
     9
100
AcDbLine
 10
788.0190767003302
 20
115.806167875181
 30
0.0
 11
788.4073052679839
 21
114.3572791357474
 31
0.0
  0
LINE
  5
53C
330
1F
100
AcDbEntity
  8
1
  6
Continuous
 62
     7
370
     9
100
AcDbLine
 10
788.0190767003302
 20
115.806167875181
 30
0.0
 11
787.6308481326764
 21
114.3572791357474
 31
0.0
  0
LINE
  5
53D
330
1F
100
AcDbEntity
  8
1
  6
Continuous
 62
     7
370
     9
100
AcDbLine
 10
788.4073052679839
 20
114.3572791357474
 30
0.0
 11
787.6308481326764
 21
114.3572791357474
 31
0.0
  0
POLYLINE
  5
53E
330
1F
100
AcDbEntity
  8
1
  6
Continuous
 62
     7
370
     9
100
AcDb2dPolyline
 66
     1
 10
0.0
 20
0.0
 30
0.0
  0
VERTEX
  5
540
330
53E
100
AcDbEntity
  8
1
  6
Continuous
 62
     7
370
     9
100
AcDbVertex
100
AcDb2dVertex
 10
788.0190767003302
 20
116.5306122448978
 30
0.0
  0
VERTEX
  5
541
330
53E
100
AcDbEntity
  8
1
  6
Continuous
 62
     7
370
     9
100
AcDbVertex
100
AcDb2dVertex
 10
788.0190767003302
 20
113.0797167359672
 30
0.0
  0
SEQEND
  5
53F
330
53E
100
AcDbEntity
  8
1
  6
Continuous
370
     9
  0
LINE
  5
542
330
1F
100
AcDbEntity
  8
1
  6
Continuous
 62
     7
370
     9
100
AcDbLine
 10
788.0190767003302
 20
79.53061224489784
 30
0.0
 11
787.2426195650227
 21
82.42838972376505
 31
0.0
  0
LINE
  5
543
330
1F
100
AcDbEntity
  8
1
  6
Continuous
 62
     7
370
     9
100
AcDbLine
 10
788.0190767003302
 20
79.53061224489784
 30
0.0
 11
788.7955338356377
 21
82.42838972376504
 31
0.0
  0
LINE
  5
544
330
1F
100
AcDbEntity
  8
1
  6
Continuous
 62
     7
370
     9
100
AcDbLine
 10
787.2426195650227
 20
82.42838972376505
 30
0.0
 11
788.7955338356377
 21
82.42838972376504
 31
0.0
  0
LINE
  5
545
330
1F
100
AcDbEntity
  8
1
  6
Continuous
 62
     7
370
     9
100
AcDbLine
 10
788.0190767003302
 20
80.25505661461465
 30
0.0
 11
787.6308481326764
 21
81.70394535404824
 31
0.0
  0
LINE
  5
546
330
1F
100
AcDbEntity
  8
1
  6
Continuous
 62
     7
370
     9
100
AcDbLine
 10
788.0190767003302
 20
80.25505661461465
 30
0.0
 11
788.4073052679839
 21
81.70394535404824
 31
0.0
  0
LINE
  5
547
330
1F
100
AcDbEntity
  8
1
  6
Continuous
 62
     7
370
     9
100
AcDbLine
 10
787.6308481326764
 20
81.70394535404824
 30
0.0
 11
788.4073052679839
 21
81.70394535404824
 31
0.0
  0
POLYLINE
  5
548
330
1F
100
AcDbEntity
  8
1
  6
Continuous
 62
     7
370
     9
100
AcDb2dPolyline
 66
     1
 10
0.0
 20
0.0
 30
0.0
  0
VERTEX
  5
54A
330
548
100
AcDbEntity
  8
1
  6
Continuous
 62
     7
370
     9
100
AcDbVertex
100
AcDb2dVertex
 10
788.0190767003302
 20
79.53061224489784
 30
0.0
  0
VERTEX
  5
54B
330
548
100
AcDbEntity
  8
1
  6
Continuous
 62
     7
370
     9
100
AcDbVertex
100
AcDb2dVertex
 10
788.0190767003302
 20
83.53061224489784
 30
0.0
  0
SEQEND
  5
549
330
548
100
AcDbEntity
  8
1
  6
Continuous
370
     9
  0
LINE
  5
54C
330
1F
100
AcDbEntity
  8
1
  6
Continuous
 62
     7
370
     9
100
AcDbLine
 10
814.0104358479397
 20
79.53061224489784
 30
0.0
 11
813.2339787126322
 21
82.42838972376505
 31
0.0
  0
LINE
  5
54D
330
1F
100
AcDbEntity
  8
1
  6
Continuous
 62
     7
370
     9
100
AcDbLine
 10
814.0104358479397
 20
79.53061224489784
 30
0.0
 11
814.7868929832472
 21
82.42838972376504
 31
0.0
  0
LINE
  5
54E
330
1F
100
AcDbEntity
  8
1
  6
Continuous
 62
     7
370
     9
100
AcDbLine
 10
813.2339787126322
 20
82.42838972376505
 30
0.0
 11
814.7868929832472
 21
82.42838972376504
 31
0.0
  0
LINE
  5
54F
330
1F
100
AcDbEntity
  8
1
  6
Continuous
 62
     7
370
     9
100
AcDbLine
 10
814.0104358479397
 20
80.25505661461465
 30
0.0
 11
813.6222072802859
 21
81.70394535404824
 31
0.0
  0
LINE
  5
550
330
1F
100
AcDbEntity
  8
1
  6
Continuous
 62
     7
370
     9
100
AcDbLine
 10
814.0104358479397
 20
80.25505661461465
 30
0.0
 11
814.3986644155934
 21
81.70394535404824
 31
0.0
  0
LINE
  5
551
330
1F
100
AcDbEntity
  8
1
  6
Continuous
 62
     7
370
     9
100
AcDbLine
 10
813.6222072802859
 20
81.70394535404824
 30
0.0
 11
814.3986644155934
 21
81.70394535404824
 31
0.0
  0
POLYLINE
  5
552
330
1F
100
AcDbEntity
  8
1
  6
Continuous
 62
     7
370
     9
100
AcDb2dPolyline
 66
     1
 10
0.0
 20
0.0
 30
0.0
  0
VERTEX
  5
554
330
552
100
AcDbEntity
  8
1
  6
Continuous
 62
     7
370
     9
100
AcDbVertex
100
AcDb2dVertex
 10
814.0104358479397
 20
79.53061224489784
 30
0.0
  0
VERTEX
  5
555
330
552
100
AcDbEntity
  8
1
  6
Continuous
 62
     7
370
     9
100
AcDbVertex
100
AcDb2dVertex
 10
814.0104358479397
 20
83.53061224489784
 30
0.0
  0
SEQEND
  5
553
330
552
100
AcDbEntity
  8
1
  6
Continuous
370
     9
  0
LINE
  5
556
330
1F
100
AcDbEntity
  8
1
  6
Continuous
 62
     7
370
     9
100
AcDbLine
 10
814.0104358479397
 20
381.5306122448978
 30
0.0
 11
814.7868929832472
 21
378.6328347660306
 31
0.0
  0
LINE
  5
557
330
1F
100
AcDbEntity
  8
1
  6
Continuous
 62
     7
370
     9
100
AcDbLine
 10
814.0104358479397
 20
381.5306122448978
 30
0.0
 11
813.2339787126322
 21
378.6328347660306
 31
0.0
  0
LINE
  5
558
330
1F
100
AcDbEntity
  8
1
  6
Continuous
 62
     7
370
     9
100
AcDbLine
 10
814.7868929832472
 20
378.6328347660306
 30
0.0
 11
813.2339787126322
 21
378.6328347660306
 31
0.0
  0
LINE
  5
559
330
1F
100
AcDbEntity
  8
1
  6
Continuous
 62
     7
370
     9
100
AcDbLine
 10
814.0104358479397
 20
380.806167875181
 30
0.0
 11
814.3986644155934
 21
379.3572791357474
 31
0.0
  0
LINE
  5
55A
330
1F
100
AcDbEntity
  8
1
  6
Continuous
 62
     7
370
     9
100
AcDbLine
 10
814.0104358479397
 20
380.806167875181
 30
0.0
 11
813.6222072802859
 21
379.3572791357474
 31
0.0
  0
LINE
  5
55B
330
1F
100
AcDbEntity
  8
1
  6
Continuous
 62
     7
370
     9
100
AcDbLine
 10
814.3986644155934
 20
379.3572791357474
 30
0.0
 11
813.6222072802859
 21
379.3572791357474
 31
0.0
  0
POLYLINE
  5
55C
330
1F
100
AcDbEntity
  8
1
  6
Continuous
 62
     7
370
     9
100
AcDb2dPolyline
 66
     1
 10
0.0
 20
0.0
 30
0.0
  0
VERTEX
  5
55E
330
55C
100
AcDbEntity
  8
1
  6
Continuous
 62
     7
370
     9
100
AcDbVertex
100
AcDb2dVertex
 10
814.0104358479397
 20
381.5306122448978
 30
0.0
  0
VERTEX
  5
55F
330
55C
100
AcDbEntity
  8
1
  6
Continuous
 62
     7
370
     9
100
AcDbVertex
100
AcDb2dVertex
 10
814.0104358479397
 20
374.9994517773507
 30
0.0
  0
SEQEND
  5
55D
330
55C
100
AcDbEntity
  8
1
  6
Continuous
370
     9
  0
TEXT
  5
560
330
1F
100
AcDbEntity
  8
1
  6
Continuous
 62
     7
370
     9
100
AcDbText
 10
773.2089414037807
 20
91.49497682106428
 30
0.0
 40
10.5
  1
36～38
 41
0.6
100
AcDbText
  0
TEXT
  5
561
330
1F
100
AcDbEntity
  8
1
  6
Continuous
 62
     7
370
     9
100
AcDbText
 10
554.9162568923446
 20
214.9684045757431
 30
0.0
 40
10.5
  1
12
 41
0.5
100
AcDbText
  0
TEXT
  5
562
330
1F
100
AcDbEntity
  8
1
  6
Continuous
 62
     7
370
     9
100
AcDbText
 10
543.7440245638621
 20
191.3504212077594
 30
0.0
 40
10.5
  1
15～35
 41
0.6
100
AcDbText
  0
TEXT
  5
563
330
1F
100
AcDbEntity
  8
1
  6
Continuous
 62
     7
370
     9
100
AcDbText
 10
531.9929200940074
 20
225.5038775487161
 30
0.0
 40
10.5
  1
10
 41
0.5
100
AcDbText
  0
TEXT
  5
564
330
1F
100
AcDbEntity
  8
1
  6
Continuous
 62
     7
370
     9
100
AcDbText
 10
570.6036919235296
 20
177.8525651786533
 30
0.0
 40
7.5
  1
6
 41
0.5
100
AcDbText
  0
TEXT
  5
565
330
1F
100
AcDbEntity
  8
1
  6
Continuous
 62
     7
370
     9
100
AcDbText
 10
611.0987907225384
 20
166.3512077545312
 30
0.0
 40
7.5
  1
10φH7
 41
0.6
100
AcDbText
  0
TEXT
  5
566
330
1F
100
AcDbEntity
  8
1
  6
Continuous
 62
     7
370
     9
100
AcDbText
 10
611.1895600410759
 20
156.7177613513234
 30
0.0
 40
7.5
  1
深さ25
 41
0.75
100
AcDbText
  0
LINE
  5
567
330
1F
100
AcDbEntity
  8
1
  6
Continuous
 62
     7
370
     9
100
AcDbLine
 10
601.7380216067734
 20
172.5298856548868
 30
0.0
 11
608.3371640184158
 21
166.2780665280676
 31
0.0
  0
TEXT
  5
568
330
1F
100
AcDbEntity
  8
1
  6
Continuous
 62
     7
370
     9
100
AcDbText
 10
531.4719351667727
 20
316.2131421017313
 30
0.0
 40
10.5
  1
10
 41
0.5
100
AcDbText
  0
TEXT
  5
569
330
1F
100
AcDbEntity
  8
1
  6
Continuous
 62
     7
370
     9
100
AcDbText
 10
527.6513790337166
 20
270.7716790040181
 30
0.0
 40
10.5
  1
80
 41
0.5
100
AcDbText
  0
TEXT
  5
56A
330
1F
100
AcDbEntity
  8
1
  6
Continuous
 62
     7
370
     9
100
AcDbText
 10
799.5476238362137
 20
197.0812554073437
 30
0.0
 40
10.5
  1
302±2
 41
0.6
100
AcDbText
  0
LINE
  5
56B
330
1F
100
AcDbEntity
  8
1
  6
Continuous
 62
     7
370
     9
100
AcDbLine
 10
532.4470262845276
 20
316.2011746987142
 30
0.0
 11
532.4470262845276
 21
281.3578482328507
 31
0.0
  0
LINE
  5
56C
330
1F
100
AcDbEntity
  8
1
  6
Continuous
 62
     7
370
     9
100
AcDbLine
 10
532.4470262845276
 20
270.7066008316032
 30
0.0
 11
532.4470262845276
 21
236.2011746987142
 31
0.0
  0
LINE
  5
56D
330
1F
100
AcDbEntity
  8
1
  6
Continuous
 62
     7
370
     9
100
AcDbLine
 10
560.6380995693512
 20
214.2011746987142
 30
0.0
 11
560.6380995693512
 21
201.2419438669455
 31
0.0
  0
LINE
  5
56E
330
1F
100
AcDbEntity
  8
1
  6
Continuous
 62
     7
370
     9
100
AcDbLine
 10
560.6380995693512
 20
192.4430873180889
 30
0.0
 11
560.6380995693512
 21
178.5501559251568
 31
0.0
  0
LINE
  5
56F
330
1F
100
AcDbEntity
  8
1
  6
Continuous
 62
     7
370
     9
100
AcDbLine
 10
788.0190767003302
 20
79.53061224489784
 30
0.0
 11
788.0190767003302
 21
90.79313929313996
 31
0.0
  0
LINE
  5
570
330
1F
100
AcDbEntity
  8
1
  6
Continuous
 62
     7
370
     9
100
AcDbLine
 10
788.0190767003302
 20
100.9812889812897
 30
0.0
 11
788.0190767003302
 21
116.5306122448978
 31
0.0
  0
LINE
  5
571
330
1F
100
AcDbEntity
  8
1
  6
Continuous
 62
     7
370
     9
100
AcDbLine
 10
814.0104358479397
 20
381.5306122448978
 30
0.0
 11
814.0104358479397
 21
210.7354469854488
 31
0.0
  0
LINE
  5
572
330
1F
100
AcDbEntity
  8
1
  6
Continuous
 62
     7
370
     9
100
AcDbLine
 10
814.0104358479397
 20
193.1377338877355
 30
0.0
 11
814.0104358479397
 21
79.53061224489784
 31
0.0
  0
DIMENSION
  5
586
330
1F
100
AcDbEntity
  8
1
  6
Continuous
 62
     7
370
     9
100
AcDbDimension
  2
Dim11
 10
681.4370210870226
 20
136.2346023908531
 30
0.0
 11
640.9370210870226
 21
141.4846023908531
 31
0.0
 70
   160
  1
<>
 71
     5
 42
-1.0
 73
     0
 74
     0
 75
     0
  3
Standard
100
AcDbAlignedDimension
 13
681.4370210870226
 23
116.5306122448978
 33
0.0
 14
600.4370210870226
 24
116.5306122448978
 34
0.0
100
AcDbRotatedDimension
1001
ACAD
1000
DSTYLE
1002
{
1070
   344
1005
0
1070
   343
1005
0
1070
   173
1070
     1
1070
   289
1070
     2
1070
   279
1070
     2
1070
   288
1070
     1
1070
    77
1070
     3
1070
   172
1070
     1
1070
   174
1070
     0
1070
    74
1070
     0
1070
    73
1070
     0
1070
   284
1070
     8
1070
    78
1070
     8
1070
   140
1040
4.0
1070
    40
1040
3.0
1070
    42
1040
2.0
1070
    44
1040
0.0
1070
    43
1040
10.0
1070
   271
1070
     2
1070
    41
1040
4.0
1002
}
  0
DIMENSION
  5
59A
330
1F
100
AcDbEntity
  8
1
  6
Continuous
 62
     7
370
     9
100
AcDbDimension
  2
Dim12
 10
470.4370210870226
 20
136.2346023908531
 30
0.0
 11
535.4370210870226
 21
141.4846023908531
 31
0.0
 70
   160
  1
<>
 71
     5
 42
-1.0
 73
     0
 74
     0
 75
     0
  3
Standard
100
AcDbAlignedDimension
 13
470.4370210870226
 23
116.5306122448978
 33
0.0
 14
600.4370210870226
 24
116.5306122448978
 34
0.0
100
AcDbRotatedDimension
1001
ACAD
1000
DSTYLE
1002
{
1070
   344
1005
0
1070
   343
1005
0
1070
   173
1070
     1
1070
   289
1070
     2
1070
   279
1070
     2
1070
   288
1070
     1
1070
    77
1070
     3
1070
   172
1070
     1
1070
   174
1070
     0
1070
    74
1070
     0
1070
    73
1070
     0
1070
   284
1070
     8
1070
    78
1070
     8
1070
   140
1040
4.0
1070
    40
1040
3.0
1070
    42
1040
2.0
1070
    44
1040
0.0
1070
    43
1040
10.0
1070
   271
1070
     2
1070
    41
1040
4.0
1002
}
  0
DIMENSION
  5
5AE
330
1F
100
AcDbEntity
  8
1
  6
Continuous
 62
     7
370
     9
100
AcDbDimension
  2
Dim13
 10
681.4370210870226
 20
187.1753508316019
 30
0.0
 11
685.4370210870226
 21
192.4253508316019
 31
0.0
 70
   160
  1
<>
 71
     5
 42
-1.0
 73
     0
 74
     0
 75
     0
  3
Standard
100
AcDbAlignedDimension
 13
681.4370210870226
 23
179.5342385654895
 33
0.0
 14
689.4370210870226
 24
178.3764942827453
 34
0.0
100
AcDbRotatedDimension
1001
ACAD
1000
DSTYLE
1002
{
1070
   344
1005
0
1070
   343
1005
0
1070
   173
1070
     1
1070
   289
1070
     2
1070
   279
1070
     2
1070
   288
1070
     1
1070
    77
1070
     3
1070
   172
1070
     1
1070
   174
1070
     0
1070
    74
1070
     0
1070
    73
1070
     0
1070
   284
1070
     8
1070
    78
1070
     8
1070
   140
1040
4.0
1070
    40
1040
3.0
1070
    42
1040
2.0
1070
    44
1040
0.0
1070
    43
1040
10.0
1070
   271
1070
     2
1070
    41
1040
4.0
1002
}
  0
DIMENSION
  5
5C1
330
1F
100
AcDbEntity
  8
1
  6
Continuous
 62
     7
370
     9
100
AcDbDimension
  2
Dim14
 10
689.4370210870226
 20
187.1753508316019
 30
0.0
 11
695.9370210870226
 21
192.4253508316019
 31
0.0
 70
   160
  1
<>
 71
     5
 42
-1.0
 73
     0
 74
     0
 75
     0
  3
Standard
100
AcDbAlignedDimension
 13
689.4370210870226
 23
178.3764942827453
 33
0.0
 14
702.4370210870226
 24
177.9133965696475
 34
0.0
100
AcDbRotatedDimension
1001
ACAD
1000
DSTYLE
1002
{
1070
   344
1005
0
1070
   343
1005
0
1070
   173
1070
     1
1070
   289
1070
     2
1070
   279
1070
     2
1070
   288
1070
     1
1070
    77
1070
     3
1070
   172
1070
     1
1070
   174
1070
     0
1070
    74
1070
     0
1070
    73
1070
     0
1070
   284
1070
     8
1070
    78
1070
     8
1070
   140
1040
4.0
1070
    40
1040
3.0
1070
    42
1040
2.0
1070
    44
1040
0.0
1070
    43
1040
10.0
1070
   271
1070
     2
1070
    41
1040
4.0
1002
}
  0
DIMENSION
  5
5D4
330
1F
100
AcDbEntity
  8
1
  6
Continuous
 62
     7
370
     9
100
AcDbDimension
  2
Dim15
 10
702.4370210870226
 20
187.1753508316019
 30
0.0
 11
725.9370210870226
 21
192.4253508316019
 31
0.0
 70
   160
  1
<>
 71
     5
 42
-1.0
 73
     0
 74
     0
 75
     0
  3
Standard
100
AcDbAlignedDimension
 13
702.4370210870226
 23
177.9133965696475
 33
0.0
 14
749.4370210870226
 24
175.8294568607078
 34
0.0
100
AcDbRotatedDimension
1001
ACAD
1000
DSTYLE
1002
{
1070
   344
1005
0
1070
   343
1005
0
1070
   173
1070
     1
1070
   289
1070
     2
1070
   279
1070
     2
1070
   288
1070
     1
1070
    77
1070
     3
1070
   172
1070
     1
1070
   174
1070
     0
1070
    74
1070
     0
1070
    73
1070
     0
1070
   284
1070
     8
1070
    78
1070
     8
1070
   140
1040
4.0
1070
    40
1040
3.0
1070
    42
1040
2.0
1070
    44
1040
0.0
1070
    43
1040
10.0
1070
   271
1070
     2
1070
    41
1040
4.0
1002
}
  0
DIMENSION
  5
5E8
330
1F
100
AcDbEntity
  8
1
  6
Continuous
 62
     7
370
     9
100
AcDbDimension
  2
Dim16
 10
585.4370210870226
 20
202.7470114345125
 30
0.0
 11
600.4370210870226
 21
207.9970114345125
 31
0.0
 70
   160
  1
<>
 71
     5
 42
-1.0
 73
     0
 74
     0
 75
     0
  3
Standard
100
AcDbAlignedDimension
 13
585.4370210870226
 23
216.2011746987142
 33
0.0
 14
615.4370210870226
 24
216.2011746987142
 34
0.0
100
AcDbRotatedDimension
1001
ACAD
1000
DSTYLE
1002
{
1070
   344
1005
0
1070
   343
1005
0
1070
   173
1070
     1
1070
   289
1070
     2
1070
   279
1070
     2
1070
   288
1070
     1
1070
    77
1070
     3
1070
   172
1070
     1
1070
   174
1070
     0
1070
    74
1070
     0
1070
    73
1070
     0
1070
   284
1070
     8
1070
    78
1070
     8
1070
   140
1040
4.0
1070
    40
1040
3.0
1070
    42
1040
2.0
1070
    44
1040
0.0
1070
    43
1040
10.0
1070
   271
1070
     2
1070
    41
1040
4.0
1002
}
  0
DIMENSION
  5
5FC
330
1F
100
AcDbEntity
  8
1
  6
Continuous
 62
     7
370
     9
100
AcDbDimension
  2
Dim17
 10
467.265592515594
 20
58.13027871621723
 30
0.0
 11
617.265592515594
 21
63.38027871621723
 31
0.0
 70
   160
  1
<>
 71
     5
 42
-1.0
 73
     0
 74
     0
 75
     0
  3
Standard
100
AcDbAlignedDimension
 13
467.2655925155941
 23
79.53061224489784
 33
0.0
 14
767.2655925155941
 24
79.9103430353433
 34
0.0
100
AcDbRotatedDimension
1001
ACAD
1000
DSTYLE
1002
{
1070
   344
1005
0
1070
   343
1005
0
1070
   173
1070
     1
1070
   289
1070
     2
1070
   279
1070
     2
1070
   288
1070
     1
1070
    77
1070
     3
1070
   172
1070
     1
1070
   174
1070
     0
1070
    74
1070
     0
1070
    73
1070
     0
1070
   284
1070
     8
1070
    78
1070
     8
1070
   140
1040
4.0
1070
    40
1040
3.0
1070
    42
1040
2.0
1070
    44
1040
0.0
1070
    43
1040
10.0
1070
   271
1070
     2
1070
    41
1040
4.0
1002
}
  0
LINE
  5
5FD
330
1F
100
AcDbEntity
  8
1
  6
Continuous
 62
     7
370
     9
100
AcDbLine
 10
573.0259633947152
 20
214.2011746987142
 30
0.0
 11
518.4383204633239
 21
214.2011746987142
 31
0.0
  0
LINE
  5
5FE
330
1F
100
AcDbEntity
  8
1
  6
Continuous
 62
     7
370
     9
100
AcDbLine
 10
518.4383204633239
 20
214.2011746987142
 30
0.0
 11
519.2147775986314
 21
211.303397219847
 31
0.0
  0
LINE
  5
5FF
330
1F
100
AcDbEntity
  8
1
  6
Continuous
 62
     7
370
     9
100
AcDbLine
 10
518.4383204633239
 20
214.2011746987142
 30
0.0
 11
517.6618633280164
 21
211.303397219847
 31
0.0
  0
LINE
  5
600
330
1F
100
AcDbEntity
  8
1
  6
Continuous
 62
     7
370
     9
100
AcDbLine
 10
519.2147775986314
 20
211.303397219847
 30
0.0
 11
517.6618633280164
 21
211.303397219847
 31
0.0
  0
LINE
  5
601
330
1F
100
AcDbEntity
  8
1
  6
Continuous
 62
     7
370
     9
100
AcDbLine
 10
518.4383204633239
 20
213.4767303289974
 30
0.0
 11
518.8265490309776
 21
212.0278415895638
 31
0.0
  0
LINE
  5
602
330
1F
100
AcDbEntity
  8
1
  6
Continuous
 62
     7
370
     9
100
AcDbLine
 10
518.4383204633239
 20
213.4767303289974
 30
0.0
 11
518.0500918956701
 21
212.0278415895638
 31
0.0
  0
LINE
  5
603
330
1F
100
AcDbEntity
  8
1
  6
Continuous
 62
     7
370
     9
100
AcDbLine
 10
518.8265490309776
 20
212.0278415895638
 30
0.0
 11
518.0500918956701
 21
212.0278415895638
 31
0.0
  0
POLYLINE
  5
604
330
1F
100
AcDbEntity
  8
1
  6
Continuous
 62
     7
370
     9
100
AcDb2dPolyline
 66
     1
 10
0.0
 20
0.0
 30
0.0
  0
VERTEX
  5
606
330
604
100
AcDbEntity
  8
1
  6
Continuous
 62
     7
370
     9
100
AcDbVertex
100
AcDb2dVertex
 10
518.4383204633239
 20
214.2011746987142
 30
0.0
  0
VERTEX
  5
607
330
604
100
AcDbEntity
  8
1
  6
Continuous
 62
     7
370
     9
100
AcDbVertex
100
AcDb2dVertex
 10
518.4383204633239
 20
204.9467255717274
 30
0.0
  0
SEQEND
  5
605
330
604
100
AcDbEntity
  8
1
  6
Continuous
370
     9
  0
LINE
  5
608
330
1F
100
AcDbEntity
  8
1
  6
Continuous
 62
     7
370
     9
100
AcDbLine
 10
518.4383204633239
 20
116.5306122448978
 30
0.0
 11
517.6618633280164
 21
119.4283897237651
 31
0.0
  0
LINE
  5
609
330
1F
100
AcDbEntity
  8
1
  6
Continuous
 62
     7
370
     9
100
AcDbLine
 10
518.4383204633239
 20
116.5306122448978
 30
0.0
 11
519.2147775986314
 21
119.428389723765
 31
0.0
  0
LINE
  5
60A
330
1F
100
AcDbEntity
  8
1
  6
Continuous
 62
     7
370
     9
100
AcDbLine
 10
517.6618633280164
 20
119.4283897237651
 30
0.0
 11
519.2147775986314
 21
119.428389723765
 31
0.0
  0
LINE
  5
60B
330
1F
100
AcDbEntity
  8
1
  6
Continuous
 62
     7
370
     9
100
AcDbLine
 10
518.4383204633239
 20
117.2550566146146
 30
0.0
 11
518.0500918956701
 21
118.7039453540482
 31
0.0
  0
LINE
  5
60C
330
1F
100
AcDbEntity
  8
1
  6
Continuous
 62
     7
370
     9
100
AcDbLine
 10
518.4383204633239
 20
117.2550566146146
 30
0.0
 11
518.8265490309776
 21
118.7039453540482
 31
0.0
  0
LINE
  5
60D
330
1F
100
AcDbEntity
  8
1
  6
Continuous
 62
     7
370
     9
100
AcDbLine
 10
518.0500918956701
 20
118.7039453540482
 30
0.0
 11
518.8265490309776
 21
118.7039453540482
 31
0.0
  0
POLYLINE
  5
60E
330
1F
100
AcDbEntity
  8
1
  6
Continuous
 62
     7
370
     9
100
AcDb2dPolyline
 66
     1
 10
0.0
 20
0.0
 30
0.0
  0
VERTEX
  5
610
330
60E
100
AcDbEntity
  8
1
  6
Continuous
 62
     7
370
     9
100
AcDbVertex
100
AcDb2dVertex
 10
518.4383204633239
 20
116.5306122448978
 30
0.0
  0
VERTEX
  5
611
330
60E
100
AcDbEntity
  8
1
  6
Continuous
 62
     7
370
     9
100
AcDbVertex
100
AcDb2dVertex
 10
518.4383204633239
 20
122.0522349272359
 30
0.0
  0
SEQEND
  5
60F
330
60E
100
AcDbEntity
  8
1
  6
Continuous
370
     9
  0
TEXT
  5
612
330
1F
100
AcDbEntity
  8
1
  6
Continuous
 62
     7
370
     9
100
AcDbText
 10
511.3271846470219
 20
162.1752652826033
 30
0.0
 40
10.5
  1
165
 41
0.5
100
AcDbText
  0
LINE
  5
613
330
1F
100
AcDbEntity
  8
1
  6
Continuous
 62
     7
370
     9
100
AcDbLine
 10
518.4383204633239
 20
214.2011746987142
 30
0.0
 11
518.4383204633239
 21
172.6752652826033
 31
0.0
  0
LINE
  5
614
330
1F
100
AcDbEntity
  8
1
  6
Continuous
 62
     7
370
     9
100
AcDbLine
 10
518.4383204633239
 20
160.8366683991698
 30
0.0
 11
518.4383204633239
 21
116.5306122448978
 31
0.0
  0
LINE
  5
615
330
1F
100
AcDbEntity
  8
1
  6
Continuous
 62
     7
370
     9
100
AcDbLine
 10
304.6488962150712
 20
353.2011746987142
 30
0.0
 11
304.6488962150712
 21
363.2011746987142
 31
0.0
  0
LINE
  5
616
330
1F
100
AcDbEntity
  8
1
  6
Continuous
 62
     7
370
     9
100
AcDbLine
 10
265.2997559608989
 20
353.2011746987142
 30
0.0
 11
265.2997559608989
 21
363.2011746987142
 31
0.0
  0
LINE
  5
617
330
1F
100
AcDbEntity
  8
1
  6
Continuous
 62
     7
370
     9
100
AcDbLine
 10
265.2997559608989
 20
363.2011746987142
 30
0.0
 11
304.6488962150712
 21
363.2011746987142
 31
0.0
  0
LINE
  5
618
330
1F
100
AcDbEntity
  8
1
  6
Continuous
 62
     7
370
     9
100
AcDbLine
 10
302.6488962150712
 20
363.2011746987142
 30
0.0
 11
302.6488962150712
 21
355.2011746987142
 31
0.0
  0
LINE
  5
619
330
1F
100
AcDbEntity
  8
1
  6
Continuous
 62
     7
370
     9
100
AcDbLine
 10
265.2997559608989
 20
362.2011746987142
 30
0.0
 11
304.6488962150712
 21
362.2011746987142
 31
0.0
  0
LINE
  5
61A
330
1F
100
AcDbEntity
  8
1
  6
Continuous
 62
     7
370
     9
100
AcDbLine
 10
271.2997562670605
 20
363.2011746987142
 30
0.0
 11
271.2997562670605
 21
355.2011746987142
 31
0.0
  0
LINE
  5
61B
330
1F
100
AcDbEntity
  8
1
  6
Continuous
 62
     7
370
     9
100
AcDbLine
 10
267.2997562670605
 20
363.2011746987142
 30
0.0
 11
267.2997562670605
 21
355.2011746987142
 31
0.0
  0
LINE
  5
61C
330
1F
100
AcDbEntity
  8
1
  6
Continuous
 62
     7
370
     9
100
AcDbLine
 10
279.1370411775227
 20
363.2011746987142
 30
0.0
 11
279.1370411775227
 21
355.2011746987142
 31
0.0
  0
LINE
  5
61D
330
1F
100
AcDbEntity
  8
1
  6
Continuous
 62
     7
370
     9
100
AcDbLine
 10
275.1370411775227
 20
363.2011746987142
 30
0.0
 11
275.1370411775227
 21
355.2011746987142
 31
0.0
  0
LINE
  5
61E
330
1F
100
AcDbEntity
  8
1
  6
Continuous
 62
     7
370
     9
100
AcDbLine
 10
267.2997562670605
 20
355.2011746987142
 30
0.0
 11
271.2997562670605
 21
355.2011746987142
 31
0.0
  0
LINE
  5
61F
330
1F
100
AcDbEntity
  8
1
  6
Continuous
 62
     7
370
     9
100
AcDbLine
 10
275.1370411775227
 20
355.2011746987142
 30
0.0
 11
279.1370411775227
 21
355.2011746987142
 31
0.0
  0
LINE
  5
620
330
1F
100
AcDbEntity
  8
1
  6
Continuous
 62
     7
370
     9
100
AcDbLine
 10
282.974326087985
 20
363.2011746987142
 30
0.0
 11
282.974326087985
 21
355.2011746987142
 31
0.0
  0
LINE
  5
621
330
1F
100
AcDbEntity
  8
1
  6
Continuous
 62
     7
370
     9
100
AcDbLine
 10
282.974326087985
 20
355.2011746987142
 30
0.0
 11
286.974326087985
 21
355.2011746987142
 31
0.0
  0
LINE
  5
622
330
1F
100
AcDbEntity
  8
1
  6
Continuous
 62
     7
370
     9
100
AcDbLine
 10
286.974326087985
 20
363.2011746987142
 30
0.0
 11
286.974326087985
 21
355.2011746987142
 31
0.0
  0
LINE
  5
623
330
1F
100
AcDbEntity
  8
1
  6
Continuous
 62
     7
370
     9
100
AcDbLine
 10
290.8116113046088
 20
363.2011746987142
 30
0.0
 11
290.8116113046088
 21
355.2011746987142
 31
0.0
  0
LINE
  5
624
330
1F
100
AcDbEntity
  8
1
  6
Continuous
 62
     7
370
     9
100
AcDbLine
 10
290.8116113046088
 20
355.2011746987142
 30
0.0
 11
294.8116113046088
 21
355.2011746987142
 31
0.0
  0
LINE
  5
625
330
1F
100
AcDbEntity
  8
1
  6
Continuous
 62
     7
370
     9
100
AcDbLine
 10
294.8116113046088
 20
363.2011746987142
 30
0.0
 11
294.8116113046088
 21
355.2011746987142
 31
0.0
  0
LINE
  5
626
330
1F
100
AcDbEntity
  8
1
  6
Continuous
 62
     7
370
     9
100
AcDbLine
 10
298.6488962150712
 20
363.2011746987142
 30
0.0
 11
298.6488962150712
 21
355.2011746987142
 31
0.0
  0
LINE
  5
627
330
1F
100
AcDbEntity
  8
1
  6
Continuous
 62
     7
370
     9
100
AcDbLine
 10
298.6488962150712
 20
355.2011746987142
 30
0.0
 11
302.6488962150712
 21
355.2011746987142
 31
0.0
  0
DIMENSION
  5
63B
330
1F
100
AcDbEntity
  8
1
  6
Continuous
 62
     7
370
     9
100
AcDbDimension
  2
Dim18
 10
260.2500000000001
 20
400.4637474012513
 30
0.0
 11
296.7500000000001
 21
405.7137474012513
 31
0.0
 70
   160
  1
<>
 71
     5
 42
-1.0
 73
     0
 74
     0
 75
     0
  3
Standard
100
AcDbAlignedDimension
 13
260.25
 23
348.4925448284826
 33
0.0
 14
333.25
 24
348.2609959719337
 34
0.0
100
AcDbRotatedDimension
1001
ACAD
1000
DSTYLE
1002
{
1070
   344
1005
0
1070
   343
1005
0
1070
   173
1070
     1
1070
   289
1070
     2
1070
   279
1070
     2
1070
   288
1070
     1
1070
    77
1070
     3
1070
   172
1070
     1
1070
   174
1070
     0
1070
    74
1070
     0
1070
    73
1070
     0
1070
   284
1070
     8
1070
    78
1070
     8
1070
   140
1040
4.0
1070
    40
1040
3.0
1070
    42
1040
2.0
1070
    44
1040
0.0
1070
    43
1040
10.0
1070
   271
1070
     2
1070
    41
1040
4.0
1002
}
  0
LINE
  5
63C
330
1F
100
AcDbEntity
  8
1
  6
Continuous
 62
     7
370
     9
100
AcDbLine
 10
284.9060889724992
 20
390.2075727362316
 30
0.0
 11
275.3978071492882
 21
390.2075727362316
 31
0.0
  0
LINE
  5
63D
330
1F
100
AcDbEntity
  8
1
  6
Continuous
 62
     7
370
     9
100
AcDbLine
 10
284.9060892786609
 20
390.2075727362316
 30
0.0
 11
294.4143711018717
 21
390.2075727362316
 31
0.0
  0
LINE
  5
63E
330
1F
100
AcDbEntity
  8
1
  6
Continuous
 62
     7
370
     9
100
AcDbLine
 10
273.3978071492882
 20
388.2075727362316
 30
0.0
 11
275.3978071492882
 21
390.2075727362316
 31
0.0
  0
LINE
  5
63F
330
1F
100
AcDbEntity
  8
1
  6
Continuous
 62
     7
370
     9
100
AcDbLine
 10
296.4143711018717
 20
388.2075727362316
 30
0.0
 11
294.4143711018717
 21
390.2075727362316
 31
0.0
  0
LINE
  5
640
330
1F
100
AcDbEntity
  8
1
  6
Continuous
 62
     7
370
     9
100
AcDbLine
 10
281.9754647429444
 20
388.2075727362316
 30
0.0
 11
281.9754647429444
 21
362.2011746987142
 31
0.0
  0
LINE
  5
641
330
1F
100
AcDbEntity
  8
1
  6
Continuous
 62
     7
370
     9
100
AcDbLine
 10
287.9731877391872
 20
388.2075727362316
 30
0.0
 11
287.9731877391872
 21
363.2011746987142
 31
0.0
  0
LINE
  5
642
330
1F
100
AcDbEntity
  8
1
  6
Continuous
 62
     7
370
     9
100
AcDbLine
 10
292.8116113046088
 20
388.2075727362316
 30
0.0
 11
292.8116113046088
 21
363.2011746987142
 31
0.0
  0
LINE
  5
643
330
1F
100
AcDbEntity
  8
1
  6
Continuous
 62
     7
370
     9
100
AcDbLine
 10
296.4826082173576
 20
363.2011746987142
 30
0.0
 11
296.4826082173576
 21
388.2075727362316
 31
0.0
  0
LINE
  5
644
330
1F
100
AcDbEntity
  8
1
  6
Continuous
 62
     7
370
     9
100
AcDbLine
 10
277.1370411775227
 20
388.2075727362316
 30
0.0
 11
277.1370411775227
 21
363.2011746987142
 31
0.0
  0
LINE
  5
645
330
1F
100
AcDbEntity
  8
1
  6
Continuous
 62
     7
370
     9
100
AcDbLine
 10
273.466044264774
 20
363.2011746987142
 30
0.0
 11
273.466044264774
 21
388.2075727362316
 31
0.0
  0
LINE
  5
646
330
1F
100
AcDbEntity
  8
1
  6
Continuous
 62
     7
370
     9
100
AcDbLine
 10
273.466044264774
 20
388.2075727362316
 30
0.0
 11
296.4826082173576
 21
388.2075727362316
 31
0.0
  0
ARC
  5
647
330
1F
100
AcDbEntity
  8
1
  6
Continuous
 62
     7
370
     9
100
AcDbCircle
 10
409.102338877339
 20
364.3960080023868
 30
0.0
 40
-0.7
100
AcDbArc
 50
0.0
 51
308.6598082540912
  0
ARC
  5
648
330
1F
100
AcDbEntity
  8
1
  6
Continuous
 62
     7
370
     9
100
AcDbCircle
 10
466.1523388773389
 20
364.3960080023868
 30
0.0
 40
-0.7
100
AcDbArc
 50
231.3401917459081
 51
179.9999999999998
  0
CIRCLE
  5
649
330
1F
100
AcDbEntity
  8
1
  6
Continuous
 62
     7
370
     9
100
AcDbCircle
 10
437.627338877339
 20
312.5909563409564
 30
0.0
 40
5.0
  0
CIRCLE
  5
64A
330
1F
100
AcDbEntity
  8
1
  6
Continuous
 62
     7
370
     9
100
AcDbCircle
 10
412.6273388773391
 20
312.5909563409564
 30
0.0
 40
2.0
  0
CIRCLE
  5
64B
330
1F
100
AcDbEntity
  8
1
  6
Continuous
 62
     7
370
     9
100
AcDbCircle
 10
462.627338877339
 20
312.5909563409564
 30
0.0
 40
2.0
  0
LINE
  5
64C
330
1F
100
AcDbEntity
  8
1
  6
Continuous
 62
     7
370
     9
100
AcDbLine
 10
433.6898388773391
 20
353.0909563409563
 30
0.0
 11
441.5648388773391
 21
353.0909563409563
 31
0.0
  0
ARC
  5
64D
330
1F
100
AcDbEntity
  8
1
  6
Continuous
 62
     7
370
     9
100
AcDbCircle
 10
433.514838877339
 20
365.6909563409564
 30
0.0
 40
2.1
100
AcDbArc
 50
269.9999999999998
 51
0.0
  0
ARC
  5
64E
330
1F
100
AcDbEntity
  8
1
  6
Continuous
 62
     7
370
     9
100
AcDbCircle
 10
441.739838877339
 20
365.6909563409564
 30
0.0
 40
2.1
100
AcDbArc
 50
179.9999999999998
 51
269.9999999999998
  0
LINE
  5
64F
330
1F
100
AcDbEntity
  8
1
  6
Continuous
 62
     7
370
     9
100
AcDbLine
 10
423.627338877339
 20
363.5909563409564
 30
0.0
 11
433.514838877339
 21
363.5909563409564
 31
0.0
  0
LINE
  5
650
330
1F
100
AcDbEntity
  8
1
  6
Continuous
 62
     7
370
     9
100
AcDbLine
 10
441.739838877339
 20
363.5909563409564
 30
0.0
 11
451.627338877339
 21
363.5909563409564
 31
0.0
  0
LINE
  5
651
330
1F
100
AcDbEntity
  8
1
  6
Continuous
 62
     7
370
     9
100
AcDbLine
 10
429.127338877339
 20
353.0909563409563
 30
0.0
 11
446.127338877339
 21
353.0909563409563
 31
0.0
  0
LINE
  5
652
330
1F
100
AcDbEntity
  8
1
  6
Continuous
 62
     7
370
     9
100
AcDbLine
 10
423.627338877339
 20
357.0909563409564
 30
0.0
 11
432.627338877339
 21
357.0909563409564
 31
0.0
  0
LINE
  5
653
330
1F
100
AcDbEntity
  8
1
  6
Continuous
 62
     7
370
     9
100
AcDbLine
 10
432.627338877339
 20
357.0909563409564
 30
0.0
 11
429.127338877339
 21
353.0909563409564
 31
0.0
  0
LINE
  5
654
330
1F
100
AcDbEntity
  8
1
  6
Continuous
 62
     7
370
     9
100
AcDbLine
 10
442.627338877339
 20
357.0909563409564
 30
0.0
 11
451.627338877339
 21
357.0909563409564
 31
0.0
  0
LINE
  5
655
330
1F
100
AcDbEntity
  8
1
  6
Continuous
 62
     7
370
     9
100
AcDbLine
 10
442.627338877339
 20
357.0909563409564
 30
0.0
 11
446.127338877339
 21
353.0909563409564
 31
0.0
  0
ELLIPSE
  5
656
330
1F
100
AcDbEntity
  8
1
  6
Continuous
 62
     7
370
     9
100
AcDbEllipse
 10
437.627338877339
 20
370.0909563409564
 30
0.0
 11
2.746425776535407E-14
 21
-17.00000000000006
 31
0.0
210
0.0
220
0.0
230
1.0
 40
0.8235294117647032
 41
1.570796326794895
 42
4.712388980384691
  0
LINE
  5
657
330
1F
100
AcDbEntity
  8
1
  6
Continuous
 62
     7
370
     9
100
AcDbLine
 10
423.627338877339
 20
371.0362568063608
 30
0.0
 11
423.627338877339
 21
357.0909563409564
 31
0.0
  0
LINE
  5
658
330
1F
100
AcDbEntity
  8
1
  6
Continuous
 62
     7
370
     9
100
AcDbLine
 10
451.627338877339
 20
370.6871419076802
 30
0.0
 11
451.627338877339
 21
357.0909563409564
 31
0.0
  0
LINE
  5
659
330
1F
100
AcDbEntity
  8
1
  6
Continuous
 62
     7
370
     9
100
AcDbLine
 10
439.639838877339
 20
386.9143949293515
 30
0.0
 11
439.639838877339
 21
365.6909563409564
 31
0.0
  0
LINE
  5
65A
330
1F
100
AcDbEntity
  8
1
  6
Continuous
 62
     7
370
     9
100
AcDbLine
 10
435.614838877339
 20
386.9143949293515
 30
0.0
 11
435.614838877339
 21
365.6909563409564
 31
0.0
  0
INSERT
  5
67C
330
1F
100
AcDbEntity
  8
0
100
AcDbBlockReference
  2
*G38
 10
0.0
 20
0.0
 30
0.0
  0
LINE
  5
67D
330
1F
100
AcDbEntity
  8
1
  6
Continuous
 62
     7
370
     9
100
AcDbLine
 10
462.627338877339
 20
312.5909563409563
 30
0.0
 11
470.8545997920996
 21
312.5909563409563
 31
0.0
  0
LINE
  5
67E
330
1F
100
AcDbEntity
  8
1
  6
Continuous
 62
     7
370
     9
100
AcDbLine
 10
470.8545997920996
 20
353.0909563409563
 30
0.0
 11
455.803924116424
 21
353.0909563409563
 31
0.0
  0
ARC
  5
67F
330
1F
100
AcDbEntity
  8
1
  6
Continuous
 62
     7
370
     9
100
AcDbCircle
 10
397.627338877339
 20
249.9263369203509
 30
0.0
 40
3.0
100
AcDbArc
 50
180.0000000000007
 51
269.9999999999986
  0
LINE
  5
680
330
1F
100
AcDbEntity
  8
1
  6
Continuous
 62
     7
370
     9
100
AcDbLine
 10
397.627338877339
 20
246.9263369203509
 30
0.0
 11
477.6273388773391
 21
246.9263369203509
 31
0.0
  0
ARC
  5
681
330
1F
100
AcDbEntity
  8
1
  6
Continuous
 62
     7
370
     9
100
AcDbCircle
 10
477.6273388773391
 20
249.9263369203509
 30
0.0
 40
3.0
100
AcDbArc
 50
269.9999999999998
 51
0.0
  0
LINE
  5
682
330
1F
100
AcDbEntity
  8
1
  6
Continuous
 62
     7
370
     9
100
AcDbLine
 10
394.627338877339
 20
351.999045826323
 30
0.0
 11
394.627338877339
 21
249.9263369203509
 31
0.0
  0
ARC
  5
683
330
1F
100
AcDbEntity
  8
1
  6
Continuous
 62
     7
370
     9
100
AcDbCircle
 10
397.627338877339
 20
351.999045826323
 30
0.0
 40
3.0
100
AcDbArc
 50
139.9999999999999
 51
179.9999999999989
  0
LINE
  5
684
330
1F
100
AcDbEntity
  8
1
  6
Continuous
 62
     7
370
     9
100
AcDbLine
 10
480.6273388773391
 20
351.9990461911922
 30
0.0
 11
480.6273388773391
 21
249.9263369203509
 31
0.0
  0
ARC
  5
685
330
1F
100
AcDbEntity
  8
1
  6
Continuous
 62
     7
370
     9
100
AcDbCircle
 10
477.6273388773391
 20
351.9990461911922
 30
0.0
 40
3.0
100
AcDbArc
 50
0.0000000000010856
 51
40.00000000000009
  0
ARC
  5
686
330
1F
100
AcDbEntity
  8
1
  6
Continuous
 62
     7
370
     9
100
AcDbCircle
 10
437.6273390304205
 20
388.9263369203508
 30
0.0
 40
8.0
100
AcDbArc
 50
39.99999999999983
 51
139.9999999999996
  0
LINE
  5
687
330
1F
100
AcDbEntity
  8
1
  6
Continuous
 62
     7
370
     9
100
AcDbLine
 10
431.4989834854687
 20
394.0686377978431
 30
0.0
 11
395.3292055479821
 21
353.9274086553826
 31
0.0
  0
LINE
  5
688
330
1F
100
AcDbEntity
  8
1
  6
Continuous
 62
     7
370
     9
100
AcDbLine
 10
443.7556945753723
 20
394.0686377978431
 30
0.0
 11
479.925472206696
 21
353.9274090202518
 31
0.0
  0
LINE
  5
689
330
1F
100
AcDbEntity
  8
1
  6
Continuous
 62
     7
370
     9
100
AcDbLine
 10
470.8545997920996
 20
312.5909563409563
 30
0.0
 11
470.0781426567921
 21
315.4887338198236
 31
0.0
  0
LINE
  5
68A
330
1F
100
AcDbEntity
  8
1
  6
Continuous
 62
     7
370
     9
100
AcDbLine
 10
470.8545997920996
 20
312.5909563409563
 30
0.0
 11
471.6310569274072
 21
315.4887338198236
 31
0.0
  0
LINE
  5
68B
330
1F
100
AcDbEntity
  8
1
  6
Continuous
 62
     7
370
     9
100
AcDbLine
 10
470.0781426567921
 20
315.4887338198236
 30
0.0
 11
471.6310569274072
 21
315.4887338198236
 31
0.0
  0
LINE
  5
68C
330
1F
100
AcDbEntity
  8
1
  6
Continuous
 62
     7
370
     9
100
AcDbLine
 10
470.8545997920996
 20
313.3154007106731
 30
0.0
 11
470.4663712244459
 21
314.7642894501067
 31
0.0
  0
LINE
  5
68D
330
1F
100
AcDbEntity
  8
1
  6
Continuous
 62
     7
370
     9
100
AcDbLine
 10
470.8545997920996
 20
313.3154007106731
 30
0.0
 11
471.2428283597534
 21
314.7642894501067
 31
0.0
  0
LINE
  5
68E
330
1F
100
AcDbEntity
  8
1
  6
Continuous
 62
     7
370
     9
100
AcDbLine
 10
470.4663712244459
 20
314.7642894501067
 30
0.0
 11
471.2428283597534
 21
314.7642894501067
 31
0.0
  0
POLYLINE
  5
68F
330
1F
100
AcDbEntity
  8
1
  6
Continuous
 62
     7
370
     9
100
AcDb2dPolyline
 66
     1
 10
0.0
 20
0.0
 30
0.0
  0
VERTEX
  5
691
330
68F
100
AcDbEntity
  8
1
  6
Continuous
 62
     7
370
     9
100
AcDbVertex
100
AcDb2dVertex
 10
470.8545997920996
 20
312.5909563409563
 30
0.0
  0
VERTEX
  5
692
330
68F
100
AcDbEntity
  8
1
  6
Continuous
 62
     7
370
     9
100
AcDbVertex
100
AcDb2dVertex
 10
470.8545997920996
 20
315.7736121519632
 30
0.0
  0
SEQEND
  5
690
330
68F
100
AcDbEntity
  8
1
  6
Continuous
370
     9
  0
LINE
  5
693
330
1F
100
AcDbEntity
  8
1
  6
Continuous
 62
     7
370
     9
100
AcDbLine
 10
470.8545997920996
 20
353.0909563409563
 30
0.0
 11
471.6310569274072
 21
350.1931788620891
 31
0.0
  0
LINE
  5
694
330
1F
100
AcDbEntity
  8
1
  6
Continuous
 62
     7
370
     9
100
AcDbLine
 10
470.8545997920996
 20
353.0909563409563
 30
0.0
 11
470.0781426567921
 21
350.1931788620891
 31
0.0
  0
LINE
  5
695
330
1F
100
AcDbEntity
  8
1
  6
Continuous
 62
     7
370
     9
100
AcDbLine
 10
471.6310569274072
 20
350.1931788620891
 30
0.0
 11
470.0781426567921
 21
350.1931788620891
 31
0.0
  0
LINE
  5
696
330
1F
100
AcDbEntity
  8
1
  6
Continuous
 62
     7
370
     9
100
AcDbLine
 10
470.8545997920996
 20
352.3665119712395
 30
0.0
 11
471.2428283597534
 21
350.9176232318059
 31
0.0
  0
LINE
  5
697
330
1F
100
AcDbEntity
  8
1
  6
Continuous
 62
     7
370
     9
100
AcDbLine
 10
470.8545997920996
 20
352.3665119712395
 30
0.0
 11
470.4663712244459
 21
350.9176232318059
 31
0.0
  0
LINE
  5
698
330
1F
100
AcDbEntity
  8
1
  6
Continuous
 62
     7
370
     9
100
AcDbLine
 10
471.2428283597534
 20
350.9176232318059
 30
0.0
 11
470.4663712244459
 21
350.9176232318059
 31
0.0
  0
POLYLINE
  5
699
330
1F
100
AcDbEntity
  8
1
  6
Continuous
 62
     7
370
     9
100
AcDb2dPolyline
 66
     1
 10
0.0
 20
0.0
 30
0.0
  0
VERTEX
  5
69B
330
699
100
AcDbEntity
  8
1
  6
Continuous
 62
     7
370
     9
100
AcDbVertex
100
AcDb2dVertex
 10
470.8545997920996
 20
353.0909563409563
 30
0.0
  0
VERTEX
  5
69C
330
699
100
AcDbEntity
  8
1
  6
Continuous
 62
     7
370
     9
100
AcDbVertex
100
AcDb2dVertex
 10
470.8545997920996
 20
349.8112940646452
 30
0.0
  0
SEQEND
  5
69A
330
699
100
AcDbEntity
  8
1
  6
Continuous
370
     9
  0
LINE
  5
69D
330
1F
100
AcDbEntity
  8
1
  6
Continuous
 62
     7
370
     9
100
AcDbLine
 10
470.8545997920996
 20
353.0909563409563
 30
0.0
 11
470.8545997920996
 21
338.7844413638823
 31
0.0
  0
LINE
  5
69E
330
1F
100
AcDbEntity
  8
1
  6
Continuous
 62
     7
370
     9
100
AcDbLine
 10
470.8545997920996
 20
327.0616189087231
 30
0.0
 11
470.8545997920996
 21
312.5909563409563
 31
0.0
  0
TEXT
  5
69F
330
1F
100
AcDbEntity
  8
1
  6
Continuous
 62
     7
370
     9
100
AcDbText
 10
465.1906443292302
 20
328.4002157921567
 30
0.0
 40
10.5
  1
81
 41
0.5
100
AcDbText
  0
TEXT
  5
6A0
330
1F
100
AcDbEntity
  8
1
  6
Continuous
 62
     7
370
     9
100
AcDbText
 10
401.720306537808
 20
319.7251967256229
 30
0.0
 40
7.5
  1
M8-2
 41
0.5
100
AcDbText
  0
TEXT
  5
6A1
330
1F
100
AcDbEntity
  8
1
  6
Continuous
 62
     7
370
     9
100
AcDbText
 10
435.7579884504902
 20
319.493647869074
 30
0.0
 40
7.5
  1
20φ
 41
0.6666666666666666
100
AcDbText
  0
TEXT
  5
6A2
330
1F
100
AcDbEntity
  8
1
  6
Continuous
 62
     7
370
     9
100
AcDbText
 10
450.5771152696171
 20
322.9618131497393
 30
0.0
 40
6.0
  1
+0.1
 41
0.5
100
AcDbText
  0
TEXT
  5
6A3
330
1F
100
AcDbEntity
  8
1
  6
Continuous
 62
     7
370
     9
100
AcDbText
 10
450.5192280554799
 20
317.230978950155
 30
0.0
 40
6.0
  1
-0
 41
0.5
100
AcDbText
  0
LINE
  5
6A4
330
1F
100
AcDbEntity
  8
1
  6
Continuous
 62
     7
370
     9
100
AcDbLine
 10
405.847258316015
 20
318.2627623598663
 30
0.0
 11
412.4464007276574
 21
312.5909563409563
 31
0.0
  0
LINE
  5
6A5
330
1F
100
AcDbEntity
  8
1
  6
Continuous
 62
     7
370
     9
100
AcDbLine
 10
430.391437110194
 20
312.5909563409563
 30
0.0
 11
444.6316917879488
 21
312.5909563409563
 31
0.0
  0
LINE
  5
6A6
330
1F
100
AcDbEntity
  8
1
  6
Continuous
 62
     7
370
     9
100
AcDbLine
 10
437.6273388773388
 20
319.0731833577873
 30
0.0
 11
437.6273388773388
 21
306.8010939606978
 31
0.0
  0
INSERT
  5
6AB
330
1F
100
AcDbEntity
  8
0
100
AcDbBlockReference
  2
*G39
 10
0.0
 20
0.0
 30
0.0
  0
DIMENSION
  5
6BF
330
1F
100
AcDbEntity
  8
1
  6
Continuous
 62
     7
370
     9
100
AcDbDimension
  2
Dim19
 10
437.6273388773388
 20
284.6158191426078
 30
0.0
 11
450.1273388773387
 21
289.8658191426078
 31
0.0
 70
   160
  1
50
 71
     5
 42
-1.0
 73
     0
 74
     0
 75
     0
  3
Standard
100
AcDbAlignedDimension
 13
437.627338877339
 23
312.5909563409563
 33
0.0
 14
462.627338877339
 24
312.5909563409564
 34
0.0
100
AcDbRotatedDimension
1001
ACAD
1000
DSTYLE
1002
{
1070
   344
1005
0
1070
   343
1005
0
1070
   173
1070
     1
1070
   289
1070
     2
1070
   279
1070
     2
1070
   288
1070
     1
1070
    77
1070
     3
1070
   172
1070
     1
1070
   174
1070
     0
1070
    74
1070
     0
1070
    73
1070
     0
1070
   284
1070
     8
1070
    78
1070
     8
1070
   140
1040
4.0
1070
    40
1040
3.0
1070
    42
1040
2.0
1070
    44
1040
0.0
1070
    43
1040
10.0
1070
   271
1070
     2
1070
    41
1040
4.0
1002
}
  0
DIMENSION
  5
6D3
330
1F
100
AcDbEntity
  8
1
  6
Continuous
 62
     7
370
     9
100
AcDbDimension
  2
Dim20
 10
412.6273388773388
 20
284.6158191426078
 30
0.0
 11
425.1273388773388
 21
289.8658191426078
 31
0.0
 70
   160
  1
50
 71
     5
 42
-1.0
 73
     0
 74
     0
 75
     0
  3
Standard
100
AcDbAlignedDimension
 13
412.6273388773391
 23
312.5909563409563
 33
0.0
 14
437.6273388773391
 24
312.5909563409563
 34
0.0
100
AcDbRotatedDimension
1001
ACAD
1000
DSTYLE
1002
{
1070
   344
1005
0
1070
   343
1005
0
1070
   173
1070
     1
1070
   289
1070
     2
1070
   279
1070
     2
1070
   288
1070
     1
1070
    77
1070
     3
1070
   172
1070
     1
1070
   174
1070
     0
1070
    74
1070
     0
1070
    73
1070
     0
1070
   284
1070
     8
1070
    78
1070
     8
1070
   140
1040
4.0
1070
    40
1040
3.0
1070
    42
1040
2.0
1070
    44
1040
0.0
1070
    43
1040
10.0
1070
   271
1070
     2
1070
    41
1040
4.0
1002
}
  0
VIEWPORT
  5
3B
330
1B
100
AcDbEntity
 67
     1
  8
0
100
AcDbViewport
 10
445.5
 20
315.0
 30
0.0
 40
891.0
 41
630.0
 68
     1
 69
     1
 12
445.5
 22
315.0
 13
0.0
 23
0.0
 14
0.5
 24
0.5
 15
0.5
 25
0.5
 16
0.0
 26
0.0
 36
1.0
 17
0.0
 27
0.0
 37
0.0
 42
50.0
 43
0.0
 44
0.0
 45
9.0
 50
0.0
 51
0.0
 72
   100
 90
   557152
  1

281
     0
 71
     1
 74
     0
110
0.0
120
0.0
130
0.0
111
1.0
121
0.0
131
0.0
112
0.0
122
1.0
132
0.0
 79
     0
146
0.0
170
     0
 61
     5
292
     1
282
     1
141
0.0
142
0.0
 63
   256
  0
ENDSEC
  0
SECTION
  2
OBJECTS
  0
DICTIONARY
  5
C
330
0
100
AcDbDictionary
281
     1
  3
ACAD_GROUP
350
D
  3
ACAD_LAYOUT
350
1A
  3
ACAD_MLINESTYLE
350
17
  3
ACAD_PLOTSETTINGS
350
19
  3
ACAD_PLOTSTYLENAME
350
E
  3
ACAD_TABLESTYLE
350
6D4
  3
ACAD_VISUALSTYLE
350
2A
  0
DICTIONARY
  5
D
102
{ACAD_REACTORS
330
C
102
}
330
C
100
AcDbDictionary
281
     1
  0
DICTIONARY
  5
1A
102
{ACAD_REACTORS
330
C
102
}
330
C
100
AcDbDictionary
281
     1
  3
Layout1
350
1E
  3
Layout2
350
26
  3
Model
350
22
  0
DICTIONARY
  5
17
102
{ACAD_REACTORS
330
C
102
}
330
C
100
AcDbDictionary
281
     1
  3
Standard
350
18
  0
DICTIONARY
  5
19
102
{ACAD_REACTORS
330
C
102
}
330
C
100
AcDbDictionary
281
     1
  0
ACDBDICTIONARYWDFLT
  5
E
102
{ACAD_REACTORS
330
C
102
}
330
C
100
AcDbDictionary
281
     1
  3
Normal
350
F
100
AcDbDictionaryWithDefault
340
F
  0
DICTIONARY
  5
6D4
102
{ACAD_REACTORS
330
C
102
}
330
C
100
AcDbDictionary
281
     1
  0
DICTIONARY
  5
2A
102
{ACAD_REACTORS
330
C
102
}
330
C
100
AcDbDictionary
281
     1
  3
2dWireframe
350
2F
  3
3D Hidden
350
31
  3
3dWireframe
350
30
  3
Basic
350
32
  3
Brighten
350
36
  3
ColorChange
350
3A
  3
Conceptual
350
34
  3
Dim
350
35
  3
Facepattern
350
39
  3
Flat
350
2B
  3
FlatWithEdges
350
2C
  3
Gouraud
350
2D
  3
GouraudWithEdges
350
2E
  3
Linepattern
350
38
  3
Realistic
350
33
  3
Thicken
350
37
  0
LAYOUT
  5
1E
102
{ACAD_REACTORS
330
1A
102
}
330
1A
100
AcDbPlotSettings
  1

  2
none_device
  4

  6

 40
0.0
 41
0.0
 42
0.0
 43
0.0
 44
0.0
 45
0.0
 46
0.0
 47
0.0
 48
0.0
 49
0.0
140
0.0
141
0.0
142
1.0
143
1.0
 70
   688
 72
     0
 73
     0
 74
     5
  7

 75
    16
 76
     0
 77
     2
 78
   300
147
1.0
148
0.0
149
0.0
100
AcDbLayout
  1
Layout1
 70
     1
 71
     1
 10
0.0
 20
0.0
 11
297.0
 21
210.0
 12
0.0
 22
0.0
 32
0.0
 14
0.0
 24
0.0
 34
0.0
 15
297.0
 25
210.0
 35
0.0
146
0.0
 13
0.0
 23
0.0
 33
0.0
 16
1.0
 26
0.0
 36
0.0
 17
0.0
 27
1.0
 37
0.0
 76
     0
330
1B
331
3B
  0
LAYOUT
  5
26
102
{ACAD_REACTORS
330
1A
102
}
330
1A
100
AcDbPlotSettings
  1

  2
none_device
  4

  6

 40
0.0
 41
0.0
 42
0.0
 43
0.0
 44
0.0
 45
0.0
 46
0.0
 47
0.0
 48
0.0
 49
0.0
140
0.0
141
0.0
142
1.0
143
1.0
 70
   688
 72
     0
 73
     0
 74
     5
  7

 75
    16
 76
     0
 77
     2
 78
   300
147
1.0
148
0.0
149
0.0
100
AcDbLayout
  1
Layout2
 70
     1
 71
     2
 10
0.0
 20
0.0
 11
0.0
 21
0.0
 12
0.0
 22
0.0
 32
0.0
 14
0.0
 24
0.0
 34
0.0
 15
0.0
 25
0.0
 35
0.0
146
0.0
 13
0.0
 23
0.0
 33
0.0
 16
1.0
 26
0.0
 36
0.0
 17
0.0
 27
1.0
 37
0.0
 76
     0
330
23
  0
LAYOUT
  5
22
102
{ACAD_REACTORS
330
1A
102
}
330
1A
100
AcDbPlotSettings
  1

  2
none_device
  4

  6

 40
0.0
 41
0.0
 42
0.0
 43
0.0
 44
0.0
 45
0.0
 46
0.0
 47
0.0
 48
0.0
 49
0.0
140
0.0
141
0.0
142
1.0
143
1.0
 70
  1712
 72
     0
 73
     0
 74
     0
  7

 75
     0
 76
     0
 77
     2
 78
   300
147
1.0
148
0.0
149
0.0
100
AcDbLayout
  1
Model
 70
     1
 71
     0
 10
0.0
 20
0.0
 11
891.0
 21
630.0
 12
0.0
 22
0.0
 32
0.0
 14
0.0
 24
0.0
 34
0.0
 15
891.0
 25
630.0
 35
0.0
146
0.0
 13
0.0
 23
0.0
 33
0.0
 16
1.0
 26
0.0
 36
0.0
 17
0.0
 27
1.0
 37
0.0
 76
     0
330
1F
331
29
  0
MLINESTYLE
  5
18
102
{ACAD_REACTORS
330
17
102
}
330
17
100
AcDbMlineStyle
  2
Standard
 70
     0
  3

 62
   256
 51
90.0
 52
90.0
 71
     2
 49
0.5
 62
   256
  6
BYLAYER
 49
-0.5
 62
   256
  6
BYLAYER
  0
ACDBPLACEHOLDER
  5
F
102
{ACAD_REACTORS
330
E
102
}
330
E
  0
VISUALSTYLE
  5
2F
102
{ACAD_REACTORS
330
2A
102
}
330
2A
100
AcDbVisualStyle
  2
2dWireframe
 70
     4
 71
     0
 72
     2
 73
     0
 90
        0
 40
-0.6
 41
-30.0
 62
     5
 63
     7
421
 16777215
 74
     1
 91
        4
 64
     7
 65
   257
 75
     1
175
     1
 42
1.0
 92
        0
 66
   257
 43
1.0
 76
     1
 77
     6
 78
     2
 67
     7
 79
     5
170
     0
171
     0
290
     0
174
     0
 93
        1
 44
0.0
173
     0
291
     0
 45
0.0
  0
VISUALSTYLE
  5
31
102
{ACAD_REACTORS
330
2A
102
}
330
2A
100
AcDbVisualStyle
  2
3D Hidden
 70
     6
 71
     1
 72
     2
 73
     2
 90
        0
 40
-0.6
 41
-30.0
 62
     5
 63
     7
421
 16777215
 74
     2
 91
        2
 64
     7
 65
   257
 75
     2
175
     1
 42
40.0
 92
        0
 66
   257
 43
1.0
 76
     1
 77
     6
 78
     2
 67
     7
 79
     3
170
     0
171
     0
290
     0
174
     0
 93
        1
 44
0.0
173
     0
291
     0
 45
0.0
  0
VISUALSTYLE
  5
30
102
{ACAD_REACTORS
330
2A
102
}
330
2A
100
AcDbVisualStyle
  2
3dWireframe
 70
     5
 71
     0
 72
     2
 73
     0
 90
        0
 40
-0.6
 41
-30.0
 62
     5
 63
     7
421
 16777215
 74
     1
 91
        4
 64
     7
 65
   257
 75
     1
175
     1
 42
1.0
 92
        0
 66
   257
 43
1.0
 76
     1
 77
     6
 78
     2
 67
     7
 79
     5
170
     0
171
     0
290
     0
174
     0
 93
        1
 44
0.0
173
     0
291
     0
 45
0.0
  0
VISUALSTYLE
  5
32
102
{ACAD_REACTORS
330
2A
102
}
330
2A
100
AcDbVisualStyle
  2
Basic
 70
     7
 71
     1
 72
     0
 73
     1
 90
        0
 40
-0.6
 41
-30.0
 62
     5
 63
     7
421
 16777215
 74
     0
 91
        4
 64
     7
 65
   257
 75
     1
175
     1
 42
1.0
 92
        8
 66
     7
 43
1.0
 76
     1
 77
     6
 78
     2
 67
     7
 79
     5
170
     0
171
     0
290
     0
174
     0
 93
        1
 44
0.0
173
     0
291
     1
 45
0.0
  0
VISUALSTYLE
  5
36
102
{ACAD_REACTORS
330
2A
102
}
330
2A
100
AcDbVisualStyle
  2
Brighten
 70
    12
 71
     2
 72
     2
 73
     0
 90
        0
 40
-0.6
 41
-30.0
 62
     5
 63
     7
421
 16777215
 74
     1
 91
        4
 64
     7
 65
   257
 75
     1
175
     1
 42
1.0
 92
        8
 66
     7
 43
1.0
 76
     1
 77
     6
 78
     2
 67
     7
 79
     5
170
     0
171
     0
290
     0
174
     0
 93
        1
 44
50.0
173
     0
291
     1
 45
0.0
  0
VISUALSTYLE
  5
3A
102
{ACAD_REACTORS
330
2A
102
}
330
2A
100
AcDbVisualStyle
  2
ColorChange
 70
    16
 71
     2
 72
     2
 73
     3
 90
        0
 40
-0.6
 41
-30.0
 62
     5
 63
     8
421
  8421504
 74
     1
 91
        4
 64
     7
 65
   257
 75
     1
175
     1
 42
1.0
 92
        8
 66
     8
424
  8421504
 43
1.0
 76
     1
 77
     6
 78
     2
 67
     7
 79
     5
170
     0
171
     0
290
     0
174
     0
 93
        1
 44
0.0
173
     0
291
     1
 45
0.0
  0
VISUALSTYLE
  5
34
102
{ACAD_REACTORS
330
2A
102
}
330
2A
100
AcDbVisualStyle
  2
Conceptual
 70
     9
 71
     3
 72
     2
 73
     0
 90
        0
 40
-0.6
 41
-30.0
 62
     5
 63
     7
421
 16777215
 74
     2
 91
        2
 64
     7
 65
   257
 75
     1
175
     1
 42
40.0
 92
        8
 66
     7
 43
1.0
 76
     1
 77
     6
 78
     2
 67
     7
 79
     3
170
     0
171
     0
290
     0
174
     0
 93
        1
 44
0.0
173
     0
291
     0
 45
0.0
  0
VISUALSTYLE
  5
35
102
{ACAD_REACTORS
330
2A
102
}
330
2A
100
AcDbVisualStyle
  2
Dim
 70
    11
 71
     2
 72
     2
 73
     0
 90
        0
 40
-0.6
 41
-30.0
 62
     5
 63
     7
421
 16777215
 74
     1
 91
        4
 64
     7
 65
   257
 75
     1
175
     1
 42
1.0
 92
        8
 66
     7
 43
1.0
 76
     1
 77
     6
 78
     2
 67
     7
 79
     5
170
     0
171
     0
290
     0
174
     0
 93
        1
 44
-50.0
173
     0
291
     1
 45
0.0
  0
VISUALSTYLE
  5
39
102
{ACAD_REACTORS
330
2A
102
}
330
2A
100
AcDbVisualStyle
  2
Facepattern
 70
    15
 71
     2
 72
     2
 73
     0
 90
        0
 40
-0.6
 41
-30.0
 62
     5
 63
     7
421
 16777215
 74
     1
 91
        4
 64
     7
 65
   257
 75
     1
175
     1
 42
1.0
 92
        8
 66
     7
 43
1.0
 76
     1
 77
     6
 78
     2
 67
     7
 79
     5
170
     0
171
     0
290
     0
174
     0
 93
        1
 44
0.0
173
     0
291
     1
 45
0.0
  0
VISUALSTYLE
  5
2B
102
{ACAD_REACTORS
330
2A
102
}
330
2A
100
AcDbVisualStyle
  2
Flat
 70
     0
 71
     2
 72
     1
 73
     1
 90
        2
 40
-0.6
 41
30.0
 62
     5
 63
     7
421
 16777215
 74
     0
 91
        4
 64
     7
 65
   257
 75
     1
175
     1
 42
1.0
 92
        8
 66
     7
 43
1.0
 76
     1
 77
     6
 78
     2
 67
     7
 79
     5
170
     0
171
     0
290
     0
174
     0
 93
       13
 44
0.0
173
     0
291
     1
 45
0.0
  0
VISUALSTYLE
  5
2C
102
{ACAD_REACTORS
330
2A
102
}
330
2A
100
AcDbVisualStyle
  2
FlatWithEdges
 70
     1
 71
     2
 72
     1
 73
     1
 90
        2
 40
-0.6
 41
30.0
 62
     5
 63
     7
421
 16777215
 74
     1
 91
        4
 64
     7
 65
   257
 75
     1
175
     1
 42
1.0
 92
        0
 66
   257
 43
1.0
 76
     1
 77
     6
 78
     2
 67
     7
 79
     5
170
     0
171
     0
290
     0
174
     0
 93
       13
 44
0.0
173
     0
291
     1
 45
0.0
  0
VISUALSTYLE
  5
2D
102
{ACAD_REACTORS
330
2A
102
}
330
2A
100
AcDbVisualStyle
  2
Gouraud
 70
     2
 71
     2
 72
     2
 73
     1
 90
        2
 40
-0.6
 41
30.0
 62
     5
 63
     7
421
 16777215
 74
     0
 91
        4
 64
     7
 65
   257
 75
     1
175
     1
 42
1.0
 92
        0
 66
     7
 43
1.0
 76
     1
 77
     6
 78
     2
 67
     7
 79
     5
170
     0
171
     0
290
     0
174
     0
 93
       13
 44
0.0
173
     0
291
     1
 45
0.0
  0
VISUALSTYLE
  5
2E
102
{ACAD_REACTORS
330
2A
102
}
330
2A
100
AcDbVisualStyle
  2
GouraudWithEdges
 70
     3
 71
     2
 72
     2
 73
     1
 90
        2
 40
-0.6
 41
30.0
 62
     5
 63
     7
421
 16777215
 74
     1
 91
        4
 64
     7
 65
   257
 75
     1
175
     1
 42
1.0
 92
        0
 66
   257
 43
1.0
 76
     1
 77
     6
 78
     2
 67
     7
 79
     5
170
     0
171
     0
290
     0
174
     0
 93
       13
 44
0.0
173
     0
291
     1
 45
0.0
  0
VISUALSTYLE
  5
38
102
{ACAD_REACTORS
330
2A
102
}
330
2A
100
AcDbVisualStyle
  2
Linepattern
 70
    14
 71
     2
 72
     2
 73
     0
 90
        0
 40
-0.6
 41
-30.0
 62
     5
 63
     7
421
 16777215
 74
     1
 91
        4
 64
     7
 65
   257
 75
     7
175
     7
 42
1.0
 92
        8
 66
     7
 43
1.0
 76
     1
 77
     6
 78
     2
 67
     7
 79
     5
170
     0
171
     0
290
     0
174
     0
 93
        1
 44
0.0
173
     0
291
     1
 45
0.0
  0
VISUALSTYLE
  5
33
102
{ACAD_REACTORS
330
2A
102
}
330
2A
100
AcDbVisualStyle
  2
Realistic
 70
     8
 71
     2
 72
     2
 73
     0
 90
        0
 40
-0.6
 41
-30.0
 62
     5
 63
     7
421
 16777215
 74
     1
 91
        0
 64
     7
 65
   257
 75
     1
175
     1
 42
1.0
 92
        8
 66
     8
424
  7895160
 43
1.0
 76
     1
 77
     6
 78
     2
 67
     7
 79
     5
170
     0
171
     0
290
     0
174
     0
 93
       13
 44
0.0
173
     0
291
     0
 45
0.0
  0
VISUALSTYLE
  5
37
102
{ACAD_REACTORS
330
2A
102
}
330
2A
100
AcDbVisualStyle
  2
Thicken
 70
    13
 71
     2
 72
     2
 73
     0
 90
        0
 40
-0.6
 41
-30.0
 62
     5
 63
     7
421
 16777215
 74
     1
 91
        4
 64
     7
 65
   257
 75
     1
175
     1
 42
1.0
 92
       12
 66
     7
 43
1.0
 76
     1
 77
     6
 78
     2
 67
     7
 79
     5
170
     0
171
     0
290
     0
174
     0
 93
        1
 44
0.0
173
     0
291
     1
 45
0.0
  0
ENDSEC
  0
EOF
