  0
SECTION
  2
HEADER
  9
$ACADVER
  1
AC1021
  9
$ACADMAINTVER
 70
     1
  9
$DWGCODEPAGE
  3
ANSI_932
  9
$INSBASE
 10
0.0
 20
0.0
 30
0.0
  9
$EXTMIN
 10
0.0
 20
0.0
 30
0.0
  9
$EXTMAX
 10
891.0
 20
630.0
 30
0.0
  9
$LIMMIN
 10
0.0
 20
0.0
  9
$LIMMAX
 10
891.0
 20
630.0
  9
$ORTHOMODE
 70
     0
  9
$REGENMODE
 70
     1
  9
$FILLMODE
 70
     1
  9
$QTEXTMODE
 70
     0
  9
$MIRRTEXT
 70
     1
  9
$LTSCALE
 40
0.75
  9
$ATTMODE
 70
     1
  9
$TEXTSIZE
 40
15.0
  9
$TRACEWID
 40
0.05
  9
$TEXTSTYLE
  7
Standard
  9
$CLAYER
  8
0
  9
$CELTYPE
  6
ByLayer
  9
$CECOLOR
 62
   256
  9
$CELTSCALE
 40
1.0
  9
$DISPSILH
 70
     0
  9
$DIMSCALE
 40
3.0
  9
$DIMASZ
 40
4.0
  9
$DIMEXO
 40
2.0
  9
$DIMDLI
 40
10.0
  9
$DIMRND
 40
0.0
  9
$DIMDLE
 40
0.0
  9
$DIMEXE
 40
2.0
  9
$DIMTP
 40
0.0
  9
$DIMTM
 40
0.0
  9
$DIMTXT
 40
4.0
  9
$DIMCEN
 40
0.09
  9
$DIMTSZ
 40
0.0
  9
$DIMTOL
 70
     0
  9
$DIMLIM
 70
     0
  9
$DIMTIH
 70
     0
  9
$DIMTOH
 70
     0
  9
$DIMSE1
 70
     0
  9
$DIMSE2
 70
     0
  9
$DIMTAD
 70
     3
  9
$DIMZIN
 70
     8
  9
$DIMBLK
  1

  9
$DIMASO
 70
     1
  9
$DIMSHO
 70
     1
  9
$DIMPOST
  1

  9
$DIMAPOST
  1

  9
$DIMALT
 70
     0
  9
$DIMALTD
 70
     2
  9
$DIMALTF
 40
25.4
  9
$DIMLFAC
 40
1.0
  9
$DIMTOFL
 70
     1
  9
$DIMTVP
 40
0.7
  9
$DIMTIX
 70
     0
  9
$DIMSOXD
 70
     0
  9
$DIMSAH
 70
     0
  9
$DIMBLK1
  1

  9
$DIMBLK2
  1

  9
$DIMSTYLE
  2
Standard
  9
$DIMCLRD
 70
     0
  9
$DIMCLRE
 70
     0
  9
$DIMCLRT
 70
     0
  9
$DIMTFAC
 40
0.5
  9
$DIMGAP
 40
0.09
  9
$DIMJUST
 70
     0
  9
$DIMSD1
 70
     0
  9
$DIMSD2
 70
     0
  9
$DIMTOLJ
 70
     1
  9
$DIMTZIN
 70
     8
  9
$DIMALTZ
 70
     0
  9
$DIMALTTZ
 70
     0
  9
$DIMUPT
 70
     1
  9
$DIMDEC
 70
     2
  9
$DIMTDEC
 70
     4
  9
$DIMALTU
 70
     2
  9
$DIMALTTD
 70
     2
  9
$DIMTXSTY
  7
Standard
  9
$DIMAUNIT
 70
     0
  9
$DIMADEC
 70
     0
  9
$DIMALTRND
 40
0.0
  9
$DIMAZIN
 70
     0
  9
$DIMDSEP
 70
    46
  9
$DIMATFIT
 70
     2
  9
$DIMFRAC
 70
     0
  9
$DIMLDRBLK
  1

  9
$DIMLUNIT
 70
     2
  9
$DIMLWD
 70
    -2
  9
$DIMLWE
 70
    -2
  9
$DIMTMOVE
 70
     2
  9
$DIMFXL
 40
1.0
  9
$DIMFXLON
 70
     0
  9
$DIMJOGANG
 40
0.7853981633974483
  9
$DIMTFILL
 70
     0
  9
$DIMTFILLCLR
 70
     0
  9
$DIMARCSYM
 70
     0
  9
$DIMLTYPE
  6

  9
$DIMLTEX1
  6

  9
$DIMLTEX2
  6

  9
$LUNITS
 70
     2
  9
$LUPREC
 70
     4
  9
$SKETCHINC
 40
0.1
  9
$FILLETRAD
 40
0.5
  9
$AUNITS
 70
     0
  9
$AUPREC
 70
     0
  9
$MENU
  1
.
  9
$ELEVATION
 40
0.0
  9
$PELEVATION
 40
0.0
  9
$THICKNESS
 40
0.0
  9
$LIMCHECK
 70
     0
  9
$CHAMFERA
 40
0.5
  9
$CHAMFERB
 40
0.5
  9
$CHAMFERC
 40
1.0
  9
$CHAMFERD
 40
0.0
  9
$SKPOLY
 70
     0
  9
$TDCREATE
 40
2454850.074513889
  9
$TDUCREATE
 40
2454849.699513889
  9
$TDUPDATE
 40
2454850.074513889
  9
$TDUUPDATE
 40
2454849.699513889
  9
$TDINDWG
 40
0.0000000116
  9
$TDUSRTIMER
 40
0.0000000116
  9
$USRTIMER
 70
     1
  9
$ANGBASE
 50
0.0
  9
$ANGDIR
 70
     0
  9
$PDMODE
 70
     0
  9
$PDSIZE
 40
0.0
  9
$PLINEWID
 40
0.0
  9
$SPLFRAME
 70
     0
  9
$SPLINETYPE
 70
     6
  9
$SPLINESEGS
 70
     8
  9
$HANDSEED
  5
4E5
  9
$SURFTAB1
 70
     6
  9
$SURFTAB2
 70
     6
  9
$SURFTYPE
 70
     6
  9
$SURFU
 70
     6
  9
$SURFV
 70
     6
  9
$UCSBASE
  2

  9
$UCSNAME
  2

  9
$UCSORG
 10
0.0
 20
0.0
 30
0.0
  9
$UCSXDIR
 10
1.0
 20
0.0
 30
0.0
  9
$UCSYDIR
 10
0.0
 20
1.0
 30
0.0
  9
$UCSORTHOREF
  2

  9
$UCSORTHOVIEW
 70
     0
  9
$UCSORGTOP
 10
0.0
 20
0.0
 30
0.0
  9
$UCSORGBOTTOM
 10
0.0
 20
0.0
 30
0.0
  9
$UCSORGLEFT
 10
0.0
 20
0.0
 30
0.0
  9
$UCSORGRIGHT
 10
0.0
 20
0.0
 30
0.0
  9
$UCSORGFRONT
 10
0.0
 20
0.0
 30
0.0
  9
$UCSORGBACK
 10
0.0
 20
0.0
 30
0.0
  9
$PUCSBASE
  2

  9
$PUCSNAME
  2

  9
$PUCSORG
 10
0.0
 20
0.0
 30
0.0
  9
$PUCSXDIR
 10
1.0
 20
0.0
 30
0.0
  9
$PUCSYDIR
 10
0.0
 20
1.0
 30
0.0
  9
$PUCSORTHOREF
  2

  9
$PUCSORTHOVIEW
 70
     0
  9
$PUCSORGTOP
 10
0.0
 20
0.0
 30
0.0
  9
$PUCSORGBOTTOM
 10
0.0
 20
0.0
 30
0.0
  9
$PUCSORGLEFT
 10
0.0
 20
0.0
 30
0.0
  9
$PUCSORGRIGHT
 10
0.0
 20
0.0
 30
0.0
  9
$PUCSORGFRONT
 10
0.0
 20
0.0
 30
0.0
  9
$PUCSORGBACK
 10
0.0
 20
0.0
 30
0.0
  9
$USERI1
 70
     0
  9
$USERI2
 70
     0
  9
$USERI3
 70
     0
  9
$USERI4
 70
     0
  9
$USERI5
 70
     0
  9
$USERR1
 40
0.0
  9
$USERR2
 40
0.0
  9
$USERR3
 40
0.0
  9
$USERR4
 40
0.0
  9
$USERR5
 40
0.0
  9
$WORLDVIEW
 70
     1
  9
$SHADEDGE
 70
     3
  9
$SHADEDIF
 70
    70
  9
$TILEMODE
 70
     1
  9
$MAXACTVP
 70
    64
  9
$PINSBASE
 10
0.0
 20
0.0
 30
0.0
  9
$PLIMCHECK
 70
     0
  9
$PEXTMIN
 10
0.0
 20
0.0
 30
0.0
  9
$PEXTMAX
 10
297.0
 20
210.0
 30
0.0
  9
$PLIMMIN
 10
0.0
 20
0.0
  9
$PLIMMAX
 10
297.0
 20
210.0
  9
$UNITMODE
 70
     0
  9
$VISRETAIN
 70
     1
  9
$PLINEGEN
 70
     0
  9
$PSLTSCALE
 70
     1
  9
$TREEDEPTH
 70
  3020
  9
$CMLSTYLE
  2
Standard
  9
$CMLJUST
 70
     0
  9
$CMLSCALE
 40
1.0
  9
$PROXYGRAPHICS
 70
     1
  9
$MEASUREMENT
 70
     1
  9
$CELWEIGHT
370
    -1
  9
$ENDCAPS
280
     0
  9
$JOINSTYLE
280
     0
  9
$LWDISPLAY
290
     0
  9
$INSUNITS
 70
     4
  9
$HYPERLINKBASE
  1

  9
$STYLESHEET
  1

  9
$XEDIT
290
     1
  9
$CEPSNTYPE
380
     0
  9
$PSTYLEMODE
290
     1
  9
$FINGERPRINTGUID
  2
{F2073FF5-8AE3-4F4D-BE14-C05A006A0DA0}
  9
$VERSIONGUID
  2
{FAEB1C32-E019-11D5-929B-00C0DF256EC4}
  9
$EXTNAMES
290
     1
  9
$PSVPSCALE
 40
0.0
  9
$OLESTARTUP
290
     0
  9
$SORTENTS
280
   127
  9
$INDEXCTL
280
     0
  9
$HIDETEXT
280
     1
  9
$XCLIPFRAME
290
     0
  9
$HALOGAP
280
     0
  9
$OBSCOLOR
 70
   257
  9
$OBSLTYPE
280
     0
  9
$INTERSECTIONDISPLAY
280
     0
  9
$INTERSECTIONCOLOR
 70
   257
  9
$DIMASSOC
280
     1
  9
$PROJECTNAME
  1

  9
$CAMERADISPLAY
290
     0
  9
$LENSLENGTH
 40
50.0
  9
$CAMERAHEIGHT
 40
0.0
  9
$STEPSPERSEC
 40
2.0
  9
$STEPSIZE
 40
6.0
  9
$3DDWFPREC
 40
2.0
  9
$PSOLWIDTH
 40
0.25
  9
$PSOLHEIGHT
 40
4.0
  9
$LOFTANG1
 40
1.570796326794897
  9
$LOFTANG2
 40
1.570796326794897
  9
$LOFTMAG1
 40
0.0
  9
$LOFTMAG2
 40
0.0
  9
$LOFTPARAM
 70
     7
  9
$LOFTNORMALS
280
     1
  9
$LATITUDE
 40
37.795
  9
$LONGITUDE
 40
-122.394
  9
$NORTHDIRECTION
 40
0.0
  9
$TIMEZONE
 70
 -8000
  9
$LIGHTGLYPHDISPLAY
280
     1
  9
$TILEMODELIGHTSYNCH
280
     1
  9
$SOLIDHIST
280
     1
  9
$SHOWHIST
280
     1
  9
$DWFFRAME
280
     2
  9
$DGNFRAME
280
     2
  9
$REALWORLDSCALE
290
     1
  9
$INTERFERECOLOR
 62
   256
  9
$CSHADOW
280
     0
  9
$SHADOWPLANELOCATION
 40
0.0
  0
ENDSEC
  0
SECTION
  2
CLASSES
  0
CLASS
  1
ACDBDICTIONARYWDFLT
  2
AcDbDictionaryWithDefault
  3
ObjectDBX Classes
 90
        0
 91
        3
280
     0
281
     0
  0
CLASS
  1
VISUALSTYLE
  2
AcDbVisualStyle
  3
ObjectDBX Classes
 90
     4095
 91
        3
280
     0
281
     0
  0
ENDSEC
  0
SECTION
  2
TABLES
  0
TABLE
  2
VPORT
  5
8
330
0
100
AcDbSymbolTable
 70
     1
  0
VPORT
  5
29
330
8
100
AcDbSymbolTableRecord
100
AcDbViewportTableRecord
  2
*Active
 70
     0
 10
0.0
 20
0.0
 11
1.0
 21
1.0
 12
10.42990654205607
 22
4.5
 13
0.0
 23
0.0
 14
0.5
 24
0.5
 15
0.5
 25
0.5
 16
0.0
 26
0.0
 36
1.0
 17
0.0
 27
0.0
 37
0.0
 40
9.0
 41
1.972972972850329
 42
50.0
 43
0.0
 44
0.0
 50
0.0
 51
0.0
 71
     0
 72
   100
 73
     1
 74
     3
 75
     0
 76
     0
 77
     0
 78
     0
281
     0
 65
     1
110
0.0
120
0.0
130
0.0
111
1.0
121
0.0
131
0.0
112
0.0
122
1.0
132
0.0
 79
     0
146
0.0
 60
     3
 61
     5
292
     1
282
     1
141
0.0
142
0.0
 63
   256
  0
ENDTAB
  0
TABLE
  2
LTYPE
  5
5
330
0
100
AcDbSymbolTable
 70
     9
  0
LTYPE
  5
14
330
5
100
AcDbSymbolTableRecord
100
AcDbLinetypeTableRecord
  2
ByBlock
 70
     0
  3

 72
    65
 73
     0
 40
0.0
  0
LTYPE
  5
15
330
5
100
AcDbSymbolTableRecord
100
AcDbLinetypeTableRecord
  2
ByLayer
 70
     0
  3

 72
    65
 73
     0
 40
0.0
  0
LTYPE
  5
16
330
5
100
AcDbSymbolTableRecord
100
AcDbLinetypeTableRecord
  2
Continuous
 70
     0
  3
Solid line
 72
    65
 73
     0
 40
0.0
  0
LTYPE
  5
79
330
5
100
AcDbSymbolTableRecord
100
AcDbLinetypeTableRecord
  2
DOT
 70
     0
  3
DOT
 72
    65
 73
     2
 40
4.0
 49
6.0
 74
     0
 49
-2.0
 74
     0
  0
LTYPE
  5
7A
330
5
100
AcDbSymbolTableRecord
100
AcDbLinetypeTableRecord
  2
HIDDEN
 70
     0
  3
HIDDEN
 72
    65
 73
     2
 40
4.2
 49
8.4
 74
     0
 49
-4.2
 74
     0
  0
LTYPE
  5
7B
330
5
100
AcDbSymbolTableRecord
100
AcDbLinetypeTableRecord
  2
DASHDOT
 70
     0
  3
DASHDOT
 72
    65
 73
     4
 40
14.5
 49
30.0
 74
     0
 49
-9.0
 74
     0
 49
2.5
 74
     0
 49
-9.0
 74
     0
  0
LTYPE
  5
7C
330
5
100
AcDbSymbolTableRecord
100
AcDbLinetypeTableRecord
  2
PHANTOM
 70
     0
  3
PHANTOM
 72
    65
 73
     6
 40
12.0
 49
30.0
 74
     0
 49
-9.0
 74
     0
 49
2.5
 74
     0
 49
-5.0
 74
     0
 49
2.5
 74
     0
 49
-9.0
 74
     0
  0
LTYPE
  5
7D
330
5
100
AcDbSymbolTableRecord
100
AcDbLinetypeTableRecord
  2
ACAD_ISO14W100
 70
     0
  3
ACAD_ISO14W100
 72
    65
 73
     8
 40
1.5
 49
12.0
 74
     0
 49
-3.0
 74
     0
 49
0.5
 74
     0
 49
-3.0
 74
     0
 49
0.5
 74
     0
 49
-3.0
 74
     0
 49
0.5
 74
     0
 49
-3.0
 74
     0
  0
LTYPE
  5
7E
330
5
100
AcDbSymbolTableRecord
100
AcDbLinetypeTableRecord
  2
ACAD_ISO06W100
 70
     0
  3
ACAD_ISO06W100
 72
    65
 73
     8
 40
13.5
 49
24.0
 74
     0
 49
-3.0
 74
     0
 49
0.5
 74
     0
 49
-3.0
 74
     0
 49
0.5
 74
     0
 49
-3.0
 74
     0
 49
0.5
 74
     0
 49
-3.0
 74
     0
  0
LTYPE
  5
7F
330
5
100
AcDbSymbolTableRecord
100
AcDbLinetypeTableRecord
  2
ACAD_ISO11W100
 70
     0
  3
ACAD_ISO11W100
 72
    65
 73
     6
 40
15.5
 49
12.0
 74
     0
 49
-3.0
 74
     0
 49
12.0
 74
     0
 49
-3.0
 74
     0
 49
0.5
 74
     0
 49
-3.0
 74
     0
  0
LTYPE
  5
80
330
5
100
AcDbSymbolTableRecord
100
AcDbLinetypeTableRecord
  2
ACAD_ISO13W100
 70
     0
  3
ACAD_ISO13W100
 72
    65
 73
     8
 40
13.0
 49
12.0
 74
     0
 49
-3.0
 74
     0
 49
12.0
 74
     0
 49
-3.0
 74
     0
 49
0.5
 74
     0
 49
-3.0
 74
     0
 49
0.5
 74
     0
 49
-3.0
 74
     0
  0
ENDTAB
  0
TABLE
  2
LAYER
  5
2
330
0
100
AcDbSymbolTable
 70
    22
  0
LAYER
  5
10
330
2
100
AcDbSymbolTableRecord
100
AcDbLayerTableRecord
  2
0
 70
     0
 62
     7
  6
Continuous
370
    -3
390
F
347
0
  0
LAYER
  5
81
330
2
100
AcDbSymbolTableRecord
100
AcDbLayerTableRecord
  2
1
 70
     0
 62
     7
  6
Continuous
370
    -3
390
F
347
0
  0
LAYER
  5
82
330
2
100
AcDbSymbolTableRecord
100
AcDbLayerTableRecord
  2
2
 70
     0
 62
   134
  6
Continuous
370
    -3
390
F
347
0
  0
LAYER
  5
83
330
2
100
AcDbSymbolTableRecord
100
AcDbLayerTableRecord
  2
3
 70
     0
 62
   214
  6
Continuous
370
    -3
390
F
347
0
  0
LAYER
  5
84
330
2
100
AcDbSymbolTableRecord
100
AcDbLayerTableRecord
  2
4
 70
     0
 62
    54
  6
Continuous
370
    -3
390
F
347
0
  0
LAYER
  5
85
330
2
100
AcDbSymbolTableRecord
100
AcDbLayerTableRecord
  2
5
 70
     0
 62
    94
  6
Continuous
370
    -3
390
F
347
0
  0
LAYER
  5
86
330
2
100
AcDbSymbolTableRecord
100
AcDbLayerTableRecord
  2
6
 70
     0
 62
    14
  6
Continuous
370
    -3
390
F
347
0
  0
LAYER
  5
87
330
2
100
AcDbSymbolTableRecord
100
AcDbLayerTableRecord
  2
7
 70
     0
 62
     4
  6
Continuous
370
    -3
390
F
347
0
  0
LAYER
  5
88
330
2
100
AcDbSymbolTableRecord
100
AcDbLayerTableRecord
  2
8
 70
     0
 62
     6
  6
Continuous
370
    -3
390
F
347
0
  0
LAYER
  5
89
330
2
100
AcDbSymbolTableRecord
100
AcDbLayerTableRecord
  2
9
 70
     0
 62
     2
  6
Continuous
370
    -3
390
F
347
0
  0
LAYER
  5
8A
330
2
100
AcDbSymbolTableRecord
100
AcDbLayerTableRecord
  2
10
 70
     0
 62
     3
  6
Continuous
370
    -3
390
F
347
0
  0
LAYER
  5
8B
330
2
100
AcDbSymbolTableRecord
100
AcDbLayerTableRecord
  2
11
 70
     0
 62
   251
  6
Continuous
370
    -3
390
F
347
0
  0
LAYER
  5
8C
330
2
100
AcDbSymbolTableRecord
100
AcDbLayerTableRecord
  2
12
 70
     0
 62
   136
  6
Continuous
370
    -3
390
F
347
0
  0
LAYER
  5
8D
330
2
100
AcDbSymbolTableRecord
100
AcDbLayerTableRecord
  2
13
 70
     0
 62
   216
  6
Continuous
370
    -3
390
F
347
0
  0
LAYER
  5
8E
330
2
100
AcDbSymbolTableRecord
100
AcDbLayerTableRecord
  2
14
 70
     0
 62
    56
  6
Continuous
370
    -3
390
F
347
0
  0
LAYER
  5
8F
330
2
100
AcDbSymbolTableRecord
100
AcDbLayerTableRecord
  2
15
 70
     0
 62
    96
  6
Continuous
370
    -3
390
F
347
0
  0
LAYER
  5
90
330
2
100
AcDbSymbolTableRecord
100
AcDbLayerTableRecord
  2
16
 70
     0
 62
    16
  6
Continuous
370
    -3
390
F
347
0
  0
LAYER
  5
91
330
2
100
AcDbSymbolTableRecord
100
AcDbLayerTableRecord
  2
17
 70
     0
 62
   132
  6
Continuous
370
    -3
390
F
347
0
  0
LAYER
  5
92
330
2
100
AcDbSymbolTableRecord
100
AcDbLayerTableRecord
  2
18
 70
     0
 62
   212
  6
Continuous
370
    -3
390
F
347
0
  0
LAYER
  5
93
330
2
100
AcDbSymbolTableRecord
100
AcDbLayerTableRecord
  2
19
 70
     0
 62
    52
  6
Continuous
370
    -3
390
F
347
0
  0
LAYER
  5
94
330
2
100
AcDbSymbolTableRecord
100
AcDbLayerTableRecord
  2
20
 70
     0
 62
   250
  6
Continuous
370
    -3
390
F
347
0
  0
LAYER
  5
95
330
2
100
AcDbSymbolTableRecord
100
AcDbLayerTableRecord
  2
21
 70
     0
 62
     7
  6
Continuous
370
    -3
390
F
347
0
  0
ENDTAB
  0
TABLE
  2
STYLE
  5
3
330
0
100
AcDbSymbolTable
 70
     2
  0
STYLE
  5
11
330
3
100
AcDbSymbolTableRecord
100
AcDbTextStyleTableRecord
  2
Standard
 70
     0
 40
0.0
 41
1.0
 50
0.0
 71
     0
 42
0.2
  3
txt
  4
bigfont
  0
STYLE
  5
3D
330
3
100
AcDbSymbolTableRecord
100
AcDbTextStyleTableRecord
  2
T_STANDARD
 70
     4
 40
10.0
 41
1.0
 50
0.0
 71
     0
 42
10.0
  3
txt
  4
bigfont
  0
ENDTAB
  0
TABLE
  2
VIEW
  5
6
330
0
100
AcDbSymbolTable
 70
     0
  0
ENDTAB
  0
TABLE
  2
UCS
  5
7
330
0
100
AcDbSymbolTable
 70
     0
  0
ENDTAB
  0
TABLE
  2
APPID
  5
9
330
0
100
AcDbSymbolTable
 70
     2
  0
APPID
  5
12
330
9
100
AcDbSymbolTableRecord
100
AcDbRegAppTableRecord
  2
ACAD
 70
     0
  0
APPID
  5
3C
330
9
100
AcDbSymbolTableRecord
100
AcDbRegAppTableRecord
  2
ODA
 70
     0
  0
ENDTAB
  0
TABLE
  2
DIMSTYLE
  5
A
330
0
100
AcDbSymbolTable
 70
     1
100
AcDbDimStyleTable
  0
DIMSTYLE
105
27
102
{ACAD_REACTORS
330
2DF
330
2FF
330
309
330
313
330
332
330
390
330
3CD
330
3DA
330
3E4
330
43F
330
449
330
4E2
102
}
330
A
100
AcDbSymbolTableRecord
100
AcDbDimStyleTableRecord
  2
Standard
 70
     0
340
11
  0
ENDTAB
  0
TABLE
  2
BLOCK_RECORD
  5
1
330
0
100
AcDbSymbolTable
 70
    33
  0
BLOCK_RECORD
  5
1F
330
1
100
AcDbSymbolTableRecord
100
AcDbBlockTableRecord
  2
*Model_Space
340
22
 70
     0
280
     1
281
     0
  0
BLOCK_RECORD
  5
1B
330
1
100
AcDbSymbolTableRecord
100
AcDbBlockTableRecord
  2
*Paper_Space
340
1E
 70
     0
280
     1
281
     0
  0
BLOCK_RECORD
  5
23
330
1
100
AcDbSymbolTableRecord
100
AcDbBlockTableRecord
  2
*Paper_Space0
340
26
 70
     0
280
     1
281
     0
  0
BLOCK_RECORD
  5
3E
330
1
100
AcDbSymbolTableRecord
100
AcDbBlockTableRecord
  2
_ORIGIN
340
0
 70
     0
280
     1
281
     0
  0
BLOCK_RECORD
  5
43
330
1
100
AcDbSymbolTableRecord
100
AcDbBlockTableRecord
  2
_DOTBLANK
340
0
 70
     0
280
     1
281
     0
  0
BLOCK_RECORD
  5
48
330
1
100
AcDbSymbolTableRecord
100
AcDbBlockTableRecord
  2
_DOT
340
0
 70
     0
280
     1
281
     0
  0
BLOCK_RECORD
  5
4D
330
1
100
AcDbSymbolTableRecord
100
AcDbBlockTableRecord
  2
_OPEN
340
0
 70
     0
280
     1
281
     0
  0
BLOCK_RECORD
  5
53
330
1
100
AcDbSymbolTableRecord
100
AcDbBlockTableRecord
  2
_CLOSED
340
0
 70
     0
280
     1
281
     0
  0
BLOCK_RECORD
  5
5A
330
1
100
AcDbSymbolTableRecord
100
AcDbBlockTableRecord
  2
_CLOSEDBLANK
340
0
 70
     0
280
     1
281
     0
  0
BLOCK_RECORD
  5
60
330
1
100
AcDbSymbolTableRecord
100
AcDbBlockTableRecord
  2
_BOXBLANK
340
0
 70
     0
280
     1
281
     0
  0
BLOCK_RECORD
  5
68
330
1
100
AcDbSymbolTableRecord
100
AcDbBlockTableRecord
  2
_BOXFILLED
340
0
 70
     0
280
     1
281
     0
  0
BLOCK_RECORD
  5
6D
330
1
100
AcDbSymbolTableRecord
100
AcDbBlockTableRecord
  2
_INTEGRAL
340
0
 70
     0
280
     1
281
     0
  0
BLOCK_RECORD
  5
72
330
1
100
AcDbSymbolTableRecord
100
AcDbBlockTableRecord
  2
_OBLIQUE
340
0
 70
     0
280
     1
281
     0
  0
BLOCK_RECORD
  5
76
330
1
100
AcDbSymbolTableRecord
100
AcDbBlockTableRecord
  2
_NONE
340
0
 70
     0
280
     1
281
     0
  0
BLOCK_RECORD
  5
10F
330
1
100
AcDbSymbolTableRecord
100
AcDbBlockTableRecord
  2
*G12
340
0
102
{BLKREFS
331
127
102
}
 70
     0
280
     1
281
     0
  0
BLOCK_RECORD
  5
12B
330
1
100
AcDbSymbolTableRecord
100
AcDbBlockTableRecord
  2
*G13
340
0
102
{BLKREFS
331
163
102
}
 70
     0
280
     1
281
     0
  0
BLOCK_RECORD
  5
167
330
1
100
AcDbSymbolTableRecord
100
AcDbBlockTableRecord
  2
*G14
340
0
102
{BLKREFS
331
171
102
}
 70
     0
280
     1
281
     0
  0
BLOCK_RECORD
  5
177
330
1
100
AcDbSymbolTableRecord
100
AcDbBlockTableRecord
  2
*G15
340
0
102
{BLKREFS
331
17D
102
}
 70
     0
280
     1
281
     0
  0
BLOCK_RECORD
  5
187
330
1
100
AcDbSymbolTableRecord
100
AcDbBlockTableRecord
  2
*G16
340
0
102
{BLKREFS
331
18D
102
}
 70
     0
280
     1
281
     0
  0
BLOCK_RECORD
  5
1BD
330
1
100
AcDbSymbolTableRecord
100
AcDbBlockTableRecord
  2
*G17
340
0
102
{BLKREFS
331
1C4
102
}
 70
     0
280
     1
281
     0
  0
BLOCK_RECORD
  5
2BC
330
1
100
AcDbSymbolTableRecord
100
AcDbBlockTableRecord
  2
*G18
340
0
102
{BLKREFS
331
2D4
102
}
 70
     0
280
     1
281
     0
  0
BLOCK_RECORD
  5
2D6
330
1
100
AcDbSymbolTableRecord
100
AcDbBlockTableRecord
  2
Dim1
340
0
 70
     0
280
     1
281
     0
  0
BLOCK_RECORD
  5
2F6
330
1
100
AcDbSymbolTableRecord
100
AcDbBlockTableRecord
  2
Dim2
340
0
 70
     0
280
     1
281
     0
  0
BLOCK_RECORD
  5
300
330
1
100
AcDbSymbolTableRecord
100
AcDbBlockTableRecord
  2
Dim3
340
0
 70
     0
280
     1
281
     0
  0
BLOCK_RECORD
  5
30A
330
1
100
AcDbSymbolTableRecord
100
AcDbBlockTableRecord
  2
Dim4
340
0
 70
     0
280
     1
281
     0
  0
BLOCK_RECORD
  5
329
330
1
100
AcDbSymbolTableRecord
100
AcDbBlockTableRecord
  2
Dim5
340
0
 70
     0
280
     1
281
     0
  0
BLOCK_RECORD
  5
387
330
1
100
AcDbSymbolTableRecord
100
AcDbBlockTableRecord
  2
Dim6
340
0
 70
     0
280
     1
281
     0
  0
BLOCK_RECORD
  5
3C4
330
1
100
AcDbSymbolTableRecord
100
AcDbBlockTableRecord
  2
Dim7
340
0
 70
     0
280
     1
281
     0
  0
BLOCK_RECORD
  5
3D1
330
1
100
AcDbSymbolTableRecord
100
AcDbBlockTableRecord
  2
Dim8
340
0
 70
     0
280
     1
281
     0
  0
BLOCK_RECORD
  5
3DB
330
1
100
AcDbSymbolTableRecord
100
AcDbBlockTableRecord
  2
Dim9
340
0
 70
     0
280
     1
281
     0
  0
BLOCK_RECORD
  5
436
330
1
100
AcDbSymbolTableRecord
100
AcDbBlockTableRecord
  2
Dim10
340
0
 70
     0
280
     1
281
     0
  0
BLOCK_RECORD
  5
440
330
1
100
AcDbSymbolTableRecord
100
AcDbBlockTableRecord
  2
Dim11
340
0
 70
     0
280
     1
281
     0
  0
BLOCK_RECORD
  5
464
330
1
100
AcDbSymbolTableRecord
100
AcDbBlockTableRecord
  2
*G30
340
0
102
{BLKREFS
331
468
102
}
 70
     0
280
     1
281
     0
  0
BLOCK_RECORD
  5
4B3
330
1
100
AcDbSymbolTableRecord
100
AcDbBlockTableRecord
  2
*G31
340
0
102
{BLKREFS
331
4CE
102
}
 70
     0
280
     1
281
     0
  0
BLOCK_RECORD
  5
4CF
330
1
100
AcDbSymbolTableRecord
100
AcDbBlockTableRecord
  2
Dim12
340
0
 70
     0
280
     1
281
     0
  0
ENDTAB
  0
ENDSEC
  0
SECTION
  2
BLOCKS
  0
BLOCK
  5
20
330
1F
100
AcDbEntity
  8
0
100
AcDbBlockBegin
  2
*Model_Space
 70
     0
 71
     0
 10
0.0
 20
0.0
 30
0.0
  3
*Model_Space
  1

  0
ENDBLK
  5
21
330
1F
100
AcDbEntity
  8
0
100
AcDbBlockEnd
  0
BLOCK
  5
1C
330
1B
100
AcDbEntity
 67
     1
  8
0
100
AcDbBlockBegin
  2
*Paper_Space
 70
     0
 71
     0
 10
0.0
 20
0.0
 30
0.0
  3
*Paper_Space
  1

  0
ENDBLK
  5
1D
330
1B
100
AcDbEntity
 67
     1
  8
0
100
AcDbBlockEnd
  0
BLOCK
  5
24
330
23
100
AcDbEntity
  8
0
100
AcDbBlockBegin
  2
*Paper_Space0
 70
     0
 71
     0
 10
0.0
 20
0.0
 30
0.0
  3
*Paper_Space0
  1

  0
ENDBLK
  5
25
330
23
100
AcDbEntity
  8
0
100
AcDbBlockEnd
  0
BLOCK
  5
41
330
3E
100
AcDbEntity
  8
0
100
AcDbBlockBegin
  2
_ORIGIN
 70
     0
 71
     0
 10
0.0
 20
0.0
 30
0.0
  3
_ORIGIN
  1

  0
CIRCLE
  5
3F
330
3E
100
AcDbEntity
  8
0
100
AcDbCircle
 10
0.0
 20
0.0
 30
0.0
 40
0.5
  0
LINE
  5
40
330
3E
100
AcDbEntity
  8
0
100
AcDbLine
 10
0.0
 20
0.0
 30
0.0
 11
-1.0
 21
0.0
 31
0.0
  0
ENDBLK
  5
42
330
3E
100
AcDbEntity
  8
0
100
AcDbBlockEnd
  0
BLOCK
  5
46
330
43
100
AcDbEntity
  8
0
100
AcDbBlockBegin
  2
_DOTBLANK
 70
     0
 71
     0
 10
0.0
 20
0.0
 30
0.0
  3
_DOTBLANK
  1

  0
CIRCLE
  5
44
330
43
100
AcDbEntity
  8
0
100
AcDbCircle
 10
0.0
 20
0.0
 30
0.0
 40
0.5
  0
LINE
  5
45
330
43
100
AcDbEntity
  8
0
100
AcDbLine
 10
-0.5
 20
0.0
 30
0.0
 11
-1.0
 21
0.0
 31
0.0
  0
ENDBLK
  5
47
330
43
100
AcDbEntity
  8
0
100
AcDbBlockEnd
  0
BLOCK
  5
4B
330
48
100
AcDbEntity
  8
0
100
AcDbBlockBegin
  2
_DOT
 70
     0
 71
     0
 10
0.0
 20
0.0
 30
0.0
  3
_DOT
  1

  0
LWPOLYLINE
  5
49
330
48
100
AcDbEntity
  8
0
100
AcDbPolyline
 90
        2
 70
     1
 43
0.5
 10
-0.25
 20
0.0
 42
1.0
 10
0.25
 20
0.0
 42
1.0
  0
LINE
  5
4A
330
48
100
AcDbEntity
  8
0
100
AcDbLine
 10
-0.5
 20
0.0
 30
0.0
 11
-1.0
 21
0.0
 31
0.0
  0
ENDBLK
  5
4C
330
48
100
AcDbEntity
  8
0
100
AcDbBlockEnd
  0
BLOCK
  5
51
330
4D
100
AcDbEntity
  8
0
100
AcDbBlockBegin
  2
_OPEN
 70
     0
 71
     0
 10
0.0
 20
0.0
 30
0.0
  3
_OPEN
  1

  0
LINE
  5
4E
330
4D
100
AcDbEntity
  8
0
100
AcDbLine
 10
-1.0
 20
0.1666666666666667
 30
0.0
 11
0.0
 21
0.0
 31
0.0
  0
LINE
  5
4F
330
4D
100
AcDbEntity
  8
0
100
AcDbLine
 10
-1.0
 20
-0.1666666666666667
 30
0.0
 11
0.0
 21
0.0
 31
0.0
  0
LINE
  5
50
330
4D
100
AcDbEntity
  8
0
100
AcDbLine
 10
0.0
 20
0.0
 30
0.0
 11
-1.0
 21
0.0
 31
0.0
  0
ENDBLK
  5
52
330
4D
100
AcDbEntity
  8
0
100
AcDbBlockEnd
  0
BLOCK
  5
58
330
53
100
AcDbEntity
  8
0
100
AcDbBlockBegin
  2
_CLOSED
 70
     0
 71
     0
 10
0.0
 20
0.0
 30
0.0
  3
_CLOSED
  1

  0
LINE
  5
54
330
53
100
AcDbEntity
  8
0
100
AcDbLine
 10
-1.0
 20
0.1666666666666667
 30
0.0
 11
0.0
 21
0.0
 31
0.0
  0
LINE
  5
55
330
53
100
AcDbEntity
  8
0
100
AcDbLine
 10
0.0
 20
0.0
 30
0.0
 11
-1.0
 21
-0.1666666666666667
 31
0.0
  0
LINE
  5
56
330
53
100
AcDbEntity
  8
0
100
AcDbLine
 10
-1.0
 20
0.1666666666666667
 30
0.0
 11
-1.0
 21
-0.1666666666666667
 31
0.0
  0
LINE
  5
57
330
53
100
AcDbEntity
  8
0
100
AcDbLine
 10
0.0
 20
0.0
 30
0.0
 11
-1.0
 21
0.0
 31
0.0
  0
ENDBLK
  5
59
330
53
100
AcDbEntity
  8
0
100
AcDbBlockEnd
  0
BLOCK
  5
5E
330
5A
100
AcDbEntity
  8
0
100
AcDbBlockBegin
  2
_CLOSEDBLANK
 70
     0
 71
     0
 10
0.0
 20
0.0
 30
0.0
  3
_CLOSEDBLANK
  1

  0
LINE
  5
5B
330
5A
100
AcDbEntity
  8
0
100
AcDbLine
 10
-1.0
 20
0.1666666666666667
 30
0.0
 11
0.0
 21
0.0
 31
0.0
  0
LINE
  5
5C
330
5A
100
AcDbEntity
  8
0
100
AcDbLine
 10
0.0
 20
0.0
 30
0.0
 11
-1.0
 21
-0.1666666666666667
 31
0.0
  0
LINE
  5
5D
330
5A
100
AcDbEntity
  8
0
100
AcDbLine
 10
-1.0
 20
0.1666666666666667
 30
0.0
 11
-1.0
 21
-0.1666666666666667
 31
0.0
  0
ENDBLK
  5
5F
330
5A
100
AcDbEntity
  8
0
100
AcDbBlockEnd
  0
BLOCK
  5
66
330
60
100
AcDbEntity
  8
0
100
AcDbBlockBegin
  2
_BOXBLANK
 70
     0
 71
     0
 10
0.0
 20
0.0
 30
0.0
  3
_BOXBLANK
  1

  0
LINE
  5
61
330
60
100
AcDbEntity
  8
0
100
AcDbLine
 10
-0.5
 20
-0.5
 30
0.0
 11
0.5
 21
-0.5
 31
0.0
  0
LINE
  5
62
330
60
100
AcDbEntity
  8
0
100
AcDbLine
 10
0.5
 20
-0.5
 30
0.0
 11
0.5
 21
0.5
 31
0.0
  0
LINE
  5
63
330
60
100
AcDbEntity
  8
0
100
AcDbLine
 10
0.5
 20
0.5
 30
0.0
 11
-0.5
 21
0.5
 31
0.0
  0
LINE
  5
64
330
60
100
AcDbEntity
  8
0
100
AcDbLine
 10
-0.5
 20
0.5
 30
0.0
 11
-0.5
 21
-0.5
 31
0.0
  0
LINE
  5
65
330
60
100
AcDbEntity
  8
0
100
AcDbLine
 10
-0.5
 20
0.0
 30
0.0
 11
-1.0
 21
0.0
 31
0.0
  0
ENDBLK
  5
67
330
60
100
AcDbEntity
  8
0
100
AcDbBlockEnd
  0
BLOCK
  5
6B
330
68
100
AcDbEntity
  8
0
100
AcDbBlockBegin
  2
_BOXFILLED
 70
     0
 71
     0
 10
0.0
 20
0.0
 30
0.0
  3
_BOXFILLED
  1

  0
SOLID
  5
69
330
68
100
AcDbEntity
  8
0
100
AcDbTrace
 10
-0.5
 20
0.5
 30
0.0
 11
0.5
 21
0.5
 31
0.0
 12
-0.5
 22
-0.5
 32
0.0
 13
0.5
 23
-0.5
 33
0.0
  0
LINE
  5
6A
330
68
100
AcDbEntity
  8
0
100
AcDbLine
 10
-0.5
 20
0.0
 30
0.0
 11
-1.0
 21
0.0
 31
0.0
  0
ENDBLK
  5
6C
330
68
100
AcDbEntity
  8
0
100
AcDbBlockEnd
  0
BLOCK
  5
70
330
6D
100
AcDbEntity
  8
0
100
AcDbBlockBegin
  2
_INTEGRAL
 70
     0
 71
     0
 10
0.0
 20
0.0
 30
0.0
  3
_INTEGRAL
  1

  0
ARC
  5
6E
330
6D
100
AcDbEntity
  8
0
100
AcDbCircle
 10
0.444888
 20
-0.0913346
 30
0.0
 40
0.4541666
100
AcDbArc
 50
84.16951033439696
 51
265.6909581978302
  0
ARC
  5
6F
330
6D
100
AcDbEntity
  8
0
100
AcDbCircle
 10
-0.444888
 20
0.0913346
 30
0.0
 40
0.4541666
100
AcDbArc
 50
317.4098226892151
 51
138.9312705526484
  0
ENDBLK
  5
71
330
6D
100
AcDbEntity
  8
0
100
AcDbBlockEnd
  0
BLOCK
  5
74
330
72
100
AcDbEntity
  8
0
100
AcDbBlockBegin
  2
_OBLIQUE
 70
     0
 71
     0
 10
0.0
 20
0.0
 30
0.0
  3
_OBLIQUE
  1

  0
LINE
  5
73
330
72
100
AcDbEntity
  8
0
100
AcDbLine
 10
-0.5
 20
-0.5
 30
0.0
 11
0.5
 21
0.5
 31
0.0
  0
ENDBLK
  5
75
330
72
100
AcDbEntity
  8
0
100
AcDbBlockEnd
  0
BLOCK
  5
77
330
76
100
AcDbEntity
  8
0
100
AcDbBlockBegin
  2
_NONE
 70
     0
 71
     0
 10
0.0
 20
0.0
 30
0.0
  3
_NONE
  1

  0
ENDBLK
  5
78
330
76
100
AcDbEntity
  8
0
100
AcDbBlockEnd
  0
BLOCK
  5
110
330
10F
100
AcDbEntity
  8
0
100
AcDbBlockBegin
  2
*G12
 70
     1
 71
     0
 10
0.0
 20
0.0
 30
0.0
  3
*G12
  1

  0
LINE
  5
112
330
10F
100
AcDbEntity
  8
1
  6
Continuous
 62
     7
370
     9
100
AcDbLine
 10
214.95
 20
416.3913198936854
 30
0.0
 11
230.55
 21
416.3913198936854
 31
0.0
  0
LINE
  5
113
330
10F
100
AcDbEntity
  8
1
  6
Continuous
 62
     7
370
     9
100
AcDbLine
 10
214.95
 20
417.8913198936854
 30
0.0
 11
230.55
 21
417.8913198936854
 31
0.0
  0
LINE
  5
114
330
10F
100
AcDbEntity
  8
1
  6
Continuous
 62
     7
370
     9
100
AcDbLine
 10
214.95
 20
419.3913198936854
 30
0.0
 11
230.55
 21
419.3913198936854
 31
0.0
  0
LINE
  5
115
330
10F
100
AcDbEntity
  8
1
  6
Continuous
 62
     7
370
     9
100
AcDbLine
 10
214.95
 20
420.8913198936854
 30
0.0
 11
230.55
 21
420.8913198936854
 31
0.0
  0
LINE
  5
116
330
10F
100
AcDbEntity
  8
1
  6
Continuous
 62
     7
370
     9
100
AcDbLine
 10
214.95
 20
422.3913198936854
 30
0.0
 11
230.55
 21
422.3913198936854
 31
0.0
  0
LINE
  5
117
330
10F
100
AcDbEntity
  8
1
  6
Continuous
 62
     7
370
     9
100
AcDbLine
 10
214.95
 20
423.8913198936854
 30
0.0
 11
230.55
 21
423.8913198936854
 31
0.0
  0
LINE
  5
118
330
10F
100
AcDbEntity
  8
1
  6
Continuous
 62
     7
370
     9
100
AcDbLine
 10
214.95
 20
425.3913198936854
 30
0.0
 11
230.55
 21
425.3913198936854
 31
0.0
  0
LINE
  5
119
330
10F
100
AcDbEntity
  8
1
  6
Continuous
 62
     7
370
     9
100
AcDbLine
 10
214.95
 20
426.8913198936854
 30
0.0
 11
230.55
 21
426.8913198936854
 31
0.0
  0
LINE
  5
11A
330
10F
100
AcDbEntity
  8
1
  6
Continuous
 62
     7
370
     9
100
AcDbLine
 10
214.95
 20
428.3913198936854
 30
0.0
 11
230.55
 21
428.3913198936854
 31
0.0
  0
LINE
  5
11B
330
10F
100
AcDbEntity
  8
1
  6
Continuous
 62
     7
370
     9
100
AcDbLine
 10
214.95
 20
429.8913198936854
 30
0.0
 11
230.55
 21
429.8913198936854
 31
0.0
  0
LINE
  5
11C
330
10F
100
AcDbEntity
  8
1
  6
Continuous
 62
     7
370
     9
100
AcDbLine
 10
214.95
 20
431.3913198936854
 30
0.0
 11
230.55
 21
431.3913198936854
 31
0.0
  0
LINE
  5
11D
330
10F
100
AcDbEntity
  8
1
  6
Continuous
 62
     7
370
     9
100
AcDbLine
 10
214.95
 20
432.8913198936854
 30
0.0
 11
230.55
 21
432.8913198936854
 31
0.0
  0
LINE
  5
11E
330
10F
100
AcDbEntity
  8
1
  6
Continuous
 62
     7
370
     9
100
AcDbLine
 10
214.95
 20
434.3913198936854
 30
0.0
 11
230.55
 21
434.3913198936854
 31
0.0
  0
LINE
  5
11F
330
10F
100
AcDbEntity
  8
1
  6
Continuous
 62
     7
370
     9
100
AcDbLine
 10
214.95
 20
435.8913198936854
 30
0.0
 11
230.55
 21
435.8913198936854
 31
0.0
  0
LINE
  5
120
330
10F
100
AcDbEntity
  8
1
  6
Continuous
 62
     7
370
     9
100
AcDbLine
 10
214.95
 20
437.3913198936854
 30
0.0
 11
230.55
 21
437.3913198936854
 31
0.0
  0
LINE
  5
121
330
10F
100
AcDbEntity
  8
1
  6
Continuous
 62
     7
370
     9
100
AcDbLine
 10
214.95
 20
438.8913198936854
 30
0.0
 11
230.55
 21
438.8913198936854
 31
0.0
  0
LINE
  5
122
330
10F
100
AcDbEntity
  8
1
  6
Continuous
 62
     7
370
     9
100
AcDbLine
 10
214.95
 20
440.3913198936854
 30
0.0
 11
230.55
 21
440.3913198936854
 31
0.0
  0
LINE
  5
123
330
10F
100
AcDbEntity
  8
1
  6
Continuous
 62
     7
370
     9
100
AcDbLine
 10
214.95
 20
441.8913198936854
 30
0.0
 11
230.55
 21
441.8913198936854
 31
0.0
  0
LINE
  5
124
330
10F
100
AcDbEntity
  8
1
  6
Continuous
 62
     7
370
     9
100
AcDbLine
 10
214.95
 20
443.3913198936854
 30
0.0
 11
230.55
 21
443.3913198936854
 31
0.0
  0
LINE
  5
125
330
10F
100
AcDbEntity
  8
1
  6
Continuous
 62
     7
370
     9
100
AcDbLine
 10
214.95
 20
444.8913198936854
 30
0.0
 11
230.55
 21
444.8913198936854
 31
0.0
  0
LINE
  5
126
330
10F
100
AcDbEntity
  8
1
  6
Continuous
 62
     7
370
     9
100
AcDbLine
 10
214.95
 20
446.3913198936854
 30
0.0
 11
230.55
 21
446.3913198936854
 31
0.0
  0
ENDBLK
  5
111
330
10F
100
AcDbEntity
  8
0
100
AcDbBlockEnd
  0
BLOCK
  5
12C
330
12B
100
AcDbEntity
  8
0
100
AcDbBlockBegin
  2
*G13
 70
     1
 71
     0
 10
0.0
 20
0.0
 30
0.0
  3
*G13
  1

  0
LINE
  5
12E
330
12B
100
AcDbEntity
  8
1
  6
Continuous
 62
     7
370
     9
100
AcDbLine
 10
163.134148740177
 20
317.1701815943578
 30
0.0
 11
178.7341487401769
 21
317.1701815943578
 31
0.0
  0
LINE
  5
12F
330
12B
100
AcDbEntity
  8
1
  6
Continuous
 62
     7
370
     9
100
AcDbLine
 10
163.134148740177
 20
318.6701815943578
 30
0.0
 11
178.7341487401769
 21
318.6701815943578
 31
0.0
  0
LINE
  5
130
330
12B
100
AcDbEntity
  8
1
  6
Continuous
 62
     7
370
     9
100
AcDbLine
 10
163.134148740177
 20
320.1701815943578
 30
0.0
 11
178.7341487401769
 21
320.1701815943578
 31
0.0
  0
LINE
  5
131
330
12B
100
AcDbEntity
  8
1
  6
Continuous
 62
     7
370
     9
100
AcDbLine
 10
163.134148740177
 20
321.6701815943578
 30
0.0
 11
178.7341487401769
 21
321.6701815943578
 31
0.0
  0
LINE
  5
132
330
12B
100
AcDbEntity
  8
1
  6
Continuous
 62
     7
370
     9
100
AcDbLine
 10
163.134148740177
 20
323.1701815943578
 30
0.0
 11
178.7341487401769
 21
323.1701815943578
 31
0.0
  0
LINE
  5
133
330
12B
100
AcDbEntity
  8
1
  6
Continuous
 62
     7
370
     9
100
AcDbLine
 10
163.134148740177
 20
324.6701815943578
 30
0.0
 11
178.7341487401769
 21
324.6701815943578
 31
0.0
  0
LINE
  5
134
330
12B
100
AcDbEntity
  8
1
  6
Continuous
 62
     7
370
     9
100
AcDbLine
 10
163.134148740177
 20
326.1701815943578
 30
0.0
 11
178.7341487401769
 21
326.1701815943578
 31
0.0
  0
LINE
  5
135
330
12B
100
AcDbEntity
  8
1
  6
Continuous
 62
     7
370
     9
100
AcDbLine
 10
163.134148740177
 20
327.6701815943578
 30
0.0
 11
178.7341487401769
 21
327.6701815943578
 31
0.0
  0
LINE
  5
136
330
12B
100
AcDbEntity
  8
1
  6
Continuous
 62
     7
370
     9
100
AcDbLine
 10
163.134148740177
 20
329.1701815943578
 30
0.0
 11
178.7341487401769
 21
329.1701815943578
 31
0.0
  0
LINE
  5
137
330
12B
100
AcDbEntity
  8
1
  6
Continuous
 62
     7
370
     9
100
AcDbLine
 10
163.134148740177
 20
330.6701815943578
 30
0.0
 11
178.7341487401769
 21
330.6701815943578
 31
0.0
  0
LINE
  5
138
330
12B
100
AcDbEntity
  8
1
  6
Continuous
 62
     7
370
     9
100
AcDbLine
 10
163.134148740177
 20
332.1701815943578
 30
0.0
 11
178.7341487401769
 21
332.1701815943578
 31
0.0
  0
LINE
  5
139
330
12B
100
AcDbEntity
  8
1
  6
Continuous
 62
     7
370
     9
100
AcDbLine
 10
163.134148740177
 20
333.6701815943578
 30
0.0
 11
178.7341487401769
 21
333.6701815943578
 31
0.0
  0
LINE
  5
13A
330
12B
100
AcDbEntity
  8
1
  6
Continuous
 62
     7
370
     9
100
AcDbLine
 10
163.134148740177
 20
335.1701815943578
 30
0.0
 11
178.7341487401769
 21
335.1701815943578
 31
0.0
  0
LINE
  5
13B
330
12B
100
AcDbEntity
  8
1
  6
Continuous
 62
     7
370
     9
100
AcDbLine
 10
163.134148740177
 20
336.6701815943578
 30
0.0
 11
178.7341487401769
 21
336.6701815943578
 31
0.0
  0
LINE
  5
13C
330
12B
100
AcDbEntity
  8
1
  6
Continuous
 62
     7
370
     9
100
AcDbLine
 10
163.134148740177
 20
338.1701815943578
 30
0.0
 11
178.7341487401769
 21
338.1701815943578
 31
0.0
  0
LINE
  5
13D
330
12B
100
AcDbEntity
  8
1
  6
Continuous
 62
     7
370
     9
100
AcDbLine
 10
163.134148740177
 20
339.6701815943578
 30
0.0
 11
178.7341487401769
 21
339.6701815943578
 31
0.0
  0
LINE
  5
13E
330
12B
100
AcDbEntity
  8
1
  6
Continuous
 62
     7
370
     9
100
AcDbLine
 10
163.134148740177
 20
341.1701815943578
 30
0.0
 11
178.7341487401769
 21
341.1701815943578
 31
0.0
  0
LINE
  5
13F
330
12B
100
AcDbEntity
  8
1
  6
Continuous
 62
     7
370
     9
100
AcDbLine
 10
163.134148740177
 20
342.6701815943578
 30
0.0
 11
178.7341487401769
 21
342.6701815943578
 31
0.0
  0
LINE
  5
140
330
12B
100
AcDbEntity
  8
1
  6
Continuous
 62
     7
370
     9
100
AcDbLine
 10
163.134148740177
 20
344.1701815943578
 30
0.0
 11
178.7341487401769
 21
344.1701815943578
 31
0.0
  0
LINE
  5
141
330
12B
100
AcDbEntity
  8
1
  6
Continuous
 62
     7
370
     9
100
AcDbLine
 10
163.134148740177
 20
345.6701815943578
 30
0.0
 11
178.7341487401769
 21
345.6701815943578
 31
0.0
  0
LINE
  5
142
330
12B
100
AcDbEntity
  8
1
  6
Continuous
 62
     7
370
     9
100
AcDbLine
 10
163.134148740177
 20
347.1701815943578
 30
0.0
 11
178.7341487401769
 21
347.1701815943578
 31
0.0
  0
LINE
  5
143
330
12B
100
AcDbEntity
  8
1
  6
Continuous
 62
     7
370
     9
100
AcDbLine
 10
163.134148740177
 20
348.6701815943578
 30
0.0
 11
178.7341487401769
 21
348.6701815943578
 31
0.0
  0
LINE
  5
144
330
12B
100
AcDbEntity
  8
1
  6
Continuous
 62
     7
370
     9
100
AcDbLine
 10
163.134148740177
 20
350.1701815943578
 30
0.0
 11
178.7341487401769
 21
350.1701815943578
 31
0.0
  0
LINE
  5
145
330
12B
100
AcDbEntity
  8
1
  6
Continuous
 62
     7
370
     9
100
AcDbLine
 10
163.134148740177
 20
351.6701815943578
 30
0.0
 11
178.7341487401769
 21
351.6701815943578
 31
0.0
  0
LINE
  5
146
330
12B
100
AcDbEntity
  8
1
  6
Continuous
 62
     7
370
     9
100
AcDbLine
 10
163.134148740177
 20
353.1701815943578
 30
0.0
 11
178.7341487401769
 21
353.1701815943578
 31
0.0
  0
LINE
  5
147
330
12B
100
AcDbEntity
  8
1
  6
Continuous
 62
     7
370
     9
100
AcDbLine
 10
163.134148740177
 20
354.6701815943578
 30
0.0
 11
178.7341487401769
 21
354.6701815943578
 31
0.0
  0
LINE
  5
148
330
12B
100
AcDbEntity
  8
1
  6
Continuous
 62
     7
370
     9
100
AcDbLine
 10
163.134148740177
 20
356.1701815943578
 30
0.0
 11
178.7341487401769
 21
356.1701815943578
 31
0.0
  0
LINE
  5
149
330
12B
100
AcDbEntity
  8
1
  6
Continuous
 62
     7
370
     9
100
AcDbLine
 10
163.134148740177
 20
357.6701815943578
 30
0.0
 11
178.7341487401769
 21
357.6701815943578
 31
0.0
  0
LINE
  5
14A
330
12B
100
AcDbEntity
  8
1
  6
Continuous
 62
     7
370
     9
100
AcDbLine
 10
163.134148740177
 20
359.1701815943578
 30
0.0
 11
178.7341487401769
 21
359.1701815943578
 31
0.0
  0
LINE
  5
14B
330
12B
100
AcDbEntity
  8
1
  6
Continuous
 62
     7
370
     9
100
AcDbLine
 10
163.134148740177
 20
360.6701815943578
 30
0.0
 11
178.7341487401769
 21
360.6701815943578
 31
0.0
  0
LINE
  5
14C
330
12B
100
AcDbEntity
  8
1
  6
Continuous
 62
     7
370
     9
100
AcDbLine
 10
163.134148740177
 20
362.1701815943578
 30
0.0
 11
178.7341487401769
 21
362.1701815943578
 31
0.0
  0
LINE
  5
14D
330
12B
100
AcDbEntity
  8
1
  6
Continuous
 62
     7
370
     9
100
AcDbLine
 10
163.134148740177
 20
363.6701815943578
 30
0.0
 11
178.7341487401769
 21
363.6701815943578
 31
0.0
  0
LINE
  5
14E
330
12B
100
AcDbEntity
  8
1
  6
Continuous
 62
     7
370
     9
100
AcDbLine
 10
163.134148740177
 20
365.1701815943578
 30
0.0
 11
178.7341487401769
 21
365.1701815943578
 31
0.0
  0
LINE
  5
14F
330
12B
100
AcDbEntity
  8
1
  6
Continuous
 62
     7
370
     9
100
AcDbLine
 10
163.134148740177
 20
366.6701815943578
 30
0.0
 11
178.7341487401769
 21
366.6701815943578
 31
0.0
  0
LINE
  5
150
330
12B
100
AcDbEntity
  8
1
  6
Continuous
 62
     7
370
     9
100
AcDbLine
 10
163.134148740177
 20
368.1701815943578
 30
0.0
 11
178.7341487401769
 21
368.1701815943578
 31
0.0
  0
LINE
  5
151
330
12B
100
AcDbEntity
  8
1
  6
Continuous
 62
     7
370
     9
100
AcDbLine
 10
163.134148740177
 20
369.6701815943578
 30
0.0
 11
178.7341487401769
 21
369.6701815943578
 31
0.0
  0
LINE
  5
152
330
12B
100
AcDbEntity
  8
1
  6
Continuous
 62
     7
370
     9
100
AcDbLine
 10
163.134148740177
 20
371.1701815943578
 30
0.0
 11
178.7341487401769
 21
371.1701815943578
 31
0.0
  0
LINE
  5
153
330
12B
100
AcDbEntity
  8
1
  6
Continuous
 62
     7
370
     9
100
AcDbLine
 10
163.134148740177
 20
372.6701815943578
 30
0.0
 11
178.7341487401769
 21
372.6701815943578
 31
0.0
  0
LINE
  5
154
330
12B
100
AcDbEntity
  8
1
  6
Continuous
 62
     7
370
     9
100
AcDbLine
 10
163.134148740177
 20
374.1701815943578
 30
0.0
 11
178.7341487401769
 21
374.1701815943578
 31
0.0
  0
LINE
  5
155
330
12B
100
AcDbEntity
  8
1
  6
Continuous
 62
     7
370
     9
100
AcDbLine
 10
163.134148740177
 20
375.6701815943578
 30
0.0
 11
178.7341487401769
 21
375.6701815943578
 31
0.0
  0
LINE
  5
156
330
12B
100
AcDbEntity
  8
1
  6
Continuous
 62
     7
370
     9
100
AcDbLine
 10
163.134148740177
 20
377.1701815943578
 30
0.0
 11
178.7341487401769
 21
377.1701815943578
 31
0.0
  0
LINE
  5
157
330
12B
100
AcDbEntity
  8
1
  6
Continuous
 62
     7
370
     9
100
AcDbLine
 10
163.134148740177
 20
378.6701815943578
 30
0.0
 11
178.7341487401769
 21
378.6701815943578
 31
0.0
  0
LINE
  5
158
330
12B
100
AcDbEntity
  8
1
  6
Continuous
 62
     7
370
     9
100
AcDbLine
 10
163.134148740177
 20
380.1701815943578
 30
0.0
 11
178.7341487401769
 21
380.1701815943578
 31
0.0
  0
LINE
  5
159
330
12B
100
AcDbEntity
  8
1
  6
Continuous
 62
     7
370
     9
100
AcDbLine
 10
163.134148740177
 20
381.6701815943578
 30
0.0
 11
178.7341487401769
 21
381.6701815943578
 31
0.0
  0
LINE
  5
15A
330
12B
100
AcDbEntity
  8
1
  6
Continuous
 62
     7
370
     9
100
AcDbLine
 10
163.134148740177
 20
383.1701815943578
 30
0.0
 11
178.7341487401769
 21
383.1701815943578
 31
0.0
  0
LINE
  5
15B
330
12B
100
AcDbEntity
  8
1
  6
Continuous
 62
     7
370
     9
100
AcDbLine
 10
163.134148740177
 20
384.6701815943578
 30
0.0
 11
178.7341487401769
 21
384.6701815943578
 31
0.0
  0
LINE
  5
15C
330
12B
100
AcDbEntity
  8
1
  6
Continuous
 62
     7
370
     9
100
AcDbLine
 10
163.134148740177
 20
386.1701815943578
 30
0.0
 11
178.7341487401769
 21
386.1701815943578
 31
0.0
  0
LINE
  5
15D
330
12B
100
AcDbEntity
  8
1
  6
Continuous
 62
     7
370
     9
100
AcDbLine
 10
163.134148740177
 20
387.6701815943578
 30
0.0
 11
178.7341487401769
 21
387.6701815943578
 31
0.0
  0
LINE
  5
15E
330
12B
100
AcDbEntity
  8
1
  6
Continuous
 62
     7
370
     9
100
AcDbLine
 10
163.134148740177
 20
389.1701815943578
 30
0.0
 11
178.7341487401769
 21
389.1701815943578
 31
0.0
  0
LINE
  5
15F
330
12B
100
AcDbEntity
  8
1
  6
Continuous
 62
     7
370
     9
100
AcDbLine
 10
163.134148740177
 20
390.6701815943578
 30
0.0
 11
178.7341487401769
 21
390.6701815943578
 31
0.0
  0
LINE
  5
160
330
12B
100
AcDbEntity
  8
1
  6
Continuous
 62
     7
370
     9
100
AcDbLine
 10
163.134148740177
 20
392.1701815943578
 30
0.0
 11
178.7341487401769
 21
392.1701815943578
 31
0.0
  0
LINE
  5
161
330
12B
100
AcDbEntity
  8
1
  6
Continuous
 62
     7
370
     9
100
AcDbLine
 10
163.134148740177
 20
393.6701815943578
 30
0.0
 11
178.7341487401769
 21
393.6701815943578
 31
0.0
  0
LINE
  5
162
330
12B
100
AcDbEntity
  8
1
  6
Continuous
 62
     7
370
     9
100
AcDbLine
 10
163.134148740177
 20
395.1701815943578
 30
0.0
 11
178.7341487401769
 21
395.1701815943578
 31
0.0
  0
ENDBLK
  5
12D
330
12B
100
AcDbEntity
  8
0
100
AcDbBlockEnd
  0
BLOCK
  5
168
330
167
100
AcDbEntity
  8
0
100
AcDbBlockBegin
  2
*G14
 70
     1
 71
     0
 10
0.0
 20
0.0
 30
0.0
  3
*G14
  1

  0
LINE
  5
16A
330
167
100
AcDbEntity
  8
1
  6
Continuous
 62
     7
370
     9
100
AcDbLine
 10
163.1341487401769
 20
178.329928281331
 30
0.0
 11
178.7341487401768
 21
178.329928281331
 31
0.0
  0
LINE
  5
16B
330
167
100
AcDbEntity
  8
1
  6
Continuous
 62
     7
370
     9
100
AcDbLine
 10
163.1341487401769
 20
179.829928281331
 30
0.0
 11
178.7341487401768
 21
179.829928281331
 31
0.0
  0
LINE
  5
16C
330
167
100
AcDbEntity
  8
1
  6
Continuous
 62
     7
370
     9
100
AcDbLine
 10
163.1341487401769
 20
181.329928281331
 30
0.0
 11
178.7341487401768
 21
181.329928281331
 31
0.0
  0
LINE
  5
16D
330
167
100
AcDbEntity
  8
1
  6
Continuous
 62
     7
370
     9
100
AcDbLine
 10
163.1341487401769
 20
182.829928281331
 30
0.0
 11
178.7341487401768
 21
182.829928281331
 31
0.0
  0
LINE
  5
16E
330
167
100
AcDbEntity
  8
1
  6
Continuous
 62
     7
370
     9
100
AcDbLine
 10
163.1341487401769
 20
184.329928281331
 30
0.0
 11
178.7341487401768
 21
184.329928281331
 31
0.0
  0
LINE
  5
16F
330
167
100
AcDbEntity
  8
1
  6
Continuous
 62
     7
370
     9
100
AcDbLine
 10
163.1341487401769
 20
185.829928281331
 30
0.0
 11
178.7341487401768
 21
185.829928281331
 31
0.0
  0
LINE
  5
170
330
167
100
AcDbEntity
  8
1
  6
Continuous
 62
     7
370
     9
100
AcDbLine
 10
163.1341487401769
 20
187.329928281331
 30
0.0
 11
178.7341487401768
 21
187.329928281331
 31
0.0
  0
ENDBLK
  5
169
330
167
100
AcDbEntity
  8
0
100
AcDbBlockEnd
  0
BLOCK
  5
178
330
177
100
AcDbEntity
  8
0
100
AcDbBlockBegin
  2
*G15
 70
     1
 71
     0
 10
0.0
 20
0.0
 30
0.0
  3
*G15
  1

  0
LINE
  5
17A
330
177
100
AcDbEntity
  8
1
  6
Continuous
 62
     7
370
     9
100
AcDbLine
 10
290.25
 20
293.9277567080268
 30
0.0
 11
290.25
 21
304.2203922393904
 31
0.0
  0
LINE
  5
17B
330
177
100
AcDbEntity
  8
1
  6
Continuous
 62
     7
370
     9
100
AcDbLine
 10
288.75
 20
293.9277567080268
 30
0.0
 11
288.75
 21
304.2203922393904
 31
0.0
  0
LINE
  5
17C
330
177
100
AcDbEntity
  8
1
  6
Continuous
 62
     7
370
     9
100
AcDbLine
 10
287.25
 20
293.9277567080268
 30
0.0
 11
287.25
 21
304.2203922393904
 31
0.0
  0
ENDBLK
  5
179
330
177
100
AcDbEntity
  8
0
100
AcDbBlockEnd
  0
BLOCK
  5
188
330
187
100
AcDbEntity
  8
0
100
AcDbBlockBegin
  2
*G16
 70
     1
 71
     0
 10
0.0
 20
0.0
 30
0.0
  3
*G16
  1

  0
LINE
  5
18A
330
187
100
AcDbEntity
  8
1
  6
Continuous
 62
     7
370
     9
100
AcDbLine
 10
290.25
 20
211.36175363693
 30
0.0
 11
290.25
 21
201.0691181055665
 31
0.0
  0
LINE
  5
18B
330
187
100
AcDbEntity
  8
1
  6
Continuous
 62
     7
370
     9
100
AcDbLine
 10
288.75
 20
211.36175363693
 30
0.0
 11
288.75
 21
201.0691181055665
 31
0.0
  0
LINE
  5
18C
330
187
100
AcDbEntity
  8
1
  6
Continuous
 62
     7
370
     9
100
AcDbLine
 10
287.25
 20
211.36175363693
 30
0.0
 11
287.25
 21
201.0691181055665
 31
0.0
  0
ENDBLK
  5
189
330
187
100
AcDbEntity
  8
0
100
AcDbBlockEnd
  0
BLOCK
  5
1BE
330
1BD
100
AcDbEntity
  8
0
100
AcDbBlockBegin
  2
*G17
 70
     1
 71
     0
 10
0.0
 20
0.0
 30
0.0
  3
*G17
  1

  0
LINE
  5
1C0
330
1BD
100
AcDbEntity
  8
1
  6
Continuous
 62
     7
370
     9
100
AcDbLine
 10
315.75
 20
340.3015852390842
 30
0.0
 11
315.75
 21
219.6778628271906
 31
0.0
  0
LINE
  5
1C1
330
1BD
100
AcDbEntity
  8
1
  6
Continuous
 62
     7
370
     9
100
AcDbLine
 10
315.75
 20
219.6778628271906
 30
0.0
 11
370.2500000000001
 21
219.6778628271906
 31
0.0
  0
LINE
  5
1C2
330
1BD
100
AcDbEntity
  8
1
  6
Continuous
 62
     7
370
     9
100
AcDbLine
 10
370.2500000000001
 20
219.6778628271906
 30
0.0
 11
370.2500000000001
 21
340.3015852390842
 31
0.0
  0
LINE
  5
1C3
330
1BD
100
AcDbEntity
  8
1
  6
Continuous
 62
     7
370
     9
100
AcDbLine
 10
370.2500000000001
 20
340.3015852390842
 30
0.0
 11
315.75
 21
340.3015852390842
 31
0.0
  0
ENDBLK
  5
1BF
330
1BD
100
AcDbEntity
  8
0
100
AcDbBlockEnd
  0
BLOCK
  5
2BD
330
2BC
100
AcDbEntity
  8
0
100
AcDbBlockBegin
  2
*G18
 70
     1
 71
     0
 10
0.0
 20
0.0
 30
0.0
  3
*G18
  1

  0
LINE
  5
2BF
330
2BC
100
AcDbEntity
  8
1
  6
Continuous
 62
     7
370
     9
100
AcDbLine
 10
636.4357145153356
 20
410.3913198936854
 30
0.0
 11
652.0357145153355
 21
410.3913198936854
 31
0.0
  0
LINE
  5
2C0
330
2BC
100
AcDbEntity
  8
1
  6
Continuous
 62
     7
370
     9
100
AcDbLine
 10
636.4357145153356
 20
411.8913198936854
 30
0.0
 11
652.0357145153355
 21
411.8913198936854
 31
0.0
  0
LINE
  5
2C1
330
2BC
100
AcDbEntity
  8
1
  6
Continuous
 62
     7
370
     9
100
AcDbLine
 10
636.4357145153356
 20
413.3913198936854
 30
0.0
 11
652.0357145153355
 21
413.3913198936854
 31
0.0
  0
LINE
  5
2C2
330
2BC
100
AcDbEntity
  8
1
  6
Continuous
 62
     7
370
     9
100
AcDbLine
 10
636.4357145153356
 20
414.8913198936854
 30
0.0
 11
652.0357145153355
 21
414.8913198936854
 31
0.0
  0
LINE
  5
2C3
330
2BC
100
AcDbEntity
  8
1
  6
Continuous
 62
     7
370
     9
100
AcDbLine
 10
636.4357145153356
 20
416.3913198936854
 30
0.0
 11
652.0357145153355
 21
416.3913198936854
 31
0.0
  0
LINE
  5
2C4
330
2BC
100
AcDbEntity
  8
1
  6
Continuous
 62
     7
370
     9
100
AcDbLine
 10
636.4357145153356
 20
417.8913198936854
 30
0.0
 11
652.0357145153355
 21
417.8913198936854
 31
0.0
  0
LINE
  5
2C5
330
2BC
100
AcDbEntity
  8
1
  6
Continuous
 62
     7
370
     9
100
AcDbLine
 10
636.4357145153356
 20
419.3913198936854
 30
0.0
 11
652.0357145153355
 21
419.3913198936854
 31
0.0
  0
LINE
  5
2C6
330
2BC
100
AcDbEntity
  8
1
  6
Continuous
 62
     7
370
     9
100
AcDbLine
 10
636.4357145153356
 20
420.8913198936854
 30
0.0
 11
652.0357145153355
 21
420.8913198936854
 31
0.0
  0
LINE
  5
2C7
330
2BC
100
AcDbEntity
  8
1
  6
Continuous
 62
     7
370
     9
100
AcDbLine
 10
636.4357145153356
 20
422.3913198936854
 30
0.0
 11
652.0357145153355
 21
422.3913198936854
 31
0.0
  0
LINE
  5
2C8
330
2BC
100
AcDbEntity
  8
1
  6
Continuous
 62
     7
370
     9
100
AcDbLine
 10
636.4357145153356
 20
423.8913198936854
 30
0.0
 11
652.0357145153355
 21
423.8913198936854
 31
0.0
  0
LINE
  5
2C9
330
2BC
100
AcDbEntity
  8
1
  6
Continuous
 62
     7
370
     9
100
AcDbLine
 10
636.4357145153356
 20
425.3913198936854
 30
0.0
 11
652.0357145153355
 21
425.3913198936854
 31
0.0
  0
LINE
  5
2CA
330
2BC
100
AcDbEntity
  8
1
  6
Continuous
 62
     7
370
     9
100
AcDbLine
 10
636.4357145153356
 20
426.8913198936854
 30
0.0
 11
652.0357145153355
 21
426.8913198936854
 31
0.0
  0
LINE
  5
2CB
330
2BC
100
AcDbEntity
  8
1
  6
Continuous
 62
     7
370
     9
100
AcDbLine
 10
636.4357145153356
 20
428.3913198936854
 30
0.0
 11
652.0357145153355
 21
428.3913198936854
 31
0.0
  0
LINE
  5
2CC
330
2BC
100
AcDbEntity
  8
1
  6
Continuous
 62
     7
370
     9
100
AcDbLine
 10
636.4357145153356
 20
429.8913198936854
 30
0.0
 11
652.0357145153355
 21
429.8913198936854
 31
0.0
  0
LINE
  5
2CD
330
2BC
100
AcDbEntity
  8
1
  6
Continuous
 62
     7
370
     9
100
AcDbLine
 10
636.4357145153356
 20
431.3913198936854
 30
0.0
 11
652.0357145153355
 21
431.3913198936854
 31
0.0
  0
LINE
  5
2CE
330
2BC
100
AcDbEntity
  8
1
  6
Continuous
 62
     7
370
     9
100
AcDbLine
 10
636.4357145153356
 20
432.8913198936854
 30
0.0
 11
652.0357145153355
 21
432.8913198936854
 31
0.0
  0
LINE
  5
2CF
330
2BC
100
AcDbEntity
  8
1
  6
Continuous
 62
     7
370
     9
100
AcDbLine
 10
636.4357145153356
 20
434.3913198936854
 30
0.0
 11
652.0357145153355
 21
434.3913198936854
 31
0.0
  0
LINE
  5
2D0
330
2BC
100
AcDbEntity
  8
1
  6
Continuous
 62
     7
370
     9
100
AcDbLine
 10
636.4357145153356
 20
435.8913198936854
 30
0.0
 11
652.0357145153355
 21
435.8913198936854
 31
0.0
  0
LINE
  5
2D1
330
2BC
100
AcDbEntity
  8
1
  6
Continuous
 62
     7
370
     9
100
AcDbLine
 10
636.4357145153356
 20
437.3913198936854
 30
0.0
 11
652.0357145153355
 21
437.3913198936854
 31
0.0
  0
LINE
  5
2D2
330
2BC
100
AcDbEntity
  8
1
  6
Continuous
 62
     7
370
     9
100
AcDbLine
 10
636.4357145153356
 20
438.8913198936854
 30
0.0
 11
652.0357145153355
 21
438.8913198936854
 31
0.0
  0
LINE
  5
2D3
330
2BC
100
AcDbEntity
  8
1
  6
Continuous
 62
     7
370
     9
100
AcDbLine
 10
636.4357145153356
 20
440.3913198936854
 30
0.0
 11
652.0357145153355
 21
440.3913198936854
 31
0.0
  0
ENDBLK
  5
2BE
330
2BC
100
AcDbEntity
  8
0
100
AcDbBlockEnd
  0
BLOCK
  5
2D7
330
2D6
100
AcDbEntity
  8
0
100
AcDbBlockBegin
  2
Dim1
 70
     0
 71
     0
 10
0.0
 20
0.0
 30
0.0
  3
Dim1
  1

  0
LINE
  5
2D9
330
2D6
100
AcDbEntity
  8
1
  6
Continuous
 62
     7
370
     9
100
AcDbLine
 10
129.7499999999997
 20
14.6142857142856
 30
0.0
 11
315.7499999999998
 21
14.6142857142856
 31
0.0
  0
LINE
  5
2DA
330
2D6
100
AcDbEntity
  8
1
  6
Continuous
 62
     7
370
     9
100
AcDbLine
 10
129.7499999999997
 20
14.6142857142856
 30
0.0
 11
129.7499999999999
 21
35.53061224489784
 31
0.0
  0
LINE
  5
2DB
330
2D6
100
AcDbEntity
  8
1
  6
Continuous
 62
     7
370
     9
100
AcDbLine
 10
315.7499999999998
 20
14.6142857142856
 30
0.0
 11
315.7499999999999
 21
35.53061224489784
 31
0.0
  0
CIRCLE
  5
2DC
330
2D6
100
AcDbEntity
  8
1
  6
Continuous
 62
     7
370
     9
100
AcDbCircle
 10
129.7499999999997
 20
14.6142857142856
 30
0.0
 40
0.8999999999999999
  0
CIRCLE
  5
2DD
330
2D6
100
AcDbEntity
  8
1
  6
Continuous
 62
     7
370
     9
100
AcDbCircle
 10
315.7499999999998
 20
14.6142857142856
 30
0.0
 40
0.8999999999999999
  0
MTEXT
  5
2DE
330
2D6
100
AcDbEntity
  8
1
  6
Continuous
 62
     7
370
     9
100
AcDbMText
 10
222.7499999999998
 20
19.8642857142856
 30
0.0
 40
10.5
 41
0.0
 46
0.0
 71
     8
 72
     1
  1
186
 73
     1
 44
1.0
  0
ENDBLK
  5
2D8
330
2D6
100
AcDbEntity
  8
0
100
AcDbBlockEnd
  0
BLOCK
  5
2F7
330
2F6
100
AcDbEntity
  8
0
100
AcDbBlockBegin
  2
Dim2
 70
     0
 71
     0
 10
0.0
 20
0.0
 30
0.0
  3
Dim2
  1

  0
LINE
  5
2F9
330
2F6
100
AcDbEntity
  8
1
  6
Continuous
 62
     7
370
     9
100
AcDbLine
 10
158.7499999999996
 20
144.8464285714284
 30
0.0
 11
286.7499999999997
 21
144.8464285714284
 31
0.0
  0
LINE
  5
2FA
330
2F6
100
AcDbEntity
  8
1
  6
Continuous
 62
     7
370
     9
100
AcDbLine
 10
158.7499999999996
 20
144.8464285714284
 30
0.0
 11
158.7499999999999
 21
186.4607142857141
 31
0.0
  0
LINE
  5
2FB
330
2F6
100
AcDbEntity
  8
1
  6
Continuous
 62
     7
370
     9
100
AcDbLine
 10
286.7499999999997
 20
144.8464285714284
 30
0.0
 11
286.7500000000001
 21
185.2011746987142
 31
0.0
  0
CIRCLE
  5
2FC
330
2F6
100
AcDbEntity
  8
1
  6
Continuous
 62
     7
370
     9
100
AcDbCircle
 10
158.7499999999996
 20
144.8464285714284
 30
0.0
 40
0.8999999999999999
  0
CIRCLE
  5
2FD
330
2F6
100
AcDbEntity
  8
1
  6
Continuous
 62
     7
370
     9
100
AcDbCircle
 10
286.7499999999997
 20
144.8464285714284
 30
0.0
 40
0.8999999999999999
  0
MTEXT
  5
2FE
330
2F6
100
AcDbEntity
  8
1
  6
Continuous
 62
     7
370
     9
100
AcDbMText
 10
222.7499999999997
 20
150.0964285714284
 30
0.0
 40
10.5
 41
0.0
 46
0.0
 71
     8
 72
     1
  1
128
 73
     1
 44
1.0
  0
ENDBLK
  5
2F8
330
2F6
100
AcDbEntity
  8
0
100
AcDbBlockEnd
  0
BLOCK
  5
301
330
300
100
AcDbEntity
  8
0
100
AcDbBlockBegin
  2
Dim3
 70
     0
 71
     0
 10
0.0
 20
0.0
 30
0.0
  3
Dim3
  1

  0
LINE
  5
303
330
300
100
AcDbEntity
  8
1
  6
Continuous
 62
     7
370
     9
100
AcDbLine
 10
182.7499999999999
 20
130.7035714285713
 30
0.0
 11
262.7499999999999
 21
130.7035714285713
 31
0.0
  0
LINE
  5
304
330
300
100
AcDbEntity
  8
1
  6
Continuous
 62
     7
370
     9
100
AcDbLine
 10
182.7499999999999
 20
130.7035714285713
 30
0.0
 11
182.7499999999999
 21
133.6607142857141
 31
0.0
  0
LINE
  5
305
330
300
100
AcDbEntity
  8
1
  6
Continuous
 62
     7
370
     9
100
AcDbLine
 10
262.7499999999999
 20
130.7035714285713
 30
0.0
 11
262.7499999999999
 21
132.9535714285713
 31
0.0
  0
CIRCLE
  5
306
330
300
100
AcDbEntity
  8
1
  6
Continuous
 62
     7
370
     9
100
AcDbCircle
 10
182.7499999999999
 20
130.7035714285713
 30
0.0
 40
0.8999999999999999
  0
CIRCLE
  5
307
330
300
100
AcDbEntity
  8
1
  6
Continuous
 62
     7
370
     9
100
AcDbCircle
 10
262.7499999999999
 20
130.7035714285713
 30
0.0
 40
0.8999999999999999
  0
MTEXT
  5
308
330
300
100
AcDbEntity
  8
1
  6
Continuous
 62
     7
370
     9
100
AcDbMText
 10
222.7499999999999
 20
135.9535714285713
 30
0.0
 40
10.5
 41
0.0
 46
0.0
 71
     8
 72
     1
  1
80
 73
     1
 44
1.0
  0
ENDBLK
  5
302
330
300
100
AcDbEntity
  8
0
100
AcDbBlockEnd
  0
BLOCK
  5
30B
330
30A
100
AcDbEntity
  8
0
100
AcDbBlockBegin
  2
Dim4
 70
     0
 71
     0
 10
0.0
 20
0.0
 30
0.0
  3
Dim4
  1

  0
LINE
  5
30D
330
30A
100
AcDbEntity
  8
1
  6
Continuous
 62
     7
370
     9
100
AcDbLine
 10
72.75000000000003
 20
113.6142857142854
 30
0.0
 11
372.7500000000001
 21
113.6142857142854
 31
0.0
  0
LINE
  5
30E
330
30A
100
AcDbEntity
  8
1
  6
Continuous
 62
     7
370
     9
100
AcDbLine
 10
72.75000000000003
 20
113.6142857142854
 30
0.0
 11
72.75000000000001
 21
98.53061224489784
 31
0.0
  0
LINE
  5
30F
330
30A
100
AcDbEntity
  8
1
  6
Continuous
 62
     7
370
     9
100
AcDbLine
 10
372.7500000000001
 20
113.6142857142854
 30
0.0
 11
372.75
 21
98.53061224489784
 31
0.0
  0
CIRCLE
  5
310
330
30A
100
AcDbEntity
  8
1
  6
Continuous
 62
     7
370
     9
100
AcDbCircle
 10
72.75000000000003
 20
113.6142857142854
 30
0.0
 40
0.8999999999999999
  0
CIRCLE
  5
311
330
30A
100
AcDbEntity
  8
1
  6
Continuous
 62
     7
370
     9
100
AcDbCircle
 10
372.7500000000001
 20
113.6142857142854
 30
0.0
 40
0.8999999999999999
  0
MTEXT
  5
312
330
30A
100
AcDbEntity
  8
1
  6
Continuous
 62
     7
370
     9
100
AcDbMText
 10
222.7500000000001
 20
118.8642857142854
 30
0.0
 40
10.5
 41
0.0
 46
0.0
 71
     8
 72
     1
  1
300
 73
     1
 44
1.0
  0
ENDBLK
  5
30C
330
30A
100
AcDbEntity
  8
0
100
AcDbBlockEnd
  0
BLOCK
  5
32A
330
329
100
AcDbEntity
  8
0
100
AcDbBlockBegin
  2
Dim5
 70
     0
 71
     0
 10
0.0
 20
0.0
 30
0.0
  3
Dim5
  1

  0
LINE
  5
32C
330
329
100
AcDbEntity
  8
1
  6
Continuous
 62
     7
370
     9
100
AcDbLine
 10
498.2499999999998
 20
14.61428571428571
 30
0.0
 11
838.2500003061614
 21
14.61428571428571
 31
0.0
  0
LINE
  5
32D
330
329
100
AcDbEntity
  8
1
  6
Continuous
 62
     7
370
     9
100
AcDbLine
 10
498.2499999999998
 20
14.61428571428571
 30
0.0
 11
498.2499999999999
 21
35.53061224489784
 31
0.0
  0
LINE
  5
32E
330
329
100
AcDbEntity
  8
1
  6
Continuous
 62
     7
370
     9
100
AcDbLine
 10
838.2500003061614
 20
14.61428571428571
 30
0.0
 11
838.2500003061616
 21
35.53061224489784
 31
0.0
  0
CIRCLE
  5
32F
330
329
100
AcDbEntity
  8
1
  6
Continuous
 62
     7
370
     9
100
AcDbCircle
 10
498.2499999999998
 20
14.61428571428571
 30
0.0
 40
0.8999999999999999
  0
CIRCLE
  5
330
330
329
100
AcDbEntity
  8
1
  6
Continuous
 62
     7
370
     9
100
AcDbCircle
 10
838.2500003061614
 20
14.61428571428571
 30
0.0
 40
0.8999999999999999
  0
MTEXT
  5
331
330
329
100
AcDbEntity
  8
1
  6
Continuous
 62
     7
370
     9
100
AcDbMText
 10
668.2500001530806
 20
19.86428571428571
 30
0.0
 40
10.5
 41
0.0
 46
0.0
 71
     8
 72
     1
  1
340
 73
     1
 44
1.0
  0
ENDBLK
  5
32B
330
329
100
AcDbEntity
  8
0
100
AcDbBlockEnd
  0
BLOCK
  5
388
330
387
100
AcDbEntity
  8
0
100
AcDbBlockBegin
  2
Dim6
 70
     0
 71
     0
 10
0.0
 20
0.0
 30
0.0
  3
Dim6
  1

  0
LINE
  5
38A
330
387
100
AcDbEntity
  8
1
  6
Continuous
 62
     7
370
     9
100
AcDbLine
 10
603.5642860204473
 20
161.0517857142855
 30
0.0
 11
643.5642860204473
 21
161.0517857142855
 31
0.0
  0
LINE
  5
38B
330
387
100
AcDbEntity
  8
1
  6
Continuous
 62
     7
370
     9
100
AcDbLine
 10
603.5642860204473
 20
161.0517857142855
 30
0.0
 11
603.5642860204473
 21
174.2011746987142
 31
0.0
  0
LINE
  5
38C
330
387
100
AcDbEntity
  8
1
  6
Continuous
 62
     7
370
     9
100
AcDbLine
 10
643.5642860204473
 20
161.0517857142855
 30
0.0
 11
643.5642860204473
 21
174.2011746987142
 31
0.0
  0
CIRCLE
  5
38D
330
387
100
AcDbEntity
  8
1
  6
Continuous
 62
     7
370
     9
100
AcDbCircle
 10
603.5642860204473
 20
161.0517857142855
 30
0.0
 40
0.8999999999999999
  0
CIRCLE
  5
38E
330
387
100
AcDbEntity
  8
1
  6
Continuous
 62
     7
370
     9
100
AcDbCircle
 10
643.5642860204473
 20
161.0517857142855
 30
0.0
 40
0.8999999999999999
  0
MTEXT
  5
38F
330
387
100
AcDbEntity
  8
1
  6
Continuous
 62
     7
370
     9
100
AcDbMText
 10
623.5642860204473
 20
166.3017857142855
 30
0.0
 40
10.5
 41
0.0
 46
0.0
 71
     8
 72
     1
  1
40φ
 73
     1
 44
1.0
  0
ENDBLK
  5
389
330
387
100
AcDbEntity
  8
0
100
AcDbBlockEnd
  0
BLOCK
  5
3C5
330
3C4
100
AcDbEntity
  8
0
100
AcDbBlockBegin
  2
Dim7
 70
     0
 71
     0
 10
0.0
 20
0.0
 30
0.0
  3
Dim7
  1

  0
LINE
  5
3C7
330
3C4
100
AcDbEntity
  8
1
  6
Continuous
 62
     7
370
     9
100
AcDbLine
 10
712.5642860204473
 20
129.1419642857143
 30
0.0
 11
832.5642860204473
 21
129.1419642857143
 31
0.0
  0
LINE
  5
3C8
330
3C4
100
AcDbEntity
  8
1
  6
Continuous
 62
     7
370
     9
100
AcDbLine
 10
712.5642860204473
 20
129.1419642857143
 30
0.0
 11
712.5642860204473
 21
127.5991071428571
 31
0.0
  0
LINE
  5
3C9
330
3C4
100
AcDbEntity
  8
1
  6
Continuous
 62
     7
370
     9
100
AcDbLine
 10
832.5642860204473
 20
129.1419642857143
 30
0.0
 11
832.5642860204473
 21
125.9491071428571
 31
0.0
  0
CIRCLE
  5
3CA
330
3C4
100
AcDbEntity
  8
1
  6
Continuous
 62
     7
370
     9
100
AcDbCircle
 10
712.5642860204473
 20
129.1419642857143
 30
0.0
 40
0.8999999999999999
  0
CIRCLE
  5
3CB
330
3C4
100
AcDbEntity
  8
1
  6
Continuous
 62
     7
370
     9
100
AcDbCircle
 10
832.5642860204473
 20
129.1419642857143
 30
0.0
 40
0.8999999999999999
  0
MTEXT
  5
3CC
330
3C4
100
AcDbEntity
  8
1
  6
Continuous
 62
     7
370
     9
100
AcDbMText
 10
772.5642860204473
 20
134.3919642857143
 30
0.0
 40
10.5
 41
0.0
 46
0.0
 71
     8
 72
     1
  1
120
 73
     1
 44
1.0
  0
ENDBLK
  5
3C6
330
3C4
100
AcDbEntity
  8
0
100
AcDbBlockEnd
  0
BLOCK
  5
3D2
330
3D1
100
AcDbEntity
  8
0
100
AcDbBlockBegin
  2
Dim8
 70
     0
 71
     0
 10
0.0
 20
0.0
 30
0.0
  3
Dim8
  1

  0
LINE
  5
3D4
330
3D1
100
AcDbEntity
  8
1
  6
Continuous
 62
     7
370
     9
100
AcDbLine
 10
712.5642860204473
 20
145.6419642857143
 30
0.0
 11
724.5642860204473
 21
145.6419642857143
 31
0.0
  0
LINE
  5
3D5
330
3D1
100
AcDbEntity
  8
1
  6
Continuous
 62
     7
370
     9
100
AcDbLine
 10
712.5642860204473
 20
145.6419642857143
 30
0.0
 11
712.5642860204473
 21
146.5741071428571
 31
0.0
  0
LINE
  5
3D6
330
3D1
100
AcDbEntity
  8
1
  6
Continuous
 62
     7
370
     9
100
AcDbLine
 10
724.5642860204473
 20
145.6419642857143
 30
0.0
 11
724.5642860204473
 21
145.3955357142857
 31
0.0
  0
CIRCLE
  5
3D7
330
3D1
100
AcDbEntity
  8
1
  6
Continuous
 62
     7
370
     9
100
AcDbCircle
 10
712.5642860204473
 20
145.6419642857143
 30
0.0
 40
0.8999999999999999
  0
CIRCLE
  5
3D8
330
3D1
100
AcDbEntity
  8
1
  6
Continuous
 62
     7
370
     9
100
AcDbCircle
 10
724.5642860204473
 20
145.6419642857143
 30
0.0
 40
0.8999999999999999
  0
MTEXT
  5
3D9
330
3D1
100
AcDbEntity
  8
1
  6
Continuous
 62
     7
370
     9
100
AcDbMText
 10
718.5642860204473
 20
150.8919642857143
 30
0.0
 40
10.5
 41
0.0
 46
0.0
 71
     8
 72
     1
  1
12
 73
     1
 44
1.0
  0
ENDBLK
  5
3D3
330
3D1
100
AcDbEntity
  8
0
100
AcDbBlockEnd
  0
BLOCK
  5
3DC
330
3DB
100
AcDbEntity
  8
0
100
AcDbBlockBegin
  2
Dim9
 70
     0
 71
     0
 10
0.0
 20
0.0
 30
0.0
  3
Dim9
  1

  0
LINE
  5
3DE
330
3DB
100
AcDbEntity
  8
1
  6
Continuous
 62
     7
370
     9
100
AcDbLine
 10
724.5642860204473
 20
145.6419642857143
 30
0.0
 11
746.5642860204473
 21
145.6419642857143
 31
0.0
  0
LINE
  5
3DF
330
3DB
100
AcDbEntity
  8
1
  6
Continuous
 62
     7
370
     9
100
AcDbLine
 10
724.5642860204473
 20
145.6419642857143
 30
0.0
 11
724.5642860204473
 21
146.6919642857142
 31
0.0
  0
LINE
  5
3E0
330
3DB
100
AcDbEntity
  8
1
  6
Continuous
 62
     7
370
     9
100
AcDbLine
 10
746.5642860204473
 20
145.6419642857143
 30
0.0
 11
746.5642860204473
 21
145.9848214285714
 31
0.0
  0
CIRCLE
  5
3E1
330
3DB
100
AcDbEntity
  8
1
  6
Continuous
 62
     7
370
     9
100
AcDbCircle
 10
724.5642860204473
 20
145.6419642857143
 30
0.0
 40
0.8999999999999999
  0
CIRCLE
  5
3E2
330
3DB
100
AcDbEntity
  8
1
  6
Continuous
 62
     7
370
     9
100
AcDbCircle
 10
746.5642860204473
 20
145.6419642857143
 30
0.0
 40
0.8999999999999999
  0
MTEXT
  5
3E3
330
3DB
100
AcDbEntity
  8
1
  6
Continuous
 62
     7
370
     9
100
AcDbMText
 10
735.5642860204473
 20
150.8919642857143
 30
0.0
 40
10.5
 41
0.0
 46
0.0
 71
     8
 72
     1
  1
22
 73
     1
 44
1.0
  0
ENDBLK
  5
3DD
330
3DB
100
AcDbEntity
  8
0
100
AcDbBlockEnd
  0
BLOCK
  5
437
330
436
100
AcDbEntity
  8
0
100
AcDbBlockBegin
  2
Dim10
 70
     0
 71
     0
 10
0.0
 20
0.0
 30
0.0
  3
Dim10
  1

  0
LINE
  5
439
330
436
100
AcDbEntity
  8
1
  6
Continuous
 62
     7
370
     9
100
AcDbLine
 10
419.080372107853
 20
154.0098214285705
 30
0.0
 11
444.0803721078526
 21
154.0098214285705
 31
0.0
  0
LINE
  5
43A
330
436
100
AcDbEntity
  8
1
  6
Continuous
 62
     7
370
     9
100
AcDbLine
 10
419.080372107853
 20
154.0098214285705
 30
0.0
 11
419.080372107853
 21
145.7491071428561
 31
0.0
  0
LINE
  5
43B
330
436
100
AcDbEntity
  8
1
  6
Continuous
 62
     7
370
     9
100
AcDbLine
 10
444.0803721078526
 20
154.0098214285705
 30
0.0
 11
444.0803721078526
 21
145.7491071428561
 31
0.0
  0
CIRCLE
  5
43C
330
436
100
AcDbEntity
  8
1
  6
Continuous
 62
     7
370
     9
100
AcDbCircle
 10
419.080372107853
 20
154.0098214285705
 30
0.0
 40
0.8999999999999999
  0
CIRCLE
  5
43D
330
436
100
AcDbEntity
  8
1
  6
Continuous
 62
     7
370
     9
100
AcDbCircle
 10
444.0803721078526
 20
154.0098214285705
 30
0.0
 40
0.8999999999999999
  0
MTEXT
  5
43E
330
436
100
AcDbEntity
  8
1
  6
Continuous
 62
     7
370
     9
100
AcDbMText
 10
431.5803721078528
 20
159.2598214285705
 30
0.0
 40
10.5
 41
0.0
 46
0.0
 71
     8
 72
     1
  1
50
 73
     1
 44
1.0
  0
ENDBLK
  5
438
330
436
100
AcDbEntity
  8
0
100
AcDbBlockEnd
  0
BLOCK
  5
441
330
440
100
AcDbEntity
  8
0
100
AcDbBlockBegin
  2
Dim11
 70
     0
 71
     0
 10
0.0
 20
0.0
 30
0.0
  3
Dim11
  1

  0
LINE
  5
443
330
440
100
AcDbEntity
  8
1
  6
Continuous
 62
     7
370
     9
100
AcDbLine
 10
444.080372107853
 20
154.0098214285705
 30
0.0
 11
469.0803721078531
 21
154.0098214285705
 31
0.0
  0
LINE
  5
444
330
440
100
AcDbEntity
  8
1
  6
Continuous
 62
     7
370
     9
100
AcDbLine
 10
444.080372107853
 20
154.0098214285705
 30
0.0
 11
444.080372107853
 21
145.7491071428561
 31
0.0
  0
LINE
  5
445
330
440
100
AcDbEntity
  8
1
  6
Continuous
 62
     7
370
     9
100
AcDbLine
 10
469.0803721078531
 20
154.0098214285705
 30
0.0
 11
469.0803721078531
 21
145.7491071428561
 31
0.0
  0
CIRCLE
  5
446
330
440
100
AcDbEntity
  8
1
  6
Continuous
 62
     7
370
     9
100
AcDbCircle
 10
444.080372107853
 20
154.0098214285705
 30
0.0
 40
0.8999999999999999
  0
CIRCLE
  5
447
330
440
100
AcDbEntity
  8
1
  6
Continuous
 62
     7
370
     9
100
AcDbCircle
 10
469.0803721078531
 20
154.0098214285705
 30
0.0
 40
0.8999999999999999
  0
MTEXT
  5
448
330
440
100
AcDbEntity
  8
1
  6
Continuous
 62
     7
370
     9
100
AcDbMText
 10
456.580372107853
 20
159.2598214285705
 30
0.0
 40
10.5
 41
0.0
 46
0.0
 71
     8
 72
     1
  1
50
 73
     1
 44
1.0
  0
ENDBLK
  5
442
330
440
100
AcDbEntity
  8
0
100
AcDbBlockEnd
  0
BLOCK
  5
465
330
464
100
AcDbEntity
  8
0
100
AcDbBlockBegin
  2
*G30
 70
     1
 71
     0
 10
0.0
 20
0.0
 30
0.0
  3
*G30
  1

  0
TEXT
  5
467
330
464
100
AcDbEntity
  8
1
  6
Continuous
 62
     7
370
     9
100
AcDbText
 10
406.3202795515259
 20
107.0318009980905
 30
0.0
 40
9.0
  1
ベース面
100
AcDbText
  0
ENDBLK
  5
466
330
464
100
AcDbEntity
  8
0
100
AcDbBlockEnd
  0
BLOCK
  5
4B4
330
4B3
100
AcDbEntity
  8
0
100
AcDbBlockBegin
  2
*G31
 70
     1
 71
     0
 10
0.0
 20
0.0
 30
0.0
  3
*G31
  1

  0
LINE
  5
4B6
330
4B3
100
AcDbEntity
  8
1
  6
Continuous
 62
     7
370
     9
100
AcDbLine
 10
462.5067789790459
 20
191.7491071428561
 30
0.0
 11
464.080372107853
 21
193.3227002716633
 31
0.0
  0
LINE
  5
4B7
330
4B3
100
AcDbEntity
  8
1
  6
Continuous
 62
     7
370
     9
100
AcDbLine
 10
452.2641382919265
 20
185.7491071428561
 30
0.0
 11
453.2548113659305
 21
186.7397802168601
 31
0.0
  0
LINE
  5
4B8
330
4B3
100
AcDbEntity
  8
1
  6
Continuous
 62
     7
370
     9
100
AcDbLine
 10
458.2641382919265
 20
191.7491071428561
 30
0.0
 11
464.080372107853
 21
197.5653409587826
 31
0.0
  0
LINE
  5
4B9
330
4B3
100
AcDbEntity
  8
1
  6
Continuous
 62
     7
370
     9
100
AcDbLine
 10
448.0214976048072
 20
185.7491071428561
 30
0.0
 11
451.3263383263308
 21
189.0539478643797
 31
0.0
  0
LINE
  5
4BA
330
4B3
100
AcDbEntity
  8
1
  6
Continuous
 62
     7
370
     9
100
AcDbLine
 10
454.0214976048072
 20
191.7491071428561
 30
0.0
 11
464.080372107853
 21
201.8079816459019
 31
0.0
  0
LINE
  5
4BB
330
4B3
100
AcDbEntity
  8
1
  6
Continuous
 62
     7
370
     9
100
AcDbLine
 10
443.7788569176878
 20
185.7491071428561
 30
0.0
 11
449.3978652867311
 21
191.3681155118993
 31
0.0
  0
LINE
  5
4BC
330
4B3
100
AcDbEntity
  8
1
  6
Continuous
 62
     7
370
     9
100
AcDbLine
 10
449.7788569176879
 20
191.7491071428561
 30
0.0
 11
460.7788569176879
 21
202.7491071428561
 31
0.0
  0
LINE
  5
4BD
330
4B3
100
AcDbEntity
  8
1
  6
Continuous
 62
     7
370
     9
100
AcDbLine
 10
439.5362162305685
 20
185.7491071428561
 30
0.0
 11
456.5362162305686
 21
202.7491071428561
 31
0.0
  0
LINE
  5
4BE
330
4B3
100
AcDbEntity
  8
1
  6
Continuous
 62
     7
370
     9
100
AcDbLine
 10
435.2935755434492
 20
185.7491071428561
 30
0.0
 11
452.2935755434493
 21
202.7491071428561
 31
0.0
  0
LINE
  5
4BF
330
4B3
100
AcDbEntity
  8
1
  6
Continuous
 62
     7
370
     9
100
AcDbLine
 10
437.0509348563299
 20
191.7491071428561
 30
0.0
 11
449.0803722609338
 21
203.77854454746
 31
0.0
  0
LINE
  5
4C0
330
4B3
100
AcDbEntity
  8
1
  6
Continuous
 62
     7
370
     9
100
AcDbLine
 10
432.8082941692106
 20
191.7491071428561
 30
0.0
 11
449.0803722609338
 21
208.0211852345793
 31
0.0
  0
LINE
  5
4C1
330
4B3
100
AcDbEntity
  8
1
  6
Continuous
 62
     7
370
     9
100
AcDbLine
 10
428.5656534820912
 20
191.7491071428561
 30
0.0
 11
449.0803722609338
 21
212.2638259216986
 31
0.0
  0
LINE
  5
4C2
330
4B3
100
AcDbEntity
  8
1
  6
Continuous
 62
     7
370
     9
100
AcDbLine
 10
424.3230127949719
 20
191.7491071428561
 30
0.0
 11
435.323012794972
 21
202.7491071428561
 31
0.0
  0
LINE
  5
4C3
330
4B3
100
AcDbEntity
  8
1
  6
Continuous
 62
     7
370
     9
100
AcDbLine
 10
439.080372107853
 20
206.5064664557372
 30
0.0
 11
449.0803722609338
 21
216.5064666088179
 31
0.0
  0
LINE
  5
4C4
330
4B3
100
AcDbEntity
  8
1
  6
Continuous
 62
     7
370
     9
100
AcDbLine
 10
424.080372107853
 20
195.7491071428565
 30
0.0
 11
431.0803721078527
 21
202.7491071428561
 31
0.0
  0
LINE
  5
4C5
330
4B3
100
AcDbEntity
  8
1
  6
Continuous
 62
     7
370
     9
100
AcDbLine
 10
439.080372107853
 20
210.7491071428564
 30
0.0
 11
449.0803722609338
 21
220.7491072959372
 31
0.0
  0
LINE
  5
4C6
330
4B3
100
AcDbEntity
  8
1
  6
Continuous
 62
     7
370
     9
100
AcDbLine
 10
424.080372107853
 20
199.9917478299758
 30
0.0
 11
426.8377314207333
 21
202.7491071428561
 31
0.0
  0
LINE
  5
4C7
330
4B3
100
AcDbEntity
  8
1
  6
Continuous
 62
     7
370
     9
100
AcDbLine
 10
439.080372107853
 20
214.9917478299758
 30
0.0
 11
449.0803722609338
 21
224.9917479830565
 31
0.0
  0
LINE
  5
4C8
330
4B3
100
AcDbEntity
  8
1
  6
Continuous
 62
     7
370
     9
100
AcDbLine
 10
439.080372107853
 20
219.2343885170951
 30
0.0
 11
449.0803722609338
 21
229.2343886701759
 31
0.0
  0
LINE
  5
4C9
330
4B3
100
AcDbEntity
  8
1
  6
Continuous
 62
     7
370
     9
100
AcDbLine
 10
439.080372107853
 20
223.4770292042144
 30
0.0
 11
449.0803722609338
 21
233.4770293572952
 31
0.0
  0
LINE
  5
4CA
330
4B3
100
AcDbEntity
  8
1
  6
Continuous
 62
     7
370
     9
100
AcDbLine
 10
439.080372107853
 20
227.7196698913337
 30
0.0
 11
449.0803722609338
 21
237.7196700444145
 31
0.0
  0
LINE
  5
4CB
330
4B3
100
AcDbEntity
  8
1
  6
Continuous
 62
     7
370
     9
100
AcDbLine
 10
439.080372107853
 20
231.962310578453
 30
0.0
 11
449.0803722609338
 21
241.9623107315338
 31
0.0
  0
LINE
  5
4CC
330
4B3
100
AcDbEntity
  8
1
  6
Continuous
 62
     7
370
     9
100
AcDbLine
 10
439.080372107853
 20
236.2049512655723
 30
0.0
 11
447.8761331494022
 21
245.0007123071215
 31
0.0
  0
LINE
  5
4CD
330
4B3
100
AcDbEntity
  8
1
  6
Continuous
 62
     7
370
     9
100
AcDbLine
 10
439.080372107853
 20
240.4475919526916
 30
0.0
 11
444.3774728802163
 21
245.744692725055
 31
0.0
  0
ENDBLK
  5
4B5
330
4B3
100
AcDbEntity
  8
0
100
AcDbBlockEnd
  0
BLOCK
  5
4D0
330
4CF
100
AcDbEntity
  8
0
100
AcDbBlockBegin
  2
Dim12
 70
     0
 71
     0
 10
0.0
 20
0.0
 30
0.0
  3
Dim12
  1

  0
LINE
  5
4D2
330
4CF
100
AcDbEntity
  8
1
  6
Continuous
 62
     7
370
     9
100
AcDbLine
 10
467.4016759776537
 20
84.53061224489802
 30
0.0
 11
467.4016759776537
 21
41.53061224489802
 31
0.0
  0
LINE
  5
4D3
330
4CF
100
AcDbEntity
  8
1
  6
Continuous
 62
     7
370
     9
100
AcDbLine
 10
461.4016759776537
 20
84.53061224489804
 30
0.0
 11
529.8444134078213
 21
84.53061224489785
 31
0.0
  0
LINE
  5
4D4
330
4CF
100
AcDbEntity
  8
1
  6
Continuous
 62
     7
370
     9
100
AcDbLine
 10
461.4016759776537
 20
41.53061224489804
 30
0.0
 11
526.6089385474861
 21
41.53061224489785
 31
0.0
  0
LINE
  5
4D5
330
4CF
100
AcDbEntity
  8
1
  6
Continuous
 62
     7
370
     9
100
AcDbLine
 10
467.4016759776537
 20
84.53061224489802
 30
0.0
 11
470.5075045188839
 21
72.9395023294292
 31
0.0
  0
LINE
  5
4D6
330
4CF
100
AcDbEntity
  8
1
  6
Continuous
 62
     7
370
     9
100
AcDbLine
 10
467.4016759776537
 20
84.53061224489802
 30
0.0
 11
464.2958474364235
 21
72.9395023294292
 31
0.0
  0
LINE
  5
4D7
330
4CF
100
AcDbEntity
  8
1
  6
Continuous
 62
     7
370
     9
100
AcDbLine
 10
470.5075045188839
 20
72.9395023294292
 30
0.0
 11
464.2958474364235
 21
72.9395023294292
 31
0.0
  0
LINE
  5
4D8
330
4CF
100
AcDbEntity
  8
1
  6
Continuous
 62
     7
370
     9
100
AcDbLine
 10
467.4016759776537
 20
81.63283476603081
 30
0.0
 11
468.9545902482688
 21
75.8372798082964
 31
0.0
  0
LINE
  5
4D9
330
4CF
100
AcDbEntity
  8
1
  6
Continuous
 62
     7
370
     9
100
AcDbLine
 10
467.4016759776537
 20
81.63283476603081
 30
0.0
 11
465.8487617070385
 21
75.8372798082964
 31
0.0
  0
LINE
  5
4DA
330
4CF
100
AcDbEntity
  8
1
  6
Continuous
 62
     7
370
     9
100
AcDbLine
 10
468.9545902482688
 20
75.8372798082964
 30
0.0
 11
465.8487617070385
 21
75.8372798082964
 31
0.0
  0
LINE
  5
4DB
330
4CF
100
AcDbEntity
  8
1
  6
Continuous
 62
     7
370
     9
100
AcDbLine
 10
467.4016759776537
 20
41.53061224489802
 30
0.0
 11
464.2958474364235
 21
53.12172216036685
 31
0.0
  0
LINE
  5
4DC
330
4CF
100
AcDbEntity
  8
1
  6
Continuous
 62
     7
370
     9
100
AcDbLine
 10
467.4016759776537
 20
41.53061224489802
 30
0.0
 11
470.5075045188839
 21
53.12172216036684
 31
0.0
  0
LINE
  5
4DD
330
4CF
100
AcDbEntity
  8
1
  6
Continuous
 62
     7
370
     9
100
AcDbLine
 10
464.2958474364235
 20
53.12172216036685
 30
0.0
 11
470.5075045188839
 21
53.12172216036684
 31
0.0
  0
LINE
  5
4DE
330
4CF
100
AcDbEntity
  8
1
  6
Continuous
 62
     7
370
     9
100
AcDbLine
 10
467.4016759776537
 20
44.42838972376523
 30
0.0
 11
465.8487617070385
 21
50.22394468149964
 31
0.0
  0
LINE
  5
4DF
330
4CF
100
AcDbEntity
  8
1
  6
Continuous
 62
     7
370
     9
100
AcDbLine
 10
467.4016759776537
 20
44.42838972376523
 30
0.0
 11
468.9545902482688
 21
50.22394468149964
 31
0.0
  0
LINE
  5
4E0
330
4CF
100
AcDbEntity
  8
1
  6
Continuous
 62
     7
370
     9
100
AcDbLine
 10
465.8487617070385
 20
50.22394468149964
 30
0.0
 11
468.9545902482688
 21
50.22394468149964
 31
0.0
  0
MTEXT
  5
4E1
330
4CF
100
AcDbEntity
  8
1
  6
Continuous
 62
     7
370
     9
100
AcDbMText
 10
461.4016759776537
 20
63.03061224489803
 30
0.0
 40
12.0
 41
0.0
 46
0.0
 71
     8
 72
     1
  1
 
 11
1.615544574432587E-15
 21
1.0
 31
0.0
 73
     1
 44
1.0
  0
ENDBLK
  5
4D1
330
4CF
100
AcDbEntity
  8
0
100
AcDbBlockEnd
  0
ENDSEC
  0
SECTION
  2
ENTITIES
  0
LINE
  5
96
330
1F
100
AcDbEntity
  8
1
  6
Continuous
 62
     7
370
     9
100
AcDbLine
 10
130.95
 20
55.53061224489784
 30
0.0
 11
129.75
 21
41.53061224489784
 31
0.0
  0
LINE
  5
97
330
1F
100
AcDbEntity
  8
1
  6
Continuous
 62
     7
370
     9
100
AcDbLine
 10
314.55
 20
55.53061224489784
 30
0.0
 11
315.75
 21
41.53061224489784
 31
0.0
  0
LINE
  5
98
330
1F
100
AcDbEntity
  8
1
  6
Continuous
 62
     7
370
     9
100
AcDbLine
 10
129.75
 20
41.53061224489784
 30
0.0
 11
167.7010683309588
 21
41.53061224489784
 31
0.0
  0
LINE
  5
99
330
1F
100
AcDbEntity
  8
1
  6
Continuous
 62
     7
370
     9
100
AcDbLine
 10
174.7143120664289
 20
48.54385598036791
 30
0.0
 11
167.7010683309588
 21
41.53061224489784
 31
0.0
  0
LINE
  5
9A
330
1F
100
AcDbEntity
  8
1
  6
Continuous
 62
     7
370
     9
100
AcDbLine
 10
174.7143120664289
 20
48.54385598036791
 30
0.0
 11
270.7856879335711
 21
48.54385598036791
 31
0.0
  0
LINE
  5
9B
330
1F
100
AcDbEntity
  8
1
  6
Continuous
 62
     7
370
     9
100
AcDbLine
 10
270.7856879335711
 20
48.54385598036791
 30
0.0
 11
277.7989316690412
 21
41.53061224489784
 31
0.0
  0
LINE
  5
9C
330
1F
100
AcDbEntity
  8
1
  6
Continuous
 62
     7
370
     9
100
AcDbLine
 10
277.7989316690412
 20
41.53061224489784
 30
0.0
 11
315.75
 21
41.53061224489784
 31
0.0
  0
LINE
  5
9D
330
1F
100
AcDbEntity
  8
1
  6
Continuous
 62
     7
370
     9
100
AcDbLine
 10
72.75
 20
55.53061224489784
 30
0.0
 11
372.75
 21
55.53061224489784
 31
0.0
  0
LINE
  5
9E
330
1F
100
AcDbEntity
  8
1
  6
Continuous
 62
     7
370
     9
100
AcDbLine
 10
72.75
 20
58.53061224489784
 30
0.0
 11
372.75
 21
58.53061224489784
 31
0.0
  0
LINE
  5
9F
330
1F
100
AcDbEntity
  8
1
  6
Continuous
 62
     7
370
     9
100
AcDbLine
 10
73.75
 20
58.53061224489784
 30
0.0
 11
73.75
 21
97.53061224489784
 31
0.0
  0
LINE
  5
A0
330
1F
100
AcDbEntity
  8
1
  6
Continuous
 62
     7
370
     9
100
AcDbLine
 10
73.75
 20
97.53061224489784
 30
0.0
 11
75.75
 21
99.53061224489784
 31
0.0
  0
LINE
  5
A1
330
1F
100
AcDbEntity
  8
1
  6
Continuous
 62
     7
370
     9
100
AcDbLine
 10
75.75
 20
99.53061224489784
 30
0.0
 11
111.75
 21
99.53061224489784
 31
0.0
  0
LINE
  5
A2
330
1F
100
AcDbEntity
  8
1
  6
Continuous
 62
     7
370
     9
100
AcDbLine
 10
113.75
 20
58.53061224489784
 30
0.0
 11
113.75
 21
97.53061224489784
 31
0.0
  0
LINE
  5
A3
330
1F
100
AcDbEntity
  8
1
  6
Continuous
 62
     7
370
     9
100
AcDbLine
 10
111.75
 20
99.53061224489784
 30
0.0
 11
113.75
 21
97.53061224489784
 31
0.0
  0
LINE
  5
A4
330
1F
100
AcDbEntity
  8
1
  6
Continuous
 62
     7
370
     9
100
AcDbLine
 10
73.75
 20
97.53061224489784
 30
0.0
 11
113.75
 21
97.53061224489784
 31
0.0
  0
LINE
  5
A5
330
1F
100
AcDbEntity
  8
1
  6
Continuous
 62
     7
370
     9
100
AcDbLine
 10
72.75
 20
92.53061224489784
 30
0.0
 11
72.75
 21
55.53061224489784
 31
0.0
  0
LINE
  5
A6
330
1F
100
AcDbEntity
  8
1
  6
Continuous
 62
     7
370
     9
100
AcDbLine
 10
73.75
 20
92.53061224489784
 30
0.0
 11
72.75
 21
92.53061224489784
 31
0.0
  0
LINE
  5
A7
330
1F
100
AcDbEntity
  8
1
  6
Continuous
 62
     7
370
     9
100
AcDbLine
 10
78.75
 20
101.5306122448978
 30
0.0
 11
78.75
 21
99.53061224489784
 31
0.0
  0
LINE
  5
A8
330
1F
100
AcDbEntity
  8
1
  6
Continuous
 62
     7
370
     9
100
AcDbLine
 10
78.75
 20
101.5306122448978
 30
0.0
 11
108.7500003061617
 21
101.5306122448978
 31
0.0
  0
LINE
  5
A9
330
1F
100
AcDbEntity
  8
1
  6
Continuous
 62
     7
370
     9
100
AcDbLine
 10
108.7500003061617
 20
101.5306122448978
 30
0.0
 11
108.7500003061617
 21
99.53061224489784
 31
0.0
  0
LINE
  5
AA
330
1F
100
AcDbEntity
  8
1
  6
Continuous
 62
     7
370
     9
100
AcDbLine
 10
222.75
 20
65.53061224489784
 30
0.0
 11
113.75
 21
65.53061224489784
 31
0.0
  0
LINE
  5
AB
330
1F
100
AcDbEntity
  8
1
  6
Continuous
 62
     7
370
     9
100
AcDbLine
 10
113.75
 20
97.53061224489784
 30
0.0
 11
124.2855339059328
 21
86.99507833896507
 31
0.0
  0
LINE
  5
AC
330
1F
100
AcDbEntity
  8
1
  6
Continuous
 62
     7
370
     9
100
AcDbLine
 10
222.75
 20
85.53061224489784
 30
0.0
 11
127.8210678118655
 21
85.53061224489784
 31
0.0
  0
ARC
  5
AD
330
1F
100
AcDbEntity
  8
1
  6
Continuous
 62
     7
370
     9
100
AcDbCircle
 10
127.8210678118655
 20
90.53061224489784
 30
0.0
 40
5.0
100
AcDbArc
 50
224.9999999999996
 51
269.9999999999998
  0
LINE
  5
AE
330
1F
100
AcDbEntity
  8
1
  6
Continuous
 62
     7
370
     9
100
AcDbLine
 10
132.5056421355315
 20
85.53061224489784
 30
0.0
 11
132.5056421355315
 21
89.53061224489784
 31
0.0
  0
LINE
  5
AF
330
1F
100
AcDbEntity
  8
1
  6
Continuous
 62
     7
370
     9
100
AcDbLine
 10
222.75
 20
89.53061224489784
 30
0.0
 11
132.5056421355315
 21
89.53061224489784
 31
0.0
  0
LINE
  5
B0
330
1F
100
AcDbEntity
  8
1
  6
Continuous
 62
     7
370
     9
100
AcDbLine
 10
371.75
 20
58.53061224489784
 30
0.0
 11
371.75
 21
97.53061224489784
 31
0.0
  0
LINE
  5
B1
330
1F
100
AcDbEntity
  8
1
  6
Continuous
 62
     7
370
     9
100
AcDbLine
 10
371.75
 20
97.53061224489784
 30
0.0
 11
369.75
 21
99.53061224489784
 31
0.0
  0
LINE
  5
B2
330
1F
100
AcDbEntity
  8
1
  6
Continuous
 62
     7
370
     9
100
AcDbLine
 10
369.75
 20
99.53061224489784
 30
0.0
 11
333.75
 21
99.53061224489784
 31
0.0
  0
LINE
  5
B3
330
1F
100
AcDbEntity
  8
1
  6
Continuous
 62
     7
370
     9
100
AcDbLine
 10
331.75
 20
58.53061224489784
 30
0.0
 11
331.75
 21
97.53061224489784
 31
0.0
  0
LINE
  5
B4
330
1F
100
AcDbEntity
  8
1
  6
Continuous
 62
     7
370
     9
100
AcDbLine
 10
333.75
 20
99.53061224489784
 30
0.0
 11
331.75
 21
97.53061224489784
 31
0.0
  0
LINE
  5
B5
330
1F
100
AcDbEntity
  8
1
  6
Continuous
 62
     7
370
     9
100
AcDbLine
 10
371.75
 20
97.53061224489784
 30
0.0
 11
331.75
 21
97.53061224489784
 31
0.0
  0
LINE
  5
B6
330
1F
100
AcDbEntity
  8
1
  6
Continuous
 62
     7
370
     9
100
AcDbLine
 10
372.75
 20
92.53061224489784
 30
0.0
 11
372.75
 21
55.53061224489784
 31
0.0
  0
LINE
  5
B7
330
1F
100
AcDbEntity
  8
1
  6
Continuous
 62
     7
370
     9
100
AcDbLine
 10
371.75
 20
92.53061224489784
 30
0.0
 11
372.75
 21
92.53061224489784
 31
0.0
  0
LINE
  5
B8
330
1F
100
AcDbEntity
  8
1
  6
Continuous
 62
     7
370
     9
100
AcDbLine
 10
366.75
 20
101.5306122448978
 30
0.0
 11
366.75
 21
99.53061224489784
 31
0.0
  0
LINE
  5
B9
330
1F
100
AcDbEntity
  8
1
  6
Continuous
 62
     7
370
     9
100
AcDbLine
 10
366.75
 20
101.5306122448978
 30
0.0
 11
336.7499996938383
 21
101.5306122448978
 31
0.0
  0
LINE
  5
BA
330
1F
100
AcDbEntity
  8
1
  6
Continuous
 62
     7
370
     9
100
AcDbLine
 10
336.7499996938383
 20
101.5306122448978
 30
0.0
 11
336.7499996938383
 21
99.53061224489784
 31
0.0
  0
LINE
  5
BB
330
1F
100
AcDbEntity
  8
1
  6
Continuous
 62
     7
370
     9
100
AcDbLine
 10
222.75
 20
65.53061224489784
 30
0.0
 11
331.75
 21
65.53061224489784
 31
0.0
  0
LINE
  5
BC
330
1F
100
AcDbEntity
  8
1
  6
Continuous
 62
     7
370
     9
100
AcDbLine
 10
331.75
 20
97.53061224489784
 30
0.0
 11
321.2144660940672
 21
86.99507833896507
 31
0.0
  0
LINE
  5
BD
330
1F
100
AcDbEntity
  8
1
  6
Continuous
 62
     7
370
     9
100
AcDbLine
 10
222.75
 20
85.53061224489784
 30
0.0
 11
317.6789321881345
 21
85.53061224489784
 31
0.0
  0
ARC
  5
BE
330
1F
100
AcDbEntity
  8
1
  6
Continuous
 62
     7
370
     9
100
AcDbCircle
 10
317.6789321881345
 20
90.53061224489784
 30
0.0
 40
5.0
100
AcDbArc
 50
269.9999999999998
 51
314.9999999999997
  0
LINE
  5
BF
330
1F
100
AcDbEntity
  8
1
  6
Continuous
 62
     7
370
     9
100
AcDbLine
 10
312.9943578644685
 20
85.53061224489784
 30
0.0
 11
312.9943578644685
 21
89.53061224489784
 31
0.0
  0
LINE
  5
C0
330
1F
100
AcDbEntity
  8
1
  6
Continuous
 62
     7
370
     9
100
AcDbLine
 10
222.75
 20
89.53061224489784
 30
0.0
 11
312.9943578644685
 21
89.53061224489784
 31
0.0
  0
CIRCLE
  5
C1
330
1F
100
AcDbEntity
  8
1
  6
Continuous
 62
     7
370
     9
100
AcDbCircle
 10
173.1424664598571
 20
71.29931336082615
 30
0.0
 40
4.0
  0
CIRCLE
  5
C2
330
1F
100
AcDbEntity
  8
1
  6
Continuous
 62
     7
370
     9
100
AcDbCircle
 10
173.1424664598571
 20
71.29931336082615
 30
0.0
 40
2.0
  0
CIRCLE
  5
C3
330
1F
100
AcDbEntity
  8
1
  6
Continuous
 62
     7
370
     9
100
AcDbCircle
 10
272.3575335401429
 20
71.29931336082615
 30
0.0
 40
4.0
  0
CIRCLE
  5
C4
330
1F
100
AcDbEntity
  8
1
  6
Continuous
 62
     7
370
     9
100
AcDbCircle
 10
272.3575335401429
 20
71.29931336082615
 30
0.0
 40
2.0
  0
ARC
  5
C5
330
1F
100
AcDbEntity
  8
1
  6
Continuous
 62
     7
370
     9
100
AcDbCircle
 10
161.75
 20
314.0883356462426
 30
0.0
 40
3.0
100
AcDbArc
 50
89.99999999999991
 51
179.9999999999998
  0
LINE
  5
C6
330
1F
100
AcDbEntity
  8
1
  6
Continuous
 62
     7
370
     9
100
AcDbLine
 10
158.75
 20
314.0883356462426
 30
0.0
 11
158.75
 21
191.2011746987141
 31
0.0
  0
ARC
  5
C7
330
1F
100
AcDbEntity
  8
1
  6
Continuous
 62
     7
370
     9
100
AcDbCircle
 10
161.75
 20
191.2011746987142
 30
0.0
 40
3.0
100
AcDbArc
 50
180.0000000000007
 51
269.9999999999998
  0
LINE
  5
C8
330
1F
100
AcDbEntity
  8
1
  6
Continuous
 62
     7
370
     9
100
AcDbLine
 10
161.75
 20
188.2011746987142
 30
0.0
 11
283.75
 21
188.2011746987142
 31
0.0
  0
ARC
  5
C9
330
1F
100
AcDbEntity
  8
1
  6
Continuous
 62
     7
370
     9
100
AcDbCircle
 10
283.75
 20
191.2011746987142
 30
0.0
 40
3.0
100
AcDbArc
 50
269.9999999999998
 51
359.9999999999986
  0
LINE
  5
CA
330
1F
100
AcDbEntity
  8
1
  6
Continuous
 62
     7
370
     9
100
AcDbLine
 10
161.75
 20
317.0883356462426
 30
0.0
 11
283.7500000000001
 21
317.0883356462426
 31
0.0
  0
LINE
  5
CB
330
1F
100
AcDbEntity
  8
1
  6
Continuous
 62
     7
370
     9
100
AcDbLine
 10
286.75
 20
314.0883356462427
 30
0.0
 11
286.75
 21
191.2011746987141
 31
0.0
  0
ARC
  5
CC
330
1F
100
AcDbEntity
  8
1
  6
Continuous
 62
     7
370
     9
100
AcDbCircle
 10
283.75
 20
314.0883356462426
 30
0.0
 40
3.0
100
AcDbArc
 50
0.0000000000021713
 51
89.99999999999784
  0
LINE
  5
CD
330
1F
100
AcDbEntity
  8
1
  6
Continuous
 62
     7
370
     9
100
AcDbLine
 10
182.75
 20
89.53061224489784
 30
0.0
 11
182.75
 21
188.2011746987142
 31
0.0
  0
LINE
  5
CE
330
1F
100
AcDbEntity
  8
1
  6
Continuous
 62
     7
370
     9
100
AcDbLine
 10
158.75
 20
190.2011746987142
 30
0.0
 11
286.75
 21
190.2011746987142
 31
0.0
  0
LINE
  5
CF
330
1F
100
AcDbEntity
  8
1
  6
Continuous
 62
     7
370
     9
100
AcDbLine
 10
158.75
 20
315.0883356462426
 30
0.0
 11
286.75
 21
315.0883356462426
 31
0.0
  0
LINE
  5
D0
330
1F
100
AcDbEntity
  8
1
  6
Continuous
 62
     7
370
     9
100
AcDbLine
 10
158.75
 20
310.0883356462426
 30
0.0
 11
286.75
 21
310.0883356462426
 31
0.0
  0
LINE
  5
D1
330
1F
100
AcDbEntity
  8
1
  6
Continuous
 62
     7
370
     9
100
AcDbLine
 10
158.75
 20
195.2011746987142
 30
0.0
 11
286.75
 21
195.2011746987142
 31
0.0
  0
LINE
  5
D2
330
1F
100
AcDbEntity
  8
1
  6
Continuous
 62
     7
370
     9
100
AcDbLine
 10
262.75
 20
89.53061224489784
 30
0.0
 11
262.75
 21
188.2011746987142
 31
0.0
  0
ARC
  5
D3
330
1F
100
AcDbEntity
  8
1
  6
Continuous
 62
     7
370
     9
100
AcDbCircle
 10
205.75
 20
179.2011746987142
 30
0.0
 40
3.0
100
AcDbArc
 50
179.9999999999995
 51
269.9999999999998
  0
LINE
  5
D4
330
1F
100
AcDbEntity
  8
1
  6
Continuous
 62
     7
370
     9
100
AcDbLine
 10
205.75
 20
176.2011746987142
 30
0.0
 11
239.75
 21
176.2011746987142
 31
0.0
  0
ARC
  5
D5
330
1F
100
AcDbEntity
  8
1
  6
Continuous
 62
     7
370
     9
100
AcDbCircle
 10
239.75
 20
179.2011746987142
 30
0.0
 40
3.0
100
AcDbArc
 50
269.9999999999998
 51
0.0000000000005428
  0
LINE
  5
D6
330
1F
100
AcDbEntity
  8
1
  6
Continuous
 62
     7
370
     9
100
AcDbLine
 10
202.75
 20
188.2011746987142
 30
0.0
 11
202.75
 21
89.53061224489784
 31
0.0
  0
LINE
  5
D7
330
1F
100
AcDbEntity
  8
1
  6
Continuous
 62
     7
370
     9
100
AcDbLine
 10
242.75
 20
188.2011746987142
 30
0.0
 11
242.75
 21
89.53061224489784
 31
0.0
  0
LINE
  5
D8
330
1F
100
AcDbEntity
  8
1
  6
Continuous
 62
     7
370
     9
100
AcDbLine
 10
203.75
 20
188.2011746987142
 30
0.0
 11
203.75
 21
180.2011746987142
 31
0.0
  0
ARC
  5
D9
330
1F
100
AcDbEntity
  8
1
  6
Continuous
 62
     7
370
     9
100
AcDbCircle
 10
206.75
 20
180.2011746987142
 30
0.0
 40
3.0
100
AcDbArc
 50
179.9999999999995
 51
269.9999999999998
  0
LINE
  5
DA
330
1F
100
AcDbEntity
  8
1
  6
Continuous
 62
     7
370
     9
100
AcDbLine
 10
206.75
 20
177.2011746987142
 30
0.0
 11
238.75
 21
177.2011746987142
 31
0.0
  0
LINE
  5
DB
330
1F
100
AcDbEntity
  8
1
  6
Continuous
 62
     7
370
     9
100
AcDbLine
 10
241.75
 20
188.2011746987142
 30
0.0
 11
241.75
 21
180.2011746987142
 31
0.0
  0
ARC
  5
DC
330
1F
100
AcDbEntity
  8
1
  6
Continuous
 62
     7
370
     9
100
AcDbCircle
 10
238.75
 20
180.2011746987142
 30
0.0
 40
3.0
100
AcDbArc
 50
269.9999999999998
 51
0.0000000000005428
  0
CIRCLE
  5
DD
330
1F
100
AcDbEntity
  8
1
  6
Continuous
 62
     7
370
     9
100
AcDbCircle
 10
222.75
 20
183.5368393483556
 30
0.0
 40
3.0
  0
LINE
  5
DE
330
1F
100
AcDbEntity
  8
1
  6
Continuous
 62
     7
370
     9
100
AcDbLine
 10
242.75
 20
317.0883356462426
 30
0.0
 11
242.75
 21
407.252027542473
 31
0.0
  0
LINE
  5
DF
330
1F
100
AcDbEntity
  8
1
  6
Continuous
 62
     7
370
     9
100
AcDbLine
 10
202.75
 20
317.0883356462426
 30
0.0
 11
202.75
 21
407.252027542473
 31
0.0
  0
LINE
  5
E0
330
1F
100
AcDbEntity
  8
1
  6
Continuous
 62
     7
370
     9
100
AcDbLine
 10
182.75
 20
317.0883356462426
 30
0.0
 11
182.75
 21
407.252027542473
 31
0.0
  0
LINE
  5
E1
330
1F
100
AcDbEntity
  8
1
  6
Continuous
 62
     7
370
     9
100
AcDbLine
 10
262.75
 20
317.0883356462426
 30
0.0
 11
262.75
 21
422.252027542473
 31
0.0
  0
LINE
  5
E2
330
1F
100
AcDbEntity
  8
1
  6
Continuous
 62
     7
370
     9
100
AcDbLine
 10
201.25
 20
317.0883356462426
 30
0.0
 11
201.25
 21
398.2520275424731
 31
0.0
  0
ARC
  5
E3
330
1F
100
AcDbEntity
  8
1
  6
Continuous
 62
     7
370
     9
100
AcDbCircle
 10
205.25
 20
398.252027542473
 30
0.0
 40
4.0
100
AcDbArc
 50
89.99999999999837
 51
179.9999999999984
  0
LINE
  5
E4
330
1F
100
AcDbEntity
  8
1
  6
Continuous
 62
     7
370
     9
100
AcDbLine
 10
244.25
 20
317.0883356462426
 30
0.0
 11
244.25
 21
398.2520275424731
 31
0.0
  0
ARC
  5
E5
330
1F
100
AcDbEntity
  8
1
  6
Continuous
 62
     7
370
     9
100
AcDbCircle
 10
240.25
 20
398.252027542473
 30
0.0
 40
4.0
100
AcDbArc
 50
0.0000000000016284
 51
89.99999999999837
  0
LINE
  5
E6
330
1F
100
AcDbEntity
  8
1
  6
Continuous
 62
     7
370
     9
100
AcDbLine
 10
237.75
 20
407.252027542473
 30
0.0
 11
237.75
 21
383.252027542473
 31
0.0
  0
LINE
  5
E7
330
1F
100
AcDbEntity
  8
1
  6
Continuous
 62
     7
370
     9
100
AcDbLine
 10
236.75
 20
317.0883356462426
 30
0.0
 11
236.75
 21
383.252027542473
 31
0.0
  0
LINE
  5
E8
330
1F
100
AcDbEntity
  8
1
  6
Continuous
 62
     7
370
     9
100
AcDbLine
 10
208.75
 20
317.0883356462426
 30
0.0
 11
208.75
 21
383.252027542473
 31
0.0
  0
LINE
  5
E9
330
1F
100
AcDbEntity
  8
1
  6
Continuous
 62
     7
370
     9
100
AcDbLine
 10
207.75
 20
383.252027542473
 30
0.0
 11
237.75
 21
383.252027542473
 31
0.0
  0
LINE
  5
EA
330
1F
100
AcDbEntity
  8
1
  6
Continuous
 62
     7
370
     9
100
AcDbLine
 10
207.75
 20
407.252027542473
 30
0.0
 11
207.75
 21
383.252027542473
 31
0.0
  0
LINE
  5
EB
330
1F
100
AcDbEntity
  8
1
  6
Continuous
 62
     7
370
     9
100
AcDbLine
 10
205.2500000000001
 20
402.252027542473
 30
0.0
 11
207.75
 21
402.252027542473
 31
0.0
  0
LINE
  5
EC
330
1F
100
AcDbEntity
  8
1
  6
Continuous
 62
     7
370
     9
100
AcDbLine
 10
237.75
 20
402.252027542473
 30
0.0
 11
240.2500000000001
 21
402.252027542473
 31
0.0
  0
LINE
  5
ED
330
1F
100
AcDbEntity
  8
1
  6
Continuous
 62
     7
370
     9
100
AcDbLine
 10
211.0785715051118
 20
407.252027542473
 30
0.0
 11
211.0785715051118
 21
416.252027542473
 31
0.0
  0
LINE
  5
EE
330
1F
100
AcDbEntity
  8
1
  6
Continuous
 62
     7
370
     9
100
AcDbLine
 10
211.0785715051118
 20
416.252027542473
 30
0.0
 11
234.4214284948882
 21
416.252027542473
 31
0.0
  0
LINE
  5
EF
330
1F
100
AcDbEntity
  8
1
  6
Continuous
 62
     7
370
     9
100
AcDbLine
 10
234.4214284948882
 20
407.252027542473
 30
0.0
 11
234.4214284948882
 21
416.252027542473
 31
0.0
  0
LINE
  5
F0
330
1F
100
AcDbEntity
  8
1
  6
Continuous
 62
     7
370
     9
100
AcDbLine
 10
230.4214284948882
 20
407.252027542473
 30
0.0
 11
230.4214284948882
 21
416.252027542473
 31
0.0
  0
LINE
  5
F1
330
1F
100
AcDbEntity
  8
1
  6
Continuous
 62
     7
370
     9
100
AcDbLine
 10
215.0785715051118
 20
416.252027542473
 30
0.0
 11
215.0785715051118
 21
407.252027542473
 31
0.0
  0
LINE
  5
F2
330
1F
100
AcDbEntity
  8
1
  6
Continuous
 62
     7
370
     9
100
AcDbLine
 10
232.9509408900684
 20
422.252027542473
 30
0.0
 11
262.75
 21
422.252027542473
 31
0.0
  0
LINE
  5
F3
330
1F
100
AcDbEntity
  8
1
  6
Continuous
 62
     7
370
     9
100
AcDbLine
 10
244.75
 20
422.252027542473
 30
0.0
 11
244.75
 21
427.252027542473
 31
0.0
  0
LINE
  5
F4
330
1F
100
AcDbEntity
  8
1
  6
Continuous
 62
     7
370
     9
100
AcDbLine
 10
260.75
 20
427.252027542473
 30
0.0
 11
244.75
 21
427.252027542473
 31
0.0
  0
LINE
  5
F5
330
1F
100
AcDbEntity
  8
1
  6
Continuous
 62
     7
370
     9
100
AcDbLine
 10
260.75
 20
422.252027542473
 30
0.0
 11
260.75
 21
427.252027542473
 31
0.0
  0
LINE
  5
F6
330
1F
100
AcDbEntity
  8
1
  6
Continuous
 62
     7
370
     9
100
AcDbLine
 10
187.75
 20
422.3913198936854
 30
0.0
 11
187.75
 21
427.3913198936854
 31
0.0
  0
LINE
  5
F7
330
1F
100
AcDbEntity
  8
1
  6
Continuous
 62
     7
370
     9
100
AcDbLine
 10
203.75
 20
427.3913198936854
 30
0.0
 11
187.75
 21
427.3913198936854
 31
0.0
  0
LINE
  5
F8
330
1F
100
AcDbEntity
  8
1
  6
Continuous
 62
     7
370
     9
100
AcDbLine
 10
203.75
 20
422.3913198936854
 30
0.0
 11
203.75
 21
427.3913198936854
 31
0.0
  0
ARC
  5
F9
330
1F
100
AcDbEntity
  8
1
  6
Continuous
 62
     7
370
     9
100
AcDbCircle
 10
147.8674316963948
 20
446.0306122448978
 30
0.0
 40
5.5
100
AcDbArc
 50
90.00000000000712
 51
269.9999999999926
  0
LINE
  5
FA
330
1F
100
AcDbEntity
  8
1
  6
Continuous
 62
     7
370
     9
100
AcDbLine
 10
194.0010932215234
 20
440.5306122448978
 30
0.0
 11
147.8674316963941
 21
440.5306122448978
 31
0.0
  0
LINE
  5
FB
330
1F
100
AcDbEntity
  8
1
  6
Continuous
 62
     7
370
     9
100
AcDbLine
 10
147.8674316963941
 20
451.5306122448978
 30
0.0
 11
194.0010932215234
 21
451.5306122448978
 31
0.0
  0
ARC
  5
FC
330
1F
100
AcDbEntity
  8
1
  6
Continuous
 62
     7
370
     9
100
AcDbCircle
 10
194.0010932215228
 20
446.0306122448978
 30
0.0
 40
5.5
100
AcDbArc
 50
270.0000000000067
 51
89.99999999999291
  0
LINE
  5
FD
330
1F
100
AcDbEntity
  8
1
  6
Continuous
 62
     7
370
     9
100
AcDbLine
 10
159.7243692221598
 20
437.511564449064
 30
0.0
 11
182.1443473189922
 21
437.511564449064
 31
0.0
  0
LINE
  5
FE
330
1F
100
AcDbEntity
  8
1
  6
Continuous
 62
     7
370
     9
100
AcDbLine
 10
157.7243692221598
 20
440.5306122448978
 30
0.0
 11
159.7243692221598
 21
437.511564449064
 31
0.0
  0
LINE
  5
FF
330
1F
100
AcDbEntity
  8
1
  6
Continuous
 62
     7
370
     9
100
AcDbLine
 10
184.1441556957576
 20
440.5306122448978
 30
0.0
 11
182.1441556957576
 21
437.511564449064
 31
0.0
  0
LINE
  5
100
330
1F
100
AcDbEntity
  8
1
  6
Continuous
 62
     7
370
     9
100
AcDbLine
 10
159.7243692221598
 20
437.511564449064
 30
0.0
 11
159.7243692221598
 21
422.252027542473
 31
0.0
  0
LINE
  5
101
330
1F
100
AcDbEntity
  8
1
  6
Continuous
 62
     7
370
     9
100
AcDbLine
 10
182.1443473189922
 20
437.511564449064
 30
0.0
 11
182.1439282581939
 21
422.252027542473
 31
0.0
  0
LINE
  5
102
330
1F
100
AcDbEntity
  8
1
  6
Continuous
 62
     7
370
     9
100
AcDbLine
 10
159.7243692221598
 20
437.511564449064
 30
0.0
 11
182.1443043969557
 21
437.511564449064
 31
0.0
  0
LINE
  5
103
330
1F
100
AcDbEntity
  8
1
  6
Continuous
 62
     7
370
     9
100
AcDbLine
 10
151.7243692221598
 20
422.252027542473
 30
0.0
 11
212.1115438006714
 21
422.252027542473
 31
0.0
  0
LINE
  5
104
330
1F
100
AcDbEntity
  8
1
  6
Continuous
 62
     7
370
     9
100
AcDbLine
 10
181.2177328319985
 20
408.252027542473
 30
0.0
 11
181.2177328319985
 21
407.7520275424731
 31
0.0
  0
LINE
  5
105
330
1F
100
AcDbEntity
  8
1
  6
Continuous
 62
     7
370
     9
100
AcDbLine
 10
181.7177328319987
 20
407.252027542473
 30
0.0
 11
262.75
 21
407.252027542473
 31
0.0
  0
ARC
  5
106
330
1F
100
AcDbEntity
  8
1
  6
Continuous
 62
     7
370
     9
100
AcDbCircle
 10
181.7177328319985
 20
407.752027542473
 30
0.0
 40
0.5
100
AcDbArc
 50
179.999999999987
 51
270.0000000000127
  0
LINE
  5
107
330
1F
100
AcDbEntity
  8
1
  6
Continuous
 62
     7
370
     9
100
AcDbLine
 10
151.7243692221598
 20
408.252027542473
 30
0.0
 11
181.2177328319985
 21
408.252027542473
 31
0.0
  0
LINE
  5
108
330
1F
100
AcDbEntity
  8
1
  6
Continuous
 62
     7
370
     9
100
AcDbLine
 10
151.7243692221598
 20
422.252027542473
 30
0.0
 11
151.7243692221598
 21
408.252027542473
 31
0.0
  0
LINE
  5
109
330
1F
100
AcDbEntity
  8
1
  6
Continuous
 62
     7
370
     9
100
AcDbLine
 10
161.1505649545168
 20
408.252027542473
 30
0.0
 11
161.1505649545168
 21
395.252027542473
 31
0.0
  0
LINE
  5
10A
330
1F
100
AcDbEntity
  8
1
  6
Continuous
 62
     7
370
     9
100
AcDbLine
 10
161.1505649545168
 20
395.252027542473
 30
0.0
 11
180.7177328319985
 21
395.252027542473
 31
0.0
  0
LINE
  5
10B
330
1F
100
AcDbEntity
  8
1
  6
Continuous
 62
     7
370
     9
100
AcDbLine
 10
180.7177328319985
 20
408.252027542473
 30
0.0
 11
180.7177328319985
 21
395.252027542473
 31
0.0
  0
LINE
  5
10C
330
1F
100
AcDbEntity
  8
1
  6
Continuous
 62
     7
370
     9
100
AcDbLine
 10
214.95
 20
446.5306122448978
 30
0.0
 11
214.95
 21
416.252027542473
 31
0.0
  0
LINE
  5
10D
330
1F
100
AcDbEntity
  8
1
  6
Continuous
 62
     7
370
     9
100
AcDbLine
 10
230.55
 20
446.5306122448978
 30
0.0
 11
214.95
 21
446.5306122448978
 31
0.0
  0
LINE
  5
10E
330
1F
100
AcDbEntity
  8
1
  6
Continuous
 62
     7
370
     9
100
AcDbLine
 10
230.55
 20
446.5306122448978
 30
0.0
 11
230.55
 21
416.252027542473
 31
0.0
  0
INSERT
  5
127
330
1F
100
AcDbEntity
  8
0
100
AcDbBlockReference
  2
*G12
 10
0.0
 20
0.0
 30
0.0
  0
LINE
  5
128
330
1F
100
AcDbEntity
  8
1
  6
Continuous
 62
     7
370
     9
100
AcDbLine
 10
178.7341487401768
 20
395.252027542473
 30
0.0
 11
163.1341487401769
 21
395.252027542473
 31
0.0
  0
LINE
  5
129
330
1F
100
AcDbEntity
  8
1
  6
Continuous
 62
     7
370
     9
100
AcDbLine
 10
178.7341487401768
 20
395.252027542473
 30
0.0
 11
178.7341487401768
 21
317.0883356462426
 31
0.0
  0
LINE
  5
12A
330
1F
100
AcDbEntity
  8
1
  6
Continuous
 62
     7
370
     9
100
AcDbLine
 10
163.1341487401769
 20
395.252027542473
 30
0.0
 11
163.1341487401769
 21
317.0883356462426
 31
0.0
  0
INSERT
  5
163
330
1F
100
AcDbEntity
  8
0
100
AcDbBlockReference
  2
*G13
 10
0.0
 20
0.0
 30
0.0
  0
LINE
  5
164
330
1F
100
AcDbEntity
  8
1
  6
Continuous
 62
     7
370
     9
100
AcDbLine
 10
163.1341487401769
 20
188.2011746987142
 30
0.0
 11
163.1341487401769
 21
177.4586818639478
 31
0.0
  0
LINE
  5
165
330
1F
100
AcDbEntity
  8
1
  6
Continuous
 62
     7
370
     9
100
AcDbLine
 10
163.1341487401769
 20
177.4586818639478
 30
0.0
 11
178.7341487401768
 21
177.4586818639478
 31
0.0
  0
LINE
  5
166
330
1F
100
AcDbEntity
  8
1
  6
Continuous
 62
     7
370
     9
100
AcDbLine
 10
178.7341487401768
 20
188.2011746987142
 30
0.0
 11
178.7341487401768
 21
177.4586818639478
 31
0.0
  0
INSERT
  5
171
330
1F
100
AcDbEntity
  8
0
100
AcDbBlockReference
  2
*G14
 10
0.0
 20
0.0
 30
0.0
  0
LINE
  5
172
330
1F
100
AcDbEntity
  8
1
  6
Continuous
 62
     7
370
     9
100
AcDbLine
 10
290.1904134453066
 20
239.0032484407482
 30
0.0
 11
286.75
 21
239.0032484407482
 31
0.0
  0
LINE
  5
173
330
1F
100
AcDbEntity
  8
1
  6
Continuous
 62
     7
370
     9
100
AcDbLine
 10
286.75
 20
218.0032484407482
 30
0.0
 11
290.1904134453064
 21
218.0032484407482
 31
0.0
  0
LINE
  5
174
330
1F
100
AcDbEntity
  8
1
  6
Continuous
 62
     7
370
     9
100
AcDbLine
 10
290.75
 20
239.0032484407482
 30
0.0
 11
290.75
 21
218.0032484407482
 31
0.0
  0
LINE
  5
175
330
1F
100
AcDbEntity
  8
1
  6
Continuous
 62
     7
370
     9
100
AcDbLine
 10
290.75
 20
304.2203922393904
 30
0.0
 11
286.75
 21
304.2203922393904
 31
0.0
  0
LINE
  5
176
330
1F
100
AcDbEntity
  8
1
  6
Continuous
 62
     7
370
     9
100
AcDbLine
 10
286.75
 20
293.9277567080268
 30
0.0
 11
290.75
 21
293.9277567080268
 31
0.0
  0
INSERT
  5
17D
330
1F
100
AcDbEntity
  8
0
100
AcDbBlockReference
  2
*G15
 10
0.0
 20
0.0
 30
0.0
  0
LINE
  5
17E
330
1F
100
AcDbEntity
  8
1
  6
Continuous
 62
     7
370
     9
100
AcDbLine
 10
286.75
 20
281.5634095634091
 30
0.0
 11
293.25
 21
281.5634095634091
 31
0.0
  0
LINE
  5
17F
330
1F
100
AcDbEntity
  8
1
  6
Continuous
 62
     7
370
     9
100
AcDbLine
 10
286.75
 20
259.4684518177351
 30
0.0
 11
293.25
 21
259.4684518177351
 31
0.0
  0
ARC
  5
180
330
1F
100
AcDbEntity
  8
1
  6
Continuous
 62
     7
370
     9
100
AcDbCircle
 10
297.25
 20
287.5530355244824
 30
0.0
 40
6.5
100
AcDbArc
 50
179.9999999999998
 51
0.0
  0
LINE
  5
181
330
1F
100
AcDbEntity
  8
1
  6
Continuous
 62
     7
370
     9
100
AcDbLine
 10
290.75
 20
308.0811805645765
 30
0.0
 11
290.75
 21
287.5530355244824
 31
0.0
  0
LINE
  5
182
330
1F
100
AcDbEntity
  8
1
  6
Continuous
 62
     7
370
     9
100
AcDbLine
 10
293.2500000000003
 20
282.4295601415024
 30
0.0
 11
293.2500000000003
 21
256.0478193290667
 31
0.0
  0
LINE
  5
183
330
1F
100
AcDbEntity
  8
1
  6
Continuous
 62
     7
370
     9
100
AcDbLine
 10
301.2500000000003
 20
282.4295601415029
 30
0.0
 11
301.2500000000003
 21
256.0478193290649
 31
0.0
  0
ARC
  5
184
330
1F
100
AcDbEntity
  8
1
  6
Continuous
 62
     7
370
     9
100
AcDbCircle
 10
297.2500000000007
 20
256.6971098129956
 30
0.0
 40
4.052354640517172
100
AcDbArc
 50
189.2199843609149
 51
350.7800156390574
  0
LINE
  5
185
330
1F
100
AcDbEntity
  8
1
  6
Continuous
 62
     7
370
     9
100
AcDbLine
 10
290.75
 20
201.0691181055665
 30
0.0
 11
286.75
 21
201.0691181055665
 31
0.0
  0
LINE
  5
186
330
1F
100
AcDbEntity
  8
1
  6
Continuous
 62
     7
370
     9
100
AcDbLine
 10
286.75
 20
211.36175363693
 30
0.0
 11
290.75
 21
211.36175363693
 31
0.0
  0
INSERT
  5
18D
330
1F
100
AcDbEntity
  8
0
100
AcDbBlockReference
  2
*G16
 10
0.0
 20
0.0
 30
0.0
  0
ARC
  5
18E
330
1F
100
AcDbEntity
  8
1
  6
Continuous
 62
     7
370
     9
100
AcDbCircle
 10
297.25
 20
217.7364748204744
 30
0.0
 40
6.5
100
AcDbArc
 50
0.0
 51
179.9999999999998
  0
CIRCLE
  5
18F
330
1F
100
AcDbEntity
  8
1
  6
Continuous
 62
     7
370
     9
100
AcDbCircle
 10
304.9878406802342
 20
201.0691181055665
 30
0.0
 40
0.4743862981586631
  0
LINE
  5
190
330
1F
100
AcDbEntity
  8
1
  6
Continuous
 62
     7
370
     9
100
AcDbLine
 10
290.75
 20
197.2083297803804
 30
0.0
 11
290.75
 21
217.7364748204744
 31
0.0
  0
LINE
  5
191
330
1F
100
AcDbEntity
  8
1
  6
Continuous
 62
     7
370
     9
100
AcDbLine
 10
290.75
 20
197.2083297803804
 30
0.0
 11
303.75
 21
197.2083297803804
 31
0.0
  0
LINE
  5
192
330
1F
100
AcDbEntity
  8
1
  6
Continuous
 62
     7
370
     9
100
AcDbLine
 10
303.75
 20
196.7166975320339
 30
0.0
 11
303.75
 21
217.7364748204744
 31
0.0
  0
ARC
  5
193
330
1F
100
AcDbEntity
  8
1
  6
Continuous
 62
     7
370
     9
100
AcDbCircle
 10
303.75
 20
198.7188242742705
 30
0.0
 40
2.002126742236596
100
AcDbArc
 50
270.0000000000029
 51
357.3588824787155
  0
LINE
  5
194
330
1F
100
AcDbEntity
  8
1
  6
Continuous
 62
     7
370
     9
100
AcDbLine
 10
293.2500000000003
 20
222.8599502034544
 30
0.0
 11
293.2500000000003
 21
249.2416910158901
 31
0.0
  0
LINE
  5
195
330
1F
100
AcDbEntity
  8
1
  6
Continuous
 62
     7
370
     9
100
AcDbLine
 10
301.2500000000003
 20
222.859950203454
 30
0.0
 11
301.2500000000003
 21
249.241691015892
 31
0.0
  0
ARC
  5
196
330
1F
100
AcDbEntity
  8
1
  6
Continuous
 62
     7
370
     9
100
AcDbCircle
 10
297.2500000000007
 20
248.5924005319613
 30
0.0
 40
4.052354640517172
100
AcDbArc
 50
9.219984360942252
 51
170.7800156390847
  0
CIRCLE
  5
197
330
1F
100
AcDbEntity
  8
1
  6
Continuous
 62
     7
370
     9
100
AcDbCircle
 10
304.9878406802342
 20
205.9106823448068
 30
0.0
 40
0.4743862981586631
  0
LINE
  5
198
330
1F
100
AcDbEntity
  8
1
  6
Continuous
 62
     7
370
     9
100
AcDbLine
 10
290.75
 20
207.4153151799584
 30
0.0
 11
305.75
 21
207.4153151799584
 31
0.0
  0
LINE
  5
199
330
1F
100
AcDbEntity
  8
1
  6
Continuous
 62
     7
370
     9
100
AcDbLine
 10
305.75
 20
198.6265665267426
 30
0.0
 11
305.75
 21
207.4153151799584
 31
0.0
  0
LINE
  5
19A
330
1F
100
AcDbEntity
  8
1
  6
Continuous
 62
     7
370
     9
100
AcDbLine
 10
290.75
 20
308.0811805645765
 30
0.0
 11
303.75
 21
308.0811805645765
 31
0.0
  0
CIRCLE
  5
19B
330
1F
100
AcDbEntity
  8
1
  6
Continuous
 62
     7
370
     9
100
AcDbCircle
 10
304.9878406802342
 20
304.2203922393904
 30
0.0
 40
0.4743862981586631
  0
CIRCLE
  5
19C
330
1F
100
AcDbEntity
  8
1
  6
Continuous
 62
     7
370
     9
100
AcDbCircle
 10
304.9878406802342
 20
299.37882800015
 30
0.0
 40
0.4743862981586631
  0
LINE
  5
19D
330
1F
100
AcDbEntity
  8
1
  6
Continuous
 62
     7
370
     9
100
AcDbLine
 10
290.75
 20
297.8741951649984
 30
0.0
 11
305.75
 21
297.8741951649984
 31
0.0
  0
LINE
  5
19E
330
1F
100
AcDbEntity
  8
1
  6
Continuous
 62
     7
370
     9
100
AcDbLine
 10
305.75
 20
306.6629438182143
 30
0.0
 11
305.75
 21
297.8741951649984
 31
0.0
  0
LINE
  5
19F
330
1F
100
AcDbEntity
  8
1
  6
Continuous
 62
     7
370
     9
100
AcDbLine
 10
303.75
 20
308.572812812923
 30
0.0
 11
303.75
 21
287.5530355244824
 31
0.0
  0
ARC
  5
1A0
330
1F
100
AcDbEntity
  8
1
  6
Continuous
 62
     7
370
     9
100
AcDbCircle
 10
303.75
 20
306.5706860706863
 30
0.0
 40
2.002126742236596
100
AcDbArc
 50
2.641117521284166
 51
89.99999999999675
  0
LINE
  5
1A1
330
1F
100
AcDbEntity
  8
1
  6
Continuous
 62
     7
370
     9
100
AcDbLine
 10
377.25
 20
352.3015852390842
 30
0.0
 11
377.25
 21
207.6778628271906
 31
0.0
  0
LINE
  5
1A2
330
1F
100
AcDbEntity
  8
1
  6
Continuous
 62
     7
370
     9
100
AcDbLine
 10
377.25
 20
207.6778628271906
 30
0.0
 11
303.75
 21
207.6778628271906
 31
0.0
  0
LINE
  5
1A3
330
1F
100
AcDbEntity
  8
1
  6
Continuous
 62
     7
370
     9
100
AcDbLine
 10
297.25
 20
308.0811805645765
 30
0.0
 11
297.25
 21
352.3015852390842
 31
0.0
  0
LINE
  5
1A4
330
1F
100
AcDbEntity
  8
1
  6
Continuous
 62
     7
370
     9
100
AcDbLine
 10
297.25
 20
352.3015852390842
 30
0.0
 11
377.25
 21
352.3015852390842
 31
0.0
  0
LINE
  5
1A5
330
1F
100
AcDbEntity
  8
1
  6
Continuous
 62
     7
370
     9
100
AcDbLine
 10
318.9532764980966
 20
393.3079832766015
 30
0.0
 11
328.4615583213074
 21
393.3079832766015
 31
0.0
  0
LINE
  5
1A6
330
1F
100
AcDbEntity
  8
1
  6
Continuous
 62
     7
370
     9
100
AcDbLine
 10
338.627846319021
 20
352.3015852390842
 30
0.0
 11
338.627846319021
 21
362.3015852390842
 31
0.0
  0
LINE
  5
1A7
330
1F
100
AcDbEntity
  8
1
  6
Continuous
 62
     7
370
     9
100
AcDbLine
 10
299.2787060648487
 20
352.3015852390842
 30
0.0
 11
299.2787060648487
 21
362.3015852390842
 31
0.0
  0
LINE
  5
1A8
330
1F
100
AcDbEntity
  8
1
  6
Continuous
 62
     7
370
     9
100
AcDbLine
 10
299.2787060648487
 20
362.3015852390842
 30
0.0
 11
338.627846319021
 21
362.3015852390842
 31
0.0
  0
LINE
  5
1A9
330
1F
100
AcDbEntity
  8
1
  6
Continuous
 62
     7
370
     9
100
AcDbLine
 10
336.627846319021
 20
362.3015852390842
 30
0.0
 11
336.627846319021
 21
354.3015852390842
 31
0.0
  0
LINE
  5
1AA
330
1F
100
AcDbEntity
  8
1
  6
Continuous
 62
     7
370
     9
100
AcDbLine
 10
299.2787060648487
 20
361.3015852390842
 30
0.0
 11
338.627846319021
 21
361.3015852390842
 31
0.0
  0
LINE
  5
1AB
330
1F
100
AcDbEntity
  8
1
  6
Continuous
 62
     7
370
     9
100
AcDbLine
 10
305.2787063710103
 20
362.3015852390842
 30
0.0
 11
305.2787063710103
 21
354.3015852390842
 31
0.0
  0
LINE
  5
1AC
330
1F
100
AcDbEntity
  8
1
  6
Continuous
 62
     7
370
     9
100
AcDbLine
 10
301.2787063710103
 20
362.3015852390842
 30
0.0
 11
301.2787063710103
 21
354.3015852390842
 31
0.0
  0
LINE
  5
1AD
330
1F
100
AcDbEntity
  8
1
  6
Continuous
 62
     7
370
     9
100
AcDbLine
 10
313.1159912814726
 20
362.3015852390842
 30
0.0
 11
313.1159912814726
 21
354.3015852390842
 31
0.0
  0
LINE
  5
1AE
330
1F
100
AcDbEntity
  8
1
  6
Continuous
 62
     7
370
     9
100
AcDbLine
 10
309.1159912814726
 20
362.3015852390842
 30
0.0
 11
309.1159912814726
 21
354.3015852390842
 31
0.0
  0
LINE
  5
1AF
330
1F
100
AcDbEntity
  8
1
  6
Continuous
 62
     7
370
     9
100
AcDbLine
 10
301.2787063710103
 20
354.3015852390842
 30
0.0
 11
305.2787063710103
 21
354.3015852390842
 31
0.0
  0
LINE
  5
1B0
330
1F
100
AcDbEntity
  8
1
  6
Continuous
 62
     7
370
     9
100
AcDbLine
 10
309.1159912814726
 20
354.3015852390842
 30
0.0
 11
313.1159912814726
 21
354.3015852390842
 31
0.0
  0
LINE
  5
1B1
330
1F
100
AcDbEntity
  8
1
  6
Continuous
 62
     7
370
     9
100
AcDbLine
 10
316.9532761919348
 20
362.3015852390842
 30
0.0
 11
316.9532761919348
 21
354.3015852390842
 31
0.0
  0
LINE
  5
1B2
330
1F
100
AcDbEntity
  8
1
  6
Continuous
 62
     7
370
     9
100
AcDbLine
 10
316.9532761919348
 20
354.3015852390842
 30
0.0
 11
320.9532761919348
 21
354.3015852390842
 31
0.0
  0
LINE
  5
1B3
330
1F
100
AcDbEntity
  8
1
  6
Continuous
 62
     7
370
     9
100
AcDbLine
 10
320.9532761919348
 20
362.3015852390842
 30
0.0
 11
320.9532761919348
 21
354.3015852390842
 31
0.0
  0
LINE
  5
1B4
330
1F
100
AcDbEntity
  8
1
  6
Continuous
 62
     7
370
     9
100
AcDbLine
 10
324.7905614085587
 20
362.3015852390842
 30
0.0
 11
324.7905614085587
 21
354.3015852390842
 31
0.0
  0
LINE
  5
1B5
330
1F
100
AcDbEntity
  8
1
  6
Continuous
 62
     7
370
     9
100
AcDbLine
 10
324.7905614085587
 20
354.3015852390842
 30
0.0
 11
328.7905614085587
 21
354.3015852390842
 31
0.0
  0
LINE
  5
1B6
330
1F
100
AcDbEntity
  8
1
  6
Continuous
 62
     7
370
     9
100
AcDbLine
 10
328.7905614085587
 20
362.3015852390842
 30
0.0
 11
328.7905614085587
 21
354.3015852390842
 31
0.0
  0
LINE
  5
1B7
330
1F
100
AcDbEntity
  8
1
  6
Continuous
 62
     7
370
     9
100
AcDbLine
 10
332.627846319021
 20
362.3015852390842
 30
0.0
 11
332.627846319021
 21
354.3015852390842
 31
0.0
  0
LINE
  5
1B8
330
1F
100
AcDbEntity
  8
1
  6
Continuous
 62
     7
370
     9
100
AcDbLine
 10
332.627846319021
 20
354.3015852390842
 30
0.0
 11
336.627846319021
 21
354.3015852390842
 31
0.0
  0
LINE
  5
1B9
330
1F
100
AcDbEntity
  8
1
  6
Continuous
 62
     7
370
     9
100
AcDbLine
 10
326.7905614085587
 20
391.3079832766015
 30
0.0
 11
326.7905614085587
 21
362.3015852390842
 31
0.0
  0
LINE
  5
1BA
330
1F
100
AcDbEntity
  8
1
  6
Continuous
 62
     7
370
     9
100
AcDbLine
 10
321.9521378431371
 20
391.3079832766015
 30
0.0
 11
321.9521378431371
 21
362.3015852390842
 31
0.0
  0
LINE
  5
1BB
330
1F
100
AcDbEntity
  8
1
  6
Continuous
 62
     7
370
     9
100
AcDbLine
 10
315.9544148468942
 20
391.3079832766015
 30
0.0
 11
315.9544148468942
 21
361.3015852390842
 31
0.0
  0
LINE
  5
1BC
330
1F
100
AcDbEntity
  8
1
  6
Continuous
 62
     7
370
     9
100
AcDbLine
 10
311.1159912814726
 20
391.3079832766015
 30
0.0
 11
311.1159912814726
 21
362.3015852390842
 31
0.0
  0
INSERT
  5
1C4
330
1F
100
AcDbEntity
  8
0
100
AcDbBlockReference
  2
*G17
 10
0.0
 20
0.0
 30
0.0
  0
CIRCLE
  5
1C5
330
1F
100
AcDbEntity
  8
1
  6
Continuous
 62
     7
370
     9
100
AcDbCircle
 10
325.7500000000003
 20
332.3015852390842
 30
0.0
 40
6.0
  0
CIRCLE
  5
1C6
330
1F
100
AcDbEntity
  8
1
  6
Continuous
 62
     7
370
     9
100
AcDbCircle
 10
360.2500003061623
 20
332.3015852390842
 30
0.0
 40
8.0
  0
CIRCLE
  5
1C7
330
1F
100
AcDbEntity
  8
1
  6
Continuous
 62
     7
370
     9
100
AcDbCircle
 10
360.2500003061623
 20
332.3015852390842
 30
0.0
 40
6.0
  0
CIRCLE
  5
1C8
330
1F
100
AcDbEntity
  8
1
  6
Continuous
 62
     7
370
     9
100
AcDbCircle
 10
362.2500000000001
 20
229.6778628271906
 30
0.0
 40
8.0
  0
CIRCLE
  5
1C9
330
1F
100
AcDbEntity
  8
1
  6
Continuous
 62
     7
370
     9
100
AcDbCircle
 10
362.2500000000001
 20
229.6778628271906
 30
0.0
 40
6.0
  0
CIRCLE
  5
1CA
330
1F
100
AcDbEntity
  8
1
  6
Continuous
 62
     7
370
     9
100
AcDbCircle
 10
359.2500000000001
 20
229.6778628271906
 30
0.0
 40
1.0
  0
CIRCLE
  5
1CB
330
1F
100
AcDbEntity
  8
1
  6
Continuous
 62
     7
370
     9
100
AcDbCircle
 10
365.2500000000001
 20
229.6778628271906
 30
0.0
 40
1.0
  0
CIRCLE
  5
1CC
330
1F
100
AcDbEntity
  8
1
  6
Continuous
 62
     7
370
     9
100
AcDbCircle
 10
362.25
 20
229.6778628271906
 30
0.0
 40
5.458235203342156
  0
CIRCLE
  5
1CD
330
1F
100
AcDbEntity
  8
1
  6
Continuous
 62
     7
370
     9
100
AcDbCircle
 10
323.75
 20
229.6778628271906
 30
0.0
 40
8.0
  0
CIRCLE
  5
1CE
330
1F
100
AcDbEntity
  8
1
  6
Continuous
 62
     7
370
     9
100
AcDbCircle
 10
323.75
 20
229.6778628271906
 30
0.0
 40
6.0
  0
CIRCLE
  5
1CF
330
1F
100
AcDbEntity
  8
1
  6
Continuous
 62
     7
370
     9
100
AcDbCircle
 10
320.75
 20
229.6778628271906
 30
0.0
 40
1.0
  0
CIRCLE
  5
1D0
330
1F
100
AcDbEntity
  8
1
  6
Continuous
 62
     7
370
     9
100
AcDbCircle
 10
326.75
 20
229.6778628271906
 30
0.0
 40
1.0
  0
CIRCLE
  5
1D1
330
1F
100
AcDbEntity
  8
1
  6
Continuous
 62
     7
370
     9
100
AcDbCircle
 10
323.7499999999999
 20
229.6778628271906
 30
0.0
 40
5.458235203342156
  0
CIRCLE
  5
1D2
330
1F
100
AcDbEntity
  8
1
  6
Continuous
 62
     7
370
     9
100
AcDbCircle
 10
325.75
 20
332.3015852390842
 30
0.0
 40
5.250899412043054
  0
CIRCLE
  5
1D3
330
1F
100
AcDbEntity
  8
1
  6
Continuous
 62
     7
370
     9
100
AcDbCircle
 10
325.75
 20
291.4964937142653
 30
0.0
 40
3.0
  0
CIRCLE
  5
1D4
330
1F
100
AcDbEntity
  8
1
  6
Continuous
 62
     7
370
     9
100
AcDbCircle
 10
325.75
 20
291.4964937142653
 30
0.0
 40
2.298651491045007
  0
CIRCLE
  5
1D5
330
1F
100
AcDbEntity
  8
1
  6
Continuous
 62
     7
370
     9
100
AcDbCircle
 10
343.0000000000002
 20
260.5871782707279
 30
0.0
 40
8.44907635829776
  0
CIRCLE
  5
1D6
330
1F
100
AcDbEntity
  8
1
  6
Continuous
 62
     7
370
     9
100
AcDbCircle
 10
343.0000000000002
 20
260.5871782707279
 30
0.0
 40
3.630447229091033
  0
CIRCLE
  5
1D7
330
1F
100
AcDbEntity
  8
1
  6
Continuous
 62
     7
370
     9
100
AcDbCircle
 10
343.0000000000002
 20
260.5871782707279
 30
0.0
 40
3.167349515993351
  0
LINE
  5
1D8
330
1F
100
AcDbEntity
  8
1
  6
Continuous
 62
     7
370
     9
100
AcDbLine
 10
356.0660631334575
 20
298.4964937142653
 30
0.0
 11
365.328017395412
 21
298.4964937142653
 31
0.0
  0
LINE
  5
1D9
330
1F
100
AcDbEntity
  8
1
  6
Continuous
 62
     7
370
     9
100
AcDbLine
 10
356.0660631334575
 20
284.4964937142653
 30
0.0
 11
365.328017395412
 21
284.4964937142653
 31
0.0
  0
LINE
  5
1DA
330
1F
100
AcDbEntity
  8
1
  6
Continuous
 62
     7
370
     9
100
AcDbLine
 10
356.0660631334575
 20
283.4964937142653
 30
0.0
 11
365.328017395412
 21
283.4964937142653
 31
0.0
  0
LINE
  5
1DB
330
1F
100
AcDbEntity
  8
1
  6
Continuous
 62
     7
370
     9
100
AcDbLine
 10
356.0660631334575
 20
283.4964937142653
 30
0.0
 11
356.0660631334575
 21
299.4964937142653
 31
0.0
  0
LINE
  5
1DC
330
1F
100
AcDbEntity
  8
1
  6
Continuous
 62
     7
370
     9
100
AcDbLine
 10
356.0660631334575
 20
299.4964937142653
 30
0.0
 11
365.328017395412
 21
299.4964937142653
 31
0.0
  0
LINE
  5
1DD
330
1F
100
AcDbEntity
  8
1
  6
Continuous
 62
     7
370
     9
100
AcDbLine
 10
365.328017395412
 20
299.4964937142653
 30
0.0
 11
365.328017395412
 21
283.4964937142653
 31
0.0
  0
LINE
  5
1DE
330
1F
100
AcDbEntity
  8
1
  6
Continuous
 62
     7
370
     9
100
AcDbLine
 10
498.25
 20
41.53061224489784
 30
0.0
 11
538.25
 21
41.53061224489784
 31
0.0
  0
LINE
  5
1DF
330
1F
100
AcDbEntity
  8
1
  6
Continuous
 62
     7
370
     9
100
AcDbLine
 10
538.25
 20
41.53061224489784
 30
0.0
 11
542.25
 21
45.53061224489784
 31
0.0
  0
LINE
  5
1E0
330
1F
100
AcDbEntity
  8
1
  6
Continuous
 62
     7
370
     9
100
AcDbLine
 10
501.9357142857144
 20
84.53061224489784
 30
0.0
 11
498.2933782141137
 21
42.03669140955674
 31
0.0
  0
LINE
  5
1E1
330
1F
100
AcDbEntity
  8
1
  6
Continuous
 62
     7
370
     9
100
AcDbLine
 10
501.9357142857144
 20
84.53061224489784
 30
0.0
 11
834.5642860204473
 21
84.53061224489784
 31
0.0
  0
LINE
  5
1E2
330
1F
100
AcDbEntity
  8
1
  6
Continuous
 62
     7
370
     9
100
AcDbLine
 10
832.5642860204473
 20
96.53061224489784
 30
0.0
 11
832.5642860204473
 21
84.53061224489784
 31
0.0
  0
CIRCLE
  5
1E3
330
1F
100
AcDbEntity
  8
1
  6
Continuous
 62
     7
370
     9
100
AcDbCircle
 10
790.0642860204475
 20
178.5928549298113
 30
0.0
 40
25.15357216625438
  0
LINE
  5
1E4
330
1F
100
AcDbEntity
  8
1
  6
Continuous
 62
     7
370
     9
100
AcDbLine
 10
756.2385654885634
 20
407.252027542473
 30
0.0
 11
832.5642860204473
 21
343.2071435948288
 31
0.0
  0
LINE
  5
1E5
330
1F
100
AcDbEntity
  8
1
  6
Continuous
 62
     7
370
     9
100
AcDbLine
 10
668.25
 20
207.6778628271906
 30
0.0
 11
769.9134262746195
 21
207.6778628271906
 31
0.0
  0
ARC
  5
1E6
330
1F
100
AcDbEntity
  8
1
  6
Continuous
 62
     7
370
     9
100
AcDbCircle
 10
563.5642860204473
 20
313.0883356462426
 30
0.0
 40
4.0
100
AcDbArc
 50
89.99999999999991
 51
179.9999999999998
  0
ARC
  5
1E7
330
1F
100
AcDbEntity
  8
1
  6
Continuous
 62
     7
370
     9
100
AcDbCircle
 10
607.5642860204473
 20
180.2011746987142
 30
0.0
 40
4.0
100
AcDbArc
 50
179.9999999999998
 51
269.9999999999998
  0
LINE
  5
1E8
330
1F
100
AcDbEntity
  8
1
  6
Continuous
 62
     7
370
     9
100
AcDbLine
 10
607.5642860204473
 20
176.2011746987142
 30
0.0
 11
639.5642860204473
 21
176.2011746987142
 31
0.0
  0
ARC
  5
1E9
330
1F
100
AcDbEntity
  8
1
  6
Continuous
 62
     7
370
     9
100
AcDbCircle
 10
639.5642860204473
 20
180.2011746987142
 30
0.0
 40
4.0
100
AcDbArc
 50
269.9999999999998
 51
0.0
  0
LINE
  5
1EA
330
1F
100
AcDbEntity
  8
1
  6
Continuous
 62
     7
370
     9
100
AcDbLine
 10
603.5642860204473
 20
188.2011746987142
 30
0.0
 11
603.5642860204473
 21
180.2011746987142
 31
0.0
  0
LINE
  5
1EB
330
1F
100
AcDbEntity
  8
1
  6
Continuous
 62
     7
370
     9
100
AcDbLine
 10
643.5642860204473
 20
180.2011746987142
 30
0.0
 11
643.5642860204473
 21
188.2011746987142
 31
0.0
  0
LINE
  5
1EC
330
1F
100
AcDbEntity
  8
1
  6
Continuous
 62
     7
370
     9
100
AcDbLine
 10
563.5642860204473
 20
188.2011746987142
 30
0.0
 11
683.5642860204473
 21
188.2011746987142
 31
0.0
  0
ARC
  5
1ED
330
1F
100
AcDbEntity
  8
1
  6
Continuous
 62
     7
370
     9
100
AcDbCircle
 10
683.5642860204473
 20
192.2011746987142
 30
0.0
 40
4.0
100
AcDbArc
 50
269.9999999999998
 51
0.0
  0
LINE
  5
1EE
330
1F
100
AcDbEntity
  8
1
  6
Continuous
 62
     7
370
     9
100
AcDbLine
 10
687.5642860204473
 20
192.2011746987142
 30
0.0
 11
687.5642860204473
 21
191.7244865702378
 31
0.0
  0
ARC
  5
1EF
330
1F
100
AcDbEntity
  8
1
  6
Continuous
 62
     7
370
     9
100
AcDbCircle
 10
690.5642860204473
 20
191.7244865702378
 30
0.0
 40
3.0
100
AcDbArc
 50
89.99999999999991
 51
179.9999999999998
  0
LINE
  5
1F0
330
1F
100
AcDbEntity
  8
1
  6
Continuous
 62
     7
370
     9
100
AcDbLine
 10
559.5642860204473
 20
313.0883356462426
 30
0.0
 11
559.5642860204473
 21
192.2011746987142
 31
0.0
  0
ARC
  5
1F1
330
1F
100
AcDbEntity
  8
1
  6
Continuous
 62
     7
370
     9
100
AcDbCircle
 10
563.5642860204473
 20
192.2011746987142
 30
0.0
 40
4.0
100
AcDbArc
 50
179.9999999999998
 51
269.9999999999998
  0
LINE
  5
1F2
330
1F
100
AcDbEntity
  8
1
  6
Continuous
 62
     7
370
     9
100
AcDbLine
 10
725.5642860204473
 20
203.6778628271906
 30
0.0
 11
769.9134262746195
 21
203.6778628271906
 31
0.0
  0
LINE
  5
1F3
330
1F
100
AcDbEntity
  8
1
  6
Continuous
 62
     7
370
     9
100
AcDbLine
 10
725.5642860204473
 20
207.6778628271906
 30
0.0
 11
725.5642860204473
 21
201.2011746987142
 31
0.0
  0
LINE
  5
1F4
330
1F
100
AcDbEntity
  8
1
  6
Continuous
 62
     7
370
     9
100
AcDbLine
 10
559.5642860204473
 20
310.0883356462426
 30
0.0
 11
668.25
 21
310.0883356462426
 31
0.0
  0
LINE
  5
1F5
330
1F
100
AcDbEntity
  8
1
  6
Continuous
 62
     7
370
     9
100
AcDbLine
 10
559.5642860204473
 20
195.2011746987142
 30
0.0
 11
687.5642860204473
 21
195.2011746987142
 31
0.0
  0
LINE
  5
1F6
330
1F
100
AcDbEntity
  8
1
  6
Continuous
 62
     7
370
     9
100
AcDbLine
 10
560.1001844053095
 20
190.2011746987142
 30
0.0
 11
687.0283876355851
 21
190.2011746987142
 31
0.0
  0
LINE
  5
1F7
330
1F
100
AcDbEntity
  8
1
  6
Continuous
 62
     7
370
     9
100
AcDbLine
 10
625.5642860204473
 20
397.252027542473
 30
0.0
 11
625.5642860204473
 21
317.0883356462426
 31
0.0
  0
LINE
  5
1F8
330
1F
100
AcDbEntity
  8
1
  6
Continuous
 62
     7
370
     9
100
AcDbLine
 10
625.5642860204473
 20
397.252027542473
 30
0.0
 11
678.25
 21
397.252027542473
 31
0.0
  0
LINE
  5
1F9
330
1F
100
AcDbEntity
  8
1
  6
Continuous
 62
     7
370
     9
100
AcDbLine
 10
629.5642860204473
 20
397.252027542473
 30
0.0
 11
629.5642860204473
 21
317.0883356462426
 31
0.0
  0
LINE
  5
1FA
330
1F
100
AcDbEntity
  8
1
  6
Continuous
 62
     7
370
     9
100
AcDbLine
 10
629.5642860204473
 20
395.252027542473
 30
0.0
 11
674.2500003061616
 21
395.252027542473
 31
0.0
  0
LINE
  5
1FB
330
1F
100
AcDbEntity
  8
1
  6
Continuous
 62
     7
370
     9
100
AcDbLine
 10
666.25
 20
313.0883356462426
 30
0.0
 11
668.25
 21
313.0883356462426
 31
0.0
  0
LINE
  5
1FC
330
1F
100
AcDbEntity
  8
1
  6
Continuous
 62
     7
370
     9
100
AcDbLine
 10
563.5642860204473
 20
317.0883356462426
 30
0.0
 11
665.25
 21
317.0883356462426
 31
0.0
  0
LINE
  5
1FD
330
1F
100
AcDbEntity
  8
1
  6
Continuous
 62
     7
370
     9
100
AcDbLine
 10
560.1001844053095
 20
315.0883356462426
 30
0.0
 11
666.25
 21
315.0883356462426
 31
0.0
  0
LINE
  5
1FE
330
1F
100
AcDbEntity
  8
1
  6
Continuous
 62
     7
370
     9
100
AcDbLine
 10
665.25
 20
315.0883356462426
 30
0.0
 11
665.25
 21
322.0883356462426
 31
0.0
  0
LINE
  5
1FF
330
1F
100
AcDbEntity
  8
1
  6
Continuous
 62
     7
370
     9
100
AcDbLine
 10
665.25
 20
322.0883356462426
 30
0.0
 11
666.25
 21
322.0883356462426
 31
0.0
  0
LINE
  5
200
330
1F
100
AcDbEntity
  8
1
  6
Continuous
 62
     7
370
     9
100
AcDbLine
 10
666.25
 20
326.0883356462426
 30
0.0
 11
666.25
 21
313.0883356462426
 31
0.0
  0
LINE
  5
201
330
1F
100
AcDbEntity
  8
1
  6
Continuous
 62
     7
370
     9
100
AcDbLine
 10
666.25
 20
326.0883356462426
 30
0.0
 11
668.25
 21
326.0883356462426
 31
0.0
  0
LINE
  5
202
330
1F
100
AcDbEntity
  8
1
  6
Continuous
 62
     7
370
     9
100
AcDbLine
 10
605.5642860204473
 20
317.0883356462426
 30
0.0
 11
605.5642860204473
 21
401.252027542473
 31
0.0
  0
LINE
  5
203
330
1F
100
AcDbEntity
  8
1
  6
Continuous
 62
     7
370
     9
100
AcDbLine
 10
625.5642860204473
 20
383.252027542473
 30
0.0
 11
605.5642860204473
 21
383.252027542473
 31
0.0
  0
LINE
  5
204
330
1F
100
AcDbEntity
  8
1
  6
Continuous
 62
     7
370
     9
100
AcDbLine
 10
632.5642860204473
 20
401.252027542473
 30
0.0
 11
632.5642860204473
 21
410.252027542473
 31
0.0
  0
LINE
  5
205
330
1F
100
AcDbEntity
  8
1
  6
Continuous
 62
     7
370
     9
100
AcDbLine
 10
632.5642860204473
 20
410.252027542473
 30
0.0
 11
655.9071430102236
 21
410.252027542473
 31
0.0
  0
LINE
  5
206
330
1F
100
AcDbEntity
  8
1
  6
Continuous
 62
     7
370
     9
100
AcDbLine
 10
655.9071430102236
 20
401.252027542473
 30
0.0
 11
655.9071430102236
 21
410.252027542473
 31
0.0
  0
LINE
  5
207
330
1F
100
AcDbEntity
  8
1
  6
Continuous
 62
     7
370
     9
100
AcDbLine
 10
651.9071430102236
 20
401.252027542473
 30
0.0
 11
651.9071430102236
 21
410.252027542473
 31
0.0
  0
LINE
  5
208
330
1F
100
AcDbEntity
  8
1
  6
Continuous
 62
     7
370
     9
100
AcDbLine
 10
636.5642860204473
 20
410.252027542473
 30
0.0
 11
636.5642860204473
 21
401.252027542473
 31
0.0
  0
LINE
  5
209
330
1F
100
AcDbEntity
  8
1
  6
Continuous
 62
     7
370
     9
100
AcDbLine
 10
605.5642860204473
 20
401.252027542473
 30
0.0
 11
656.9071430102236
 21
401.252027542473
 31
0.0
  0
LINE
  5
20A
330
1F
100
AcDbEntity
  8
1
  6
Continuous
 62
     7
370
     9
100
AcDbLine
 10
656.9071430102236
 20
397.252027542473
 30
0.0
 11
656.9071430102236
 21
401.252027542473
 31
0.0
  0
LINE
  5
20B
330
1F
100
AcDbEntity
  8
1
  6
Continuous
 62
     7
370
     9
100
AcDbLine
 10
666.75
 20
234.0032484407482
 30
0.0
 11
662.75
 21
234.0032484407482
 31
0.0
  0
LINE
  5
20C
330
1F
100
AcDbEntity
  8
1
  6
Continuous
 62
     7
370
     9
100
AcDbLine
 10
662.75
 20
234.0032484407482
 30
0.0
 11
662.75
 21
223.0032484407482
 31
0.0
  0
LINE
  5
20D
330
1F
100
AcDbEntity
  8
1
  6
Continuous
 62
     7
370
     9
100
AcDbLine
 10
666.75
 20
223.0032484407482
 30
0.0
 11
662.75
 21
223.0032484407482
 31
0.0
  0
LINE
  5
20E
330
1F
100
AcDbEntity
  8
1
  6
Continuous
 62
     7
370
     9
100
AcDbLine
 10
668.25
 20
239.0032484407482
 30
0.0
 11
666.75
 21
239.0032484407482
 31
0.0
  0
LINE
  5
20F
330
1F
100
AcDbEntity
  8
1
  6
Continuous
 62
     7
370
     9
100
AcDbLine
 10
668.25
 20
218.0032484407482
 30
0.0
 11
666.75
 21
218.0032484407482
 31
0.0
  0
LINE
  5
210
330
1F
100
AcDbEntity
  8
1
  6
Continuous
 62
     7
370
     9
100
AcDbLine
 10
666.75
 20
239.0032484407482
 30
0.0
 11
666.75
 21
218.0032484407482
 31
0.0
  0
LINE
  5
211
330
1F
100
AcDbEntity
  8
1
  6
Continuous
 62
     7
370
     9
100
AcDbLine
 10
666.75
 20
276.5634095634091
 30
0.0
 11
662.75
 21
276.5634095634091
 31
0.0
  0
LINE
  5
212
330
1F
100
AcDbEntity
  8
1
  6
Continuous
 62
     7
370
     9
100
AcDbLine
 10
662.75
 20
276.5634095634091
 30
0.0
 11
662.75
 21
265.5634095634091
 31
0.0
  0
LINE
  5
213
330
1F
100
AcDbEntity
  8
1
  6
Continuous
 62
     7
370
     9
100
AcDbLine
 10
666.75
 20
265.5634095634091
 30
0.0
 11
662.75
 21
265.5634095634091
 31
0.0
  0
LINE
  5
214
330
1F
100
AcDbEntity
  8
1
  6
Continuous
 62
     7
370
     9
100
AcDbLine
 10
668.25
 20
281.5634095634091
 30
0.0
 11
666.75
 21
281.5634095634091
 31
0.0
  0
CIRCLE
  5
215
330
1F
100
AcDbEntity
  8
1
  6
Continuous
 62
     7
370
     9
100
AcDbCircle
 10
623.5596781692952
 20
206.3536321035833
 30
0.0
 40
6.0
  0
CIRCLE
  5
216
330
1F
100
AcDbEntity
  8
1
  6
Continuous
 62
     7
370
     9
100
AcDbCircle
 10
623.5596781692952
 20
206.3536321035833
 30
0.0
 40
5.0
  0
LINE
  5
217
330
1F
100
AcDbEntity
  8
1
  6
Continuous
 62
     7
370
     9
100
AcDbLine
 10
637.2680006007974
 20
223.7750124824828
 30
0.0
 11
644.2707915793205
 21
214.1921200087646
 31
0.0
  0
LINE
  5
218
330
1F
100
AcDbEntity
  8
1
  6
Continuous
 62
     7
370
     9
100
AcDbLine
 10
638.0753954149002
 20
224.3650240197939
 30
0.0
 11
645.0781863934232
 21
214.7821315460757
 31
0.0
  0
LINE
  5
219
330
1F
100
AcDbEntity
  8
1
  6
Continuous
 62
     7
370
     9
100
AcDbLine
 10
644.2707915793205
 20
214.1921200087646
 30
0.0
 11
645.0781863934232
 21
214.7821315460757
 31
0.0
  0
LINE
  5
21A
330
1F
100
AcDbEntity
  8
1
  6
Continuous
 62
     7
370
     9
100
AcDbLine
 10
637.2680006007974
 20
223.7750124824828
 30
0.0
 11
638.0753954149002
 21
224.3650240197939
 31
0.0
  0
LINE
  5
21B
330
1F
100
AcDbEntity
  8
1
  6
Continuous
 62
     7
370
     9
100
AcDbLine
 10
643.975785810665
 20
214.595817415816
 30
0.0
 11
643.5720884036136
 21
214.3008116471605
 31
0.0
  0
LINE
  5
21C
330
1F
100
AcDbEntity
  8
1
  6
Continuous
 62
     7
370
     9
100
AcDbLine
 10
637.563006369453
 20
223.3713150754314
 30
0.0
 11
637.1593089624016
 21
223.076309306776
 31
0.0
  0
LINE
  5
21D
330
1F
100
AcDbEntity
  8
1
  6
Continuous
 62
     7
370
     9
100
AcDbLine
 10
619.616924254063
 20
210.87631842522
 30
0.0
 11
636.8643031937462
 21
223.4800067138273
 31
0.0
  0
LINE
  5
21E
330
1F
100
AcDbEntity
  8
1
  6
Continuous
 62
     7
370
     9
100
AcDbLine
 10
626.1164368662089
 20
200.9256504376455
 30
0.0
 11
643.8670941722692
 21
213.8971142401092
 31
0.0
  0
LINE
  5
21F
330
1F
100
AcDbEntity
  8
1
  6
Continuous
 62
     7
370
     9
100
AcDbLine
 10
636.8643031937462
 20
223.4800067138273
 30
0.0
 11
643.8670941722692
 21
213.8971142401092
 31
0.0
  0
LINE
  5
220
330
1F
100
AcDbEntity
  8
1
  6
Continuous
 62
     7
370
     9
100
AcDbLine
 10
639.806756149068
 20
221.9957624211496
 30
0.0
 11
668.25
 21
242.7809368333126
 31
0.0
  0
LINE
  5
221
330
1F
100
AcDbEntity
  8
1
  6
Continuous
 62
     7
370
     9
100
AcDbLine
 10
643.346825318155
 20
217.1513936114951
 30
0.0
 11
662.75
 21
231.3304504035212
 31
0.0
  0
CIRCLE
  5
222
330
1F
100
AcDbEntity
  8
1
  6
Continuous
 62
     7
370
     9
100
AcDbCircle
 10
623.5642860204473
 20
298.2204554313927
 30
0.0
 40
6.0
  0
CIRCLE
  5
223
330
1F
100
AcDbEntity
  8
1
  6
Continuous
 62
     7
370
     9
100
AcDbCircle
 10
623.5642860204473
 20
298.2204554313927
 30
0.0
 40
5.0
  0
LINE
  5
224
330
1F
100
AcDbEntity
  8
1
  6
Continuous
 62
     7
370
     9
100
AcDbLine
 10
643.1019072698016
 20
287.7464898925382
 30
0.0
 11
634.8810192133078
 21
279.1856541147461
 31
0.0
  0
LINE
  5
225
330
1F
100
AcDbEntity
  8
1
  6
Continuous
 62
     7
370
     9
100
AcDbLine
 10
643.8231899545788
 20
287.0538490847304
 30
0.0
 11
635.602301898085
 21
278.4930133069382
 31
0.0
  0
LINE
  5
226
330
1F
100
AcDbEntity
  8
1
  6
Continuous
 62
     7
370
     9
100
AcDbLine
 10
634.8810192133078
 20
279.1856541147461
 30
0.0
 11
635.602301898085
 21
278.4930133069382
 31
0.0
  0
LINE
  5
227
330
1F
100
AcDbEntity
  8
1
  6
Continuous
 62
     7
370
     9
100
AcDbLine
 10
643.1019072698016
 20
287.7464898925382
 30
0.0
 11
643.8231899545788
 21
287.0538490847304
 31
0.0
  0
LINE
  5
228
330
1F
100
AcDbEntity
  8
1
  6
Continuous
 62
     7
370
     9
100
AcDbLine
 10
635.2273396172117
 20
279.5462954571346
 30
0.0
 11
634.8666982748231
 21
279.8926158610385
 31
0.0
  0
LINE
  5
229
330
1F
100
AcDbEntity
  8
1
  6
Continuous
 62
     7
370
     9
100
AcDbLine
 10
642.7555868658976
 20
287.3858485501496
 30
0.0
 11
642.394945523509
 21
287.7321689540535
 31
0.0
  0
LINE
  5
22A
330
1F
100
AcDbEntity
  8
1
  6
Continuous
 62
     7
370
     9
100
AcDbLine
 10
627.3333941282742
 20
302.8888410272397
 30
0.0
 11
642.741265927413
 21
288.0928102964421
 31
0.0
  0
LINE
  5
22B
330
1F
100
AcDbEntity
  8
1
  6
Continuous
 62
     7
370
     9
100
AcDbLine
 10
618.6629045076508
 20
294.7597532965627
 30
0.0
 11
634.5203778709192
 21
279.53197451865
 31
0.0
  0
LINE
  5
22C
330
1F
100
AcDbEntity
  8
1
  6
Continuous
 62
     7
370
     9
100
AcDbLine
 10
642.741265927413
 20
288.0928102964421
 30
0.0
 11
634.5203778709192
 21
279.53197451865
 31
0.0
  0
LINE
  5
22D
330
1F
100
AcDbEntity
  8
1
  6
Continuous
 62
     7
370
     9
100
AcDbLine
 10
668.2500000000001
 20
259.4684518177349
 30
0.0
 11
641.7605998562302
 21
284.9059673732266
 31
0.0
  0
LINE
  5
22E
330
1F
100
AcDbEntity
  8
1
  6
Continuous
 62
     7
370
     9
100
AcDbLine
 10
668.2500000000001
 20
251.149938222285
 30
0.0
 11
637.6047551344178
 21
280.5782713947689
 31
0.0
  0
LINE
  5
22F
330
1F
100
AcDbEntity
  8
1
  6
Continuous
 62
     7
370
     9
100
AcDbLine
 10
666.75
 20
281.5634095634091
 30
0.0
 11
666.75
 21
260.9088873552009
 31
0.0
  0
LINE
  5
230
330
1F
100
AcDbEntity
  8
1
  6
Continuous
 62
     7
370
     9
100
AcDbLine
 10
769.9134262746195
 20
278.063409563409
 30
0.0
 11
771.9134262746195
 21
278.063409563409
 31
0.0
  0
LINE
  5
231
330
1F
100
AcDbEntity
  8
1
  6
Continuous
 62
     7
370
     9
100
AcDbLine
 10
769.9134262746195
 20
264.0634095634091
 30
0.0
 11
771.9134262746195
 21
264.0634095634091
 31
0.0
  0
LINE
  5
232
330
1F
100
AcDbEntity
  8
1
  6
Continuous
 62
     7
370
     9
100
AcDbLine
 10
771.9134262746195
 20
278.563409563409
 30
0.0
 11
773.4134262746195
 21
280.063409563409
 31
0.0
  0
LINE
  5
233
330
1F
100
AcDbEntity
  8
1
  6
Continuous
 62
     7
370
     9
100
AcDbLine
 10
773.4134262746195
 20
280.063409563409
 30
0.0
 11
782.4134262746195
 21
280.063409563409
 31
0.0
  0
LINE
  5
234
330
1F
100
AcDbEntity
  8
1
  6
Continuous
 62
     7
370
     9
100
AcDbLine
 10
782.4134262746195
 20
280.063409563409
 30
0.0
 11
783.9134262746195
 21
278.563409563409
 31
0.0
  0
LINE
  5
235
330
1F
100
AcDbEntity
  8
1
  6
Continuous
 62
     7
370
     9
100
AcDbLine
 10
783.9134262746195
 20
263.5634095634091
 30
0.0
 11
782.4134262746195
 21
262.0634095634091
 31
0.0
  0
LINE
  5
236
330
1F
100
AcDbEntity
  8
1
  6
Continuous
 62
     7
370
     9
100
AcDbLine
 10
782.4134262746195
 20
262.0634095634091
 30
0.0
 11
773.4134262746195
 21
262.0634095634091
 31
0.0
  0
LINE
  5
237
330
1F
100
AcDbEntity
  8
1
  6
Continuous
 62
     7
370
     9
100
AcDbLine
 10
773.4134262746195
 20
262.0634095634091
 30
0.0
 11
771.9134262746195
 21
263.5634095634091
 31
0.0
  0
CIRCLE
  5
238
330
1F
100
AcDbEntity
  8
1
  6
Continuous
 62
     7
370
     9
100
AcDbCircle
 10
777.7436655405386
 20
271.0634095634091
 30
0.0
 40
3.51184294392299
  0
LINE
  5
239
330
1F
100
AcDbEntity
  8
1
  6
Continuous
 62
     7
370
     9
100
AcDbLine
 10
771.9134262746195
 20
263.5634095634091
 30
0.0
 11
771.9134262746195
 21
278.563409563409
 31
0.0
  0
LINE
  5
23A
330
1F
100
AcDbEntity
  8
1
  6
Continuous
 62
     7
370
     9
100
AcDbLine
 10
771.9134262746195
 20
276.2073966995841
 30
0.0
 11
773.9134262746195
 21
278.2073966995841
 31
0.0
  0
LINE
  5
23B
330
1F
100
AcDbEntity
  8
1
  6
Continuous
 62
     7
370
     9
100
AcDbLine
 10
773.9134262746195
 20
278.2073966995841
 30
0.0
 11
781.9134262746195
 21
278.2073966995841
 31
0.0
  0
LINE
  5
23C
330
1F
100
AcDbEntity
  8
1
  6
Continuous
 62
     7
370
     9
100
AcDbLine
 10
781.9134262746195
 20
278.2073966995841
 30
0.0
 11
783.9134262746195
 21
276.2073966995841
 31
0.0
  0
LINE
  5
23D
330
1F
100
AcDbEntity
  8
1
  6
Continuous
 62
     7
370
     9
100
AcDbLine
 10
771.9134262746195
 20
265.9194224272341
 30
0.0
 11
773.9134262746195
 21
263.9194224272341
 31
0.0
  0
LINE
  5
23E
330
1F
100
AcDbEntity
  8
1
  6
Continuous
 62
     7
370
     9
100
AcDbLine
 10
773.9134262746195
 20
263.9194224272341
 30
0.0
 11
781.9134262746195
 21
263.9194224272341
 31
0.0
  0
LINE
  5
23F
330
1F
100
AcDbEntity
  8
1
  6
Continuous
 62
     7
370
     9
100
AcDbLine
 10
781.9134262746195
 20
263.9194224272341
 30
0.0
 11
783.9134262746195
 21
265.9194224272341
 31
0.0
  0
ELLIPSE
  5
240
330
1F
100
AcDbEntity
  8
1
  6
Continuous
 62
     7
370
     9
100
AcDbEllipse
 10
777.9134262746195
 20
278.2073966995841
 30
0.0
 11
-3.310142101024894
 21
1.069536422382330E-14
 31
0.0
210
0.0
220
0.0
230
1.0
 40
0.4804787178617058
 41
-3.141592637209307
 42
0.0000000163804863
  0
ELLIPSE
  5
241
330
1F
100
AcDbEntity
  8
1
  6
Continuous
 62
     7
370
     9
100
AcDbEllipse
 10
777.9134262746195
 20
263.9194224272341
 30
0.0
 11
-3.310142101024894
 21
-1.069536422382330E-14
 31
0.0
210
0.0
220
0.0
230
1.0
 40
0.4804787178617058
 41
-0.0000000163804863
 42
3.141592637209306
  0
LINE
  5
242
330
1F
100
AcDbEntity
  8
1
  6
Continuous
 62
     7
370
     9
100
AcDbLine
 10
783.9134262746195
 20
266.8759745322246
 30
0.0
 11
783.9134262746195
 21
277.2073966995841
 31
0.0
  0
LINE
  5
243
330
1F
100
AcDbEntity
  8
1
  6
Continuous
 62
     7
370
     9
100
AcDbLine
 10
783.9134262746195
 20
277.2073966995841
 30
0.0
 11
783.9134262746195
 21
278.563409563409
 31
0.0
  0
LINE
  5
244
330
1F
100
AcDbEntity
  8
1
  6
Continuous
 62
     7
370
     9
100
AcDbLine
 10
783.9134262746195
 20
266.6071332824746
 30
0.0
 11
783.9134262746195
 21
263.5634095634091
 31
0.0
  0
ARC
  5
245
330
1F
100
AcDbEntity
  8
1
  6
Continuous
 62
     7
370
     9
100
AcDbCircle
 10
790.0642860204473
 20
301.2071435948288
 30
0.0
 40
25.15357216625438
100
AcDbArc
 50
216.7634589838809
 51
237.2020239239734
  0
LINE
  5
246
330
1F
100
AcDbEntity
  8
1
  6
Continuous
 62
     7
370
     9
100
AcDbLine
 10
769.9134262746195
 20
235.5032484407481
 30
0.0
 11
771.9134262746195
 21
235.5032484407481
 31
0.0
  0
LINE
  5
247
330
1F
100
AcDbEntity
  8
1
  6
Continuous
 62
     7
370
     9
100
AcDbLine
 10
769.9134262746195
 20
221.5032484407482
 30
0.0
 11
771.9134262746195
 21
221.5032484407482
 31
0.0
  0
LINE
  5
248
330
1F
100
AcDbEntity
  8
1
  6
Continuous
 62
     7
370
     9
100
AcDbLine
 10
771.9134262746195
 20
236.0032484407481
 30
0.0
 11
773.4134262746195
 21
237.5032484407481
 31
0.0
  0
LINE
  5
249
330
1F
100
AcDbEntity
  8
1
  6
Continuous
 62
     7
370
     9
100
AcDbLine
 10
773.4134262746195
 20
237.5032484407481
 30
0.0
 11
782.4134262746195
 21
237.5032484407481
 31
0.0
  0
LINE
  5
24A
330
1F
100
AcDbEntity
  8
1
  6
Continuous
 62
     7
370
     9
100
AcDbLine
 10
782.4134262746195
 20
237.5032484407481
 30
0.0
 11
783.9134262746195
 21
236.0032484407481
 31
0.0
  0
LINE
  5
24B
330
1F
100
AcDbEntity
  8
1
  6
Continuous
 62
     7
370
     9
100
AcDbLine
 10
783.9134262746195
 20
221.0032484407482
 30
0.0
 11
782.4134262746195
 21
219.5032484407482
 31
0.0
  0
LINE
  5
24C
330
1F
100
AcDbEntity
  8
1
  6
Continuous
 62
     7
370
     9
100
AcDbLine
 10
782.4134262746195
 20
219.5032484407482
 30
0.0
 11
773.4134262746195
 21
219.5032484407482
 31
0.0
  0
LINE
  5
24D
330
1F
100
AcDbEntity
  8
1
  6
Continuous
 62
     7
370
     9
100
AcDbLine
 10
773.4134262746195
 20
219.5032484407482
 30
0.0
 11
771.9134262746195
 21
221.0032484407482
 31
0.0
  0
CIRCLE
  5
24E
330
1F
100
AcDbEntity
  8
1
  6
Continuous
 62
     7
370
     9
100
AcDbCircle
 10
777.7436655405386
 20
228.5032484407482
 30
0.0
 40
3.51184294392299
  0
LINE
  5
24F
330
1F
100
AcDbEntity
  8
1
  6
Continuous
 62
     7
370
     9
100
AcDbLine
 10
771.9134262746195
 20
221.0032484407482
 30
0.0
 11
771.9134262746195
 21
236.0032484407481
 31
0.0
  0
LINE
  5
250
330
1F
100
AcDbEntity
  8
1
  6
Continuous
 62
     7
370
     9
100
AcDbLine
 10
771.9134262746195
 20
233.6472355769232
 30
0.0
 11
773.9134262746195
 21
235.6472355769232
 31
0.0
  0
LINE
  5
251
330
1F
100
AcDbEntity
  8
1
  6
Continuous
 62
     7
370
     9
100
AcDbLine
 10
773.9134262746195
 20
235.6472355769232
 30
0.0
 11
781.9134262746195
 21
235.6472355769232
 31
0.0
  0
LINE
  5
252
330
1F
100
AcDbEntity
  8
1
  6
Continuous
 62
     7
370
     9
100
AcDbLine
 10
781.9134262746195
 20
235.6472355769232
 30
0.0
 11
783.9134262746195
 21
233.6472355769232
 31
0.0
  0
LINE
  5
253
330
1F
100
AcDbEntity
  8
1
  6
Continuous
 62
     7
370
     9
100
AcDbLine
 10
771.9134262746195
 20
223.3592613045731
 30
0.0
 11
773.9134262746195
 21
221.3592613045731
 31
0.0
  0
LINE
  5
254
330
1F
100
AcDbEntity
  8
1
  6
Continuous
 62
     7
370
     9
100
AcDbLine
 10
773.9134262746195
 20
221.3592613045731
 30
0.0
 11
781.9134262746195
 21
221.3592613045731
 31
0.0
  0
LINE
  5
255
330
1F
100
AcDbEntity
  8
1
  6
Continuous
 62
     7
370
     9
100
AcDbLine
 10
781.9134262746195
 20
221.3592613045731
 30
0.0
 11
783.9134262746195
 21
223.3592613045731
 31
0.0
  0
ELLIPSE
  5
256
330
1F
100
AcDbEntity
  8
1
  6
Continuous
 62
     7
370
     9
100
AcDbEllipse
 10
777.9134262746195
 20
235.6472355769232
 30
0.0
 11
-3.310142101024894
 21
1.069536422382330E-14
 31
0.0
210
0.0
220
0.0
230
1.0
 40
0.4804787178617058
 41
-3.141592637209307
 42
0.0000000163804863
  0
ELLIPSE
  5
257
330
1F
100
AcDbEntity
  8
1
  6
Continuous
 62
     7
370
     9
100
AcDbEllipse
 10
777.9134262746195
 20
221.3592613045731
 30
0.0
 11
-3.310142101024894
 21
-1.069536422382330E-14
 31
0.0
210
0.0
220
0.0
230
1.0
 40
0.4804787178617058
 41
-0.0000000163804863
 42
3.141592637209306
  0
LINE
  5
258
330
1F
100
AcDbEntity
  8
1
  6
Continuous
 62
     7
370
     9
100
AcDbLine
 10
783.9134262746195
 20
224.3158134095637
 30
0.0
 11
783.9134262746195
 21
234.6472355769232
 31
0.0
  0
LINE
  5
259
330
1F
100
AcDbEntity
  8
1
  6
Continuous
 62
     7
370
     9
100
AcDbLine
 10
783.9134262746195
 20
234.6472355769232
 30
0.0
 11
783.9134262746195
 21
236.0032484407481
 31
0.0
  0
LINE
  5
25A
330
1F
100
AcDbEntity
  8
1
  6
Continuous
 62
     7
370
     9
100
AcDbLine
 10
783.9134262746195
 20
224.0469721598137
 30
0.0
 11
783.9134262746195
 21
221.0032484407482
 31
0.0
  0
LINE
  5
25B
330
1F
100
AcDbEntity
  8
1
  6
Continuous
 62
     7
370
     9
100
AcDbLine
 10
769.9134262746195
 20
256.7833290020786
 30
0.0
 11
771.9134262746195
 21
256.7833290020786
 31
0.0
  0
LINE
  5
25C
330
1F
100
AcDbEntity
  8
1
  6
Continuous
 62
     7
370
     9
100
AcDbLine
 10
769.9134262746195
 20
242.7833290020786
 30
0.0
 11
771.9134262746195
 21
242.7833290020786
 31
0.0
  0
LINE
  5
25D
330
1F
100
AcDbEntity
  8
1
  6
Continuous
 62
     7
370
     9
100
AcDbLine
 10
771.9134262746195
 20
257.2833290020786
 30
0.0
 11
773.4134262746195
 21
258.7833290020786
 31
0.0
  0
LINE
  5
25E
330
1F
100
AcDbEntity
  8
1
  6
Continuous
 62
     7
370
     9
100
AcDbLine
 10
773.4134262746195
 20
240.7833290020786
 30
0.0
 11
771.9134262746195
 21
242.2833290020786
 31
0.0
  0
LINE
  5
25F
330
1F
100
AcDbEntity
  8
1
  6
Continuous
 62
     7
370
     9
100
AcDbLine
 10
771.9134262746195
 20
242.2833290020786
 30
0.0
 11
771.9134262746195
 21
257.2833290020786
 31
0.0
  0
LINE
  5
260
330
1F
100
AcDbEntity
  8
1
  6
Continuous
 62
     7
370
     9
100
AcDbLine
 10
773.4134262746195
 20
258.7833290020786
 30
0.0
 11
783.9134262746195
 21
258.7833290020786
 31
0.0
  0
LINE
  5
261
330
1F
100
AcDbEntity
  8
1
  6
Continuous
 62
     7
370
     9
100
AcDbLine
 10
783.9134262746195
 20
258.7833290020786
 30
0.0
 11
785.9134262746195
 21
256.7833290020786
 31
0.0
  0
LINE
  5
262
330
1F
100
AcDbEntity
  8
1
  6
Continuous
 62
     7
370
     9
100
AcDbLine
 10
785.9134262746195
 20
256.7833290020786
 30
0.0
 11
785.9134262746195
 21
242.7833290020786
 31
0.0
  0
LINE
  5
263
330
1F
100
AcDbEntity
  8
1
  6
Continuous
 62
     7
370
     9
100
AcDbLine
 10
773.4134262746195
 20
240.7833290020786
 30
0.0
 11
783.9134262746195
 21
240.7833290020786
 31
0.0
  0
LINE
  5
264
330
1F
100
AcDbEntity
  8
1
  6
Continuous
 62
     7
370
     9
100
AcDbLine
 10
785.9134262746195
 20
242.7833290020786
 30
0.0
 11
783.9134262746195
 21
240.7833290020786
 31
0.0
  0
ARC
  5
265
330
1F
100
AcDbEntity
  8
1
  6
Continuous
 62
     7
370
     9
100
AcDbCircle
 10
784.9134262746195
 20
276.2291206470887
 30
0.0
 40
1.0
100
AcDbArc
 50
89.99999999999991
 51
179.9999999999998
  0
ARC
  5
266
330
1F
100
AcDbEntity
  8
1
  6
Continuous
 62
     7
370
     9
100
AcDbCircle
 10
784.9134262746195
 20
276.2291206470887
 30
0.0
 40
1.0
100
AcDbArc
 50
0.0
 51
89.99999999999991
  0
ARC
  5
267
330
1F
100
AcDbEntity
  8
1
  6
Continuous
 62
     7
370
     9
100
AcDbCircle
 10
784.9134262746195
 20
265.8976984797293
 30
0.0
 40
1.0
100
AcDbArc
 50
180.0000000000062
 51
269.9999999999998
  0
ARC
  5
268
330
1F
100
AcDbEntity
  8
1
  6
Continuous
 62
     7
370
     9
100
AcDbCircle
 10
784.9134262746195
 20
265.8976984797293
 30
0.0
 40
1.0
100
AcDbArc
 50
269.9999999999998
 51
359.9999999999931
  0
LINE
  5
269
330
1F
100
AcDbEntity
  8
1
  6
Continuous
 62
     7
370
     9
100
AcDbLine
 10
789.9134262746195
 20
271.0851335109137
 30
0.0
 11
792.9134262746195
 21
271.0851335109137
 31
0.0
  0
LINE
  5
26A
330
1F
100
AcDbEntity
  8
1
  6
Continuous
 62
     7
370
     9
100
AcDbLine
 10
792.9134262746195
 20
271.0851335109137
 30
0.0
 11
792.9134262746195
 21
269.0851335109137
 31
0.0
  0
LINE
  5
26B
330
1F
100
AcDbEntity
  8
1
  6
Continuous
 62
     7
370
     9
100
AcDbLine
 10
789.9134262746195
 20
269.0851335109137
 30
0.0
 11
792.9134262746195
 21
269.0851335109137
 31
0.0
  0
LINE
  5
26C
330
1F
100
AcDbEntity
  8
1
  6
Continuous
 62
     7
370
     9
100
AcDbLine
 10
789.9134262746195
 20
276.2291206470887
 30
0.0
 11
785.9134262746195
 21
276.2291206470887
 31
0.0
  0
LINE
  5
26D
330
1F
100
AcDbEntity
  8
1
  6
Continuous
 62
     7
370
     9
100
AcDbLine
 10
789.9134262746195
 20
276.2291206470887
 30
0.0
 11
789.9134262746195
 21
265.8976984797293
 31
0.0
  0
LINE
  5
26E
330
1F
100
AcDbEntity
  8
1
  6
Continuous
 62
     7
370
     9
100
AcDbLine
 10
789.9134262746195
 20
265.8976984797293
 30
0.0
 11
785.9134262746195
 21
265.8976984797293
 31
0.0
  0
LINE
  5
26F
330
1F
100
AcDbEntity
  8
1
  6
Continuous
 62
     7
370
     9
100
AcDbLine
 10
785.9134262746195
 20
276.2291206470887
 30
0.0
 11
785.9134262746195
 21
265.8976984797293
 31
0.0
  0
ARC
  5
270
330
1F
100
AcDbEntity
  8
1
  6
Continuous
 62
     7
370
     9
100
AcDbCircle
 10
784.9134262746195
 20
233.6689595244279
 30
0.0
 40
1.0
100
AcDbArc
 50
89.99999999999991
 51
179.9999999999998
  0
ARC
  5
271
330
1F
100
AcDbEntity
  8
1
  6
Continuous
 62
     7
370
     9
100
AcDbCircle
 10
784.9134262746195
 20
233.6689595244279
 30
0.0
 40
1.0
100
AcDbArc
 50
0.0
 51
89.99999999999991
  0
ARC
  5
272
330
1F
100
AcDbEntity
  8
1
  6
Continuous
 62
     7
370
     9
100
AcDbCircle
 10
784.9134262746195
 20
223.3375373570684
 30
0.0
 40
1.0
100
AcDbArc
 50
179.9999999999998
 51
269.9999999999998
  0
ARC
  5
273
330
1F
100
AcDbEntity
  8
1
  6
Continuous
 62
     7
370
     9
100
AcDbCircle
 10
784.9134262746195
 20
223.3375373570684
 30
0.0
 40
1.0
100
AcDbArc
 50
269.9999999999998
 51
0.0
  0
LINE
  5
274
330
1F
100
AcDbEntity
  8
1
  6
Continuous
 62
     7
370
     9
100
AcDbLine
 10
789.9134262746195
 20
228.5249723882528
 30
0.0
 11
792.9134262746195
 21
228.5249723882528
 31
0.0
  0
LINE
  5
275
330
1F
100
AcDbEntity
  8
1
  6
Continuous
 62
     7
370
     9
100
AcDbLine
 10
792.9134262746195
 20
228.5249723882528
 30
0.0
 11
792.9134262746195
 21
226.5249723882528
 31
0.0
  0
LINE
  5
276
330
1F
100
AcDbEntity
  8
1
  6
Continuous
 62
     7
370
     9
100
AcDbLine
 10
789.9134262746195
 20
226.5249723882528
 30
0.0
 11
792.9134262746195
 21
226.5249723882528
 31
0.0
  0
LINE
  5
277
330
1F
100
AcDbEntity
  8
1
  6
Continuous
 62
     7
370
     9
100
AcDbLine
 10
789.9134262746195
 20
233.6689595244279
 30
0.0
 11
785.9134262746195
 21
233.6689595244279
 31
0.0
  0
LINE
  5
278
330
1F
100
AcDbEntity
  8
1
  6
Continuous
 62
     7
370
     9
100
AcDbLine
 10
789.9134262746195
 20
233.6689595244279
 30
0.0
 11
789.9134262746195
 21
223.3375373570684
 31
0.0
  0
LINE
  5
279
330
1F
100
AcDbEntity
  8
1
  6
Continuous
 62
     7
370
     9
100
AcDbLine
 10
789.9134262746195
 20
223.3375373570684
 30
0.0
 11
785.9134262746195
 21
223.3375373570684
 31
0.0
  0
LINE
  5
27A
330
1F
100
AcDbEntity
  8
1
  6
Continuous
 62
     7
370
     9
100
AcDbLine
 10
785.9134262746195
 20
233.6689595244279
 30
0.0
 11
785.9134262746195
 21
223.3375373570684
 31
0.0
  0
LINE
  5
27B
330
1F
100
AcDbEntity
  8
1
  6
Continuous
 62
     7
370
     9
100
AcDbLine
 10
791.9134262746195
 20
254.9490400857584
 30
0.0
 11
791.9134262746195
 21
244.6176179183989
 31
0.0
  0
LINE
  5
27C
330
1F
100
AcDbEntity
  8
1
  6
Continuous
 62
     7
370
     9
100
AcDbLine
 10
791.9134262746195
 20
254.9490400857584
 30
0.0
 11
785.9134262746195
 21
254.9490400857584
 31
0.0
  0
LINE
  5
27D
330
1F
100
AcDbEntity
  8
1
  6
Continuous
 62
     7
370
     9
100
AcDbLine
 10
791.9134262746195
 20
244.6176179183989
 30
0.0
 11
785.9134262746195
 21
244.6176179183989
 31
0.0
  0
LINE
  5
27E
330
1F
100
AcDbEntity
  8
1
  6
Continuous
 62
     7
370
     9
100
AcDbLine
 10
788.8145952442806
 20
254.9490400857584
 30
0.0
 11
788.8145952442806
 21
244.6176179183989
 31
0.0
  0
LINE
  5
27F
330
1F
100
AcDbEntity
  8
1
  6
Continuous
 62
     7
370
     9
100
AcDbLine
 10
771.9134262746195
 20
252.9960693866949
 30
0.0
 11
785.9134262746195
 21
252.9960693866949
 31
0.0
  0
LINE
  5
280
330
1F
100
AcDbEntity
  8
1
  6
Continuous
 62
     7
370
     9
100
AcDbLine
 10
771.9134262746195
 20
246.5705886174624
 30
0.0
 11
785.9134262746195
 21
246.5705886174624
 31
0.0
  0
CIRCLE
  5
281
330
1F
100
AcDbEntity
  8
1
  6
Continuous
 62
     7
370
     9
100
AcDbCircle
 10
747.7388561475334
 20
330.3015852390844
 30
0.0
 40
19.99999999999994
  0
CIRCLE
  5
282
330
1F
100
AcDbEntity
  8
1
  6
Continuous
 62
     7
370
     9
100
AcDbCircle
 10
747.7388561475334
 20
330.3015852390841
 30
0.0
 40
18.22679420000543
  0
LINE
  5
283
330
1F
100
AcDbEntity
  8
1
  6
Continuous
 62
     7
370
     9
100
AcDbLine
 10
770.2407024066897
 20
336.3015852390841
 30
0.0
 11
771.4407024066898
 21
337.5015852390842
 31
0.0
  0
LINE
  5
284
330
1F
100
AcDbEntity
  8
1
  6
Continuous
 62
     7
370
     9
100
AcDbLine
 10
771.4407024066898
 20
323.1015852390843
 30
0.0
 11
770.2407024066897
 21
324.3015852390844
 31
0.0
  0
LINE
  5
285
330
1F
100
AcDbEntity
  8
1
  6
Continuous
 62
     7
370
     9
100
AcDbLine
 10
770.2407024066897
 20
324.3015852390844
 30
0.0
 11
770.2407024066897
 21
336.3015852390841
 31
0.0
  0
LINE
  5
286
330
1F
100
AcDbEntity
  8
1
  6
Continuous
 62
     7
370
     9
100
AcDbLine
 10
771.4407024066898
 20
337.5015852390842
 30
0.0
 11
779.8407024066898
 21
337.5015852390842
 31
0.0
  0
LINE
  5
287
330
1F
100
AcDbEntity
  8
1
  6
Continuous
 62
     7
370
     9
100
AcDbLine
 10
779.8407024066898
 20
337.5015852390842
 30
0.0
 11
781.4407024066898
 21
335.9015852390843
 31
0.0
  0
LINE
  5
288
330
1F
100
AcDbEntity
  8
1
  6
Continuous
 62
     7
370
     9
100
AcDbLine
 10
781.4407024066898
 20
335.9015852390843
 30
0.0
 11
781.4407024066898
 21
324.7015852390842
 31
0.0
  0
LINE
  5
289
330
1F
100
AcDbEntity
  8
1
  6
Continuous
 62
     7
370
     9
100
AcDbLine
 10
771.4407024066898
 20
323.1015852390843
 30
0.0
 11
779.8407024066898
 21
323.1015852390843
 31
0.0
  0
LINE
  5
28A
330
1F
100
AcDbEntity
  8
1
  6
Continuous
 62
     7
370
     9
100
AcDbLine
 10
781.4407024066898
 20
324.7015852390842
 30
0.0
 11
779.8407024066898
 21
323.1015852390843
 31
0.0
  0
LINE
  5
28B
330
1F
100
AcDbEntity
  8
1
  6
Continuous
 62
     7
370
     9
100
AcDbLine
 10
770.2407024066897
 20
332.8717775467773
 30
0.0
 11
781.4407024066898
 21
332.8717775467773
 31
0.0
  0
LINE
  5
28C
330
1F
100
AcDbEntity
  8
1
  6
Continuous
 62
     7
370
     9
100
AcDbLine
 10
770.2407024066897
 20
327.7313929313913
 30
0.0
 11
781.4407024066898
 21
327.7313929313913
 31
0.0
  0
LINE
  5
28D
330
1F
100
AcDbEntity
  8
1
  6
Continuous
 62
     7
370
     9
100
AcDbLine
 10
769.9134262746195
 20
335.9015852390843
 30
0.0
 11
770.2407024066897
 21
335.9015852390843
 31
0.0
  0
LINE
  5
28E
330
1F
100
AcDbEntity
  8
1
  6
Continuous
 62
     7
370
     9
100
AcDbLine
 10
769.9134262746195
 20
324.7015852390842
 30
0.0
 11
770.2407024066897
 21
324.7015852390842
 31
0.0
  0
LINE
  5
28F
330
1F
100
AcDbEntity
  8
1
  6
Continuous
 62
     7
370
     9
100
AcDbLine
 10
671.25
 20
352.3015852390841
 30
0.0
 11
671.25
 21
207.6778628271906
 31
0.0
  0
LINE
  5
290
330
1F
100
AcDbEntity
  8
1
  6
Continuous
 62
     7
370
     9
100
AcDbLine
 10
668.25
 20
352.3015852390841
 30
0.0
 11
668.25
 21
207.6778628271906
 31
0.0
  0
LINE
  5
291
330
1F
100
AcDbEntity
  8
1
  6
Continuous
 62
     7
370
     9
100
AcDbLine
 10
668.25
 20
352.3015852390841
 30
0.0
 11
769.9134262746195
 21
352.3015852390841
 31
0.0
  0
LINE
  5
292
330
1F
100
AcDbEntity
  8
1
  6
Continuous
 62
     7
370
     9
100
AcDbLine
 10
678.25
 20
352.3015852390841
 30
0.0
 11
678.25
 21
397.252027542473
 31
0.0
  0
LINE
  5
293
330
1F
100
AcDbEntity
  8
1
  6
Continuous
 62
     7
370
     9
100
AcDbLine
 10
674.2500003061616
 20
397.252027542473
 30
0.0
 11
674.2500003061616
 21
352.3015852390841
 31
0.0
  0
LINE
  5
294
330
1F
100
AcDbEntity
  8
1
  6
Continuous
 62
     7
370
     9
100
AcDbLine
 10
740.4015712370712
 20
407.252027542473
 30
0.0
 11
740.4015712370712
 21
393.3079832766015
 31
0.0
  0
LINE
  5
295
330
1F
100
AcDbEntity
  8
1
  6
Continuous
 62
     7
370
     9
100
AcDbLine
 10
756.2385654885634
 20
422.252027542473
 30
0.0
 11
756.2385654885634
 21
393.3079832766015
 31
0.0
  0
LINE
  5
296
330
1F
100
AcDbEntity
  8
1
  6
Continuous
 62
     7
370
     9
100
AcDbLine
 10
781.4407024066898
 20
335.7747856029113
 30
0.0
 11
782.4407024066898
 21
335.7747856029113
 31
0.0
  0
LINE
  5
297
330
1F
100
AcDbEntity
  8
1
  6
Continuous
 62
     7
370
     9
100
AcDbLine
 10
782.4407024066898
 20
335.7747856029113
 30
0.0
 11
782.4407024066898
 21
325.0511791839925
 31
0.0
  0
LINE
  5
298
330
1F
100
AcDbEntity
  8
1
  6
Continuous
 62
     7
370
     9
100
AcDbLine
 10
782.4407024066898
 20
325.0511791839925
 30
0.0
 11
781.4407024066898
 21
325.0511791839925
 31
0.0
  0
LINE
  5
299
330
1F
100
AcDbEntity
  8
1
  6
Continuous
 62
     7
370
     9
100
AcDbLine
 10
795.2407024066897
 20
334.4578514812898
 30
0.0
 11
795.2407024066897
 21
325.3811720374212
 31
0.0
  0
LINE
  5
29A
330
1F
100
AcDbEntity
  8
1
  6
Continuous
 62
     7
370
     9
100
AcDbLine
 10
785.2407024066897
 20
335.7747856029113
 30
0.0
 11
785.2407024066897
 21
325.0511791839925
 31
0.0
  0
ELLIPSE
  5
29B
330
1F
100
AcDbEntity
  8
1
  6
Continuous
 62
     7
370
     9
100
AcDbEllipse
 10
795.3022735807292
 20
335.1022722183205
 30
0.0
 11
-6.970463375150493
 21
0.6423708708258745
 31
0.0
210
0.0
220
0.0
230
1.0
 40
0.0958498849121189
 41
-0.0184964194198285
 42
1.570796326794905
  0
LINE
  5
29C
330
1F
100
AcDbEntity
  8
1
  6
Continuous
 62
     7
370
     9
100
AcDbLine
 10
788.2407024066897
 20
335.7747856029113
 30
0.0
 11
788.3341413117702
 21
335.7568902973134
 31
0.0
  0
LINE
  5
29D
330
1F
100
AcDbEntity
  8
1
  6
Continuous
 62
     7
370
     9
100
AcDbLine
 10
785.2407024066897
 20
335.7747856029113
 30
0.0
 11
788.2407024066897
 21
335.7747856029113
 31
0.0
  0
ELLIPSE
  5
29E
330
1F
100
AcDbEntity
  8
1
  6
Continuous
 62
     7
370
     9
100
AcDbEllipse
 10
795.2588697507092
 20
325.1516167422009
 30
0.0
 11
-6.997433440849679
 21
-0.1895395496423032
 31
0.0
210
0.0
220
0.0
230
0.9999999999999999
 40
0.0958498849121189
 41
-1.570796326794905
 42
-0.130807075160047
  0
LINE
  5
29F
330
1F
100
AcDbEntity
  8
1
  6
Continuous
 62
     7
370
     9
100
AcDbLine
 10
788.3188461135715
 20
325.0511791839925
 30
0.0
 11
785.2407024066897
 21
325.0511791839925
 31
0.0
  0
ARC
  5
2A0
330
1F
100
AcDbEntity
  8
1
  6
Continuous
 62
     7
370
     9
100
AcDbCircle
 10
790.0642860204473
 20
301.2071435948288
 30
0.0
 40
25.15357216625438
100
AcDbArc
 50
269.6563637761887
 51
78.56894854890481
  0
LINE
  5
2A1
330
1F
100
AcDbEntity
  8
1
  6
Continuous
 62
     7
370
     9
100
AcDbLine
 10
785.2407024066897
 20
334.4341541060281
 30
0.0
 11
782.4407024066898
 21
334.4341541060281
 31
0.0
  0
LINE
  5
2A2
330
1F
100
AcDbEntity
  8
1
  6
Continuous
 62
     7
370
     9
100
AcDbLine
 10
785.2407024066897
 20
326.1690163721404
 30
0.0
 11
782.4407024066898
 21
326.1690163721404
 31
0.0
  0
ELLIPSE
  5
2A3
330
1F
100
AcDbEntity
  8
1
  6
Continuous
 62
     7
370
     9
100
AcDbEllipse
 10
769.9134262746195
 20
298.5424571205814
 30
0.0
 11
58.16346925680697
 21
24.72213830032271
 31
0.0
210
0.0
220
0.0
230
1.0
 40
0.8898906612666568
 41
-1.570796326794895
 42
-0.4455986926969309
  0
ELLIPSE
  5
2A4
330
1F
100
AcDbEntity
  8
1
  6
Continuous
 62
     7
370
     9
100
AcDbEllipse
 10
769.9134262746195
 20
298.5424571205814
 30
0.0
 11
-61.96592902629936
 21
2.002174408762254E-13
 31
0.0
210
0.0
220
0.0
230
1.0
 40
0.8352836620352353
 41
-3.141592638446035
 42
-1.570796326794905
  0
ELLIPSE
  5
2A5
330
1F
100
AcDbEntity
  8
1
  6
Continuous
 62
     7
370
     9
100
AcDbEllipse
 10
769.9134262746195
 20
298.5424571205814
 30
0.0
 11
-56.97829304385692
 21
1.841019443748661E-13
 31
0.0
210
0.0
220
0.0
230
1.0
 40
0.803097560035388
 41
3.14159265358979
 42
4.712388980384682
  0
ELLIPSE
  5
2A6
330
1F
100
AcDbEntity
  8
1
  6
Continuous
 62
     7
370
     9
100
AcDbEllipse
 10
769.9134262746195
 20
298.5424571205814
 30
0.0
 11
53.08727464018567
 21
25.52321449524797
 31
0.0
210
0.0
220
0.0
230
1.0
 40
0.8619603931196042
 41
-1.570796326838015
 42
-0.5087915115578976
  0
LINE
  5
2A7
330
1F
100
AcDbEntity
  8
1
  6
Continuous
 62
     7
370
     9
100
AcDbLine
 10
738.6366108757571
 20
346.0928853065826
 30
0.0
 11
739.6708184480667
 21
344.3015854358672
 31
0.0
  0
LINE
  5
2A8
330
1F
100
AcDbEntity
  8
1
  6
Continuous
 62
     7
370
     9
100
AcDbLine
 10
731.9577086649299
 20
339.4214213637996
 30
0.0
 11
733.5962328910828
 21
338.4754188060759
 31
0.0
  0
LINE
  5
2A9
330
1F
100
AcDbEntity
  8
1
  6
Continuous
 62
     7
370
     9
100
AcDbLine
 10
729.5120632057833
 20
330.2948126532664
 30
0.0
 11
731.6093163490295
 21
330.295591935981
 31
0.0
  0
LINE
  5
2AA
330
1F
100
AcDbEntity
  8
1
  6
Continuous
 62
     7
370
     9
100
AcDbLine
 10
731.9577038860523
 20
321.1817573838395
 30
0.0
 11
733.2359309196472
 21
321.9197421073912
 31
0.0
  0
LINE
  5
2AB
330
1F
100
AcDbEntity
  8
1
  6
Continuous
 62
     7
370
     9
100
AcDbLine
 10
738.6366062112945
 20
314.5102878602241
 30
0.0
 11
739.123015441252
 21
315.3527735729646
 31
0.0
  0
LINE
  5
2AC
330
1F
100
AcDbEntity
  8
1
  6
Continuous
 62
     7
370
     9
100
AcDbLine
 10
747.7537190691771
 20
312.0747970990166
 30
0.0
 11
747.7537190691777
 21
313.4936350864087
 31
0.0
  0
LINE
  5
2AD
330
1F
100
AcDbEntity
  8
1
  6
Continuous
 62
     7
370
     9
100
AcDbLine
 10
747.7537190691771
 20
348.528373379152
 30
0.0
 11
747.7537190691777
 21
347.0103320718571
 31
0.0
  0
LINE
  5
2AE
330
1F
100
AcDbEntity
  8
1
  6
Continuous
 62
     7
370
     9
100
AcDbLine
 10
756.87082756876
 20
346.0928853065826
 30
0.0
 11
755.8366199964503
 21
344.3015854358672
 31
0.0
  0
LINE
  5
2AF
330
1F
100
AcDbEntity
  8
1
  6
Continuous
 62
     7
370
     9
100
AcDbLine
 10
763.5497297795871
 20
339.4214213637996
 30
0.0
 11
761.9112055534342
 21
338.4754188060759
 31
0.0
  0
LINE
  5
2B0
330
1F
100
AcDbEntity
  8
1
  6
Continuous
 62
     7
370
     9
100
AcDbLine
 10
765.9953752387337
 20
330.2948126532664
 30
0.0
 11
763.8981220954875
 21
330.295591935981
 31
0.0
  0
LINE
  5
2B1
330
1F
100
AcDbEntity
  8
1
  6
Continuous
 62
     7
370
     9
100
AcDbLine
 10
763.5497345584648
 20
321.1817573838395
 30
0.0
 11
762.2715075248698
 21
321.9197421073912
 31
0.0
  0
LINE
  5
2B2
330
1F
100
AcDbEntity
  8
1
  6
Continuous
 62
     7
370
     9
100
AcDbLine
 10
756.8708322332225
 20
314.5102878602241
 30
0.0
 11
756.384423003265
 21
315.3527735729646
 31
0.0
  0
LINE
  5
2B3
330
1F
100
AcDbEntity
  8
1
  6
Continuous
 62
     7
370
     9
100
AcDbLine
 10
747.7537193753399
 20
312.0747970990166
 30
0.0
 11
747.7537193753394
 21
313.4936350864087
 31
0.0
  0
ARC
  5
2B4
330
1F
100
AcDbEntity
  8
1
  6
Continuous
 62
     7
370
     9
100
AcDbCircle
 10
790.0642860204479
 20
239.89999926232
 30
0.0
 40
25.15357216625438
100
AcDbArc
 50
236.6271288250429
 51
42.32421436161383
  0
ARC
  5
2B5
330
1F
100
AcDbEntity
  8
1
  6
Continuous
 62
     7
370
     9
100
AcDbCircle
 10
790.0642860204479
 20
239.89999926232
 30
0.0
 40
25.15357216625438
100
AcDbArc
 50
55.21836002150086
 51
104.5705263071234
  0
LINE
  5
2B6
330
1F
100
AcDbEntity
  8
1
  6
Continuous
 62
     7
370
     9
100
AcDbLine
 10
725.5642860204473
 20
201.2011746987142
 30
0.0
 11
769.9134262746195
 21
201.2011746987142
 31
0.0
  0
LINE
  5
2B7
330
1F
100
AcDbEntity
  8
1
  6
Continuous
 62
     7
370
     9
100
AcDbLine
 10
769.9134262746195
 20
352.3015852390841
 30
0.0
 11
769.9134262746195
 21
201.2011746987142
 31
0.0
  0
LINE
  5
2B8
330
1F
100
AcDbEntity
  8
1
  6
Continuous
 62
     7
370
     9
100
AcDbLine
 10
687.5642860204473
 20
207.6778628271906
 30
0.0
 11
687.5642860204473
 21
191.7244865702378
 31
0.0
  0
LINE
  5
2B9
330
1F
100
AcDbEntity
  8
1
  6
Continuous
 62
     7
370
     9
100
AcDbLine
 10
636.4357145153356
 20
440.5306122448977
 30
0.0
 11
636.4357145153356
 21
410.252027542473
 31
0.0
  0
LINE
  5
2BA
330
1F
100
AcDbEntity
  8
1
  6
Continuous
 62
     7
370
     9
100
AcDbLine
 10
652.0357145153355
 20
440.5306122448977
 30
0.0
 11
636.4357145153356
 21
440.5306122448977
 31
0.0
  0
LINE
  5
2BB
330
1F
100
AcDbEntity
  8
1
  6
Continuous
 62
     7
370
     9
100
AcDbLine
 10
652.0357145153355
 20
440.5306122448977
 30
0.0
 11
652.0357145153355
 21
410.252027542473
 31
0.0
  0
INSERT
  5
2D4
330
1F
100
AcDbEntity
  8
0
100
AcDbBlockReference
  2
*G18
 10
0.0
 20
0.0
 30
0.0
  0
ARC
  5
2D5
330
1F
100
AcDbEntity
  8
1
  6
Continuous
 62
     7
370
     9
100
AcDbCircle
 10
484.4300374395051
 20
104.987066739208
 30
0.0
 40
-1.4
100
AcDbArc
 50
179.9999999999998
 51
89.99999999999991
  0
DIMENSION
  5
2DF
330
1F
100
AcDbEntity
  8
1
  6
Continuous
 62
     7
370
     9
100
AcDbDimension
  2
Dim1
 10
129.7499999999997
 20
14.6142857142856
 30
0.0
 11
222.7499999999998
 21
19.8642857142856
 31
0.0
 70
   160
  1
<>
 71
     5
 42
-1.0
 73
     0
 74
     0
 75
     0
  3
Standard
100
AcDbAlignedDimension
 13
129.75
 23
41.53061224489784
 33
0.0
 14
315.75
 24
41.53061224489784
 34
0.0
100
AcDbRotatedDimension
1001
ACAD
1000
DSTYLE
1002
{
1070
   344
1005
3E
1070
   343
1005
3E
1070
   173
1070
     1
1070
   289
1070
     2
1070
   279
1070
     2
1070
   288
1070
     1
1070
    77
1070
     3
1070
   172
1070
     1
1070
   174
1070
     0
1070
    74
1070
     0
1070
    73
1070
     0
1070
   284
1070
     8
1070
    78
1070
     8
1070
   140
1040
4.0
1070
    40
1040
3.0
1070
    42
1040
2.0
1070
    44
1040
0.0
1070
    43
1040
10.0
1070
   271
1070
     2
1070
    41
1040
4.0
1002
}
  0
LINE
  5
2E0
330
1F
100
AcDbEntity
  8
1
  6
Continuous
 62
     7
370
     9
100
AcDbLine
 10
121.6285714285712
 20
317.0883356462426
 30
0.0
 11
145.9071428571427
 21
317.0883356462426
 31
0.0
  0
LINE
  5
2E1
330
1F
100
AcDbEntity
  8
1
  6
Continuous
 62
     7
370
     9
100
AcDbLine
 10
121.6285714285712
 20
188.2011746987142
 30
0.0
 11
142.842857142857
 21
188.2011746987142
 31
0.0
  0
LINE
  5
2E2
330
1F
100
AcDbEntity
  8
1
  6
Continuous
 62
     7
370
     9
100
AcDbLine
 10
121.6285714285712
 20
188.2011746987142
 30
0.0
 11
120.8521142932637
 21
191.0989521775814
 31
0.0
  0
LINE
  5
2E3
330
1F
100
AcDbEntity
  8
1
  6
Continuous
 62
     7
370
     9
100
AcDbLine
 10
121.6285714285712
 20
188.2011746987142
 30
0.0
 11
122.4050285638788
 21
191.0989521775814
 31
0.0
  0
LINE
  5
2E4
330
1F
100
AcDbEntity
  8
1
  6
Continuous
 62
     7
370
     9
100
AcDbLine
 10
120.8521142932637
 20
191.0989521775814
 30
0.0
 11
122.4050285638788
 21
191.0989521775814
 31
0.0
  0
LINE
  5
2E5
330
1F
100
AcDbEntity
  8
1
  6
Continuous
 62
     7
370
     9
100
AcDbLine
 10
121.6285714285712
 20
188.925619068431
 30
0.0
 11
121.2403428609175
 21
190.3745078078646
 31
0.0
  0
LINE
  5
2E6
330
1F
100
AcDbEntity
  8
1
  6
Continuous
 62
     7
370
     9
100
AcDbLine
 10
121.6285714285712
 20
188.925619068431
 30
0.0
 11
122.016799996225
 21
190.3745078078646
 31
0.0
  0
LINE
  5
2E7
330
1F
100
AcDbEntity
  8
1
  6
Continuous
 62
     7
370
     9
100
AcDbLine
 10
121.2403428609175
 20
190.3745078078646
 30
0.0
 11
122.016799996225
 21
190.3745078078646
 31
0.0
  0
POLYLINE
  5
2E8
330
1F
100
AcDbEntity
  8
1
  6
Continuous
 62
     7
370
     9
100
AcDb2dPolyline
 66
     1
 10
0.0
 20
0.0
 30
0.0
  0
VERTEX
  5
2EA
330
2E8
100
AcDbEntity
  8
1
  6
Continuous
 62
     7
370
     9
100
AcDbVertex
100
AcDb2dVertex
 10
121.6285714285712
 20
188.2011746987142
 30
0.0
  0
VERTEX
  5
2EB
330
2E8
100
AcDbEntity
  8
1
  6
Continuous
 62
     7
370
     9
100
AcDbVertex
100
AcDb2dVertex
 10
121.6285714285712
 20
192.2249999999999
 30
0.0
  0
SEQEND
  5
2E9
330
2E8
100
AcDbEntity
  8
1
  6
Continuous
370
     9
  0
LINE
  5
2EC
330
1F
100
AcDbEntity
  8
1
  6
Continuous
 62
     7
370
     9
100
AcDbLine
 10
121.6285714285712
 20
317.0883356462426
 30
0.0
 11
122.4050285638788
 21
314.1905581673754
 31
0.0
  0
LINE
  5
2ED
330
1F
100
AcDbEntity
  8
1
  6
Continuous
 62
     7
370
     9
100
AcDbLine
 10
121.6285714285712
 20
317.0883356462426
 30
0.0
 11
120.8521142932637
 21
314.1905581673754
 31
0.0
  0
LINE
  5
2EE
330
1F
100
AcDbEntity
  8
1
  6
Continuous
 62
     7
370
     9
100
AcDbLine
 10
122.4050285638788
 20
314.1905581673754
 30
0.0
 11
120.8521142932637
 21
314.1905581673754
 31
0.0
  0
LINE
  5
2EF
330
1F
100
AcDbEntity
  8
1
  6
Continuous
 62
     7
370
     9
100
AcDbLine
 10
121.6285714285712
 20
316.3638912765258
 30
0.0
 11
122.016799996225
 21
314.9150025370922
 31
0.0
  0
LINE
  5
2F0
330
1F
100
AcDbEntity
  8
1
  6
Continuous
 62
     7
370
     9
100
AcDbLine
 10
121.6285714285712
 20
316.3638912765258
 30
0.0
 11
121.2403428609175
 21
314.9150025370922
 31
0.0
  0
LINE
  5
2F1
330
1F
100
AcDbEntity
  8
1
  6
Continuous
 62
     7
370
     9
100
AcDbLine
 10
122.016799996225
 20
314.9150025370922
 30
0.0
 11
121.2403428609175
 21
314.9150025370922
 31
0.0
  0
POLYLINE
  5
2F2
330
1F
100
AcDbEntity
  8
1
  6
Continuous
 62
     7
370
     9
100
AcDb2dPolyline
 66
     1
 10
0.0
 20
0.0
 30
0.0
  0
VERTEX
  5
2F4
330
2F2
100
AcDbEntity
  8
1
  6
Continuous
 62
     7
370
     9
100
AcDbVertex
100
AcDb2dVertex
 10
121.6285714285712
 20
317.0883356462426
 30
0.0
  0
VERTEX
  5
2F5
330
2F2
100
AcDbEntity
  8
1
  6
Continuous
 62
     7
370
     9
100
AcDbVertex
100
AcDb2dVertex
 10
121.6285714285712
 20
312.4392857142856
 30
0.0
  0
SEQEND
  5
2F3
330
2F2
100
AcDbEntity
  8
1
  6
Continuous
370
     9
  0
DIMENSION
  5
2FF
330
1F
100
AcDbEntity
  8
1
  6
Continuous
 62
     7
370
     9
100
AcDbDimension
  2
Dim2
 10
158.7499999999996
 20
144.8464285714284
 30
0.0
 11
222.7499999999997
 21
150.0964285714284
 31
0.0
 70
   160
  1
<>
 71
     5
 42
-1.0
 73
     0
 74
     0
 75
     0
  3
Standard
100
AcDbAlignedDimension
 13
158.75
 23
192.4607142857141
 33
0.0
 14
286.7500000000001
 24
191.2011746987142
 34
0.0
100
AcDbRotatedDimension
1001
ACAD
1000
DSTYLE
1002
{
1070
   344
1005
3E
1070
   343
1005
3E
1070
   173
1070
     1
1070
   289
1070
     2
1070
   279
1070
     2
1070
   288
1070
     1
1070
    77
1070
     3
1070
   172
1070
     1
1070
   174
1070
     0
1070
    74
1070
     0
1070
    73
1070
     0
1070
   284
1070
     8
1070
    78
1070
     8
1070
   140
1040
4.0
1070
    40
1040
3.0
1070
    42
1040
2.0
1070
    44
1040
0.0
1070
    43
1040
10.0
1070
   271
1070
     2
1070
    41
1040
4.0
1002
}
  0
DIMENSION
  5
309
330
1F
100
AcDbEntity
  8
1
  6
Continuous
 62
     7
370
     9
100
AcDbDimension
  2
Dim3
 10
182.7499999999999
 20
130.7035714285713
 30
0.0
 11
222.7499999999999
 21
135.9535714285713
 31
0.0
 70
   160
  1
<>
 71
     5
 42
-1.0
 73
     0
 74
     0
 75
     0
  3
Standard
100
AcDbAlignedDimension
 13
182.75
 23
139.6607142857141
 33
0.0
 14
262.75
 24
138.9535714285713
 34
0.0
100
AcDbRotatedDimension
1001
ACAD
1000
DSTYLE
1002
{
1070
   344
1005
3E
1070
   343
1005
3E
1070
   173
1070
     1
1070
   289
1070
     2
1070
   279
1070
     2
1070
   288
1070
     1
1070
    77
1070
     3
1070
   172
1070
     1
1070
   174
1070
     0
1070
    74
1070
     0
1070
    73
1070
     0
1070
   284
1070
     8
1070
    78
1070
     8
1070
   140
1040
4.0
1070
    40
1040
3.0
1070
    42
1040
2.0
1070
    44
1040
0.0
1070
    43
1040
10.0
1070
   271
1070
     2
1070
    41
1040
4.0
1002
}
  0
DIMENSION
  5
313
330
1F
100
AcDbEntity
  8
1
  6
Continuous
 62
     7
370
     9
100
AcDbDimension
  2
Dim4
 10
72.75000000000003
 20
113.6142857142854
 30
0.0
 11
222.7500000000001
 21
118.8642857142854
 31
0.0
 70
   160
  1
<>
 71
     5
 42
-1.0
 73
     0
 74
     0
 75
     0
  3
Standard
100
AcDbAlignedDimension
 13
72.75
 23
92.53061224489784
 33
0.0
 14
372.75
 24
92.53061224489784
 34
0.0
100
AcDbRotatedDimension
1001
ACAD
1000
DSTYLE
1002
{
1070
   344
1005
3E
1070
   343
1005
3E
1070
   173
1070
     1
1070
   289
1070
     2
1070
   279
1070
     2
1070
   288
1070
     1
1070
    77
1070
     3
1070
   172
1070
     1
1070
   174
1070
     0
1070
    74
1070
     0
1070
    73
1070
     0
1070
   284
1070
     8
1070
    78
1070
     8
1070
   140
1040
4.0
1070
    40
1040
3.0
1070
    42
1040
2.0
1070
    44
1040
0.0
1070
    43
1040
10.0
1070
   271
1070
     2
1070
    41
1040
4.0
1002
}
  0
LINE
  5
314
330
1F
100
AcDbEntity
  8
1
  6
Continuous
 62
     7
370
     9
100
AcDbLine
 10
251.2714285714289
 20
176.2011746987142
 30
0.0
 11
273.4285714285718
 21
176.2011746987142
 31
0.0
  0
LINE
  5
315
330
1F
100
AcDbEntity
  8
1
  6
Continuous
 62
     7
370
     9
100
AcDbLine
 10
273.4285714285718
 20
176.2011746987142
 30
0.0
 11
274.2050285638794
 21
173.303397219847
 31
0.0
  0
LINE
  5
316
330
1F
100
AcDbEntity
  8
1
  6
Continuous
 62
     7
370
     9
100
AcDbLine
 10
273.4285714285718
 20
176.2011746987142
 30
0.0
 11
272.6521142932642
 21
173.303397219847
 31
0.0
  0
LINE
  5
317
330
1F
100
AcDbEntity
  8
1
  6
Continuous
 62
     7
370
     9
100
AcDbLine
 10
274.2050285638794
 20
173.303397219847
 30
0.0
 11
272.6521142932642
 21
173.303397219847
 31
0.0
  0
LINE
  5
318
330
1F
100
AcDbEntity
  8
1
  6
Continuous
 62
     7
370
     9
100
AcDbLine
 10
273.4285714285718
 20
175.4767303289974
 30
0.0
 11
273.8167999962255
 21
174.0278415895638
 31
0.0
  0
LINE
  5
319
330
1F
100
AcDbEntity
  8
1
  6
Continuous
 62
     7
370
     9
100
AcDbLine
 10
273.4285714285718
 20
175.4767303289974
 30
0.0
 11
273.040342860918
 21
174.0278415895638
 31
0.0
  0
LINE
  5
31A
330
1F
100
AcDbEntity
  8
1
  6
Continuous
 62
     7
370
     9
100
AcDbLine
 10
273.8167999962255
 20
174.0278415895638
 30
0.0
 11
273.040342860918
 21
174.0278415895638
 31
0.0
  0
POLYLINE
  5
31B
330
1F
100
AcDbEntity
  8
1
  6
Continuous
 62
     7
370
     9
100
AcDb2dPolyline
 66
     1
 10
0.0
 20
0.0
 30
0.0
  0
VERTEX
  5
31D
330
31B
100
AcDbEntity
  8
1
  6
Continuous
 62
     7
370
     9
100
AcDbVertex
100
AcDb2dVertex
 10
273.4285714285718
 20
176.2011746987142
 30
0.0
  0
VERTEX
  5
31E
330
31B
100
AcDbEntity
  8
1
  6
Continuous
 62
     7
370
     9
100
AcDbVertex
100
AcDb2dVertex
 10
273.4285714285718
 20
173.9571428571427
 30
0.0
  0
SEQEND
  5
31C
330
31B
100
AcDbEntity
  8
1
  6
Continuous
370
     9
  0
LINE
  5
31F
330
1F
100
AcDbEntity
  8
1
  6
Continuous
 62
     7
370
     9
100
AcDbLine
 10
273.4285714285718
 20
89.53061224489784
 30
0.0
 11
272.6521142932642
 21
92.42838972376505
 31
0.0
  0
LINE
  5
320
330
1F
100
AcDbEntity
  8
1
  6
Continuous
 62
     7
370
     9
100
AcDbLine
 10
273.4285714285718
 20
89.53061224489784
 30
0.0
 11
274.2050285638794
 21
92.42838972376504
 31
0.0
  0
LINE
  5
321
330
1F
100
AcDbEntity
  8
1
  6
Continuous
 62
     7
370
     9
100
AcDbLine
 10
272.6521142932642
 20
92.42838972376505
 30
0.0
 11
274.2050285638794
 21
92.42838972376504
 31
0.0
  0
LINE
  5
322
330
1F
100
AcDbEntity
  8
1
  6
Continuous
 62
     7
370
     9
100
AcDbLine
 10
273.4285714285718
 20
90.25505661461465
 30
0.0
 11
273.040342860918
 21
91.70394535404824
 31
0.0
  0
LINE
  5
323
330
1F
100
AcDbEntity
  8
1
  6
Continuous
 62
     7
370
     9
100
AcDbLine
 10
273.4285714285718
 20
90.25505661461465
 30
0.0
 11
273.8167999962255
 21
91.70394535404824
 31
0.0
  0
LINE
  5
324
330
1F
100
AcDbEntity
  8
1
  6
Continuous
 62
     7
370
     9
100
AcDbLine
 10
273.040342860918
 20
91.70394535404824
 30
0.0
 11
273.8167999962255
 21
91.70394535404824
 31
0.0
  0
POLYLINE
  5
325
330
1F
100
AcDbEntity
  8
1
  6
Continuous
 62
     7
370
     9
100
AcDb2dPolyline
 66
     1
 10
0.0
 20
0.0
 30
0.0
  0
VERTEX
  5
327
330
325
100
AcDbEntity
  8
1
  6
Continuous
 62
     7
370
     9
100
AcDbVertex
100
AcDb2dVertex
 10
273.4285714285718
 20
89.53061224489784
 30
0.0
  0
VERTEX
  5
328
330
325
100
AcDbEntity
  8
1
  6
Continuous
 62
     7
370
     9
100
AcDbVertex
100
AcDb2dVertex
 10
273.4285714285718
 20
93.57857142857111
 30
0.0
  0
SEQEND
  5
326
330
325
100
AcDbEntity
  8
1
  6
Continuous
370
     9
  0
DIMENSION
  5
332
330
1F
100
AcDbEntity
  8
1
  6
Continuous
 62
     7
370
     9
100
AcDbDimension
  2
Dim5
 10
498.2499999999998
 20
14.61428571428571
 30
0.0
 11
668.2500001530806
 21
19.86428571428571
 31
0.0
 70
   160
  1
<>
 71
     5
 42
-1.0
 73
     0
 74
     0
 75
     0
  3
Standard
100
AcDbAlignedDimension
 13
498.25
 23
41.53061224489784
 33
0.0
 14
838.2500003061616
 24
41.53061224489784
 34
0.0
100
AcDbRotatedDimension
1001
ACAD
1000
DSTYLE
1002
{
1070
   344
1005
3E
1070
   343
1005
3E
1070
   173
1070
     1
1070
   289
1070
     2
1070
   279
1070
     2
1070
   288
1070
     1
1070
    77
1070
     3
1070
   172
1070
     1
1070
   174
1070
     0
1070
    74
1070
     0
1070
    73
1070
     0
1070
   284
1070
     8
1070
    78
1070
     8
1070
   140
1040
4.0
1070
    40
1040
3.0
1070
    42
1040
2.0
1070
    44
1040
0.0
1070
    43
1040
10.0
1070
   271
1070
     2
1070
    41
1040
4.0
1002
}
  0
LINE
  5
333
330
1F
100
AcDbEntity
  8
1
  6
Continuous
 62
     7
370
     9
100
AcDbLine
 10
604.1001844053095
 20
178.2011746987142
 30
0.0
 11
643.0283876355851
 21
178.2011746987142
 31
0.0
  0
LINE
  5
334
330
1F
100
AcDbEntity
  8
1
  6
Continuous
 62
     7
370
     9
100
AcDbLine
 10
600.9535714285724
 20
176.2011746987142
 30
0.0
 11
589.875000000001
 21
176.2011746987142
 31
0.0
  0
POLYLINE
  5
335
330
1F
100
AcDbEntity
  8
1
  6
Continuous
 62
     7
370
     9
100
AcDb2dPolyline
 66
     1
 10
0.0
 20
0.0
 30
0.0
 70
     2
  0
VERTEX
  5
337
330
335
100
AcDbEntity
  8
1
  6
Continuous
 62
     7
370
     9
100
AcDbVertex
100
AcDb2dVertex
 10
603.5642860204473
 20
138.4298649274052
 30
0.0
  0
VERTEX
  5
338
330
335
100
AcDbEntity
  8
1
  6
Continuous
 62
     7
370
     9
100
AcDbVertex
100
AcDb2dVertex
 10
603.6367175502687
 20
138.497761208043
 30
0.0
  0
VERTEX
  5
339
330
335
100
AcDbEntity
  8
1
  6
Continuous
 62
     7
370
     9
100
AcDbVertex
100
AcDb2dVertex
 10
603.8520304553966
 20
138.6995247074557
 30
0.0
  0
VERTEX
  5
33A
330
335
100
AcDbEntity
  8
1
  6
Continuous
 62
     7
370
     9
100
AcDbVertex
100
AcDb2dVertex
 10
604.2043003007956
 20
139.0290193193188
 30
0.0
  0
VERTEX
  5
33B
330
335
100
AcDbEntity
  8
1
  6
Continuous
 62
     7
370
     9
100
AcDbVertex
100
AcDb2dVertex
 10
604.6837330309996
 20
139.474973842863
 30
0.0
  0
VERTEX
  5
33C
330
335
100
AcDbEntity
  8
1
  6
Continuous
 62
     7
370
     9
100
AcDbVertex
100
AcDb2dVertex
 10
605.2768208708992
 20
140.01991659874
 30
0.0
  0
VERTEX
  5
33D
330
335
100
AcDbEntity
  8
1
  6
Continuous
 62
     7
370
     9
100
AcDbVertex
100
AcDb2dVertex
 10
605.9666204530577
 20
140.6395373925866
 30
0.0
  0
VERTEX
  5
33E
330
335
100
AcDbEntity
  8
1
  6
Continuous
 62
     7
370
     9
100
AcDbVertex
100
AcDb2dVertex
 10
606.7331883827267
 20
141.3030223315363
 30
0.0
  0
VERTEX
  5
33F
330
335
100
AcDbEntity
  8
1
  6
Continuous
 62
     7
370
     9
100
AcDbVertex
100
AcDb2dVertex
 10
607.5541916516844
 20
141.9747138107243
 30
0.0
  0
VERTEX
  5
340
330
335
100
AcDbEntity
  8
1
  6
Continuous
 62
     7
370
     9
100
AcDbVertex
100
AcDb2dVertex
 10
608.4056824968088
 20
142.6171274670434
 30
0.0
  0
VERTEX
  5
341
330
335
100
AcDbEntity
  8
1
  6
Continuous
 62
     7
370
     9
100
AcDbVertex
100
AcDb2dVertex
 10
609.2629958505331
 20
143.1949881721985
 30
0.0
  0
VERTEX
  5
342
330
335
100
AcDbEntity
  8
1
  6
Continuous
 62
     7
370
     9
100
AcDbVertex
100
AcDb2dVertex
 10
610.1017001343386
 20
143.6796225516417
 30
0.0
  0
VERTEX
  5
343
330
335
100
AcDbEntity
  8
1
  6
Continuous
 62
     7
370
     9
100
AcDbVertex
100
AcDb2dVertex
 10
610.8985159029811
 20
144.052853309925
 30
0.0
  0
VERTEX
  5
344
330
335
100
AcDbEntity
  8
1
  6
Continuous
 62
     7
370
     9
100
AcDbVertex
100
AcDb2dVertex
 10
611.6321164843057
 20
144.3095389341465
 30
0.0
  0
VERTEX
  5
345
330
335
100
AcDbEntity
  8
1
  6
Continuous
 62
     7
370
     9
100
AcDbVertex
100
AcDb2dVertex
 10
612.2837413938246
 20
144.4581048373341
 30
0.0
  0
VERTEX
  5
346
330
335
100
AcDbEntity
  8
1
  6
Continuous
 62
     7
370
     9
100
AcDbVertex
100
AcDb2dVertex
 10
612.8375840549114
 20
144.5187832331938
 30
0.0
  0
VERTEX
  5
347
330
335
100
AcDbEntity
  8
1
  6
Continuous
 62
     7
370
     9
100
AcDbVertex
100
AcDb2dVertex
 10
613.2809539242052
 20
144.5197414849059
 30
0.0
  0
VERTEX
  5
348
330
335
100
AcDbEntity
  8
1
  6
Continuous
 62
     7
370
     9
100
AcDbVertex
100
AcDb2dVertex
 10
613.6042511971489
 20
144.491730164004
 30
0.0
  0
VERTEX
  5
349
330
335
100
AcDbEntity
  8
1
  6
Continuous
 62
     7
370
     9
100
AcDbVertex
100
AcDb2dVertex
 10
613.8008214460582
 20
144.4622193848097
 30
0.0
  0
VERTEX
  5
34A
330
335
100
AcDbEntity
  8
1
  6
Continuous
 62
     7
370
     9
100
AcDbVertex
100
AcDb2dVertex
 10
613.866771293521
 20
144.4501351976758
 30
0.0
  0
VERTEX
  5
34B
330
335
100
AcDbEntity
  8
1
  6
Continuous
 62
     7
370
     9
100
AcDbVertex
100
AcDb2dVertex
 10
613.9326325561668
 20
144.4369563628682
 30
0.0
  0
VERTEX
  5
34C
330
335
100
AcDbEntity
  8
1
  6
Continuous
 62
     7
370
     9
100
AcDbVertex
100
AcDb2dVertex
 10
614.1279131842442
 20
144.3914361822864
 30
0.0
  0
VERTEX
  5
34D
330
335
100
AcDbEntity
  8
1
  6
Continuous
 62
     7
370
     9
100
AcDbVertex
100
AcDb2dVertex
 10
614.4459301387376
 20
144.2972905712925
 30
0.0
  0
VERTEX
  5
34E
330
335
100
AcDbEntity
  8
1
  6
Continuous
 62
     7
370
     9
100
AcDbVertex
100
AcDb2dVertex
 10
614.876249710201
 20
144.1325306645208
 30
0.0
  0
VERTEX
  5
34F
330
335
100
AcDbEntity
  8
1
  6
Continuous
 62
     7
370
     9
100
AcDbVertex
100
AcDb2dVertex
 10
615.4055816018416
 20
143.8758689866709
 30
0.0
  0
VERTEX
  5
350
330
335
100
AcDbEntity
  8
1
  6
Continuous
 62
     7
370
     9
100
AcDbVertex
100
AcDb2dVertex
 10
616.0187464850223
 20
143.5133740419978
 30
0.0
  0
VERTEX
  5
351
330
335
100
AcDbEntity
  8
1
  6
Continuous
 62
     7
370
     9
100
AcDbVertex
100
AcDb2dVertex
 10
616.6995197749649
 20
143.0437429284033
 30
0.0
  0
VERTEX
  5
352
330
335
100
AcDbEntity
  8
1
  6
Continuous
 62
     7
370
     9
100
AcDbVertex
100
AcDb2dVertex
 10
617.4311978017074
 20
142.4808853862844
 30
0.0
  0
VERTEX
  5
353
330
335
100
AcDbEntity
  8
1
  6
Continuous
 62
     7
370
     9
100
AcDbVertex
100
AcDb2dVertex
 10
618.1968146564539
 20
141.8531506251437
 30
0.0
  0
VERTEX
  5
354
330
335
100
AcDbEntity
  8
1
  6
Continuous
 62
     7
370
     9
100
AcDbVertex
100
AcDb2dVertex
 10
618.9790384899519
 20
141.1993268831232
 30
0.0
  0
VERTEX
  5
355
330
335
100
AcDbEntity
  8
1
  6
Continuous
 62
     7
370
     9
100
AcDbVertex
100
AcDb2dVertex
 10
619.759869866737
 20
140.5623109880487
 30
0.0
  0
VERTEX
  5
356
330
335
100
AcDbEntity
  8
1
  6
Continuous
 62
     7
370
     9
100
AcDbVertex
100
AcDb2dVertex
 10
620.5203282080164
 20
139.9818969329353
 30
0.0
  0
VERTEX
  5
357
330
335
100
AcDbEntity
  8
1
  6
Continuous
 62
     7
370
     9
100
AcDbVertex
100
AcDb2dVertex
 10
621.2403288113413
 20
139.4883364478863
 30
0.0
  0
VERTEX
  5
358
330
335
100
AcDbEntity
  8
1
  6
Continuous
 62
     7
370
     9
100
AcDbVertex
100
AcDb2dVertex
 10
621.8989171186704
 20
139.098132391998
 30
0.0
  0
VERTEX
  5
359
330
335
100
AcDbEntity
  8
1
  6
Continuous
 62
     7
370
     9
100
AcDbVertex
100
AcDb2dVertex
 10
622.474946212402
 20
138.8129845753236
 30
0.0
  0
VERTEX
  5
35A
330
335
100
AcDbEntity
  8
1
  6
Continuous
 62
     7
370
     9
100
AcDbVertex
100
AcDb2dVertex
 10
622.9481763974705
 20
138.6220484172676
 30
0.0
  0
VERTEX
  5
35B
330
335
100
AcDbEntity
  8
1
  6
Continuous
 62
     7
370
     9
100
AcDbVertex
100
AcDb2dVertex
 10
623.3006673462725
 20
138.5068730455228
 30
0.0
  0
VERTEX
  5
35C
330
335
100
AcDbEntity
  8
1
  6
Continuous
 62
     7
370
     9
100
AcDbVertex
100
AcDb2dVertex
 10
623.5182495571593
 20
138.4477484956112
 30
0.0
  0
VERTEX
  5
35D
330
335
100
AcDbEntity
  8
1
  6
Continuous
 62
     7
370
     9
100
AcDbVertex
100
AcDb2dVertex
 10
623.5918232685733
 20
138.4298649274052
 30
0.0
  0
VERTEX
  5
35E
330
335
100
AcDbEntity
  8
1
  6
Continuous
 62
     7
370
     9
100
AcDbVertex
100
AcDb2dVertex
 10
623.6655910834425
 20
138.4130111061455
 30
0.0
  0
VERTEX
  5
35F
330
335
100
AcDbEntity
  8
1
  6
Continuous
 62
     7
370
     9
100
AcDbVertex
100
AcDb2dVertex
 10
623.8860043861824
 20
138.3689227805902
 30
0.0
  0
VERTEX
  5
360
330
335
100
AcDbEntity
  8
1
  6
Continuous
 62
     7
370
     9
100
AcDbVertex
100
AcDb2dVertex
 10
624.2501295180278
 20
138.3156716565962
 30
0.0
  0
VERTEX
  5
361
330
335
100
AcDbEntity
  8
1
  6
Continuous
 62
     7
370
     9
100
AcDbVertex
100
AcDb2dVertex
 10
624.7522779366946
 20
138.2791737791101
 30
0.0
  0
VERTEX
  5
362
330
335
100
AcDbEntity
  8
1
  6
Continuous
 62
     7
370
     9
100
AcDbVertex
100
AcDb2dVertex
 10
625.3830622265704
 20
138.287830088614
 30
0.0
  0
VERTEX
  5
363
330
335
100
AcDbEntity
  8
1
  6
Continuous
 62
     7
370
     9
100
AcDbVertex
100
AcDb2dVertex
 10
626.1285184443482
 20
138.3666945990542
 30
0.0
  0
VERTEX
  5
364
330
335
100
AcDbEntity
  8
1
  6
Continuous
 62
     7
370
     9
100
AcDbVertex
100
AcDb2dVertex
 10
626.9696023000806
 20
138.5323804453463
 30
0.0
  0
VERTEX
  5
365
330
335
100
AcDbEntity
  8
1
  6
Continuous
 62
     7
370
     9
100
AcDbVertex
100
AcDb2dVertex
 10
627.8822973610181
 20
138.7897232505204
 30
0.0
  0
VERTEX
  5
366
330
335
100
AcDbEntity
  8
1
  6
Continuous
 62
     7
370
     9
100
AcDbVertex
100
AcDb2dVertex
 10
628.8384423413239
 20
139.1308102051812
 30
0.0
  0
VERTEX
  5
367
330
335
100
AcDbEntity
  8
1
  6
Continuous
 62
     7
370
     9
100
AcDbVertex
100
AcDb2dVertex
 10
629.8072227982279
 20
139.5364501393659
 30
0.0
  0
VERTEX
  5
368
330
335
100
AcDbEntity
  8
1
  6
Continuous
 62
     7
370
     9
100
AcDbVertex
100
AcDb2dVertex
 10
630.757119027317
 20
139.9796295672994
 30
0.0
  0
VERTEX
  5
369
330
335
100
AcDbEntity
  8
1
  6
Continuous
 62
     7
370
     9
100
AcDbVertex
100
AcDb2dVertex
 10
631.6579937349741
 20
140.4300940154118
 30
0.0
  0
VERTEX
  5
36A
330
335
100
AcDbEntity
  8
1
  6
Continuous
 62
     7
370
     9
100
AcDbVertex
100
AcDb2dVertex
 10
632.4829665540528
 20
140.8590029477045
 30
0.0
  0
VERTEX
  5
36B
330
335
100
AcDbEntity
  8
1
  6
Continuous
 62
     7
370
     9
100
AcDbVertex
100
AcDb2dVertex
 10
633.2097669326133
 20
141.2426676815123
 30
0.0
  0
VERTEX
  5
36C
330
335
100
AcDbEntity
  8
1
  6
Continuous
 62
     7
370
     9
100
AcDbVertex
100
AcDb2dVertex
 10
633.8213722303623
 20
141.5646715180863
 30
0.0
  0
VERTEX
  5
36D
330
335
100
AcDbEntity
  8
1
  6
Continuous
 62
     7
370
     9
100
AcDbVertex
100
AcDb2dVertex
 10
634.3058968453826
 20
141.8161124047267
 30
0.0
  0
VERTEX
  5
36E
330
335
100
AcDbEntity
  8
1
  6
Continuous
 62
     7
370
     9
100
AcDbVertex
100
AcDb2dVertex
 10
634.6558631746484
 20
141.9941886489925
 30
0.0
  0
VERTEX
  5
36F
330
335
100
AcDbEntity
  8
1
  6
Continuous
 62
     7
370
     9
100
AcDbVertex
100
AcDb2dVertex
 10
634.8671170018317
 20
142.0997483860653
 30
0.0
  0
VERTEX
  5
370
330
335
100
AcDbEntity
  8
1
  6
Continuous
 62
     7
370
     9
100
AcDbVertex
100
AcDb2dVertex
 10
634.9377172394677
 20
142.1346466321872
 30
0.0
  0
VERTEX
  5
371
330
335
100
AcDbEntity
  8
1
  6
Continuous
 62
     7
370
     9
100
AcDbVertex
100
AcDb2dVertex
 10
635.0080798236685
 20
142.1692237524336
 30
0.0
  0
VERTEX
  5
372
330
335
100
AcDbEntity
  8
1
  6
Continuous
 62
     7
370
     9
100
AcDbVertex
100
AcDb2dVertex
 10
635.2158563535404
 20
142.2701260109145
 30
0.0
  0
VERTEX
  5
373
330
335
100
AcDbEntity
  8
1
  6
Continuous
 62
     7
370
     9
100
AcDbVertex
100
AcDb2dVertex
 10
635.5514456067201
 20
142.4292713296317
 30
0.0
  0
VERTEX
  5
374
330
335
100
AcDbEntity
  8
1
  6
Continuous
 62
     7
370
     9
100
AcDbVertex
100
AcDb2dVertex
 10
635.999896387145
 20
142.6344639219437
 30
0.0
  0
VERTEX
  5
375
330
335
100
AcDbEntity
  8
1
  6
Continuous
 62
     7
370
     9
100
AcDbVertex
100
AcDb2dVertex
 10
636.5422952920816
 20
142.8710546952578
 30
0.0
  0
VERTEX
  5
376
330
335
100
AcDbEntity
  8
1
  6
Continuous
 62
     7
370
     9
100
AcDbVertex
100
AcDb2dVertex
 10
637.1573733908876
 20
143.1238187430707
 30
0.0
  0
VERTEX
  5
377
330
335
100
AcDbEntity
  8
1
  6
Continuous
 62
     7
370
     9
100
AcDbVertex
100
AcDb2dVertex
 10
637.8230813699311
 20
143.3787187609873
 30
0.0
  0
VERTEX
  5
378
330
335
100
AcDbEntity
  8
1
  6
Continuous
 62
     7
370
     9
100
AcDbVertex
100
AcDb2dVertex
 10
638.517911617132
 20
143.6242643504857
 30
0.0
  0
VERTEX
  5
379
330
335
100
AcDbEntity
  8
1
  6
Continuous
 62
     7
370
     9
100
AcDbVertex
100
AcDb2dVertex
 10
639.2218170828608
 20
143.8522755358433
 30
0.0
  0
VERTEX
  5
37A
330
335
100
AcDbEntity
  8
1
  6
Continuous
 62
     7
370
     9
100
AcDbVertex
100
AcDb2dVertex
 10
639.9166732576275
 20
144.057990923047
 30
0.0
  0
VERTEX
  5
37B
330
335
100
AcDbEntity
  8
1
  6
Continuous
 62
     7
370
     9
100
AcDbVertex
100
AcDb2dVertex
 10
640.5863288887815
 20
144.2395964387352
 30
0.0
  0
VERTEX
  5
37C
330
335
100
AcDbEntity
  8
1
  6
Continuous
 62
     7
370
     9
100
AcDbVertex
100
AcDb2dVertex
 10
641.2163709678505
 20
144.3973594632616
 30
0.0
  0
VERTEX
  5
37D
330
335
100
AcDbEntity
  8
1
  6
Continuous
 62
     7
370
     9
100
AcDbVertex
100
AcDb2dVertex
 10
641.7937732485133
 20
144.5326126239053
 30
0.0
  0
VERTEX
  5
37E
330
335
100
AcDbEntity
  8
1
  6
Continuous
 62
     7
370
     9
100
AcDbVertex
100
AcDb2dVertex
 10
642.3065974113139
 20
144.6468311156419
 30
0.0
  0
VERTEX
  5
37F
330
335
100
AcDbEntity
  8
1
  6
Continuous
 62
     7
370
     9
100
AcDbVertex
100
AcDb2dVertex
 10
642.74387494322
 20
144.7409911948333
 30
0.0
  0
VERTEX
  5
380
330
335
100
AcDbEntity
  8
1
  6
Continuous
 62
     7
370
     9
100
AcDbVertex
100
AcDb2dVertex
 10
643.0957284454828
 20
144.8153025307241
 30
0.0
  0
VERTEX
  5
381
330
335
100
AcDbEntity
  8
1
  6
Continuous
 62
     7
370
     9
100
AcDbVertex
100
AcDb2dVertex
 10
643.3537123293194
 20
144.8692990456869
 30
0.0
  0
VERTEX
  5
382
330
335
100
AcDbEntity
  8
1
  6
Continuous
 62
     7
370
     9
100
AcDbVertex
100
AcDb2dVertex
 10
643.5112851446064
 20
144.9021794575187
 30
0.0
  0
VERTEX
  5
383
330
335
100
AcDbEntity
  8
1
  6
Continuous
 62
     7
370
     9
100
AcDbVertex
100
AcDb2dVertex
 10
643.5642860204473
 20
144.9132329107735
 30
0.0
  0
SEQEND
  5
336
330
335
100
AcDbEntity
  8
1
  6
Continuous
370
     9
  0
LINE
  5
384
330
1F
100
AcDbEntity
  8
1
  6
DOT
 62
     7
370
     9
100
AcDbLine
 10
628.5918232685732
 20
139.0428334336472
 30
0.0
 11
628.5918232685732
 21
116.2011746987143
 31
0.0
  0
LINE
  5
385
330
1F
100
AcDbEntity
  8
1
  6
DOT
 62
     7
370
     9
100
AcDbLine
 10
618.5918232685732
 20
141.5229816915902
 30
0.0
 11
618.5918232685732
 21
116.2011746987143
 31
0.0
  0
LINE
  5
386
330
1F
100
AcDbEntity
  8
1
  6
Continuous
 62
     7
370
     9
100
AcDbLine
 10
589.875000000001
 20
116.2011746987142
 30
0.0
 11
602.9571428571437
 21
116.2011746987142
 31
0.0
  0
DIMENSION
  5
390
330
1F
100
AcDbEntity
  8
1
  6
Continuous
 62
     7
370
     9
100
AcDbDimension
  2
Dim6
 10
603.5642860204473
 20
161.0517857142855
 30
0.0
 11
623.5642860204473
 21
166.3017857142855
 31
0.0
 70
   160
  1
<>
 71
     5
 42
-1.0
 73
     0
 74
     0
 75
     0
  3
Standard
100
AcDbAlignedDimension
 13
603.5642860204473
 23
180.2011746987142
 33
0.0
 14
643.5642860204473
 24
180.2011746987142
 34
0.0
100
AcDbRotatedDimension
1001
ACAD
1000
DSTYLE
1002
{
1070
   344
1005
3E
1070
   343
1005
3E
1070
   173
1070
     1
1070
   289
1070
     2
1070
   279
1070
     2
1070
   288
1070
     1
1070
    77
1070
     3
1070
   172
1070
     1
1070
   174
1070
     0
1070
    74
1070
     0
1070
    73
1070
     0
1070
   284
1070
     8
1070
    78
1070
     8
1070
   140
1040
4.0
1070
    40
1040
3.0
1070
    42
1040
2.0
1070
    44
1040
0.0
1070
    43
1040
10.0
1070
   271
1070
     2
1070
    41
1040
4.0
1002
}
  0
LINE
  5
391
330
1F
100
AcDbEntity
  8
1
  6
Continuous
 62
     7
370
     9
100
AcDbLine
 10
603.5642860204473
 20
138.4298649274052
 30
0.0
 11
603.5642860204473
 21
119.2011746987142
 31
0.0
  0
ARC
  5
392
330
1F
100
AcDbEntity
  8
1
  6
Continuous
 62
     7
370
     9
100
AcDbCircle
 10
606.5642860204473
 20
119.2011746987143
 30
0.0
 40
3.0
100
AcDbArc
 50
180.0000000000002
 51
269.9999999999998
  0
LINE
  5
393
330
1F
100
AcDbEntity
  8
1
  6
Continuous
 62
     7
370
     9
100
AcDbLine
 10
606.5642860204473
 20
116.2011746987143
 30
0.0
 11
640.5642860204473
 21
116.2011746987143
 31
0.0
  0
LINE
  5
394
330
1F
100
AcDbEntity
  8
1
  6
Continuous
 62
     7
370
     9
100
AcDbLine
 10
643.5642860204473
 20
119.2011746987142
 30
0.0
 11
643.5642860204473
 21
144.9132329107735
 31
0.0
  0
ARC
  5
395
330
1F
100
AcDbEntity
  8
1
  6
Continuous
 62
     7
370
     9
100
AcDbCircle
 10
640.5642860204473
 20
119.2011746987143
 30
0.0
 40
3.0
100
AcDbArc
 50
269.9999999999998
 51
359.9999999999991
  0
LINE
  5
396
330
1F
100
AcDbEntity
  8
1
  6
DOT
 62
     7
370
     9
100
AcDbLine
 10
603.6436566876844
 20
121.7011746987142
 30
0.0
 11
618.5918232685732
 21
121.7011746987142
 31
0.0
  0
LINE
  5
397
330
1F
100
AcDbEntity
  8
1
  6
DOT
 62
     7
370
     9
100
AcDbLine
 10
603.5642860204473
 20
126.7011746987142
 30
0.0
 11
618.5918232685732
 21
126.7011746987142
 31
0.0
  0
LINE
  5
398
330
1F
100
AcDbEntity
  8
1
  6
Continuous
 62
     7
370
     9
100
AcDbLine
 10
600.9535714285722
 20
124.2011746987142
 30
0.0
 11
600.9535714285722
 21
116.2011746987142
 31
0.0
  0
LINE
  5
399
330
1F
100
AcDbEntity
  8
1
  6
Continuous
 62
     7
370
     9
100
AcDbLine
 10
592.6446428571436
 20
124.2011746987142
 30
0.0
 11
603.075000000001
 21
124.2011746987142
 31
0.0
  0
LINE
  5
39A
330
1F
100
AcDbEntity
  8
1
  6
Continuous
 62
     7
370
     9
100
AcDbLine
 10
600.9535714285722
 20
124.2011746987142
 30
0.0
 11
601.7300285638797
 21
121.303397219847
 31
0.0
  0
LINE
  5
39B
330
1F
100
AcDbEntity
  8
1
  6
Continuous
 62
     7
370
     9
100
AcDbLine
 10
600.9535714285722
 20
124.2011746987142
 30
0.0
 11
600.1771142932647
 21
121.303397219847
 31
0.0
  0
LINE
  5
39C
330
1F
100
AcDbEntity
  8
1
  6
Continuous
 62
     7
370
     9
100
AcDbLine
 10
601.7300285638797
 20
121.303397219847
 30
0.0
 11
600.1771142932647
 21
121.303397219847
 31
0.0
  0
LINE
  5
39D
330
1F
100
AcDbEntity
  8
1
  6
Continuous
 62
     7
370
     9
100
AcDbLine
 10
600.9535714285722
 20
123.4767303289974
 30
0.0
 11
601.341799996226
 21
122.0278415895638
 31
0.0
  0
LINE
  5
39E
330
1F
100
AcDbEntity
  8
1
  6
Continuous
 62
     7
370
     9
100
AcDbLine
 10
600.9535714285722
 20
123.4767303289974
 30
0.0
 11
600.5653428609185
 21
122.0278415895638
 31
0.0
  0
LINE
  5
39F
330
1F
100
AcDbEntity
  8
1
  6
Continuous
 62
     7
370
     9
100
AcDbLine
 10
601.341799996226
 20
122.0278415895638
 30
0.0
 11
600.5653428609185
 21
122.0278415895638
 31
0.0
  0
POLYLINE
  5
3A0
330
1F
100
AcDbEntity
  8
1
  6
Continuous
 62
     7
370
     9
100
AcDb2dPolyline
 66
     1
 10
0.0
 20
0.0
 30
0.0
  0
VERTEX
  5
3A2
330
3A0
100
AcDbEntity
  8
1
  6
Continuous
 62
     7
370
     9
100
AcDbVertex
100
AcDb2dVertex
 10
600.9535714285722
 20
124.2011746987142
 30
0.0
  0
VERTEX
  5
3A3
330
3A0
100
AcDbEntity
  8
1
  6
Continuous
 62
     7
370
     9
100
AcDbVertex
100
AcDb2dVertex
 10
600.9535714285722
 20
123.3080357142855
 30
0.0
  0
SEQEND
  5
3A1
330
3A0
100
AcDbEntity
  8
1
  6
Continuous
370
     9
  0
LINE
  5
3A4
330
1F
100
AcDbEntity
  8
1
  6
Continuous
 62
     7
370
     9
100
AcDbLine
 10
600.9535714285722
 20
116.2011746987142
 30
0.0
 11
600.1771142932647
 21
119.0989521775814
 31
0.0
  0
LINE
  5
3A5
330
1F
100
AcDbEntity
  8
1
  6
Continuous
 62
     7
370
     9
100
AcDbLine
 10
600.9535714285722
 20
116.2011746987142
 30
0.0
 11
601.7300285638797
 21
119.0989521775814
 31
0.0
  0
LINE
  5
3A6
330
1F
100
AcDbEntity
  8
1
  6
Continuous
 62
     7
370
     9
100
AcDbLine
 10
600.1771142932647
 20
119.0989521775814
 30
0.0
 11
601.7300285638797
 21
119.0989521775814
 31
0.0
  0
LINE
  5
3A7
330
1F
100
AcDbEntity
  8
1
  6
Continuous
 62
     7
370
     9
100
AcDbLine
 10
600.9535714285722
 20
116.925619068431
 30
0.0
 11
600.5653428609185
 21
118.3745078078646
 31
0.0
  0
LINE
  5
3A8
330
1F
100
AcDbEntity
  8
1
  6
Continuous
 62
     7
370
     9
100
AcDbLine
 10
600.9535714285722
 20
116.925619068431
 30
0.0
 11
601.341799996226
 21
118.3745078078646
 31
0.0
  0
LINE
  5
3A9
330
1F
100
AcDbEntity
  8
1
  6
Continuous
 62
     7
370
     9
100
AcDbLine
 10
600.5653428609185
 20
118.3745078078646
 30
0.0
 11
601.341799996226
 21
118.3745078078646
 31
0.0
  0
POLYLINE
  5
3AA
330
1F
100
AcDbEntity
  8
1
  6
Continuous
 62
     7
370
     9
100
AcDb2dPolyline
 66
     1
 10
0.0
 20
0.0
 30
0.0
  0
VERTEX
  5
3AC
330
3AA
100
AcDbEntity
  8
1
  6
Continuous
 62
     7
370
     9
100
AcDbVertex
100
AcDb2dVertex
 10
600.9535714285722
 20
116.2011746987142
 30
0.0
  0
VERTEX
  5
3AD
330
3AA
100
AcDbEntity
  8
1
  6
Continuous
 62
     7
370
     9
100
AcDbVertex
100
AcDb2dVertex
 10
600.9535714285722
 20
117.5330357142854
 30
0.0
  0
SEQEND
  5
3AB
330
3AA
100
AcDbEntity
  8
1
  6
Continuous
370
     9
  0
LINE
  5
3AE
330
1F
100
AcDbEntity
  8
1
  6
Continuous
 62
     7
370
     9
100
AcDbLine
 10
589.875000000001
 20
116.2011746987142
 30
0.0
 11
589.0985428646935
 21
119.0989521775814
 31
0.0
  0
LINE
  5
3AF
330
1F
100
AcDbEntity
  8
1
  6
Continuous
 62
     7
370
     9
100
AcDbLine
 10
589.875000000001
 20
116.2011746987142
 30
0.0
 11
590.6514571353085
 21
119.0989521775814
 31
0.0
  0
LINE
  5
3B0
330
1F
100
AcDbEntity
  8
1
  6
Continuous
 62
     7
370
     9
100
AcDbLine
 10
589.0985428646935
 20
119.0989521775814
 30
0.0
 11
590.6514571353085
 21
119.0989521775814
 31
0.0
  0
LINE
  5
3B1
330
1F
100
AcDbEntity
  8
1
  6
Continuous
 62
     7
370
     9
100
AcDbLine
 10
589.875000000001
 20
116.925619068431
 30
0.0
 11
589.4867714323473
 21
118.3745078078646
 31
0.0
  0
LINE
  5
3B2
330
1F
100
AcDbEntity
  8
1
  6
Continuous
 62
     7
370
     9
100
AcDbLine
 10
589.875000000001
 20
116.925619068431
 30
0.0
 11
590.2632285676548
 21
118.3745078078646
 31
0.0
  0
LINE
  5
3B3
330
1F
100
AcDbEntity
  8
1
  6
Continuous
 62
     7
370
     9
100
AcDbLine
 10
589.4867714323473
 20
118.3745078078646
 30
0.0
 11
590.2632285676548
 21
118.3745078078646
 31
0.0
  0
POLYLINE
  5
3B4
330
1F
100
AcDbEntity
  8
1
  6
Continuous
 62
     7
370
     9
100
AcDb2dPolyline
 66
     1
 10
0.0
 20
0.0
 30
0.0
  0
VERTEX
  5
3B6
330
3B4
100
AcDbEntity
  8
1
  6
Continuous
 62
     7
370
     9
100
AcDbVertex
100
AcDb2dVertex
 10
589.875000000001
 20
116.2011746987142
 30
0.0
  0
VERTEX
  5
3B7
330
3B4
100
AcDbEntity
  8
1
  6
Continuous
 62
     7
370
     9
100
AcDbVertex
100
AcDb2dVertex
 10
589.875000000001
 20
121.1276785714283
 30
0.0
  0
SEQEND
  5
3B5
330
3B4
100
AcDbEntity
  8
1
  6
Continuous
370
     9
  0
LINE
  5
3B8
330
1F
100
AcDbEntity
  8
1
  6
Continuous
 62
     7
370
     9
100
AcDbLine
 10
589.875000000001
 20
176.2011746987142
 30
0.0
 11
590.6514571353085
 21
173.303397219847
 31
0.0
  0
LINE
  5
3B9
330
1F
100
AcDbEntity
  8
1
  6
Continuous
 62
     7
370
     9
100
AcDbLine
 10
589.875000000001
 20
176.2011746987142
 30
0.0
 11
589.0985428646935
 21
173.303397219847
 31
0.0
  0
LINE
  5
3BA
330
1F
100
AcDbEntity
  8
1
  6
Continuous
 62
     7
370
     9
100
AcDbLine
 10
590.6514571353085
 20
173.303397219847
 30
0.0
 11
589.0985428646935
 21
173.303397219847
 31
0.0
  0
LINE
  5
3BB
330
1F
100
AcDbEntity
  8
1
  6
Continuous
 62
     7
370
     9
100
AcDbLine
 10
589.875000000001
 20
175.4767303289974
 30
0.0
 11
590.2632285676548
 21
174.0278415895638
 31
0.0
  0
LINE
  5
3BC
330
1F
100
AcDbEntity
  8
1
  6
Continuous
 62
     7
370
     9
100
AcDbLine
 10
589.875000000001
 20
175.4767303289974
 30
0.0
 11
589.4867714323473
 21
174.0278415895638
 31
0.0
  0
LINE
  5
3BD
330
1F
100
AcDbEntity
  8
1
  6
Continuous
 62
     7
370
     9
100
AcDbLine
 10
590.2632285676548
 20
174.0278415895638
 30
0.0
 11
589.4867714323473
 21
174.0278415895638
 31
0.0
  0
POLYLINE
  5
3BE
330
1F
100
AcDbEntity
  8
1
  6
Continuous
 62
     7
370
     9
100
AcDb2dPolyline
 66
     1
 10
0.0
 20
0.0
 30
0.0
  0
VERTEX
  5
3C0
330
3BE
100
AcDbEntity
  8
1
  6
Continuous
 62
     7
370
     9
100
AcDbVertex
100
AcDb2dVertex
 10
589.875000000001
 20
176.2011746987142
 30
0.0
  0
VERTEX
  5
3C1
330
3BE
100
AcDbEntity
  8
1
  6
Continuous
 62
     7
370
     9
100
AcDbVertex
100
AcDb2dVertex
 10
589.875000000001
 20
171.3348214285714
 30
0.0
  0
SEQEND
  5
3BF
330
3BE
100
AcDbEntity
  8
1
  6
Continuous
370
     9
  0
LINE
  5
3C2
330
1F
100
AcDbEntity
  8
1
  6
Continuous
 62
     7
370
     9
100
AcDbLine
 10
712.5642860204473
 20
194.7244865702378
 30
0.0
 11
712.5642860204473
 21
84.53061224489784
 31
0.0
  0
LINE
  5
3C3
330
1F
100
AcDbEntity
  8
1
  6
Continuous
 62
     7
370
     9
100
AcDbLine
 10
690.5642860204473
 20
194.7244865702378
 30
0.0
 11
725.5642860204473
 21
194.7244865702378
 31
0.0
  0
DIMENSION
  5
3CD
330
1F
100
AcDbEntity
  8
1
  6
Continuous
 62
     7
370
     9
100
AcDbDimension
  2
Dim7
 10
712.5642860204473
 20
129.1419642857143
 30
0.0
 11
772.5642860204473
 21
134.3919642857143
 31
0.0
 70
   160
  1
<>
 71
     5
 42
-1.0
 73
     0
 74
     0
 75
     0
  3
Standard
100
AcDbAlignedDimension
 13
712.5642860204473
 23
121.5991071428571
 33
0.0
 14
832.5642860204473
 24
119.9491071428571
 34
0.0
100
AcDbRotatedDimension
1001
ACAD
1000
DSTYLE
1002
{
1070
   344
1005
3E
1070
   343
1005
3E
1070
   173
1070
     1
1070
   289
1070
     2
1070
   279
1070
     2
1070
   288
1070
     1
1070
    77
1070
     3
1070
   172
1070
     1
1070
   174
1070
     0
1070
    74
1070
     0
1070
    73
1070
     0
1070
   284
1070
     8
1070
    78
1070
     8
1070
   140
1040
4.0
1070
    40
1040
3.0
1070
    42
1040
2.0
1070
    44
1040
0.0
1070
    43
1040
10.0
1070
   271
1070
     2
1070
    41
1040
4.0
1002
}
  0
LINE
  5
3CE
330
1F
100
AcDbEntity
  8
1
  6
Continuous
 62
     7
370
     9
100
AcDbLine
 10
724.5642860204473
 20
194.7244865702378
 30
0.0
 11
724.5642860204473
 21
84.53061224489784
 31
0.0
  0
LINE
  5
3CF
330
1F
100
AcDbEntity
  8
1
  6
Continuous
 62
     7
370
     9
100
AcDbLine
 10
746.5642860204473
 20
201.2011746987142
 30
0.0
 11
746.5642860204473
 21
119.2011746987142
 31
0.0
  0
ARC
  5
3D0
330
1F
100
AcDbEntity
  8
1
  6
Continuous
 62
     7
370
     9
100
AcDbCircle
 10
754.5642860204473
 20
119.2011746987142
 30
0.0
 40
8.0
100
AcDbArc
 50
179.9999999999998
 51
269.9999999999998
  0
DIMENSION
  5
3DA
330
1F
100
AcDbEntity
  8
1
  6
Continuous
 62
     7
370
     9
100
AcDbDimension
  2
Dim8
 10
712.5642860204473
 20
145.6419642857143
 30
0.0
 11
718.5642860204473
 21
150.8919642857143
 31
0.0
 70
   160
  1
<>
 71
     5
 42
-1.0
 73
     0
 74
     0
 75
     0
  3
Standard
100
AcDbAlignedDimension
 13
712.5642860204473
 23
140.5741071428571
 33
0.0
 14
724.5642860204473
 24
139.3955357142857
 34
0.0
100
AcDbRotatedDimension
1001
ACAD
1000
DSTYLE
1002
{
1070
   344
1005
3E
1070
   343
1005
3E
1070
   173
1070
     1
1070
   289
1070
     2
1070
   279
1070
     2
1070
   288
1070
     1
1070
    77
1070
     3
1070
   172
1070
     1
1070
   174
1070
     0
1070
    74
1070
     0
1070
    73
1070
     0
1070
   284
1070
     8
1070
    78
1070
     8
1070
   140
1040
4.0
1070
    40
1040
3.0
1070
    42
1040
2.0
1070
    44
1040
0.0
1070
    43
1040
10.0
1070
   271
1070
     2
1070
    41
1040
4.0
1002
}
  0
DIMENSION
  5
3E4
330
1F
100
AcDbEntity
  8
1
  6
Continuous
 62
     7
370
     9
100
AcDbDimension
  2
Dim9
 10
724.5642860204473
 20
145.6419642857143
 30
0.0
 11
735.5642860204473
 21
150.8919642857143
 31
0.0
 70
   160
  1
<>
 71
     5
 42
-1.0
 73
     0
 74
     0
 75
     0
  3
Standard
100
AcDbAlignedDimension
 13
724.5642860204473
 23
140.6919642857142
 33
0.0
 14
746.5642860204473
 24
139.9848214285714
 34
0.0
100
AcDbRotatedDimension
1001
ACAD
1000
DSTYLE
1002
{
1070
   344
1005
3E
1070
   343
1005
3E
1070
   173
1070
     1
1070
   289
1070
     2
1070
   279
1070
     2
1070
   288
1070
     1
1070
    77
1070
     3
1070
   172
1070
     1
1070
   174
1070
     0
1070
    74
1070
     0
1070
    73
1070
     0
1070
   284
1070
     8
1070
    78
1070
     8
1070
   140
1040
4.0
1070
    40
1040
3.0
1070
    42
1040
2.0
1070
    44
1040
0.0
1070
    43
1040
10.0
1070
   271
1070
     2
1070
    41
1040
4.0
1002
}
  0
LINE
  5
3E5
330
1F
100
AcDbEntity
  8
1
  6
Continuous
 62
     7
370
     9
100
AcDbLine
 10
301.9532763450157
 20
362.3015852390842
 30
0.0
 11
301.9532763450157
 21
391.3079832766015
 31
0.0
  0
LINE
  5
3E6
330
1F
100
AcDbEntity
  8
1
  6
Continuous
 62
     7
370
     9
100
AcDbLine
 10
301.9532763450157
 20
391.3079832766015
 30
0.0
 11
303.9532763450157
 21
393.3079832766015
 31
0.0
  0
LINE
  5
3E7
330
1F
100
AcDbEntity
  8
1
  6
Continuous
 62
     7
370
     9
100
AcDbLine
 10
333.9532766511772
 20
393.3079832766015
 30
0.0
 11
303.9532763450157
 21
393.3079832766015
 31
0.0
  0
LINE
  5
3E8
330
1F
100
AcDbEntity
  8
1
  6
Continuous
 62
     7
370
     9
100
AcDbLine
 10
335.9532766511772
 20
391.3079832766015
 30
0.0
 11
333.9532766511772
 21
393.3079832766015
 31
0.0
  0
LINE
  5
3E9
330
1F
100
AcDbEntity
  8
1
  6
Continuous
 62
     7
370
     9
100
AcDbLine
 10
306.277567716051
 20
391.3079832766015
 30
0.0
 11
306.277567716051
 21
362.3015852390842
 31
0.0
  0
LINE
  5
3EA
330
1F
100
AcDbEntity
  8
1
  6
Continuous
 62
     7
370
     9
100
AcDbLine
 10
331.6289849739803
 20
391.3079832766015
 30
0.0
 11
331.6289849739803
 21
362.3015852390842
 31
0.0
  0
LINE
  5
3EB
330
1F
100
AcDbEntity
  8
1
  6
Continuous
 62
     7
370
     9
100
AcDbLine
 10
335.9532766511772
 20
362.3015852390842
 30
0.0
 11
335.9532766511772
 21
391.3079832766015
 31
0.0
  0
LINE
  5
3EC
330
1F
100
AcDbEntity
  8
1
  6
Continuous
 62
     7
370
     9
100
AcDbLine
 10
301.9532763450157
 20
391.3079832766015
 30
0.0
 11
335.9532766511772
 21
391.3079832766015
 31
0.0
  0
LINE
  5
3ED
330
1F
100
AcDbEntity
  8
1
  6
Continuous
 62
     7
370
     9
100
AcDbLine
 10
748.2388564536951
 20
393.3079832766015
 30
0.0
 11
757.747138276906
 21
393.3079832766015
 31
0.0
  0
LINE
  5
3EE
330
1F
100
AcDbEntity
  8
1
  6
Continuous
 62
     7
370
     9
100
AcDbLine
 10
717.5642860204473
 20
407.252027542473
 30
0.0
 11
756.2385654885634
 21
407.252027542473
 31
0.0
  0
LINE
  5
3EF
330
1F
100
AcDbEntity
  8
1
  6
Continuous
 62
     7
370
     9
100
AcDbLine
 10
717.5642860204473
 20
352.3015852390841
 30
0.0
 11
717.5642860204473
 21
422.252027542473
 31
0.0
  0
LINE
  5
3F0
330
1F
100
AcDbEntity
  8
1
  6
Continuous
 62
     7
370
     9
100
AcDbLine
 10
717.5642860204473
 20
422.252027542473
 30
0.0
 11
756.2385654885634
 21
422.252027542473
 31
0.0
  0
ARC
  5
3F1
330
1F
100
AcDbEntity
  8
1
  6
Continuous
 62
     7
370
     9
100
AcDbCircle
 10
713.8345949919413
 20
446.0306122448977
 30
0.0
 40
5.5
100
AcDbArc
 50
90.00000000000712
 51
269.9999999999926
  0
LINE
  5
3F2
330
1F
100
AcDbEntity
  8
1
  6
Continuous
 62
     7
370
     9
100
AcDbLine
 10
759.96825651707
 20
440.5306122448977
 30
0.0
 11
713.8345949919407
 21
440.5306122448977
 31
0.0
  0
LINE
  5
3F3
330
1F
100
AcDbEntity
  8
1
  6
Continuous
 62
     7
370
     9
100
AcDbLine
 10
713.8345949919407
 20
451.5306122448977
 30
0.0
 11
759.96825651707
 21
451.5306122448977
 31
0.0
  0
ARC
  5
3F4
330
1F
100
AcDbEntity
  8
1
  6
Continuous
 62
     7
370
     9
100
AcDbCircle
 10
759.9682565170693
 20
446.0306122448977
 30
0.0
 40
5.5
100
AcDbArc
 50
270.0000000000067
 51
89.99999999999291
  0
LINE
  5
3F5
330
1F
100
AcDbEntity
  8
1
  6
Continuous
 62
     7
370
     9
100
AcDbLine
 10
725.6915325177065
 20
437.5115644490639
 30
0.0
 11
748.1115106145388
 21
437.5115644490639
 31
0.0
  0
LINE
  5
3F6
330
1F
100
AcDbEntity
  8
1
  6
Continuous
 62
     7
370
     9
100
AcDbLine
 10
723.6915325177065
 20
440.5306122448977
 30
0.0
 11
725.6915325177065
 21
437.5115644490639
 31
0.0
  0
LINE
  5
3F7
330
1F
100
AcDbEntity
  8
1
  6
Continuous
 62
     7
370
     9
100
AcDbLine
 10
750.1113189913043
 20
440.5306122448977
 30
0.0
 11
748.1113189913043
 21
437.5115644490639
 31
0.0
  0
LINE
  5
3F8
330
1F
100
AcDbEntity
  8
1
  6
Continuous
 62
     7
370
     9
100
AcDbLine
 10
725.6915325177065
 20
437.5115644490639
 30
0.0
 11
725.6915325177065
 21
422.252027542473
 31
0.0
  0
LINE
  5
3F9
330
1F
100
AcDbEntity
  8
1
  6
Continuous
 62
     7
370
     9
100
AcDbLine
 10
748.1115106145388
 20
437.5115644490639
 30
0.0
 11
748.1110915537405
 21
422.252027542473
 31
0.0
  0
LINE
  5
3FA
330
1F
100
AcDbEntity
  8
1
  6
Continuous
 62
     7
370
     9
100
AcDbLine
 10
725.6915325177065
 20
437.5115644490639
 30
0.0
 11
748.1114676925023
 21
437.5115644490639
 31
0.0
  0
LINE
  5
3FB
330
1F
100
AcDbEntity
  8
1
  6
Continuous
 62
     7
370
     9
100
AcDbLine
 10
727.5642861735281
 20
422.252027542473
 30
0.0
 11
727.5642861735281
 21
427.3913198936854
 31
0.0
  0
LINE
  5
3FC
330
1F
100
AcDbEntity
  8
1
  6
Continuous
 62
     7
370
     9
100
AcDbLine
 10
727.5642861735281
 20
427.3913198936854
 30
0.0
 11
746.2385653354826
 21
427.3913198936854
 31
0.0
  0
LINE
  5
3FD
330
1F
100
AcDbEntity
  8
1
  6
Continuous
 62
     7
370
     9
100
AcDbLine
 10
746.2385653354826
 20
422.252027542473
 30
0.0
 11
746.2385653354826
 21
427.3913198936854
 31
0.0
  0
LINE
  5
3FE
330
1F
100
AcDbEntity
  8
1
  6
Continuous
 62
     7
370
     9
100
AcDbLine
 10
764.2884259684599
 20
352.3015852390841
 30
0.0
 11
764.2884259684599
 21
362.3015852390841
 31
0.0
  0
LINE
  5
3FF
330
1F
100
AcDbEntity
  8
1
  6
Continuous
 62
     7
370
     9
100
AcDbLine
 10
724.9392857142877
 20
352.3015852390841
 30
0.0
 11
724.9392857142877
 21
362.3015852390841
 31
0.0
  0
LINE
  5
400
330
1F
100
AcDbEntity
  8
1
  6
Continuous
 62
     7
370
     9
100
AcDbLine
 10
724.9392857142877
 20
362.3015852390841
 30
0.0
 11
764.2884259684599
 21
362.3015852390841
 31
0.0
  0
LINE
  5
401
330
1F
100
AcDbEntity
  8
1
  6
Continuous
 62
     7
370
     9
100
AcDbLine
 10
762.2884259684599
 20
362.3015852390841
 30
0.0
 11
762.2884259684599
 21
354.3015852390841
 31
0.0
  0
LINE
  5
402
330
1F
100
AcDbEntity
  8
1
  6
Continuous
 62
     7
370
     9
100
AcDbLine
 10
724.9392857142877
 20
361.3015852390841
 30
0.0
 11
764.2884259684599
 21
361.3015852390841
 31
0.0
  0
LINE
  5
403
330
1F
100
AcDbEntity
  8
1
  6
Continuous
 62
     7
370
     9
100
AcDbLine
 10
730.9392860204493
 20
362.3015852390841
 30
0.0
 11
730.9392860204493
 21
354.3015852390841
 31
0.0
  0
LINE
  5
404
330
1F
100
AcDbEntity
  8
1
  6
Continuous
 62
     7
370
     9
100
AcDbLine
 10
726.9392860204493
 20
362.3015852390841
 30
0.0
 11
726.9392860204493
 21
354.3015852390841
 31
0.0
  0
LINE
  5
405
330
1F
100
AcDbEntity
  8
1
  6
Continuous
 62
     7
370
     9
100
AcDbLine
 10
738.7765709309116
 20
362.3015852390841
 30
0.0
 11
738.7765709309116
 21
354.3015852390841
 31
0.0
  0
LINE
  5
406
330
1F
100
AcDbEntity
  8
1
  6
Continuous
 62
     7
370
     9
100
AcDbLine
 10
734.7765709309116
 20
362.3015852390841
 30
0.0
 11
734.7765709309116
 21
354.3015852390841
 31
0.0
  0
LINE
  5
407
330
1F
100
AcDbEntity
  8
1
  6
Continuous
 62
     7
370
     9
100
AcDbLine
 10
726.9392860204493
 20
354.3015852390841
 30
0.0
 11
730.9392860204493
 21
354.3015852390841
 31
0.0
  0
LINE
  5
408
330
1F
100
AcDbEntity
  8
1
  6
Continuous
 62
     7
370
     9
100
AcDbLine
 10
734.7765709309116
 20
354.3015852390841
 30
0.0
 11
738.7765709309116
 21
354.3015852390841
 31
0.0
  0
LINE
  5
409
330
1F
100
AcDbEntity
  8
1
  6
Continuous
 62
     7
370
     9
100
AcDbLine
 10
742.6138558413738
 20
362.3015852390841
 30
0.0
 11
742.6138558413738
 21
354.3015852390841
 31
0.0
  0
LINE
  5
40A
330
1F
100
AcDbEntity
  8
1
  6
Continuous
 62
     7
370
     9
100
AcDbLine
 10
742.6138558413738
 20
354.3015852390841
 30
0.0
 11
746.6138558413738
 21
354.3015852390841
 31
0.0
  0
LINE
  5
40B
330
1F
100
AcDbEntity
  8
1
  6
Continuous
 62
     7
370
     9
100
AcDbLine
 10
746.6138558413738
 20
362.3015852390841
 30
0.0
 11
746.6138558413738
 21
354.3015852390841
 31
0.0
  0
LINE
  5
40C
330
1F
100
AcDbEntity
  8
1
  6
Continuous
 62
     7
370
     9
100
AcDbLine
 10
750.4511410579978
 20
362.3015852390841
 30
0.0
 11
750.4511410579978
 21
354.3015852390841
 31
0.0
  0
LINE
  5
40D
330
1F
100
AcDbEntity
  8
1
  6
Continuous
 62
     7
370
     9
100
AcDbLine
 10
750.4511410579978
 20
354.3015852390841
 30
0.0
 11
754.4511410579978
 21
354.3015852390841
 31
0.0
  0
LINE
  5
40E
330
1F
100
AcDbEntity
  8
1
  6
Continuous
 62
     7
370
     9
100
AcDbLine
 10
754.4511410579978
 20
362.3015852390841
 30
0.0
 11
754.4511410579978
 21
354.3015852390841
 31
0.0
  0
LINE
  5
40F
330
1F
100
AcDbEntity
  8
1
  6
Continuous
 62
     7
370
     9
100
AcDbLine
 10
758.2884259684599
 20
362.3015852390841
 30
0.0
 11
758.2884259684599
 21
354.3015852390841
 31
0.0
  0
LINE
  5
410
330
1F
100
AcDbEntity
  8
1
  6
Continuous
 62
     7
370
     9
100
AcDbLine
 10
758.2884259684599
 20
354.3015852390841
 30
0.0
 11
762.2884259684599
 21
354.3015852390841
 31
0.0
  0
LINE
  5
411
330
1F
100
AcDbEntity
  8
1
  6
Continuous
 62
     7
370
     9
100
AcDbLine
 10
752.4511410579977
 20
391.3079832766015
 30
0.0
 11
752.4511410579977
 21
362.3015852390841
 31
0.0
  0
LINE
  5
412
330
1F
100
AcDbEntity
  8
1
  6
Continuous
 62
     7
370
     9
100
AcDbLine
 10
747.612717492576
 20
391.3079832766015
 30
0.0
 11
747.612717492576
 21
362.3015852390841
 31
0.0
  0
LINE
  5
413
330
1F
100
AcDbEntity
  8
1
  6
Continuous
 62
     7
370
     9
100
AcDbLine
 10
741.6149944963332
 20
391.3079832766015
 30
0.0
 11
741.6149944963332
 21
361.3015852390841
 31
0.0
  0
LINE
  5
414
330
1F
100
AcDbEntity
  8
1
  6
Continuous
 62
     7
370
     9
100
AcDbLine
 10
736.7765709309116
 20
391.3079832766015
 30
0.0
 11
736.7765709309116
 21
362.3015852390841
 31
0.0
  0
LINE
  5
415
330
1F
100
AcDbEntity
  8
1
  6
Continuous
 62
     7
370
     9
100
AcDbLine
 10
727.6138559944548
 20
362.3015852390841
 30
0.0
 11
727.6138559944548
 21
391.3079832766015
 31
0.0
  0
LINE
  5
416
330
1F
100
AcDbEntity
  8
1
  6
Continuous
 62
     7
370
     9
100
AcDbLine
 10
727.6138559944548
 20
391.3079832766015
 30
0.0
 11
729.6138559944548
 21
393.3079832766015
 31
0.0
  0
LINE
  5
417
330
1F
100
AcDbEntity
  8
1
  6
Continuous
 62
     7
370
     9
100
AcDbLine
 10
759.6138563006162
 20
393.3079832766015
 30
0.0
 11
729.6138559944548
 21
393.3079832766015
 31
0.0
  0
LINE
  5
418
330
1F
100
AcDbEntity
  8
1
  6
Continuous
 62
     7
370
     9
100
AcDbLine
 10
761.6138563006162
 20
391.3079832766015
 30
0.0
 11
759.6138563006162
 21
393.3079832766015
 31
0.0
  0
LINE
  5
419
330
1F
100
AcDbEntity
  8
1
  6
Continuous
 62
     7
370
     9
100
AcDbLine
 10
731.93814736549
 20
391.3079832766015
 30
0.0
 11
731.93814736549
 21
362.3015852390841
 31
0.0
  0
LINE
  5
41A
330
1F
100
AcDbEntity
  8
1
  6
Continuous
 62
     7
370
     9
100
AcDbLine
 10
757.2895646234193
 20
391.3079832766015
 30
0.0
 11
757.2895646234193
 21
362.3015852390841
 31
0.0
  0
LINE
  5
41B
330
1F
100
AcDbEntity
  8
1
  6
Continuous
 62
     7
370
     9
100
AcDbLine
 10
761.6138563006162
 20
362.3015852390841
 30
0.0
 11
761.6138563006162
 21
391.3079832766015
 31
0.0
  0
LINE
  5
41C
330
1F
100
AcDbEntity
  8
1
  6
Continuous
 62
     7
370
     9
100
AcDbLine
 10
727.6138559944548
 20
391.3079832766015
 30
0.0
 11
761.6138563006162
 21
391.3079832766015
 31
0.0
  0
ARC
  5
41D
330
1F
100
AcDbEntity
  8
1
  6
Continuous
 62
     7
370
     9
100
AcDbCircle
 10
402.580372107853
 20
527.5669642857152
 30
0.0
 40
1.5
100
AcDbArc
 50
179.9999999999998
 51
269.9999999999998
  0
ARC
  5
41E
330
1F
100
AcDbEntity
  8
1
  6
Continuous
 62
     7
370
     9
100
AcDbCircle
 10
485.580372107853
 20
98.2491071428561
 30
0.0
 40
1.5
100
AcDbArc
 50
269.9999999999998
 51
0.0
  0
LINE
  5
41F
330
1F
100
AcDbEntity
  8
1
  6
Continuous
 62
     7
370
     9
100
AcDbLine
 10
434.080372107853
 20
185.7491071428561
 30
0.0
 11
439.080372107853
 21
191.7491071428561
 31
0.0
  0
LINE
  5
420
330
1F
100
AcDbEntity
  8
1
  6
Continuous
 62
     7
370
     9
100
AcDbLine
 10
434.080372107853
 20
185.7491071428561
 30
0.0
 11
454.0803722609338
 21
185.7491071428561
 31
0.0
  0
LINE
  5
421
330
1F
100
AcDbEntity
  8
1
  6
Continuous
 62
     7
370
     9
100
AcDbLine
 10
454.0803722609338
 20
185.7491071428561
 30
0.0
 11
449.0803722609338
 21
191.7491071428561
 31
0.0
  0
LINE
  5
422
330
1F
100
AcDbEntity
  8
1
  6
Continuous
 62
     7
370
     9
100
AcDbLine
 10
439.080372107853
 20
191.7491071428561
 30
0.0
 11
424.080372107853
 21
191.7491071428561
 31
0.0
  0
LINE
  5
423
330
1F
100
AcDbEntity
  8
1
  6
Continuous
 62
     7
370
     9
100
AcDbLine
 10
449.0803722609338
 20
191.7491071428561
 30
0.0
 11
464.080372107853
 21
191.7491071428561
 31
0.0
  0
ARC
  5
424
330
1F
100
AcDbEntity
  8
1
  6
Continuous
 62
     7
370
     9
100
AcDbCircle
 10
444.0803721078536
 20
235.7491071428561
 30
0.0
 40
10.0
100
AcDbArc
 50
24.94390526342449
 51
155.0560947365754
  0
LINE
  5
425
330
1F
100
AcDbEntity
  8
1
  6
Continuous
 62
     7
370
     9
100
AcDbLine
 10
439.080372107853
 20
244.4093611807002
 30
0.0
 11
439.080372107853
 21
202.7491071428561
 31
0.0
  0
LINE
  5
426
330
1F
100
AcDbEntity
  8
1
  6
Continuous
 62
     7
370
     9
100
AcDbLine
 10
435.0131609889685
 20
239.9664146400119
 30
0.0
 11
424.080372107853
 21
202.7491071428561
 31
0.0
  0
LINE
  5
427
330
1F
100
AcDbEntity
  8
1
  6
Continuous
 62
     7
370
     9
100
AcDbLine
 10
424.080372107853
 20
202.7491071428561
 30
0.0
 11
424.080372107853
 21
191.7491071428561
 31
0.0
  0
LINE
  5
428
330
1F
100
AcDbEntity
  8
1
  6
Continuous
 62
     7
370
     9
100
AcDbLine
 10
424.080372107853
 20
202.7491071428561
 30
0.0
 11
439.080372107853
 21
202.7491071428561
 31
0.0
  0
LINE
  5
429
330
1F
100
AcDbEntity
  8
1
  6
Continuous
 62
     7
370
     9
100
AcDbLine
 10
453.1475832267387
 20
239.9664146400119
 30
0.0
 11
464.080372107853
 21
202.7491071428561
 31
0.0
  0
LINE
  5
42A
330
1F
100
AcDbEntity
  8
1
  6
Continuous
 62
     7
370
     9
100
AcDbLine
 10
464.080372107853
 20
202.7491071428561
 30
0.0
 11
464.080372107853
 21
191.7491071428561
 31
0.0
  0
LINE
  5
42B
330
1F
100
AcDbEntity
  8
1
  6
Continuous
 62
     7
370
     9
100
AcDbLine
 10
449.0803722609338
 20
244.4093610923196
 30
0.0
 11
449.0803722609338
 21
202.7491071428561
 31
0.0
  0
LINE
  5
42C
330
1F
100
AcDbEntity
  8
1
  6
Continuous
 62
     7
370
     9
100
AcDbLine
 10
449.0803722609338
 20
202.7491071428561
 30
0.0
 11
464.080372107853
 21
202.7491071428561
 31
0.0
  0
CIRCLE
  5
42D
330
1F
100
AcDbEntity
  8
1
  6
Continuous
 62
     7
370
     9
100
AcDbCircle
 10
444.080372107853
 20
139.7491071428561
 30
0.0
 40
5.0
  0
CIRCLE
  5
42E
330
1F
100
AcDbEntity
  8
1
  6
Continuous
 62
     7
370
     9
100
AcDbCircle
 10
419.080372107853
 20
139.7491071428561
 30
0.0
 40
1.5
  0
CIRCLE
  5
42F
330
1F
100
AcDbEntity
  8
1
  6
Continuous
 62
     7
370
     9
100
AcDbCircle
 10
469.080372107853
 20
139.7491071428561
 30
0.0
 40
1.5
  0
ARC
  5
430
330
1F
100
AcDbEntity
  8
1
  6
Continuous
 62
     7
370
     9
100
AcDbCircle
 10
444.0803721078537
 20
236.7491071428561
 30
0.0
 40
10.0
100
AcDbArc
 50
40.10288209886707
 51
139.8971179011332
  0
LINE
  5
431
330
1F
100
AcDbEntity
  8
1
  6
Continuous
 62
     7
370
     9
100
AcDbLine
 10
436.431482116153
 20
243.1907282039603
 30
0.0
 11
401.6737176710147
 21
196.487444636499
 31
0.0
  0
ARC
  5
432
330
1F
100
AcDbEntity
  8
1
  6
Continuous
 62
     7
370
     9
100
AcDbCircle
 10
404.080372107853
 20
194.696351556381
 30
0.0
 40
3.0
100
AcDbArc
 50
143.3424447808028
 51
179.9999999999978
  0
LINE
  5
433
330
1F
100
AcDbEntity
  8
1
  6
Continuous
 62
     7
370
     9
100
AcDbLine
 10
451.7292620995543
 20
243.1907282039603
 30
0.0
 11
486.4870265446913
 21
196.487444636499
 31
0.0
  0
LINE
  5
434
330
1F
100
AcDbEntity
  8
1
  6
Continuous
 62
     7
370
     9
100
AcDbLine
 10
487.080372107853
 20
194.6963515563811
 30
0.0
 11
487.080372107853
 21
98.2491071428561
 31
0.0
  0
ARC
  5
435
330
1F
100
AcDbEntity
  8
1
  6
Continuous
 62
     7
370
     9
100
AcDbCircle
 10
484.080372107853
 20
194.6963515563811
 30
0.0
 40
3.0
100
AcDbArc
 50
0.0
 51
36.65755521919547
  0
DIMENSION
  5
43F
330
1F
100
AcDbEntity
  8
1
  6
Continuous
 62
     7
370
     9
100
AcDbDimension
  2
Dim10
 10
419.080372107853
 20
154.0098214285705
 30
0.0
 11
431.5803721078528
 21
159.2598214285705
 31
0.0
 70
   160
  1
50
 71
     5
 42
-1.0
 73
     0
 74
     0
 75
     0
  3
Standard
100
AcDbAlignedDimension
 13
419.080372107853
 23
139.7491071428561
 33
0.0
 14
444.0803721078526
 24
139.7491071428561
 34
0.0
100
AcDbRotatedDimension
1001
ACAD
1000
DSTYLE
1002
{
1070
   344
1005
3E
1070
   343
1005
3E
1070
   173
1070
     1
1070
   289
1070
     2
1070
   279
1070
     2
1070
   288
1070
     1
1070
    77
1070
     3
1070
   172
1070
     1
1070
   174
1070
     0
1070
    74
1070
     0
1070
    73
1070
     0
1070
   284
1070
     8
1070
    78
1070
     8
1070
   140
1040
4.0
1070
    40
1040
3.0
1070
    42
1040
2.0
1070
    44
1040
0.0
1070
    43
1040
10.0
1070
   271
1070
     2
1070
    41
1040
4.0
1002
}
  0
DIMENSION
  5
449
330
1F
100
AcDbEntity
  8
1
  6
Continuous
 62
     7
370
     9
100
AcDbDimension
  2
Dim11
 10
444.080372107853
 20
154.0098214285705
 30
0.0
 11
456.580372107853
 21
159.2598214285705
 31
0.0
 70
   160
  1
50
 71
     5
 42
-1.0
 73
     0
 74
     0
 75
     0
  3
Standard
100
AcDbAlignedDimension
 13
444.080372107853
 23
139.7491071428561
 33
0.0
 14
469.0803721078531
 24
139.7491071428561
 34
0.0
100
AcDbRotatedDimension
1001
ACAD
1000
DSTYLE
1002
{
1070
   344
1005
3E
1070
   343
1005
3E
1070
   173
1070
     1
1070
   289
1070
     2
1070
   279
1070
     2
1070
   288
1070
     1
1070
    77
1070
     3
1070
   172
1070
     1
1070
   174
1070
     0
1070
    74
1070
     0
1070
    73
1070
     0
1070
   284
1070
     8
1070
    78
1070
     8
1070
   140
1040
4.0
1070
    40
1040
3.0
1070
    42
1040
2.0
1070
    44
1040
0.0
1070
    43
1040
10.0
1070
   271
1070
     2
1070
    41
1040
4.0
1002
}
  0
LINE
  5
44A
330
1F
100
AcDbEntity
  8
1
  6
Continuous
 62
     7
370
     9
100
AcDbLine
 10
459.2892857142853
 20
185.7491071428561
 30
0.0
 11
480.2678571428568
 21
185.7491071428561
 31
0.0
  0
LINE
  5
44B
330
1F
100
AcDbEntity
  8
1
  6
Continuous
 62
     7
370
     9
100
AcDbLine
 10
471.5464285714282
 20
139.7491071428561
 30
0.0
 11
480.2678571428568
 21
139.7491071428561
 31
0.0
  0
LINE
  5
44C
330
1F
100
AcDbEntity
  8
1
  6
Continuous
 62
     7
370
     9
100
AcDbLine
 10
480.2678571428568
 20
139.7491071428561
 30
0.0
 11
479.4914000075493
 21
142.6468846217233
 31
0.0
  0
LINE
  5
44D
330
1F
100
AcDbEntity
  8
1
  6
Continuous
 62
     7
370
     9
100
AcDbLine
 10
480.2678571428568
 20
139.7491071428561
 30
0.0
 11
481.0443142781644
 21
142.6468846217233
 31
0.0
  0
LINE
  5
44E
330
1F
100
AcDbEntity
  8
1
  6
Continuous
 62
     7
370
     9
100
AcDbLine
 10
479.4914000075493
 20
142.6468846217233
 30
0.0
 11
481.0443142781644
 21
142.6468846217233
 31
0.0
  0
LINE
  5
44F
330
1F
100
AcDbEntity
  8
1
  6
Continuous
 62
     7
370
     9
100
AcDbLine
 10
480.2678571428568
 20
140.4735515125729
 30
0.0
 11
479.8796285752031
 21
141.9224402520065
 31
0.0
  0
LINE
  5
450
330
1F
100
AcDbEntity
  8
1
  6
Continuous
 62
     7
370
     9
100
AcDbLine
 10
480.2678571428568
 20
140.4735515125729
 30
0.0
 11
480.6560857105106
 21
141.9224402520065
 31
0.0
  0
LINE
  5
451
330
1F
100
AcDbEntity
  8
1
  6
Continuous
 62
     7
370
     9
100
AcDbLine
 10
479.8796285752031
 20
141.9224402520065
 30
0.0
 11
480.6560857105106
 21
141.9224402520065
 31
0.0
  0
POLYLINE
  5
452
330
1F
100
AcDbEntity
  8
1
  6
Continuous
 62
     7
370
     9
100
AcDb2dPolyline
 66
     1
 10
0.0
 20
0.0
 30
0.0
  0
VERTEX
  5
454
330
452
100
AcDbEntity
  8
1
  6
Continuous
 62
     7
370
     9
100
AcDbVertex
100
AcDb2dVertex
 10
480.2678571428568
 20
139.7491071428561
 30
0.0
  0
VERTEX
  5
455
330
452
100
AcDbEntity
  8
1
  6
Continuous
 62
     7
370
     9
100
AcDbVertex
100
AcDb2dVertex
 10
480.2678571428568
 20
141.6348214285705
 30
0.0
  0
SEQEND
  5
453
330
452
100
AcDbEntity
  8
1
  6
Continuous
370
     9
  0
LINE
  5
456
330
1F
100
AcDbEntity
  8
1
  6
Continuous
 62
     7
370
     9
100
AcDbLine
 10
480.2678571428568
 20
185.7491071428561
 30
0.0
 11
481.0443142781644
 21
182.8513296639889
 31
0.0
  0
LINE
  5
457
330
1F
100
AcDbEntity
  8
1
  6
Continuous
 62
     7
370
     9
100
AcDbLine
 10
480.2678571428568
 20
185.7491071428561
 30
0.0
 11
479.4914000075493
 21
182.8513296639889
 31
0.0
  0
LINE
  5
458
330
1F
100
AcDbEntity
  8
1
  6
Continuous
 62
     7
370
     9
100
AcDbLine
 10
481.0443142781644
 20
182.8513296639889
 30
0.0
 11
479.4914000075493
 21
182.8513296639889
 31
0.0
  0
LINE
  5
459
330
1F
100
AcDbEntity
  8
1
  6
Continuous
 62
     7
370
     9
100
AcDbLine
 10
480.2678571428568
 20
185.0246627731393
 30
0.0
 11
480.6560857105106
 21
183.5757740337057
 31
0.0
  0
LINE
  5
45A
330
1F
100
AcDbEntity
  8
1
  6
Continuous
 62
     7
370
     9
100
AcDbLine
 10
480.2678571428568
 20
185.0246627731393
 30
0.0
 11
479.8796285752031
 21
183.5757740337057
 31
0.0
  0
LINE
  5
45B
330
1F
100
AcDbEntity
  8
1
  6
Continuous
 62
     7
370
     9
100
AcDbLine
 10
480.6560857105106
 20
183.5757740337057
 30
0.0
 11
479.8796285752031
 21
183.5757740337057
 31
0.0
  0
POLYLINE
  5
45C
330
1F
100
AcDbEntity
  8
1
  6
Continuous
 62
     7
370
     9
100
AcDb2dPolyline
 66
     1
 10
0.0
 20
0.0
 30
0.0
  0
VERTEX
  5
45E
330
45C
100
AcDbEntity
  8
1
  6
Continuous
 62
     7
370
     9
100
AcDbVertex
100
AcDb2dVertex
 10
480.2678571428568
 20
185.7491071428561
 30
0.0
  0
VERTEX
  5
45F
330
45C
100
AcDbEntity
  8
1
  6
Continuous
 62
     7
370
     9
100
AcDbVertex
100
AcDb2dVertex
 10
480.2678571428568
 20
182.4133928571422
 30
0.0
  0
SEQEND
  5
45D
330
45C
100
AcDbEntity
  8
1
  6
Continuous
370
     9
  0
LINE
  5
460
330
1F
100
AcDbEntity
  8
1
  6
Continuous
 62
     7
370
     9
100
AcDbLine
 10
415.4464285714279
 20
139.7491071428561
 30
0.0
 11
421.6928571428566
 21
139.7491071428561
 31
0.0
  0
LINE
  5
461
330
1F
100
AcDbEntity
  8
1
  6
Continuous
 62
     7
370
     9
100
AcDbLine
 10
467.580372107853
 20
139.7491071428561
 30
0.0
 11
470.580372107853
 21
139.7491071428561
 31
0.0
  0
LINE
  5
462
330
1F
100
AcDbEntity
  8
1
  6
Continuous
 62
     7
370
     9
100
AcDbLine
 10
419.080372107853
 20
142.3419642857134
 30
0.0
 11
419.080372107853
 21
136.213392857142
 31
0.0
  0
LINE
  5
463
330
1F
100
AcDbEntity
  8
1
  6
Continuous
 62
     7
370
     9
100
AcDbLine
 10
469.0803721078531
 20
141.6937499999991
 30
0.0
 11
469.0803721078531
 21
136.9205357142848
 31
0.0
  0
INSERT
  5
468
330
1F
100
AcDbEntity
  8
0
100
AcDbBlockReference
  2
*G30
 10
0.0
 20
0.0
 30
0.0
  0
LINE
  5
469
330
1F
100
AcDbEntity
  8
1
  6
Continuous
 62
     7
370
     9
100
AcDbLine
 10
401.080372107853
 20
194.6963515563811
 30
0.0
 11
401.080372107853
 21
99.74910714285613
 31
0.0
  0
LINE
  5
46A
330
1F
100
AcDbEntity
  8
1
  6
Continuous
 62
     7
370
     9
100
AcDbLine
 10
404.080372107853
 20
96.7491071428561
 30
0.0
 11
485.580372107853
 21
96.7491071428561
 31
0.0
  0
ARC
  5
46B
330
1F
100
AcDbEntity
  8
1
  6
Continuous
 62
     7
370
     9
100
AcDbCircle
 10
404.080372107853
 20
99.7491071428561
 30
0.0
 40
3.0
100
AcDbArc
 50
179.9999999999995
 51
269.9999999999998
  0
TEXT
  5
46C
330
1F
100
AcDbEntity
  8
1
  6
Continuous
 62
     7
370
     9
100
AcDbText
 10
583.9311950791512
 20
140.8902897851256
 30
0.0
 40
10.5
  1
60
 41
0.5
100
AcDbText
  0
TEXT
  5
46D
330
1F
100
AcDbEntity
  8
1
  6
Continuous
 62
     7
370
     9
100
AcDbText
 10
593.3597665077226
 20
116.1938612136968
 30
0.0
 40
7.5
  1
8
 41
0.4
100
AcDbText
  0
LINE
  5
46E
330
1F
100
AcDbEntity
  8
1
  6
Continuous
 62
     7
370
     9
100
AcDbLine
 10
618.5918232685732
 20
115.2170920583816
 30
0.0
 11
618.5918232685732
 21
110.1230172143067
 31
0.0
  0
LINE
  5
46F
330
1F
100
AcDbEntity
  8
1
  6
Continuous
 62
     7
370
     9
100
AcDbLine
 10
628.5918232685732
 20
115.3907537007932
 30
0.0
 11
628.5918232685732
 21
109.4283706446601
 31
0.0
  0
LINE
  5
470
330
1F
100
AcDbEntity
  8
1
  6
Continuous
 62
     7
370
     9
100
AcDbLine
 10
628.5918232685732
 20
111.4544231394626
 30
0.0
 11
618.5918232685732
 21
111.4544231394626
 31
0.0
  0
LINE
  5
471
330
1F
100
AcDbEntity
  8
1
  6
Continuous
 62
     7
370
     9
100
AcDbLine
 10
618.5918232685732
 20
111.4544231394626
 30
0.0
 11
621.4896007474404
 21
112.2308802747702
 31
0.0
  0
LINE
  5
472
330
1F
100
AcDbEntity
  8
1
  6
Continuous
 62
     7
370
     9
100
AcDbLine
 10
618.5918232685732
 20
111.4544231394626
 30
0.0
 11
621.4896007474404
 21
110.6779660041551
 31
0.0
  0
LINE
  5
473
330
1F
100
AcDbEntity
  8
1
  6
Continuous
 62
     7
370
     9
100
AcDbLine
 10
621.4896007474404
 20
112.2308802747702
 30
0.0
 11
621.4896007474404
 21
110.6779660041551
 31
0.0
  0
LINE
  5
474
330
1F
100
AcDbEntity
  8
1
  6
Continuous
 62
     7
370
     9
100
AcDbLine
 10
619.31626763829
 20
111.4544231394626
 30
0.0
 11
620.7651563777237
 21
111.8426517071164
 31
0.0
  0
LINE
  5
475
330
1F
100
AcDbEntity
  8
1
  6
Continuous
 62
     7
370
     9
100
AcDbLine
 10
619.31626763829
 20
111.4544231394626
 30
0.0
 11
620.7651563777237
 21
111.0661945718088
 31
0.0
  0
LINE
  5
476
330
1F
100
AcDbEntity
  8
1
  6
Continuous
 62
     7
370
     9
100
AcDbLine
 10
620.7651563777237
 20
111.8426517071164
 30
0.0
 11
620.7651563777237
 21
111.0661945718088
 31
0.0
  0
POLYLINE
  5
477
330
1F
100
AcDbEntity
  8
1
  6
Continuous
 62
     7
370
     9
100
AcDb2dPolyline
 66
     1
 10
0.0
 20
0.0
 30
0.0
  0
VERTEX
  5
479
330
477
100
AcDbEntity
  8
1
  6
Continuous
 62
     7
370
     9
100
AcDbVertex
100
AcDb2dVertex
 10
618.5918232685732
 20
111.4544231394626
 30
0.0
  0
VERTEX
  5
47A
330
477
100
AcDbEntity
  8
1
  6
Continuous
 62
     7
370
     9
100
AcDbVertex
100
AcDb2dVertex
 10
619.2777640170144
 20
111.4544231394626
 30
0.0
  0
SEQEND
  5
478
330
477
100
AcDbEntity
  8
1
  6
Continuous
370
     9
  0
LINE
  5
47B
330
1F
100
AcDbEntity
  8
1
  6
Continuous
 62
     7
370
     9
100
AcDbLine
 10
628.5918232685732
 20
111.4544231394626
 30
0.0
 11
625.694045789706
 21
110.6779660041551
 31
0.0
  0
LINE
  5
47C
330
1F
100
AcDbEntity
  8
1
  6
Continuous
 62
     7
370
     9
100
AcDbLine
 10
628.5918232685732
 20
111.4544231394626
 30
0.0
 11
625.694045789706
 21
112.2308802747702
 31
0.0
  0
LINE
  5
47D
330
1F
100
AcDbEntity
  8
1
  6
Continuous
 62
     7
370
     9
100
AcDbLine
 10
625.694045789706
 20
110.6779660041551
 30
0.0
 11
625.694045789706
 21
112.2308802747702
 31
0.0
  0
LINE
  5
47E
330
1F
100
AcDbEntity
  8
1
  6
Continuous
 62
     7
370
     9
100
AcDbLine
 10
627.8673788988564
 20
111.4544231394626
 30
0.0
 11
626.4184901594227
 21
111.0661945718089
 31
0.0
  0
LINE
  5
47F
330
1F
100
AcDbEntity
  8
1
  6
Continuous
 62
     7
370
     9
100
AcDbLine
 10
627.8673788988564
 20
111.4544231394626
 30
0.0
 11
626.4184901594227
 21
111.8426517071164
 31
0.0
  0
LINE
  5
480
330
1F
100
AcDbEntity
  8
1
  6
Continuous
 62
     7
370
     9
100
AcDbLine
 10
626.4184901594227
 20
111.0661945718089
 30
0.0
 11
626.4184901594227
 21
111.8426517071164
 31
0.0
  0
POLYLINE
  5
481
330
1F
100
AcDbEntity
  8
1
  6
Continuous
 62
     7
370
     9
100
AcDb2dPolyline
 66
     1
 10
0.0
 20
0.0
 30
0.0
  0
VERTEX
  5
483
330
481
100
AcDbEntity
  8
1
  6
Continuous
 62
     7
370
     9
100
AcDbVertex
100
AcDb2dVertex
 10
628.5918232685732
 20
111.4544231394626
 30
0.0
  0
VERTEX
  5
484
330
481
100
AcDbEntity
  8
1
  6
Continuous
 62
     7
370
     9
100
AcDbVertex
100
AcDb2dVertex
 10
627.4398612103616
 20
111.4544231394626
 30
0.0
  0
SEQEND
  5
482
330
481
100
AcDbEntity
  8
1
  6
Continuous
370
     9
  0
LINE
  5
485
330
1F
100
AcDbEntity
  8
1
  6
Continuous
 62
     7
370
     9
100
AcDbLine
 10
624.892823788324
 20
110.1809044284443
 30
0.0
 11
631.4919661999664
 21
103.9290853016251
 31
0.0
  0
TEXT
  5
486
330
1F
100
AcDbEntity
  8
1
  6
Continuous
 62
     7
370
     9
100
AcDbText
 10
634.253592904089
 20
104.0022265280887
 30
0.0
 40
7.5
  1
16φH7Х25
 41
0.625
100
AcDbText
  0
TEXT
  5
487
330
1F
100
AcDbEntity
  8
1
  6
Continuous
 62
     7
370
     9
100
AcDbText
 10
117.1616638291277
 20
242.8367183565547
 30
0.0
 40
10.5
  1
80
 41
0.5
100
AcDbText
  0
TEXT
  5
488
330
1F
100
AcDbEntity
  8
1
  6
Continuous
 62
     7
370
     9
100
AcDbText
 10
267.2490522220065
 20
123.4474326422684
 30
0.0
 40
10.5
  1
0～180
 41
0.6
100
AcDbText
  0
TEXT
  5
489
330
1F
100
AcDbEntity
  8
1
  6
Continuous
 62
     7
370
     9
100
AcDbText
 10
473.5579807934367
 20
157.62600407084
 30
0.0
 40
10.5
  1
92
 41
0.5
100
AcDbText
  0
LINE
  5
48A
330
1F
100
AcDbEntity
  8
1
  6
Continuous
 62
     7
370
     9
100
AcDbLine
 10
121.6285714285712
 20
317.0883356462426
 30
0.0
 11
121.6285714285712
 21
253.3367183565547
 31
0.0
  0
LINE
  5
48B
330
1F
100
AcDbEntity
  8
1
  6
Continuous
 62
     7
370
     9
100
AcDbLine
 10
121.6285714285712
 20
243.5609933035656
 30
0.0
 11
121.6285714285712
 21
188.2011746987142
 31
0.0
  0
LINE
  5
48C
330
1F
100
AcDbEntity
  8
1
  6
Continuous
 62
     7
370
     9
100
AcDbLine
 10
273.4285714285718
 20
176.2011746987142
 30
0.0
 11
273.4285714285718
 21
132.5395647321423
 31
0.0
  0
LINE
  5
48D
330
1F
100
AcDbEntity
  8
1
  6
Continuous
 62
     7
370
     9
100
AcDbLine
 10
273.4285714285718
 20
123.1109933035713
 30
0.0
 11
273.4285714285718
 21
89.53061224489784
 31
0.0
  0
LINE
  5
48E
330
1F
100
AcDbEntity
  8
1
  6
Continuous
 62
     7
370
     9
100
AcDbLine
 10
480.2678571428568
 20
185.7491071428561
 30
0.0
 11
480.2678571428568
 21
166.9538504464267
 31
0.0
  0
LINE
  5
48F
330
1F
100
AcDbEntity
  8
1
  6
Continuous
 62
     7
370
     9
100
AcDbLine
 10
480.2678571428568
 20
157.9967075892842
 30
0.0
 11
480.2678571428568
 21
139.7491071428561
 31
0.0
  0
LINE
  5
490
330
1F
100
AcDbEntity
  8
1
  6
Continuous
 62
     7
370
     9
100
AcDbLine
 10
589.875000000001
 20
176.2011746987142
 30
0.0
 11
589.875000000001
 21
151.3902897851256
 31
0.0
  0
LINE
  5
491
330
1F
100
AcDbEntity
  8
1
  6
Continuous
 62
     7
370
     9
100
AcDbLine
 10
589.875000000001
 20
139.6109933035711
 30
0.0
 11
589.875000000001
 21
116.2011746987142
 31
0.0
  0
LINE
  5
492
330
1F
100
AcDbEntity
  8
1
  6
Continuous
 62
     7
370
     9
100
AcDbLine
 10
58.57131696431152
 20
451.5306122448978
 30
0.0
 11
128.3427455357369
 21
451.5306122448978
 31
0.0
  0
LINE
  5
493
330
1F
100
AcDbEntity
  8
1
  6
Continuous
 62
     7
370
     9
100
AcDbLine
 10
118.2070312500232
 20
41.53061224489784
 30
0.0
 11
58.57131696431152
 21
41.53061224489784
 31
0.0
  0
LINE
  5
494
330
1F
100
AcDbEntity
  8
1
  6
Continuous
 62
     7
370
     9
100
AcDbLine
 10
58.57131696431152
 20
41.53061224489784
 30
0.0
 11
57.79485982900396
 21
44.42838972376504
 31
0.0
  0
LINE
  5
495
330
1F
100
AcDbEntity
  8
1
  6
Continuous
 62
     7
370
     9
100
AcDbLine
 10
58.57131696431152
 20
41.53061224489784
 30
0.0
 11
59.34777409961909
 21
44.42838972376504
 31
0.0
  0
LINE
  5
496
330
1F
100
AcDbEntity
  8
1
  6
Continuous
 62
     7
370
     9
100
AcDbLine
 10
57.79485982900396
 20
44.42838972376504
 30
0.0
 11
59.34777409961909
 21
44.42838972376504
 31
0.0
  0
LINE
  5
497
330
1F
100
AcDbEntity
  8
1
  6
Continuous
 62
     7
370
     9
100
AcDbLine
 10
58.57131696431152
 20
42.25505661461464
 30
0.0
 11
58.18308839665774
 21
43.70394535404824
 31
0.0
  0
LINE
  5
498
330
1F
100
AcDbEntity
  8
1
  6
Continuous
 62
     7
370
     9
100
AcDbLine
 10
58.57131696431152
 20
42.25505661461464
 30
0.0
 11
58.9595455319653
 21
43.70394535404824
 31
0.0
  0
LINE
  5
499
330
1F
100
AcDbEntity
  8
1
  6
Continuous
 62
     7
370
     9
100
AcDbLine
 10
58.18308839665774
 20
43.70394535404824
 30
0.0
 11
58.9595455319653
 21
43.70394535404824
 31
0.0
  0
POLYLINE
  5
49A
330
1F
100
AcDbEntity
  8
1
  6
Continuous
 62
     7
370
     9
100
AcDb2dPolyline
 66
     1
 10
0.0
 20
0.0
 30
0.0
  0
VERTEX
  5
49C
330
49A
100
AcDbEntity
  8
1
  6
Continuous
 62
     7
370
     9
100
AcDbVertex
100
AcDb2dVertex
 10
58.57131696431152
 20
41.53061224489784
 30
0.0
  0
VERTEX
  5
49D
330
49A
100
AcDbEntity
  8
1
  6
Continuous
 62
     7
370
     9
100
AcDbVertex
100
AcDb2dVertex
 10
58.57131696431152
 20
46.5038504464337
 30
0.0
  0
SEQEND
  5
49B
330
49A
100
AcDbEntity
  8
1
  6
Continuous
370
     9
  0
LINE
  5
49E
330
1F
100
AcDbEntity
  8
1
  6
Continuous
 62
     7
370
     9
100
AcDbLine
 10
58.57131696431152
 20
451.5306122448978
 30
0.0
 11
59.34777409961909
 21
448.6328347660306
 31
0.0
  0
LINE
  5
49F
330
1F
100
AcDbEntity
  8
1
  6
Continuous
 62
     7
370
     9
100
AcDbLine
 10
58.57131696431152
 20
451.5306122448978
 30
0.0
 11
57.79485982900396
 21
448.6328347660306
 31
0.0
  0
LINE
  5
4A0
330
1F
100
AcDbEntity
  8
1
  6
Continuous
 62
     7
370
     9
100
AcDbLine
 10
59.34777409961909
 20
448.6328347660306
 30
0.0
 11
57.79485982900396
 21
448.6328347660306
 31
0.0
  0
LINE
  5
4A1
330
1F
100
AcDbEntity
  8
1
  6
Continuous
 62
     7
370
     9
100
AcDbLine
 10
58.57131696431152
 20
450.806167875181
 30
0.0
 11
58.9595455319653
 21
449.3572791357474
 31
0.0
  0
LINE
  5
4A2
330
1F
100
AcDbEntity
  8
1
  6
Continuous
 62
     7
370
     9
100
AcDbLine
 10
58.57131696431152
 20
450.806167875181
 30
0.0
 11
58.18308839665774
 21
449.3572791357474
 31
0.0
  0
LINE
  5
4A3
330
1F
100
AcDbEntity
  8
1
  6
Continuous
 62
     7
370
     9
100
AcDbLine
 10
58.9595455319653
 20
449.3572791357474
 30
0.0
 11
58.18308839665774
 21
449.3572791357474
 31
0.0
  0
POLYLINE
  5
4A4
330
1F
100
AcDbEntity
  8
1
  6
Continuous
 62
     7
370
     9
100
AcDb2dPolyline
 66
     1
 10
0.0
 20
0.0
 30
0.0
  0
VERTEX
  5
4A6
330
4A4
100
AcDbEntity
  8
1
  6
Continuous
 62
     7
370
     9
100
AcDbVertex
100
AcDb2dVertex
 10
58.57131696431152
 20
451.5306122448978
 30
0.0
  0
VERTEX
  5
4A7
330
4A4
100
AcDbEntity
  8
1
  6
Continuous
 62
     7
370
     9
100
AcDbVertex
100
AcDb2dVertex
 10
58.57131696431152
 20
440.8538504464155
 30
0.0
  0
SEQEND
  5
4A5
330
4A4
100
AcDbEntity
  8
1
  6
Continuous
370
     9
  0
TEXT
  5
4A8
330
1F
100
AcDbEntity
  8
1
  6
Continuous
 62
     7
370
     9
100
AcDbText
 10
51.9829807934395
 20
249.5609933035668
 30
0.0
 40
10.5
  1
410
 41
0.5
100
AcDbText
  0
LINE
  5
4A9
330
1F
100
AcDbEntity
  8
1
  6
Continuous
 62
     7
370
     9
100
AcDbLine
 10
58.57131696431152
 20
41.53061224489784
 30
0.0
 11
58.57131696431152
 21
248.0395647321392
 31
0.0
  0
LINE
  5
4AA
330
1F
100
AcDbEntity
  8
1
  6
Continuous
 62
     7
370
     9
100
AcDbLine
 10
58.57131696431152
 20
263.1252790178527
 30
0.0
 11
58.57131696431152
 21
451.5306122448978
 31
0.0
  0
LINE
  5
4AB
330
1F
100
AcDbEntity
  8
1
  6
Continuous
 62
     7
370
     9
100
AcDbLine
 10
754.5642860204473
 20
111.2011746987142
 30
0.0
 11
832.5642860204473
 21
111.2011746987142
 31
0.0
  0
LINE
  5
4AC
330
1F
100
AcDbEntity
  8
1
  6
Continuous
 62
     7
370
     9
100
AcDbLine
 10
832.5642860204473
 20
343.2071435948288
 30
0.0
 11
832.5642860204473
 21
95.17885044643252
 31
0.0
  0
LINE
  5
4AD
330
1F
100
AcDbEntity
  8
1
  6
Continuous
 62
     7
370
     9
100
AcDbLine
 10
737.4034598214205
 20
41.53061224489784
 30
0.0
 11
785.4034598214205
 21
41.53061224489784
 31
0.0
  0
LINE
  5
4AE
330
1F
100
AcDbEntity
  8
1
  6
Continuous
 62
     7
370
     9
100
AcDbLine
 10
834.5642860204473
 20
84.53061224489784
 30
0.0
 11
837.9071431633046
 21
45.53061224489784
 31
0.0
  0
LINE
  5
4AF
330
1F
100
AcDbEntity
  8
1
  6
Continuous
 62
     7
370
     9
100
AcDbLine
 10
789.4034598214205
 20
45.53061224489784
 30
0.0
 11
785.4034598214205
 21
41.53061224489784
 31
0.0
  0
LINE
  5
4B0
330
1F
100
AcDbEntity
  8
1
  6
Continuous
 62
     7
370
     9
100
AcDbLine
 10
789.4034598214205
 20
45.53061224489784
 30
0.0
 11
837.9071431633046
 21
45.53061224489784
 31
0.0
  0
LINE
  5
4B1
330
1F
100
AcDbEntity
  8
1
  6
Continuous
 62
     7
370
     9
100
AcDbLine
 10
737.4034598214205
 20
41.53061224489784
 30
0.0
 11
733.4034598214205
 21
45.53061224489784
 31
0.0
  0
LINE
  5
4B2
330
1F
100
AcDbEntity
  8
1
  6
Continuous
 62
     7
370
     9
100
AcDbLine
 10
542.25
 20
45.53061224489784
 30
0.0
 11
733.4034598214205
 21
45.53061224489784
 31
0.0
  0
INSERT
  5
4CE
330
1F
100
AcDbEntity
  8
0
100
AcDbBlockReference
  2
*G31
 10
0.0
 20
0.0
 30
0.0
  0
DIMENSION
  5
4E2
330
1F
100
AcDbEntity
  8
1
  6
Continuous
 62
     7
370
     9
100
AcDbDimension
  2
Dim12
 10
467.4016759776537
 20
84.53061224489802
 30
0.0
 11
461.4016759776537
 21
63.03061224489803
 31
0.0
 70
   160
  1
 
 71
     5
 42
-1.0
 73
     0
 74
     0
 75
     0
  3
Standard
100
AcDbAlignedDimension
 13
535.8444134078213
 23
84.53061224489784
 33
0.0
 14
532.6089385474861
 24
41.53061224489784
 34
0.0
 50
89.99999999999991
100
AcDbRotatedDimension
1001
ACAD
1000
DSTYLE
1002
{
1070
   344
1005
0
1070
   343
1005
0
1070
   173
1070
     1
1070
   289
1070
     2
1070
   279
1070
     2
1070
   288
1070
     1
1070
    77
1070
     3
1070
   172
1070
     1
1070
   174
1070
     0
1070
    74
1070
     0
1070
    73
1070
     0
1070
   284
1070
     8
1070
    78
1070
     8
1070
   140
1040
4.0
1070
    40
1040
3.0
1070
    42
1040
2.0
1070
    44
1040
2.0
1070
    43
1040
10.0
1070
   271
1070
     2
1070
    41
1040
4.0
1002
}
  0
TEXT
  5
4E3
330
1F
100
AcDbEntity
  8
1
  6
Continuous
 62
     7
370
     9
100
AcDbText
 10
426.8337988826815
 20
56.74525139664809
 30
0.0
 40
15.0
  1
45±1
 41
0.625
100
AcDbText
  0
VIEWPORT
  5
3B
330
1B
100
AcDbEntity
 67
     1
  8
0
100
AcDbViewport
 10
445.5
 20
315.0
 30
0.0
 40
891.0
 41
630.0
 68
     1
 69
     1
 12
445.5
 22
315.0
 13
0.0
 23
0.0
 14
0.5
 24
0.5
 15
0.5
 25
0.5
 16
0.0
 26
0.0
 36
1.0
 17
0.0
 27
0.0
 37
0.0
 42
50.0
 43
0.0
 44
0.0
 45
9.0
 50
0.0
 51
0.0
 72
   100
 90
   557152
  1

281
     0
 71
     1
 74
     0
110
0.0
120
0.0
130
0.0
111
1.0
121
0.0
131
0.0
112
0.0
122
1.0
132
0.0
 79
     0
146
0.0
170
     0
 61
     5
292
     1
282
     1
141
0.0
142
0.0
 63
   256
  0
ENDSEC
  0
SECTION
  2
OBJECTS
  0
DICTIONARY
  5
C
330
0
100
AcDbDictionary
281
     1
  3
ACAD_GROUP
350
D
  3
ACAD_LAYOUT
350
1A
  3
ACAD_MLINESTYLE
350
17
  3
ACAD_PLOTSETTINGS
350
19
  3
ACAD_PLOTSTYLENAME
350
E
  3
ACAD_TABLESTYLE
350
4E4
  3
ACAD_VISUALSTYLE
350
2A
  0
DICTIONARY
  5
D
102
{ACAD_REACTORS
330
C
102
}
330
C
100
AcDbDictionary
281
     1
  0
DICTIONARY
  5
1A
102
{ACAD_REACTORS
330
C
102
}
330
C
100
AcDbDictionary
281
     1
  3
Layout1
350
1E
  3
Layout2
350
26
  3
Model
350
22
  0
DICTIONARY
  5
17
102
{ACAD_REACTORS
330
C
102
}
330
C
100
AcDbDictionary
281
     1
  3
Standard
350
18
  0
DICTIONARY
  5
19
102
{ACAD_REACTORS
330
C
102
}
330
C
100
AcDbDictionary
281
     1
  0
ACDBDICTIONARYWDFLT
  5
E
102
{ACAD_REACTORS
330
C
102
}
330
C
100
AcDbDictionary
281
     1
  3
Normal
350
F
100
AcDbDictionaryWithDefault
340
F
  0
DICTIONARY
  5
4E4
102
{ACAD_REACTORS
330
C
102
}
330
C
100
AcDbDictionary
281
     1
  0
DICTIONARY
  5
2A
102
{ACAD_REACTORS
330
C
102
}
330
C
100
AcDbDictionary
281
     1
  3
2dWireframe
350
2F
  3
3D Hidden
350
31
  3
3dWireframe
350
30
  3
Basic
350
32
  3
Brighten
350
36
  3
ColorChange
350
3A
  3
Conceptual
350
34
  3
Dim
350
35
  3
Facepattern
350
39
  3
Flat
350
2B
  3
FlatWithEdges
350
2C
  3
Gouraud
350
2D
  3
GouraudWithEdges
350
2E
  3
Linepattern
350
38
  3
Realistic
350
33
  3
Thicken
350
37
  0
LAYOUT
  5
1E
102
{ACAD_REACTORS
330
1A
102
}
330
1A
100
AcDbPlotSettings
  1

  2
none_device
  4

  6

 40
0.0
 41
0.0
 42
0.0
 43
0.0
 44
0.0
 45
0.0
 46
0.0
 47
0.0
 48
0.0
 49
0.0
140
0.0
141
0.0
142
1.0
143
1.0
 70
   688
 72
     0
 73
     0
 74
     5
  7

 75
    16
 76
     0
 77
     2
 78
   300
147
1.0
148
0.0
149
0.0
100
AcDbLayout
  1
Layout1
 70
     1
 71
     1
 10
0.0
 20
0.0
 11
297.0
 21
210.0
 12
0.0
 22
0.0
 32
0.0
 14
0.0
 24
0.0
 34
0.0
 15
297.0
 25
210.0
 35
0.0
146
0.0
 13
0.0
 23
0.0
 33
0.0
 16
1.0
 26
0.0
 36
0.0
 17
0.0
 27
1.0
 37
0.0
 76
     0
330
1B
331
3B
  0
LAYOUT
  5
26
102
{ACAD_REACTORS
330
1A
102
}
330
1A
100
AcDbPlotSettings
  1

  2
none_device
  4

  6

 40
0.0
 41
0.0
 42
0.0
 43
0.0
 44
0.0
 45
0.0
 46
0.0
 47
0.0
 48
0.0
 49
0.0
140
0.0
141
0.0
142
1.0
143
1.0
 70
   688
 72
     0
 73
     0
 74
     5
  7

 75
    16
 76
     0
 77
     2
 78
   300
147
1.0
148
0.0
149
0.0
100
AcDbLayout
  1
Layout2
 70
     1
 71
     2
 10
0.0
 20
0.0
 11
0.0
 21
0.0
 12
0.0
 22
0.0
 32
0.0
 14
0.0
 24
0.0
 34
0.0
 15
0.0
 25
0.0
 35
0.0
146
0.0
 13
0.0
 23
0.0
 33
0.0
 16
1.0
 26
0.0
 36
0.0
 17
0.0
 27
1.0
 37
0.0
 76
     0
330
23
  0
LAYOUT
  5
22
102
{ACAD_REACTORS
330
1A
102
}
330
1A
100
AcDbPlotSettings
  1

  2
none_device
  4

  6

 40
0.0
 41
0.0
 42
0.0
 43
0.0
 44
0.0
 45
0.0
 46
0.0
 47
0.0
 48
0.0
 49
0.0
140
0.0
141
0.0
142
1.0
143
1.0
 70
  1712
 72
     0
 73
     0
 74
     0
  7

 75
     0
 76
     0
 77
     2
 78
   300
147
1.0
148
0.0
149
0.0
100
AcDbLayout
  1
Model
 70
     1
 71
     0
 10
0.0
 20
0.0
 11
891.0
 21
630.0
 12
0.0
 22
0.0
 32
0.0
 14
0.0
 24
0.0
 34
0.0
 15
891.0
 25
630.0
 35
0.0
146
0.0
 13
0.0
 23
0.0
 33
0.0
 16
1.0
 26
0.0
 36
0.0
 17
0.0
 27
1.0
 37
0.0
 76
     0
330
1F
331
29
  0
MLINESTYLE
  5
18
102
{ACAD_REACTORS
330
17
102
}
330
17
100
AcDbMlineStyle
  2
Standard
 70
     0
  3

 62
   256
 51
90.0
 52
90.0
 71
     2
 49
0.5
 62
   256
  6
BYLAYER
 49
-0.5
 62
   256
  6
BYLAYER
  0
ACDBPLACEHOLDER
  5
F
102
{ACAD_REACTORS
330
E
102
}
330
E
  0
VISUALSTYLE
  5
2F
102
{ACAD_REACTORS
330
2A
102
}
330
2A
100
AcDbVisualStyle
  2
2dWireframe
 70
     4
 71
     0
 72
     2
 73
     0
 90
        0
 40
-0.6
 41
-30.0
 62
     5
 63
     7
421
 16777215
 74
     1
 91
        4
 64
     7
 65
   257
 75
     1
175
     1
 42
1.0
 92
        0
 66
   257
 43
1.0
 76
     1
 77
     6
 78
     2
 67
     7
 79
     5
170
     0
171
     0
290
     0
174
     0
 93
        1
 44
0.0
173
     0
291
     0
 45
0.0
  0
VISUALSTYLE
  5
31
102
{ACAD_REACTORS
330
2A
102
}
330
2A
100
AcDbVisualStyle
  2
3D Hidden
 70
     6
 71
     1
 72
     2
 73
     2
 90
        0
 40
-0.6
 41
-30.0
 62
     5
 63
     7
421
 16777215
 74
     2
 91
        2
 64
     7
 65
   257
 75
     2
175
     1
 42
40.0
 92
        0
 66
   257
 43
1.0
 76
     1
 77
     6
 78
     2
 67
     7
 79
     3
170
     0
171
     0
290
     0
174
     0
 93
        1
 44
0.0
173
     0
291
     0
 45
0.0
  0
VISUALSTYLE
  5
30
102
{ACAD_REACTORS
330
2A
102
}
330
2A
100
AcDbVisualStyle
  2
3dWireframe
 70
     5
 71
     0
 72
     2
 73
     0
 90
        0
 40
-0.6
 41
-30.0
 62
     5
 63
     7
421
 16777215
 74
     1
 91
        4
 64
     7
 65
   257
 75
     1
175
     1
 42
1.0
 92
        0
 66
   257
 43
1.0
 76
     1
 77
     6
 78
     2
 67
     7
 79
     5
170
     0
171
     0
290
     0
174
     0
 93
        1
 44
0.0
173
     0
291
     0
 45
0.0
  0
VISUALSTYLE
  5
32
102
{ACAD_REACTORS
330
2A
102
}
330
2A
100
AcDbVisualStyle
  2
Basic
 70
     7
 71
     1
 72
     0
 73
     1
 90
        0
 40
-0.6
 41
-30.0
 62
     5
 63
     7
421
 16777215
 74
     0
 91
        4
 64
     7
 65
   257
 75
     1
175
     1
 42
1.0
 92
        8
 66
     7
 43
1.0
 76
     1
 77
     6
 78
     2
 67
     7
 79
     5
170
     0
171
     0
290
     0
174
     0
 93
        1
 44
0.0
173
     0
291
     1
 45
0.0
  0
VISUALSTYLE
  5
36
102
{ACAD_REACTORS
330
2A
102
}
330
2A
100
AcDbVisualStyle
  2
Brighten
 70
    12
 71
     2
 72
     2
 73
     0
 90
        0
 40
-0.6
 41
-30.0
 62
     5
 63
     7
421
 16777215
 74
     1
 91
        4
 64
     7
 65
   257
 75
     1
175
     1
 42
1.0
 92
        8
 66
     7
 43
1.0
 76
     1
 77
     6
 78
     2
 67
     7
 79
     5
170
     0
171
     0
290
     0
174
     0
 93
        1
 44
50.0
173
     0
291
     1
 45
0.0
  0
VISUALSTYLE
  5
3A
102
{ACAD_REACTORS
330
2A
102
}
330
2A
100
AcDbVisualStyle
  2
ColorChange
 70
    16
 71
     2
 72
     2
 73
     3
 90
        0
 40
-0.6
 41
-30.0
 62
     5
 63
     8
421
  8421504
 74
     1
 91
        4
 64
     7
 65
   257
 75
     1
175
     1
 42
1.0
 92
        8
 66
     8
424
  8421504
 43
1.0
 76
     1
 77
     6
 78
     2
 67
     7
 79
     5
170
     0
171
     0
290
     0
174
     0
 93
        1
 44
0.0
173
     0
291
     1
 45
0.0
  0
VISUALSTYLE
  5
34
102
{ACAD_REACTORS
330
2A
102
}
330
2A
100
AcDbVisualStyle
  2
Conceptual
 70
     9
 71
     3
 72
     2
 73
     0
 90
        0
 40
-0.6
 41
-30.0
 62
     5
 63
     7
421
 16777215
 74
     2
 91
        2
 64
     7
 65
   257
 75
     1
175
     1
 42
40.0
 92
        8
 66
     7
 43
1.0
 76
     1
 77
     6
 78
     2
 67
     7
 79
     3
170
     0
171
     0
290
     0
174
     0
 93
        1
 44
0.0
173
     0
291
     0
 45
0.0
  0
VISUALSTYLE
  5
35
102
{ACAD_REACTORS
330
2A
102
}
330
2A
100
AcDbVisualStyle
  2
Dim
 70
    11
 71
     2
 72
     2
 73
     0
 90
        0
 40
-0.6
 41
-30.0
 62
     5
 63
     7
421
 16777215
 74
     1
 91
        4
 64
     7
 65
   257
 75
     1
175
     1
 42
1.0
 92
        8
 66
     7
 43
1.0
 76
     1
 77
     6
 78
     2
 67
     7
 79
     5
170
     0
171
     0
290
     0
174
     0
 93
        1
 44
-50.0
173
     0
291
     1
 45
0.0
  0
VISUALSTYLE
  5
39
102
{ACAD_REACTORS
330
2A
102
}
330
2A
100
AcDbVisualStyle
  2
Facepattern
 70
    15
 71
     2
 72
     2
 73
     0
 90
        0
 40
-0.6
 41
-30.0
 62
     5
 63
     7
421
 16777215
 74
     1
 91
        4
 64
     7
 65
   257
 75
     1
175
     1
 42
1.0
 92
        8
 66
     7
 43
1.0
 76
     1
 77
     6
 78
     2
 67
     7
 79
     5
170
     0
171
     0
290
     0
174
     0
 93
        1
 44
0.0
173
     0
291
     1
 45
0.0
  0
VISUALSTYLE
  5
2B
102
{ACAD_REACTORS
330
2A
102
}
330
2A
100
AcDbVisualStyle
  2
Flat
 70
     0
 71
     2
 72
     1
 73
     1
 90
        2
 40
-0.6
 41
30.0
 62
     5
 63
     7
421
 16777215
 74
     0
 91
        4
 64
     7
 65
   257
 75
     1
175
     1
 42
1.0
 92
        8
 66
     7
 43
1.0
 76
     1
 77
     6
 78
     2
 67
     7
 79
     5
170
     0
171
     0
290
     0
174
     0
 93
       13
 44
0.0
173
     0
291
     1
 45
0.0
  0
VISUALSTYLE
  5
2C
102
{ACAD_REACTORS
330
2A
102
}
330
2A
100
AcDbVisualStyle
  2
FlatWithEdges
 70
     1
 71
     2
 72
     1
 73
     1
 90
        2
 40
-0.6
 41
30.0
 62
     5
 63
     7
421
 16777215
 74
     1
 91
        4
 64
     7
 65
   257
 75
     1
175
     1
 42
1.0
 92
        0
 66
   257
 43
1.0
 76
     1
 77
     6
 78
     2
 67
     7
 79
     5
170
     0
171
     0
290
     0
174
     0
 93
       13
 44
0.0
173
     0
291
     1
 45
0.0
  0
VISUALSTYLE
  5
2D
102
{ACAD_REACTORS
330
2A
102
}
330
2A
100
AcDbVisualStyle
  2
Gouraud
 70
     2
 71
     2
 72
     2
 73
     1
 90
        2
 40
-0.6
 41
30.0
 62
     5
 63
     7
421
 16777215
 74
     0
 91
        4
 64
     7
 65
   257
 75
     1
175
     1
 42
1.0
 92
        0
 66
     7
 43
1.0
 76
     1
 77
     6
 78
     2
 67
     7
 79
     5
170
     0
171
     0
290
     0
174
     0
 93
       13
 44
0.0
173
     0
291
     1
 45
0.0
  0
VISUALSTYLE
  5
2E
102
{ACAD_REACTORS
330
2A
102
}
330
2A
100
AcDbVisualStyle
  2
GouraudWithEdges
 70
     3
 71
     2
 72
     2
 73
     1
 90
        2
 40
-0.6
 41
30.0
 62
     5
 63
     7
421
 16777215
 74
     1
 91
        4
 64
     7
 65
   257
 75
     1
175
     1
 42
1.0
 92
        0
 66
   257
 43
1.0
 76
     1
 77
     6
 78
     2
 67
     7
 79
     5
170
     0
171
     0
290
     0
174
     0
 93
       13
 44
0.0
173
     0
291
     1
 45
0.0
  0
VISUALSTYLE
  5
38
102
{ACAD_REACTORS
330
2A
102
}
330
2A
100
AcDbVisualStyle
  2
Linepattern
 70
    14
 71
     2
 72
     2
 73
     0
 90
        0
 40
-0.6
 41
-30.0
 62
     5
 63
     7
421
 16777215
 74
     1
 91
        4
 64
     7
 65
   257
 75
     7
175
     7
 42
1.0
 92
        8
 66
     7
 43
1.0
 76
     1
 77
     6
 78
     2
 67
     7
 79
     5
170
     0
171
     0
290
     0
174
     0
 93
        1
 44
0.0
173
     0
291
     1
 45
0.0
  0
VISUALSTYLE
  5
33
102
{ACAD_REACTORS
330
2A
102
}
330
2A
100
AcDbVisualStyle
  2
Realistic
 70
     8
 71
     2
 72
     2
 73
     0
 90
        0
 40
-0.6
 41
-30.0
 62
     5
 63
     7
421
 16777215
 74
     1
 91
        0
 64
     7
 65
   257
 75
     1
175
     1
 42
1.0
 92
        8
 66
     8
424
  7895160
 43
1.0
 76
     1
 77
     6
 78
     2
 67
     7
 79
     5
170
     0
171
     0
290
     0
174
     0
 93
       13
 44
0.0
173
     0
291
     0
 45
0.0
  0
VISUALSTYLE
  5
37
102
{ACAD_REACTORS
330
2A
102
}
330
2A
100
AcDbVisualStyle
  2
Thicken
 70
    13
 71
     2
 72
     2
 73
     0
 90
        0
 40
-0.6
 41
-30.0
 62
     5
 63
     7
421
 16777215
 74
     1
 91
        4
 64
     7
 65
   257
 75
     1
175
     1
 42
1.0
 92
       12
 66
     7
 43
1.0
 76
     1
 77
     6
 78
     2
 67
     7
 79
     5
170
     0
171
     0
290
     0
174
     0
 93
        1
 44
0.0
173
     0
291
     1
 45
0.0
  0
ENDSEC
  0
EOF
