  0
SECTION
  2
HEADER
  9
$ACADVER
  1
AC1021
  9
$ACADMAINTVER
 70
     1
  9
$DWGCODEPAGE
  3
ANSI_932
  9
$INSBASE
 10
0.0
 20
0.0
 30
0.0
  9
$EXTMIN
 10
0.0
 20
0.0
 30
0.0
  9
$EXTMAX
 10
891.0
 20
630.0
 30
0.0
  9
$LIMMIN
 10
0.0
 20
0.0
  9
$LIMMAX
 10
891.0
 20
630.0
  9
$ORTHOMODE
 70
     0
  9
$REGENMODE
 70
     1
  9
$FILLMODE
 70
     1
  9
$QTEXTMODE
 70
     0
  9
$MIRRTEXT
 70
     1
  9
$LTSCALE
 40
0.75
  9
$ATTMODE
 70
     1
  9
$TEXTSIZE
 40
15.0
  9
$TRACEWID
 40
0.05
  9
$TEXTSTYLE
  7
Standard
  9
$CLAYER
  8
0
  9
$CELTYPE
  6
ByLayer
  9
$CECOLOR
 62
   256
  9
$CELTSCALE
 40
1.0
  9
$DISPSILH
 70
     0
  9
$DIMSCALE
 40
3.0
  9
$DIMASZ
 40
4.0
  9
$DIMEXO
 40
2.0
  9
$DIMDLI
 40
10.0
  9
$DIMRND
 40
0.0
  9
$DIMDLE
 40
0.0
  9
$DIMEXE
 40
2.0
  9
$DIMTP
 40
0.0
  9
$DIMTM
 40
0.0
  9
$DIMTXT
 40
4.0
  9
$DIMCEN
 40
0.09
  9
$DIMTSZ
 40
0.0
  9
$DIMTOL
 70
     0
  9
$DIMLIM
 70
     0
  9
$DIMTIH
 70
     0
  9
$DIMTOH
 70
     0
  9
$DIMSE1
 70
     0
  9
$DIMSE2
 70
     0
  9
$DIMTAD
 70
     3
  9
$DIMZIN
 70
     8
  9
$DIMBLK
  1

  9
$DIMASO
 70
     1
  9
$DIMSHO
 70
     1
  9
$DIMPOST
  1

  9
$DIMAPOST
  1

  9
$DIMALT
 70
     0
  9
$DIMALTD
 70
     2
  9
$DIMALTF
 40
25.4
  9
$DIMLFAC
 40
1.0
  9
$DIMTOFL
 70
     1
  9
$DIMTVP
 40
0.7
  9
$DIMTIX
 70
     0
  9
$DIMSOXD
 70
     0
  9
$DIMSAH
 70
     0
  9
$DIMBLK1
  1

  9
$DIMBLK2
  1

  9
$DIMSTYLE
  2
Standard
  9
$DIMCLRD
 70
     0
  9
$DIMCLRE
 70
     0
  9
$DIMCLRT
 70
     0
  9
$DIMTFAC
 40
0.5
  9
$DIMGAP
 40
0.09
  9
$DIMJUST
 70
     0
  9
$DIMSD1
 70
     0
  9
$DIMSD2
 70
     0
  9
$DIMTOLJ
 70
     1
  9
$DIMTZIN
 70
     8
  9
$DIMALTZ
 70
     0
  9
$DIMALTTZ
 70
     0
  9
$DIMUPT
 70
     1
  9
$DIMDEC
 70
     2
  9
$DIMTDEC
 70
     4
  9
$DIMALTU
 70
     2
  9
$DIMALTTD
 70
     2
  9
$DIMTXSTY
  7
Standard
  9
$DIMAUNIT
 70
     0
  9
$DIMADEC
 70
     0
  9
$DIMALTRND
 40
0.0
  9
$DIMAZIN
 70
     0
  9
$DIMDSEP
 70
    46
  9
$DIMATFIT
 70
     2
  9
$DIMFRAC
 70
     0
  9
$DIMLDRBLK
  1

  9
$DIMLUNIT
 70
     2
  9
$DIMLWD
 70
    -2
  9
$DIMLWE
 70
    -2
  9
$DIMTMOVE
 70
     2
  9
$DIMFXL
 40
1.0
  9
$DIMFXLON
 70
     0
  9
$DIMJOGANG
 40
0.7853981633974483
  9
$DIMTFILL
 70
     0
  9
$DIMTFILLCLR
 70
     0
  9
$DIMARCSYM
 70
     0
  9
$DIMLTYPE
  6

  9
$DIMLTEX1
  6

  9
$DIMLTEX2
  6

  9
$LUNITS
 70
     2
  9
$LUPREC
 70
     4
  9
$SKETCHINC
 40
0.1
  9
$FILLETRAD
 40
0.5
  9
$AUNITS
 70
     0
  9
$AUPREC
 70
     0
  9
$MENU
  1
.
  9
$ELEVATION
 40
0.0
  9
$PELEVATION
 40
0.0
  9
$THICKNESS
 40
0.0
  9
$LIMCHECK
 70
     0
  9
$CHAMFERA
 40
0.5
  9
$CHAMFERB
 40
0.5
  9
$CHAMFERC
 40
1.0
  9
$CHAMFERD
 40
0.0
  9
$SKPOLY
 70
     0
  9
$TDCREATE
 40
2454850.075104167
  9
$TDUCREATE
 40
2454849.700104167
  9
$TDUPDATE
 40
2454850.075104167
  9
$TDUUPDATE
 40
2454849.700104167
  9
$TDINDWG
 40
0.0000000116
  9
$TDUSRTIMER
 40
0.0000000116
  9
$USRTIMER
 70
     1
  9
$ANGBASE
 50
0.0
  9
$ANGDIR
 70
     0
  9
$PDMODE
 70
     0
  9
$PDSIZE
 40
0.0
  9
$PLINEWID
 40
0.0
  9
$SPLFRAME
 70
     0
  9
$SPLINETYPE
 70
     6
  9
$SPLINESEGS
 70
     8
  9
$HANDSEED
  5
507
  9
$SURFTAB1
 70
     6
  9
$SURFTAB2
 70
     6
  9
$SURFTYPE
 70
     6
  9
$SURFU
 70
     6
  9
$SURFV
 70
     6
  9
$UCSBASE
  2

  9
$UCSNAME
  2

  9
$UCSORG
 10
0.0
 20
0.0
 30
0.0
  9
$UCSXDIR
 10
1.0
 20
0.0
 30
0.0
  9
$UCSYDIR
 10
0.0
 20
1.0
 30
0.0
  9
$UCSORTHOREF
  2

  9
$UCSORTHOVIEW
 70
     0
  9
$UCSORGTOP
 10
0.0
 20
0.0
 30
0.0
  9
$UCSORGBOTTOM
 10
0.0
 20
0.0
 30
0.0
  9
$UCSORGLEFT
 10
0.0
 20
0.0
 30
0.0
  9
$UCSORGRIGHT
 10
0.0
 20
0.0
 30
0.0
  9
$UCSORGFRONT
 10
0.0
 20
0.0
 30
0.0
  9
$UCSORGBACK
 10
0.0
 20
0.0
 30
0.0
  9
$PUCSBASE
  2

  9
$PUCSNAME
  2

  9
$PUCSORG
 10
0.0
 20
0.0
 30
0.0
  9
$PUCSXDIR
 10
1.0
 20
0.0
 30
0.0
  9
$PUCSYDIR
 10
0.0
 20
1.0
 30
0.0
  9
$PUCSORTHOREF
  2

  9
$PUCSORTHOVIEW
 70
     0
  9
$PUCSORGTOP
 10
0.0
 20
0.0
 30
0.0
  9
$PUCSORGBOTTOM
 10
0.0
 20
0.0
 30
0.0
  9
$PUCSORGLEFT
 10
0.0
 20
0.0
 30
0.0
  9
$PUCSORGRIGHT
 10
0.0
 20
0.0
 30
0.0
  9
$PUCSORGFRONT
 10
0.0
 20
0.0
 30
0.0
  9
$PUCSORGBACK
 10
0.0
 20
0.0
 30
0.0
  9
$USERI1
 70
     0
  9
$USERI2
 70
     0
  9
$USERI3
 70
     0
  9
$USERI4
 70
     0
  9
$USERI5
 70
     0
  9
$USERR1
 40
0.0
  9
$USERR2
 40
0.0
  9
$USERR3
 40
0.0
  9
$USERR4
 40
0.0
  9
$USERR5
 40
0.0
  9
$WORLDVIEW
 70
     1
  9
$SHADEDGE
 70
     3
  9
$SHADEDIF
 70
    70
  9
$TILEMODE
 70
     1
  9
$MAXACTVP
 70
    64
  9
$PINSBASE
 10
0.0
 20
0.0
 30
0.0
  9
$PLIMCHECK
 70
     0
  9
$PEXTMIN
 10
0.0
 20
0.0
 30
0.0
  9
$PEXTMAX
 10
297.0
 20
210.0
 30
0.0
  9
$PLIMMIN
 10
0.0
 20
0.0
  9
$PLIMMAX
 10
297.0
 20
210.0
  9
$UNITMODE
 70
     0
  9
$VISRETAIN
 70
     1
  9
$PLINEGEN
 70
     0
  9
$PSLTSCALE
 70
     1
  9
$TREEDEPTH
 70
  3020
  9
$CMLSTYLE
  2
Standard
  9
$CMLJUST
 70
     0
  9
$CMLSCALE
 40
1.0
  9
$PROXYGRAPHICS
 70
     1
  9
$MEASUREMENT
 70
     1
  9
$CELWEIGHT
370
    -1
  9
$ENDCAPS
280
     0
  9
$JOINSTYLE
280
     0
  9
$LWDISPLAY
290
     0
  9
$INSUNITS
 70
     4
  9
$HYPERLINKBASE
  1

  9
$STYLESHEET
  1

  9
$XEDIT
290
     1
  9
$CEPSNTYPE
380
     0
  9
$PSTYLEMODE
290
     1
  9
$FINGERPRINTGUID
  2
{EF224DCF-B1E7-4E2C-B5AB-964F818F841D}
  9
$VERSIONGUID
  2
{FAEB1C32-E019-11D5-929B-00C0DF256EC4}
  9
$EXTNAMES
290
     1
  9
$PSVPSCALE
 40
0.0
  9
$OLESTARTUP
290
     0
  9
$SORTENTS
280
   127
  9
$INDEXCTL
280
     0
  9
$HIDETEXT
280
     1
  9
$XCLIPFRAME
290
     0
  9
$HALOGAP
280
     0
  9
$OBSCOLOR
 70
   257
  9
$OBSLTYPE
280
     0
  9
$INTERSECTIONDISPLAY
280
     0
  9
$INTERSECTIONCOLOR
 70
   257
  9
$DIMASSOC
280
     1
  9
$PROJECTNAME
  1

  9
$CAMERADISPLAY
290
     0
  9
$LENSLENGTH
 40
50.0
  9
$CAMERAHEIGHT
 40
0.0
  9
$STEPSPERSEC
 40
2.0
  9
$STEPSIZE
 40
6.0
  9
$3DDWFPREC
 40
2.0
  9
$PSOLWIDTH
 40
0.25
  9
$PSOLHEIGHT
 40
4.0
  9
$LOFTANG1
 40
1.570796326794897
  9
$LOFTANG2
 40
1.570796326794897
  9
$LOFTMAG1
 40
0.0
  9
$LOFTMAG2
 40
0.0
  9
$LOFTPARAM
 70
     7
  9
$LOFTNORMALS
280
     1
  9
$LATITUDE
 40
37.795
  9
$LONGITUDE
 40
-122.394
  9
$NORTHDIRECTION
 40
0.0
  9
$TIMEZONE
 70
 -8000
  9
$LIGHTGLYPHDISPLAY
280
     1
  9
$TILEMODELIGHTSYNCH
280
     1
  9
$SOLIDHIST
280
     1
  9
$SHOWHIST
280
     1
  9
$DWFFRAME
280
     2
  9
$DGNFRAME
280
     2
  9
$REALWORLDSCALE
290
     1
  9
$INTERFERECOLOR
 62
   256
  9
$CSHADOW
280
     0
  9
$SHADOWPLANELOCATION
 40
0.0
  0
ENDSEC
  0
SECTION
  2
CLASSES
  0
CLASS
  1
ACDBDICTIONARYWDFLT
  2
AcDbDictionaryWithDefault
  3
ObjectDBX Classes
 90
        0
 91
        3
280
     0
281
     0
  0
CLASS
  1
VISUALSTYLE
  2
AcDbVisualStyle
  3
ObjectDBX Classes
 90
     4095
 91
        3
280
     0
281
     0
  0
ENDSEC
  0
SECTION
  2
TABLES
  0
TABLE
  2
VPORT
  5
8
330
0
100
AcDbSymbolTable
 70
     1
  0
VPORT
  5
29
330
8
100
AcDbSymbolTableRecord
100
AcDbViewportTableRecord
  2
*Active
 70
     0
 10
0.0
 20
0.0
 11
1.0
 21
1.0
 12
10.42990654205607
 22
4.5
 13
0.0
 23
0.0
 14
0.5
 24
0.5
 15
0.5
 25
0.5
 16
0.0
 26
0.0
 36
1.0
 17
0.0
 27
0.0
 37
0.0
 40
9.0
 41
1.972972972850329
 42
50.0
 43
0.0
 44
0.0
 50
0.0
 51
0.0
 71
     0
 72
   100
 73
     1
 74
     3
 75
     0
 76
     0
 77
     0
 78
     0
281
     0
 65
     1
110
0.0
120
0.0
130
0.0
111
1.0
121
0.0
131
0.0
112
0.0
122
1.0
132
0.0
 79
     0
146
0.0
 60
     3
 61
     5
292
     1
282
     1
141
0.0
142
0.0
 63
   256
  0
ENDTAB
  0
TABLE
  2
LTYPE
  5
5
330
0
100
AcDbSymbolTable
 70
     9
  0
LTYPE
  5
14
330
5
100
AcDbSymbolTableRecord
100
AcDbLinetypeTableRecord
  2
ByBlock
 70
     0
  3

 72
    65
 73
     0
 40
0.0
  0
LTYPE
  5
15
330
5
100
AcDbSymbolTableRecord
100
AcDbLinetypeTableRecord
  2
ByLayer
 70
     0
  3

 72
    65
 73
     0
 40
0.0
  0
LTYPE
  5
16
330
5
100
AcDbSymbolTableRecord
100
AcDbLinetypeTableRecord
  2
Continuous
 70
     0
  3
Solid line
 72
    65
 73
     0
 40
0.0
  0
LTYPE
  5
79
330
5
100
AcDbSymbolTableRecord
100
AcDbLinetypeTableRecord
  2
DOT
 70
     0
  3
DOT
 72
    65
 73
     2
 40
4.0
 49
6.0
 74
     0
 49
-2.0
 74
     0
  0
LTYPE
  5
7A
330
5
100
AcDbSymbolTableRecord
100
AcDbLinetypeTableRecord
  2
HIDDEN
 70
     0
  3
HIDDEN
 72
    65
 73
     2
 40
4.2
 49
8.4
 74
     0
 49
-4.2
 74
     0
  0
LTYPE
  5
7B
330
5
100
AcDbSymbolTableRecord
100
AcDbLinetypeTableRecord
  2
DASHDOT
 70
     0
  3
DASHDOT
 72
    65
 73
     4
 40
14.5
 49
30.0
 74
     0
 49
-9.0
 74
     0
 49
2.5
 74
     0
 49
-9.0
 74
     0
  0
LTYPE
  5
7C
330
5
100
AcDbSymbolTableRecord
100
AcDbLinetypeTableRecord
  2
PHANTOM
 70
     0
  3
PHANTOM
 72
    65
 73
     6
 40
12.0
 49
30.0
 74
     0
 49
-9.0
 74
     0
 49
2.5
 74
     0
 49
-5.0
 74
     0
 49
2.5
 74
     0
 49
-9.0
 74
     0
  0
LTYPE
  5
7D
330
5
100
AcDbSymbolTableRecord
100
AcDbLinetypeTableRecord
  2
ACAD_ISO14W100
 70
     0
  3
ACAD_ISO14W100
 72
    65
 73
     8
 40
1.5
 49
12.0
 74
     0
 49
-3.0
 74
     0
 49
0.5
 74
     0
 49
-3.0
 74
     0
 49
0.5
 74
     0
 49
-3.0
 74
     0
 49
0.5
 74
     0
 49
-3.0
 74
     0
  0
LTYPE
  5
7E
330
5
100
AcDbSymbolTableRecord
100
AcDbLinetypeTableRecord
  2
ACAD_ISO06W100
 70
     0
  3
ACAD_ISO06W100
 72
    65
 73
     8
 40
13.5
 49
24.0
 74
     0
 49
-3.0
 74
     0
 49
0.5
 74
     0
 49
-3.0
 74
     0
 49
0.5
 74
     0
 49
-3.0
 74
     0
 49
0.5
 74
     0
 49
-3.0
 74
     0
  0
LTYPE
  5
7F
330
5
100
AcDbSymbolTableRecord
100
AcDbLinetypeTableRecord
  2
ACAD_ISO11W100
 70
     0
  3
ACAD_ISO11W100
 72
    65
 73
     6
 40
15.5
 49
12.0
 74
     0
 49
-3.0
 74
     0
 49
12.0
 74
     0
 49
-3.0
 74
     0
 49
0.5
 74
     0
 49
-3.0
 74
     0
  0
LTYPE
  5
80
330
5
100
AcDbSymbolTableRecord
100
AcDbLinetypeTableRecord
  2
ACAD_ISO13W100
 70
     0
  3
ACAD_ISO13W100
 72
    65
 73
     8
 40
13.0
 49
12.0
 74
     0
 49
-3.0
 74
     0
 49
12.0
 74
     0
 49
-3.0
 74
     0
 49
0.5
 74
     0
 49
-3.0
 74
     0
 49
0.5
 74
     0
 49
-3.0
 74
     0
  0
ENDTAB
  0
TABLE
  2
LAYER
  5
2
330
0
100
AcDbSymbolTable
 70
    22
  0
LAYER
  5
10
330
2
100
AcDbSymbolTableRecord
100
AcDbLayerTableRecord
  2
0
 70
     0
 62
     7
  6
Continuous
370
    -3
390
F
347
0
  0
LAYER
  5
81
330
2
100
AcDbSymbolTableRecord
100
AcDbLayerTableRecord
  2
1
 70
     0
 62
     7
  6
Continuous
370
    -3
390
F
347
0
  0
LAYER
  5
82
330
2
100
AcDbSymbolTableRecord
100
AcDbLayerTableRecord
  2
2
 70
     0
 62
   134
  6
Continuous
370
    -3
390
F
347
0
  0
LAYER
  5
83
330
2
100
AcDbSymbolTableRecord
100
AcDbLayerTableRecord
  2
3
 70
     0
 62
   214
  6
Continuous
370
    -3
390
F
347
0
  0
LAYER
  5
84
330
2
100
AcDbSymbolTableRecord
100
AcDbLayerTableRecord
  2
4
 70
     0
 62
    54
  6
Continuous
370
    -3
390
F
347
0
  0
LAYER
  5
85
330
2
100
AcDbSymbolTableRecord
100
AcDbLayerTableRecord
  2
5
 70
     0
 62
    94
  6
Continuous
370
    -3
390
F
347
0
  0
LAYER
  5
86
330
2
100
AcDbSymbolTableRecord
100
AcDbLayerTableRecord
  2
6
 70
     0
 62
    14
  6
Continuous
370
    -3
390
F
347
0
  0
LAYER
  5
87
330
2
100
AcDbSymbolTableRecord
100
AcDbLayerTableRecord
  2
7
 70
     0
 62
     4
  6
Continuous
370
    -3
390
F
347
0
  0
LAYER
  5
88
330
2
100
AcDbSymbolTableRecord
100
AcDbLayerTableRecord
  2
8
 70
     0
 62
     6
  6
Continuous
370
    -3
390
F
347
0
  0
LAYER
  5
89
330
2
100
AcDbSymbolTableRecord
100
AcDbLayerTableRecord
  2
9
 70
     0
 62
     2
  6
Continuous
370
    -3
390
F
347
0
  0
LAYER
  5
8A
330
2
100
AcDbSymbolTableRecord
100
AcDbLayerTableRecord
  2
10
 70
     0
 62
     3
  6
Continuous
370
    -3
390
F
347
0
  0
LAYER
  5
8B
330
2
100
AcDbSymbolTableRecord
100
AcDbLayerTableRecord
  2
11
 70
     0
 62
   251
  6
Continuous
370
    -3
390
F
347
0
  0
LAYER
  5
8C
330
2
100
AcDbSymbolTableRecord
100
AcDbLayerTableRecord
  2
12
 70
     0
 62
   136
  6
Continuous
370
    -3
390
F
347
0
  0
LAYER
  5
8D
330
2
100
AcDbSymbolTableRecord
100
AcDbLayerTableRecord
  2
13
 70
     0
 62
   216
  6
Continuous
370
    -3
390
F
347
0
  0
LAYER
  5
8E
330
2
100
AcDbSymbolTableRecord
100
AcDbLayerTableRecord
  2
14
 70
     0
 62
    56
  6
Continuous
370
    -3
390
F
347
0
  0
LAYER
  5
8F
330
2
100
AcDbSymbolTableRecord
100
AcDbLayerTableRecord
  2
15
 70
     0
 62
    96
  6
Continuous
370
    -3
390
F
347
0
  0
LAYER
  5
90
330
2
100
AcDbSymbolTableRecord
100
AcDbLayerTableRecord
  2
16
 70
     0
 62
    16
  6
Continuous
370
    -3
390
F
347
0
  0
LAYER
  5
91
330
2
100
AcDbSymbolTableRecord
100
AcDbLayerTableRecord
  2
17
 70
     0
 62
   132
  6
Continuous
370
    -3
390
F
347
0
  0
LAYER
  5
92
330
2
100
AcDbSymbolTableRecord
100
AcDbLayerTableRecord
  2
18
 70
     0
 62
   212
  6
Continuous
370
    -3
390
F
347
0
  0
LAYER
  5
93
330
2
100
AcDbSymbolTableRecord
100
AcDbLayerTableRecord
  2
19
 70
     0
 62
    52
  6
Continuous
370
    -3
390
F
347
0
  0
LAYER
  5
94
330
2
100
AcDbSymbolTableRecord
100
AcDbLayerTableRecord
  2
20
 70
     0
 62
   250
  6
Continuous
370
    -3
390
F
347
0
  0
LAYER
  5
95
330
2
100
AcDbSymbolTableRecord
100
AcDbLayerTableRecord
  2
21
 70
     0
 62
     7
  6
Continuous
370
    -3
390
F
347
0
  0
ENDTAB
  0
TABLE
  2
STYLE
  5
3
330
0
100
AcDbSymbolTable
 70
     2
  0
STYLE
  5
11
330
3
100
AcDbSymbolTableRecord
100
AcDbTextStyleTableRecord
  2
Standard
 70
     0
 40
0.0
 41
1.0
 50
0.0
 71
     0
 42
0.2
  3
txt
  4
bigfont
  0
STYLE
  5
3D
330
3
100
AcDbSymbolTableRecord
100
AcDbTextStyleTableRecord
  2
T_STANDARD
 70
     4
 40
10.0
 41
1.0
 50
0.0
 71
     0
 42
10.0
  3
txt
  4
bigfont
  0
ENDTAB
  0
TABLE
  2
VIEW
  5
6
330
0
100
AcDbSymbolTable
 70
     0
  0
ENDTAB
  0
TABLE
  2
UCS
  5
7
330
0
100
AcDbSymbolTable
 70
     0
  0
ENDTAB
  0
TABLE
  2
APPID
  5
9
330
0
100
AcDbSymbolTable
 70
     2
  0
APPID
  5
12
330
9
100
AcDbSymbolTableRecord
100
AcDbRegAppTableRecord
  2
ACAD
 70
     0
  0
APPID
  5
3C
330
9
100
AcDbSymbolTableRecord
100
AcDbRegAppTableRecord
  2
ODA
 70
     0
  0
ENDTAB
  0
TABLE
  2
DIMSTYLE
  5
A
330
0
100
AcDbSymbolTable
 70
     1
100
AcDbDimStyleTable
  0
DIMSTYLE
105
27
102
{ACAD_REACTORS
330
376
330
38A
330
39E
330
3B2
330
3C6
330
3D8
330
3EC
330
400
330
414
330
427
330
43B
330
44F
330
463
330
477
330
4EA
330
4FD
102
}
330
A
100
AcDbSymbolTableRecord
100
AcDbDimStyleTableRecord
  2
Standard
 70
     0
340
11
  0
ENDTAB
  0
TABLE
  2
BLOCK_RECORD
  5
1
330
0
100
AcDbSymbolTable
 70
    29
  0
BLOCK_RECORD
  5
1F
330
1
100
AcDbSymbolTableRecord
100
AcDbBlockTableRecord
  2
*Model_Space
340
22
 70
     0
280
     1
281
     0
  0
BLOCK_RECORD
  5
1B
330
1
100
AcDbSymbolTableRecord
100
AcDbBlockTableRecord
  2
*Paper_Space
340
1E
 70
     0
280
     1
281
     0
  0
BLOCK_RECORD
  5
23
330
1
100
AcDbSymbolTableRecord
100
AcDbBlockTableRecord
  2
*Paper_Space0
340
26
 70
     0
280
     1
281
     0
  0
BLOCK_RECORD
  5
3E
330
1
100
AcDbSymbolTableRecord
100
AcDbBlockTableRecord
  2
_ORIGIN
340
0
 70
     0
280
     1
281
     0
  0
BLOCK_RECORD
  5
43
330
1
100
AcDbSymbolTableRecord
100
AcDbBlockTableRecord
  2
_DOTBLANK
340
0
 70
     0
280
     1
281
     0
  0
BLOCK_RECORD
  5
48
330
1
100
AcDbSymbolTableRecord
100
AcDbBlockTableRecord
  2
_DOT
340
0
 70
     0
280
     1
281
     0
  0
BLOCK_RECORD
  5
4D
330
1
100
AcDbSymbolTableRecord
100
AcDbBlockTableRecord
  2
_OPEN
340
0
 70
     0
280
     1
281
     0
  0
BLOCK_RECORD
  5
53
330
1
100
AcDbSymbolTableRecord
100
AcDbBlockTableRecord
  2
_CLOSED
340
0
 70
     0
280
     1
281
     0
  0
BLOCK_RECORD
  5
5A
330
1
100
AcDbSymbolTableRecord
100
AcDbBlockTableRecord
  2
_CLOSEDBLANK
340
0
 70
     0
280
     1
281
     0
  0
BLOCK_RECORD
  5
60
330
1
100
AcDbSymbolTableRecord
100
AcDbBlockTableRecord
  2
_BOXBLANK
340
0
 70
     0
280
     1
281
     0
  0
BLOCK_RECORD
  5
68
330
1
100
AcDbSymbolTableRecord
100
AcDbBlockTableRecord
  2
_BOXFILLED
340
0
 70
     0
280
     1
281
     0
  0
BLOCK_RECORD
  5
6D
330
1
100
AcDbSymbolTableRecord
100
AcDbBlockTableRecord
  2
_INTEGRAL
340
0
 70
     0
280
     1
281
     0
  0
BLOCK_RECORD
  5
72
330
1
100
AcDbSymbolTableRecord
100
AcDbBlockTableRecord
  2
_OBLIQUE
340
0
 70
     0
280
     1
281
     0
  0
BLOCK_RECORD
  5
76
330
1
100
AcDbSymbolTableRecord
100
AcDbBlockTableRecord
  2
_NONE
340
0
 70
     0
280
     1
281
     0
  0
BLOCK_RECORD
  5
363
330
1
100
AcDbSymbolTableRecord
100
AcDbBlockTableRecord
  2
Dim1
340
0
 70
     0
280
     1
281
     0
  0
BLOCK_RECORD
  5
377
330
1
100
AcDbSymbolTableRecord
100
AcDbBlockTableRecord
  2
Dim2
340
0
 70
     0
280
     1
281
     0
  0
BLOCK_RECORD
  5
38B
330
1
100
AcDbSymbolTableRecord
100
AcDbBlockTableRecord
  2
Dim3
340
0
 70
     0
280
     1
281
     0
  0
BLOCK_RECORD
  5
39F
330
1
100
AcDbSymbolTableRecord
100
AcDbBlockTableRecord
  2
Dim4
340
0
 70
     0
280
     1
281
     0
  0
BLOCK_RECORD
  5
3B3
330
1
100
AcDbSymbolTableRecord
100
AcDbBlockTableRecord
  2
Dim5
340
0
 70
     0
280
     1
281
     0
  0
BLOCK_RECORD
  5
3C7
330
1
100
AcDbSymbolTableRecord
100
AcDbBlockTableRecord
  2
Dim6
340
0
 70
     0
280
     1
281
     0
  0
BLOCK_RECORD
  5
3D9
330
1
100
AcDbSymbolTableRecord
100
AcDbBlockTableRecord
  2
Dim7
340
0
 70
     0
280
     1
281
     0
  0
BLOCK_RECORD
  5
3ED
330
1
100
AcDbSymbolTableRecord
100
AcDbBlockTableRecord
  2
Dim8
340
0
 70
     0
280
     1
281
     0
  0
BLOCK_RECORD
  5
401
330
1
100
AcDbSymbolTableRecord
100
AcDbBlockTableRecord
  2
Dim9
340
0
 70
     0
280
     1
281
     0
  0
BLOCK_RECORD
  5
415
330
1
100
AcDbSymbolTableRecord
100
AcDbBlockTableRecord
  2
Dim10
340
0
 70
     0
280
     1
281
     0
  0
BLOCK_RECORD
  5
428
330
1
100
AcDbSymbolTableRecord
100
AcDbBlockTableRecord
  2
Dim11
340
0
 70
     0
280
     1
281
     0
  0
BLOCK_RECORD
  5
43C
330
1
100
AcDbSymbolTableRecord
100
AcDbBlockTableRecord
  2
Dim12
340
0
 70
     0
280
     1
281
     0
  0
BLOCK_RECORD
  5
450
330
1
100
AcDbSymbolTableRecord
100
AcDbBlockTableRecord
  2
Dim13
340
0
 70
     0
280
     1
281
     0
  0
BLOCK_RECORD
  5
464
330
1
100
AcDbSymbolTableRecord
100
AcDbBlockTableRecord
  2
Dim14
340
0
 70
     0
280
     1
281
     0
  0
BLOCK_RECORD
  5
4B1
330
1
100
AcDbSymbolTableRecord
100
AcDbBlockTableRecord
  2
*G26
340
0
102
{BLKREFS
331
4D5
102
}
 70
     0
280
     1
281
     0
  0
BLOCK_RECORD
  5
4D7
330
1
100
AcDbSymbolTableRecord
100
AcDbBlockTableRecord
  2
Dim15
340
0
 70
     0
280
     1
281
     0
  0
BLOCK_RECORD
  5
4EB
330
1
100
AcDbSymbolTableRecord
100
AcDbBlockTableRecord
  2
Dim16
340
0
 70
     0
280
     1
281
     0
  0
ENDTAB
  0
ENDSEC
  0
SECTION
  2
BLOCKS
  0
BLOCK
  5
20
330
1F
100
AcDbEntity
  8
0
100
AcDbBlockBegin
  2
*Model_Space
 70
     0
 71
     0
 10
0.0
 20
0.0
 30
0.0
  3
*Model_Space
  1

  0
ENDBLK
  5
21
330
1F
100
AcDbEntity
  8
0
100
AcDbBlockEnd
  0
BLOCK
  5
1C
330
1B
100
AcDbEntity
 67
     1
  8
0
100
AcDbBlockBegin
  2
*Paper_Space
 70
     0
 71
     0
 10
0.0
 20
0.0
 30
0.0
  3
*Paper_Space
  1

  0
ENDBLK
  5
1D
330
1B
100
AcDbEntity
 67
     1
  8
0
100
AcDbBlockEnd
  0
BLOCK
  5
24
330
23
100
AcDbEntity
  8
0
100
AcDbBlockBegin
  2
*Paper_Space0
 70
     0
 71
     0
 10
0.0
 20
0.0
 30
0.0
  3
*Paper_Space0
  1

  0
ENDBLK
  5
25
330
23
100
AcDbEntity
  8
0
100
AcDbBlockEnd
  0
BLOCK
  5
41
330
3E
100
AcDbEntity
  8
0
100
AcDbBlockBegin
  2
_ORIGIN
 70
     0
 71
     0
 10
0.0
 20
0.0
 30
0.0
  3
_ORIGIN
  1

  0
CIRCLE
  5
3F
330
3E
100
AcDbEntity
  8
0
100
AcDbCircle
 10
0.0
 20
0.0
 30
0.0
 40
0.5
  0
LINE
  5
40
330
3E
100
AcDbEntity
  8
0
100
AcDbLine
 10
0.0
 20
0.0
 30
0.0
 11
-1.0
 21
0.0
 31
0.0
  0
ENDBLK
  5
42
330
3E
100
AcDbEntity
  8
0
100
AcDbBlockEnd
  0
BLOCK
  5
46
330
43
100
AcDbEntity
  8
0
100
AcDbBlockBegin
  2
_DOTBLANK
 70
     0
 71
     0
 10
0.0
 20
0.0
 30
0.0
  3
_DOTBLANK
  1

  0
CIRCLE
  5
44
330
43
100
AcDbEntity
  8
0
100
AcDbCircle
 10
0.0
 20
0.0
 30
0.0
 40
0.5
  0
LINE
  5
45
330
43
100
AcDbEntity
  8
0
100
AcDbLine
 10
-0.5
 20
0.0
 30
0.0
 11
-1.0
 21
0.0
 31
0.0
  0
ENDBLK
  5
47
330
43
100
AcDbEntity
  8
0
100
AcDbBlockEnd
  0
BLOCK
  5
4B
330
48
100
AcDbEntity
  8
0
100
AcDbBlockBegin
  2
_DOT
 70
     0
 71
     0
 10
0.0
 20
0.0
 30
0.0
  3
_DOT
  1

  0
LWPOLYLINE
  5
49
330
48
100
AcDbEntity
  8
0
100
AcDbPolyline
 90
        2
 70
     1
 43
0.5
 10
-0.25
 20
0.0
 42
1.0
 10
0.25
 20
0.0
 42
1.0
  0
LINE
  5
4A
330
48
100
AcDbEntity
  8
0
100
AcDbLine
 10
-0.5
 20
0.0
 30
0.0
 11
-1.0
 21
0.0
 31
0.0
  0
ENDBLK
  5
4C
330
48
100
AcDbEntity
  8
0
100
AcDbBlockEnd
  0
BLOCK
  5
51
330
4D
100
AcDbEntity
  8
0
100
AcDbBlockBegin
  2
_OPEN
 70
     0
 71
     0
 10
0.0
 20
0.0
 30
0.0
  3
_OPEN
  1

  0
LINE
  5
4E
330
4D
100
AcDbEntity
  8
0
100
AcDbLine
 10
-1.0
 20
0.1666666666666667
 30
0.0
 11
0.0
 21
0.0
 31
0.0
  0
LINE
  5
4F
330
4D
100
AcDbEntity
  8
0
100
AcDbLine
 10
-1.0
 20
-0.1666666666666667
 30
0.0
 11
0.0
 21
0.0
 31
0.0
  0
LINE
  5
50
330
4D
100
AcDbEntity
  8
0
100
AcDbLine
 10
0.0
 20
0.0
 30
0.0
 11
-1.0
 21
0.0
 31
0.0
  0
ENDBLK
  5
52
330
4D
100
AcDbEntity
  8
0
100
AcDbBlockEnd
  0
BLOCK
  5
58
330
53
100
AcDbEntity
  8
0
100
AcDbBlockBegin
  2
_CLOSED
 70
     0
 71
     0
 10
0.0
 20
0.0
 30
0.0
  3
_CLOSED
  1

  0
LINE
  5
54
330
53
100
AcDbEntity
  8
0
100
AcDbLine
 10
-1.0
 20
0.1666666666666667
 30
0.0
 11
0.0
 21
0.0
 31
0.0
  0
LINE
  5
55
330
53
100
AcDbEntity
  8
0
100
AcDbLine
 10
0.0
 20
0.0
 30
0.0
 11
-1.0
 21
-0.1666666666666667
 31
0.0
  0
LINE
  5
56
330
53
100
AcDbEntity
  8
0
100
AcDbLine
 10
-1.0
 20
0.1666666666666667
 30
0.0
 11
-1.0
 21
-0.1666666666666667
 31
0.0
  0
LINE
  5
57
330
53
100
AcDbEntity
  8
0
100
AcDbLine
 10
0.0
 20
0.0
 30
0.0
 11
-1.0
 21
0.0
 31
0.0
  0
ENDBLK
  5
59
330
53
100
AcDbEntity
  8
0
100
AcDbBlockEnd
  0
BLOCK
  5
5E
330
5A
100
AcDbEntity
  8
0
100
AcDbBlockBegin
  2
_CLOSEDBLANK
 70
     0
 71
     0
 10
0.0
 20
0.0
 30
0.0
  3
_CLOSEDBLANK
  1

  0
LINE
  5
5B
330
5A
100
AcDbEntity
  8
0
100
AcDbLine
 10
-1.0
 20
0.1666666666666667
 30
0.0
 11
0.0
 21
0.0
 31
0.0
  0
LINE
  5
5C
330
5A
100
AcDbEntity
  8
0
100
AcDbLine
 10
0.0
 20
0.0
 30
0.0
 11
-1.0
 21
-0.1666666666666667
 31
0.0
  0
LINE
  5
5D
330
5A
100
AcDbEntity
  8
0
100
AcDbLine
 10
-1.0
 20
0.1666666666666667
 30
0.0
 11
-1.0
 21
-0.1666666666666667
 31
0.0
  0
ENDBLK
  5
5F
330
5A
100
AcDbEntity
  8
0
100
AcDbBlockEnd
  0
BLOCK
  5
66
330
60
100
AcDbEntity
  8
0
100
AcDbBlockBegin
  2
_BOXBLANK
 70
     0
 71
     0
 10
0.0
 20
0.0
 30
0.0
  3
_BOXBLANK
  1

  0
LINE
  5
61
330
60
100
AcDbEntity
  8
0
100
AcDbLine
 10
-0.5
 20
-0.5
 30
0.0
 11
0.5
 21
-0.5
 31
0.0
  0
LINE
  5
62
330
60
100
AcDbEntity
  8
0
100
AcDbLine
 10
0.5
 20
-0.5
 30
0.0
 11
0.5
 21
0.5
 31
0.0
  0
LINE
  5
63
330
60
100
AcDbEntity
  8
0
100
AcDbLine
 10
0.5
 20
0.5
 30
0.0
 11
-0.5
 21
0.5
 31
0.0
  0
LINE
  5
64
330
60
100
AcDbEntity
  8
0
100
AcDbLine
 10
-0.5
 20
0.5
 30
0.0
 11
-0.5
 21
-0.5
 31
0.0
  0
LINE
  5
65
330
60
100
AcDbEntity
  8
0
100
AcDbLine
 10
-0.5
 20
0.0
 30
0.0
 11
-1.0
 21
0.0
 31
0.0
  0
ENDBLK
  5
67
330
60
100
AcDbEntity
  8
0
100
AcDbBlockEnd
  0
BLOCK
  5
6B
330
68
100
AcDbEntity
  8
0
100
AcDbBlockBegin
  2
_BOXFILLED
 70
     0
 71
     0
 10
0.0
 20
0.0
 30
0.0
  3
_BOXFILLED
  1

  0
SOLID
  5
69
330
68
100
AcDbEntity
  8
0
100
AcDbTrace
 10
-0.5
 20
0.5
 30
0.0
 11
0.5
 21
0.5
 31
0.0
 12
-0.5
 22
-0.5
 32
0.0
 13
0.5
 23
-0.5
 33
0.0
  0
LINE
  5
6A
330
68
100
AcDbEntity
  8
0
100
AcDbLine
 10
-0.5
 20
0.0
 30
0.0
 11
-1.0
 21
0.0
 31
0.0
  0
ENDBLK
  5
6C
330
68
100
AcDbEntity
  8
0
100
AcDbBlockEnd
  0
BLOCK
  5
70
330
6D
100
AcDbEntity
  8
0
100
AcDbBlockBegin
  2
_INTEGRAL
 70
     0
 71
     0
 10
0.0
 20
0.0
 30
0.0
  3
_INTEGRAL
  1

  0
ARC
  5
6E
330
6D
100
AcDbEntity
  8
0
100
AcDbCircle
 10
0.444888
 20
-0.0913346
 30
0.0
 40
0.4541666
100
AcDbArc
 50
84.16951033439696
 51
265.6909581978302
  0
ARC
  5
6F
330
6D
100
AcDbEntity
  8
0
100
AcDbCircle
 10
-0.444888
 20
0.0913346
 30
0.0
 40
0.4541666
100
AcDbArc
 50
317.4098226892151
 51
138.9312705526484
  0
ENDBLK
  5
71
330
6D
100
AcDbEntity
  8
0
100
AcDbBlockEnd
  0
BLOCK
  5
74
330
72
100
AcDbEntity
  8
0
100
AcDbBlockBegin
  2
_OBLIQUE
 70
     0
 71
     0
 10
0.0
 20
0.0
 30
0.0
  3
_OBLIQUE
  1

  0
LINE
  5
73
330
72
100
AcDbEntity
  8
0
100
AcDbLine
 10
-0.5
 20
-0.5
 30
0.0
 11
0.5
 21
0.5
 31
0.0
  0
ENDBLK
  5
75
330
72
100
AcDbEntity
  8
0
100
AcDbBlockEnd
  0
BLOCK
  5
77
330
76
100
AcDbEntity
  8
0
100
AcDbBlockBegin
  2
_NONE
 70
     0
 71
     0
 10
0.0
 20
0.0
 30
0.0
  3
_NONE
  1

  0
ENDBLK
  5
78
330
76
100
AcDbEntity
  8
0
100
AcDbBlockEnd
  0
BLOCK
  5
364
330
363
100
AcDbEntity
  8
0
100
AcDbBlockBegin
  2
Dim1
 70
     0
 71
     0
 10
0.0
 20
0.0
 30
0.0
  3
Dim1
  1

  0
LINE
  5
366
330
363
100
AcDbEntity
  8
1
  6
Continuous
 62
     7
370
     9
100
AcDbLine
 10
71.35153061224474
 20
53.19250259875214
 30
0.0
 11
361.3515306122447
 21
53.19250259875214
 31
0.0
  0
LINE
  5
367
330
363
100
AcDbEntity
  8
1
  6
Continuous
 62
     7
370
     9
100
AcDbLine
 10
71.35153061224474
 20
53.19250259875214
 30
0.0
 11
71.35153061224487
 21
70.53061224489784
 31
0.0
  0
LINE
  5
368
330
363
100
AcDbEntity
  8
1
  6
Continuous
 62
     7
370
     9
100
AcDbLine
 10
361.3515306122447
 20
53.19250259875214
 30
0.0
 11
361.3515306122449
 21
70.53061224489784
 31
0.0
  0
LINE
  5
369
330
363
100
AcDbEntity
  8
1
  6
Continuous
 62
     7
370
     9
100
AcDbLine
 10
71.35153061224474
 20
53.19250259875214
 30
0.0
 11
74.24930809111194
 21
53.9689597340597
 31
0.0
  0
LINE
  5
36A
330
363
100
AcDbEntity
  8
1
  6
Continuous
 62
     7
370
     9
100
AcDbLine
 10
71.35153061224474
 20
53.19250259875214
 30
0.0
 11
74.24930809111194
 21
52.41604546344458
 31
0.0
  0
LINE
  5
36B
330
363
100
AcDbEntity
  8
1
  6
Continuous
 62
     7
370
     9
100
AcDbLine
 10
74.24930809111194
 20
53.9689597340597
 30
0.0
 11
74.24930809111194
 21
52.41604546344458
 31
0.0
  0
LINE
  5
36C
330
363
100
AcDbEntity
  8
1
  6
Continuous
 62
     7
370
     9
100
AcDbLine
 10
72.07597498196155
 20
53.19250259875214
 30
0.0
 11
73.52486372139515
 21
53.58073116640593
 31
0.0
  0
LINE
  5
36D
330
363
100
AcDbEntity
  8
1
  6
Continuous
 62
     7
370
     9
100
AcDbLine
 10
72.07597498196155
 20
53.19250259875214
 30
0.0
 11
73.52486372139515
 21
52.80427403109836
 31
0.0
  0
LINE
  5
36E
330
363
100
AcDbEntity
  8
1
  6
Continuous
 62
     7
370
     9
100
AcDbLine
 10
73.52486372139515
 20
53.58073116640593
 30
0.0
 11
73.52486372139515
 21
52.80427403109836
 31
0.0
  0
LINE
  5
36F
330
363
100
AcDbEntity
  8
1
  6
Continuous
 62
     7
370
     9
100
AcDbLine
 10
361.3515306122447
 20
53.19250259875214
 30
0.0
 11
358.4537531333775
 21
52.41604546344459
 31
0.0
  0
LINE
  5
370
330
363
100
AcDbEntity
  8
1
  6
Continuous
 62
     7
370
     9
100
AcDbLine
 10
361.3515306122447
 20
53.19250259875214
 30
0.0
 11
358.4537531333775
 21
53.96895973405972
 31
0.0
  0
LINE
  5
371
330
363
100
AcDbEntity
  8
1
  6
Continuous
 62
     7
370
     9
100
AcDbLine
 10
358.4537531333775
 20
52.41604546344459
 30
0.0
 11
358.4537531333775
 21
53.96895973405972
 31
0.0
  0
LINE
  5
372
330
363
100
AcDbEntity
  8
1
  6
Continuous
 62
     7
370
     9
100
AcDbLine
 10
360.6270862425279
 20
53.19250259875214
 30
0.0
 11
359.1781975030943
 21
52.80427403109837
 31
0.0
  0
LINE
  5
373
330
363
100
AcDbEntity
  8
1
  6
Continuous
 62
     7
370
     9
100
AcDbLine
 10
360.6270862425279
 20
53.19250259875214
 30
0.0
 11
359.1781975030943
 21
53.58073116640593
 31
0.0
  0
LINE
  5
374
330
363
100
AcDbEntity
  8
1
  6
Continuous
 62
     7
370
     9
100
AcDbLine
 10
359.1781975030943
 20
52.80427403109837
 30
0.0
 11
359.1781975030943
 21
53.58073116640593
 31
0.0
  0
MTEXT
  5
375
330
363
100
AcDbEntity
  8
1
  6
Continuous
 62
     7
370
     9
100
AcDbMText
 10
216.3515306122447
 20
58.44250259875214
 30
0.0
 40
10.5
 41
0.0
 46
0.0
 71
     8
 72
     1
  1
290
 73
     1
 44
1.0
  0
ENDBLK
  5
365
330
363
100
AcDbEntity
  8
0
100
AcDbBlockEnd
  0
BLOCK
  5
378
330
377
100
AcDbEntity
  8
0
100
AcDbBlockBegin
  2
Dim2
 70
     0
 71
     0
 10
0.0
 20
0.0
 30
0.0
  3
Dim2
  1

  0
LINE
  5
37A
330
377
100
AcDbEntity
  8
1
  6
Continuous
 62
     7
370
     9
100
AcDbLine
 10
84.3515306122448
 20
166.419893451143
 30
0.0
 11
134.3515306122448
 21
166.419893451143
 31
0.0
  0
LINE
  5
37B
330
377
100
AcDbEntity
  8
1
  6
Continuous
 62
     7
370
     9
100
AcDbLine
 10
84.3515306122448
 20
166.419893451143
 30
0.0
 11
84.35153061224486
 21
172.4604339916835
 31
0.0
  0
LINE
  5
37C
330
377
100
AcDbEntity
  8
1
  6
Continuous
 62
     7
370
     9
100
AcDbLine
 10
134.3515306122448
 20
166.419893451143
 30
0.0
 11
134.3515306122449
 21
175.007471413721
 31
0.0
  0
LINE
  5
37D
330
377
100
AcDbEntity
  8
1
  6
Continuous
 62
     7
370
     9
100
AcDbLine
 10
84.3515306122448
 20
166.419893451143
 30
0.0
 11
87.249308091112
 21
167.1963505864505
 31
0.0
  0
LINE
  5
37E
330
377
100
AcDbEntity
  8
1
  6
Continuous
 62
     7
370
     9
100
AcDbLine
 10
84.3515306122448
 20
166.419893451143
 30
0.0
 11
87.249308091112
 21
165.6434363158354
 31
0.0
  0
LINE
  5
37F
330
377
100
AcDbEntity
  8
1
  6
Continuous
 62
     7
370
     9
100
AcDbLine
 10
87.249308091112
 20
167.1963505864505
 30
0.0
 11
87.249308091112
 21
165.6434363158354
 31
0.0
  0
LINE
  5
380
330
377
100
AcDbEntity
  8
1
  6
Continuous
 62
     7
370
     9
100
AcDbLine
 10
85.07597498196161
 20
166.419893451143
 30
0.0
 11
86.5248637213952
 21
166.8081220187968
 31
0.0
  0
LINE
  5
381
330
377
100
AcDbEntity
  8
1
  6
Continuous
 62
     7
370
     9
100
AcDbLine
 10
85.07597498196161
 20
166.419893451143
 30
0.0
 11
86.5248637213952
 21
166.0316648834892
 31
0.0
  0
LINE
  5
382
330
377
100
AcDbEntity
  8
1
  6
Continuous
 62
     7
370
     9
100
AcDbLine
 10
86.5248637213952
 20
166.8081220187968
 30
0.0
 11
86.5248637213952
 21
166.0316648834892
 31
0.0
  0
LINE
  5
383
330
377
100
AcDbEntity
  8
1
  6
Continuous
 62
     7
370
     9
100
AcDbLine
 10
134.3515306122448
 20
166.419893451143
 30
0.0
 11
131.4537531333776
 21
165.6434363158354
 31
0.0
  0
LINE
  5
384
330
377
100
AcDbEntity
  8
1
  6
Continuous
 62
     7
370
     9
100
AcDbLine
 10
134.3515306122448
 20
166.419893451143
 30
0.0
 11
131.4537531333776
 21
167.1963505864505
 31
0.0
  0
LINE
  5
385
330
377
100
AcDbEntity
  8
1
  6
Continuous
 62
     7
370
     9
100
AcDbLine
 10
131.4537531333776
 20
165.6434363158354
 30
0.0
 11
131.4537531333776
 21
167.1963505864505
 31
0.0
  0
LINE
  5
386
330
377
100
AcDbEntity
  8
1
  6
Continuous
 62
     7
370
     9
100
AcDbLine
 10
133.627086242528
 20
166.419893451143
 30
0.0
 11
132.1781975030944
 21
166.0316648834892
 31
0.0
  0
LINE
  5
387
330
377
100
AcDbEntity
  8
1
  6
Continuous
 62
     7
370
     9
100
AcDbLine
 10
133.627086242528
 20
166.419893451143
 30
0.0
 11
132.1781975030944
 21
166.8081220187968
 31
0.0
  0
LINE
  5
388
330
377
100
AcDbEntity
  8
1
  6
Continuous
 62
     7
370
     9
100
AcDbLine
 10
132.1781975030944
 20
166.0316648834892
 30
0.0
 11
132.1781975030944
 21
166.8081220187968
 31
0.0
  0
MTEXT
  5
389
330
377
100
AcDbEntity
  8
1
  6
Continuous
 62
     7
370
     9
100
AcDbMText
 10
109.3515306122448
 20
171.669893451143
 30
0.0
 40
10.5
 41
0.0
 46
0.0
 71
     8
 72
     1
  1
50
 73
     1
 44
1.0
  0
ENDBLK
  5
379
330
377
100
AcDbEntity
  8
0
100
AcDbBlockEnd
  0
BLOCK
  5
38C
330
38B
100
AcDbEntity
  8
0
100
AcDbBlockBegin
  2
Dim3
 70
     0
 71
     0
 10
0.0
 20
0.0
 30
0.0
  3
Dim3
  1

  0
LINE
  5
38E
330
38B
100
AcDbEntity
  8
1
  6
Continuous
 62
     7
370
     9
100
AcDbLine
 10
134.3515306122449
 20
166.419893451143
 30
0.0
 11
149.3515306122449
 21
166.419893451143
 31
0.0
  0
LINE
  5
38F
330
38B
100
AcDbEntity
  8
1
  6
Continuous
 62
     7
370
     9
100
AcDbLine
 10
134.3515306122449
 20
166.419893451143
 30
0.0
 11
134.3515306122449
 21
167.1348102910598
 31
0.0
  0
LINE
  5
390
330
38B
100
AcDbEntity
  8
1
  6
Continuous
 62
     7
370
     9
100
AcDbLine
 10
149.3515306122449
 20
166.419893451143
 30
0.0
 11
149.3515306122449
 21
167.0190358627854
 31
0.0
  0
LINE
  5
391
330
38B
100
AcDbEntity
  8
1
  6
Continuous
 62
     7
370
     9
100
AcDbLine
 10
134.3515306122449
 20
166.419893451143
 30
0.0
 11
137.2493080911121
 21
167.1963505864505
 31
0.0
  0
LINE
  5
392
330
38B
100
AcDbEntity
  8
1
  6
Continuous
 62
     7
370
     9
100
AcDbLine
 10
134.3515306122449
 20
166.419893451143
 30
0.0
 11
137.2493080911121
 21
165.6434363158354
 31
0.0
  0
LINE
  5
393
330
38B
100
AcDbEntity
  8
1
  6
Continuous
 62
     7
370
     9
100
AcDbLine
 10
137.2493080911121
 20
167.1963505864505
 30
0.0
 11
137.2493080911121
 21
165.6434363158354
 31
0.0
  0
LINE
  5
394
330
38B
100
AcDbEntity
  8
1
  6
Continuous
 62
     7
370
     9
100
AcDbLine
 10
135.0759749819617
 20
166.419893451143
 30
0.0
 11
136.5248637213953
 21
166.8081220187968
 31
0.0
  0
LINE
  5
395
330
38B
100
AcDbEntity
  8
1
  6
Continuous
 62
     7
370
     9
100
AcDbLine
 10
135.0759749819617
 20
166.419893451143
 30
0.0
 11
136.5248637213953
 21
166.0316648834892
 31
0.0
  0
LINE
  5
396
330
38B
100
AcDbEntity
  8
1
  6
Continuous
 62
     7
370
     9
100
AcDbLine
 10
136.5248637213953
 20
166.8081220187968
 30
0.0
 11
136.5248637213953
 21
166.0316648834892
 31
0.0
  0
LINE
  5
397
330
38B
100
AcDbEntity
  8
1
  6
Continuous
 62
     7
370
     9
100
AcDbLine
 10
149.3515306122449
 20
166.419893451143
 30
0.0
 11
146.4537531333777
 21
165.6434363158354
 31
0.0
  0
LINE
  5
398
330
38B
100
AcDbEntity
  8
1
  6
Continuous
 62
     7
370
     9
100
AcDbLine
 10
149.3515306122449
 20
166.419893451143
 30
0.0
 11
146.4537531333777
 21
167.1963505864505
 31
0.0
  0
LINE
  5
399
330
38B
100
AcDbEntity
  8
1
  6
Continuous
 62
     7
370
     9
100
AcDbLine
 10
146.4537531333777
 20
165.6434363158354
 30
0.0
 11
146.4537531333777
 21
167.1963505864505
 31
0.0
  0
LINE
  5
39A
330
38B
100
AcDbEntity
  8
1
  6
Continuous
 62
     7
370
     9
100
AcDbLine
 10
148.6270862425281
 20
166.419893451143
 30
0.0
 11
147.1781975030945
 21
166.0316648834892
 31
0.0
  0
LINE
  5
39B
330
38B
100
AcDbEntity
  8
1
  6
Continuous
 62
     7
370
     9
100
AcDbLine
 10
148.6270862425281
 20
166.419893451143
 30
0.0
 11
147.1781975030945
 21
166.8081220187968
 31
0.0
  0
LINE
  5
39C
330
38B
100
AcDbEntity
  8
1
  6
Continuous
 62
     7
370
     9
100
AcDbLine
 10
147.1781975030945
 20
166.0316648834892
 30
0.0
 11
147.1781975030945
 21
166.8081220187968
 31
0.0
  0
MTEXT
  5
39D
330
38B
100
AcDbEntity
  8
1
  6
Continuous
 62
     7
370
     9
100
AcDbMText
 10
141.8515306122449
 20
171.669893451143
 30
0.0
 40
10.5
 41
0.0
 46
0.0
 71
     8
 72
     1
  1
15
 73
     1
 44
1.0
  0
ENDBLK
  5
38D
330
38B
100
AcDbEntity
  8
0
100
AcDbBlockEnd
  0
BLOCK
  5
3A0
330
39F
100
AcDbEntity
  8
0
100
AcDbBlockBegin
  2
Dim4
 70
     0
 71
     0
 10
0.0
 20
0.0
 30
0.0
  3
Dim4
  1

  0
LINE
  5
3A2
330
39F
100
AcDbEntity
  8
1
  6
Continuous
 62
     7
370
     9
100
AcDbLine
 10
149.3515306122448
 20
166.419893451143
 30
0.0
 11
157.3515306122448
 21
166.419893451143
 31
0.0
  0
LINE
  5
3A3
330
39F
100
AcDbEntity
  8
1
  6
Continuous
 62
     7
370
     9
100
AcDbLine
 10
149.3515306122448
 20
166.419893451143
 30
0.0
 11
149.3515306122449
 21
169.9133965696461
 31
0.0
  0
LINE
  5
3A4
330
39F
100
AcDbEntity
  8
1
  6
Continuous
 62
     7
370
     9
100
AcDbLine
 10
157.3515306122448
 20
166.419893451143
 30
0.0
 11
157.3515306122449
 21
169.6818477130973
 31
0.0
  0
LINE
  5
3A5
330
39F
100
AcDbEntity
  8
1
  6
Continuous
 62
     7
370
     9
100
AcDbLine
 10
149.3515306122448
 20
166.419893451143
 30
0.0
 11
152.249308091112
 21
167.1963505864505
 31
0.0
  0
LINE
  5
3A6
330
39F
100
AcDbEntity
  8
1
  6
Continuous
 62
     7
370
     9
100
AcDbLine
 10
149.3515306122448
 20
166.419893451143
 30
0.0
 11
152.249308091112
 21
165.6434363158354
 31
0.0
  0
LINE
  5
3A7
330
39F
100
AcDbEntity
  8
1
  6
Continuous
 62
     7
370
     9
100
AcDbLine
 10
152.249308091112
 20
167.1963505864505
 30
0.0
 11
152.249308091112
 21
165.6434363158354
 31
0.0
  0
LINE
  5
3A8
330
39F
100
AcDbEntity
  8
1
  6
Continuous
 62
     7
370
     9
100
AcDbLine
 10
150.0759749819616
 20
166.419893451143
 30
0.0
 11
151.5248637213952
 21
166.8081220187968
 31
0.0
  0
LINE
  5
3A9
330
39F
100
AcDbEntity
  8
1
  6
Continuous
 62
     7
370
     9
100
AcDbLine
 10
150.0759749819616
 20
166.419893451143
 30
0.0
 11
151.5248637213952
 21
166.0316648834892
 31
0.0
  0
LINE
  5
3AA
330
39F
100
AcDbEntity
  8
1
  6
Continuous
 62
     7
370
     9
100
AcDbLine
 10
151.5248637213952
 20
166.8081220187968
 30
0.0
 11
151.5248637213952
 21
166.0316648834892
 31
0.0
  0
LINE
  5
3AB
330
39F
100
AcDbEntity
  8
1
  6
Continuous
 62
     7
370
     9
100
AcDbLine
 10
157.3515306122448
 20
166.419893451143
 30
0.0
 11
154.4537531333776
 21
165.6434363158354
 31
0.0
  0
LINE
  5
3AC
330
39F
100
AcDbEntity
  8
1
  6
Continuous
 62
     7
370
     9
100
AcDbLine
 10
157.3515306122448
 20
166.419893451143
 30
0.0
 11
154.4537531333776
 21
167.1963505864505
 31
0.0
  0
LINE
  5
3AD
330
39F
100
AcDbEntity
  8
1
  6
Continuous
 62
     7
370
     9
100
AcDbLine
 10
154.4537531333776
 20
165.6434363158354
 30
0.0
 11
154.4537531333776
 21
167.1963505864505
 31
0.0
  0
LINE
  5
3AE
330
39F
100
AcDbEntity
  8
1
  6
Continuous
 62
     7
370
     9
100
AcDbLine
 10
156.627086242528
 20
166.419893451143
 30
0.0
 11
155.1781975030944
 21
166.0316648834892
 31
0.0
  0
LINE
  5
3AF
330
39F
100
AcDbEntity
  8
1
  6
Continuous
 62
     7
370
     9
100
AcDbLine
 10
156.627086242528
 20
166.419893451143
 30
0.0
 11
155.1781975030944
 21
166.8081220187968
 31
0.0
  0
LINE
  5
3B0
330
39F
100
AcDbEntity
  8
1
  6
Continuous
 62
     7
370
     9
100
AcDbLine
 10
155.1781975030944
 20
166.0316648834892
 30
0.0
 11
155.1781975030944
 21
166.8081220187968
 31
0.0
  0
MTEXT
  5
3B1
330
39F
100
AcDbEntity
  8
1
  6
Continuous
 62
     7
370
     9
100
AcDbMText
 10
153.3515306122449
 20
171.669893451143
 30
0.0
 40
10.5
 41
0.0
 46
0.0
 71
     8
 72
     1
  1
8
 73
     1
 44
1.0
  0
ENDBLK
  5
3A1
330
39F
100
AcDbEntity
  8
0
100
AcDbBlockEnd
  0
BLOCK
  5
3B4
330
3B3
100
AcDbEntity
  8
0
100
AcDbBlockBegin
  2
Dim5
 70
     0
 71
     0
 10
0.0
 20
0.0
 30
0.0
  3
Dim5
  1

  0
LINE
  5
3B6
330
3B3
100
AcDbEntity
  8
1
  6
Continuous
 62
     7
370
     9
100
AcDbLine
 10
228.3515306122449
 20
94.52397349272294
 30
0.0
 11
248.3515306122449
 21
94.52397349272294
 31
0.0
  0
LINE
  5
3B7
330
3B3
100
AcDbEntity
  8
1
  6
Continuous
 62
     7
370
     9
100
AcDbLine
 10
228.3515306122449
 20
94.52397349272294
 30
0.0
 11
228.3515306122449
 21
98.53061224489784
 31
0.0
  0
LINE
  5
3B8
330
3B3
100
AcDbEntity
  8
1
  6
Continuous
 62
     7
370
     9
100
AcDbLine
 10
248.3515306122449
 20
94.52397349272294
 30
0.0
 11
248.3515306122449
 21
98.53061224489784
 31
0.0
  0
LINE
  5
3B9
330
3B3
100
AcDbEntity
  8
1
  6
Continuous
 62
     7
370
     9
100
AcDbLine
 10
228.3515306122449
 20
94.52397349272294
 30
0.0
 11
231.2493080911121
 21
95.30043062803051
 31
0.0
  0
LINE
  5
3BA
330
3B3
100
AcDbEntity
  8
1
  6
Continuous
 62
     7
370
     9
100
AcDbLine
 10
228.3515306122449
 20
94.52397349272294
 30
0.0
 11
231.2493080911121
 21
93.74751635741538
 31
0.0
  0
LINE
  5
3BB
330
3B3
100
AcDbEntity
  8
1
  6
Continuous
 62
     7
370
     9
100
AcDbLine
 10
231.2493080911121
 20
95.30043062803051
 30
0.0
 11
231.2493080911121
 21
93.74751635741538
 31
0.0
  0
LINE
  5
3BC
330
3B3
100
AcDbEntity
  8
1
  6
Continuous
 62
     7
370
     9
100
AcDbLine
 10
229.0759749819617
 20
94.52397349272294
 30
0.0
 11
230.5248637213953
 21
94.91220206037673
 31
0.0
  0
LINE
  5
3BD
330
3B3
100
AcDbEntity
  8
1
  6
Continuous
 62
     7
370
     9
100
AcDbLine
 10
229.0759749819617
 20
94.52397349272294
 30
0.0
 11
230.5248637213953
 21
94.13574492506916
 31
0.0
  0
LINE
  5
3BE
330
3B3
100
AcDbEntity
  8
1
  6
Continuous
 62
     7
370
     9
100
AcDbLine
 10
230.5248637213953
 20
94.91220206037673
 30
0.0
 11
230.5248637213953
 21
94.13574492506916
 31
0.0
  0
LINE
  5
3BF
330
3B3
100
AcDbEntity
  8
1
  6
Continuous
 62
     7
370
     9
100
AcDbLine
 10
248.3515306122449
 20
94.52397349272294
 30
0.0
 11
245.4537531333777
 21
93.74751635741539
 31
0.0
  0
LINE
  5
3C0
330
3B3
100
AcDbEntity
  8
1
  6
Continuous
 62
     7
370
     9
100
AcDbLine
 10
248.3515306122449
 20
94.52397349272294
 30
0.0
 11
245.4537531333777
 21
95.30043062803051
 31
0.0
  0
LINE
  5
3C1
330
3B3
100
AcDbEntity
  8
1
  6
Continuous
 62
     7
370
     9
100
AcDbLine
 10
245.4537531333777
 20
93.74751635741539
 30
0.0
 11
245.4537531333777
 21
95.30043062803051
 31
0.0
  0
LINE
  5
3C2
330
3B3
100
AcDbEntity
  8
1
  6
Continuous
 62
     7
370
     9
100
AcDbLine
 10
247.6270862425281
 20
94.52397349272294
 30
0.0
 11
246.1781975030945
 21
94.13574492506918
 31
0.0
  0
LINE
  5
3C3
330
3B3
100
AcDbEntity
  8
1
  6
Continuous
 62
     7
370
     9
100
AcDbLine
 10
247.6270862425281
 20
94.52397349272294
 30
0.0
 11
246.1781975030945
 21
94.91220206037673
 31
0.0
  0
LINE
  5
3C4
330
3B3
100
AcDbEntity
  8
1
  6
Continuous
 62
     7
370
     9
100
AcDbLine
 10
246.1781975030945
 20
94.13574492506918
 30
0.0
 11
246.1781975030945
 21
94.91220206037673
 31
0.0
  0
MTEXT
  5
3C5
330
3B3
100
AcDbEntity
  8
1
  6
Continuous
 62
     7
370
     9
100
AcDbMText
 10
238.5054573804575
 20
89.27397349272294
 30
0.0
 40
10.5
 41
0.0
 46
0.0
 71
     8
 72
     1
  1
20φ
 73
     1
 44
1.0
  0
ENDBLK
  5
3B5
330
3B3
100
AcDbEntity
  8
0
100
AcDbBlockEnd
  0
BLOCK
  5
3C8
330
3C7
100
AcDbEntity
  8
0
100
AcDbBlockBegin
  2
Dim6
 70
     0
 71
     0
 10
0.0
 20
0.0
 30
0.0
  3
Dim6
  1

  0
LINE
  5
3CA
330
3C7
100
AcDbEntity
  8
1
  6
Continuous
 62
     7
370
     9
100
AcDbLine
 10
154.2160735407815
 20
429.4504040392347
 30
0.0
 11
189.2160735407815
 21
429.4504040392347
 31
0.0
  0
LINE
  5
3CB
330
3C7
100
AcDbEntity
  8
1
  6
Continuous
 62
     7
370
     9
100
AcDbLine
 10
154.2160735407815
 20
429.4504040392347
 30
0.0
 11
157.1138510196487
 21
430.2268611745423
 31
0.0
  0
LINE
  5
3CC
330
3C7
100
AcDbEntity
  8
1
  6
Continuous
 62
     7
370
     9
100
AcDbLine
 10
154.2160735407815
 20
429.4504040392347
 30
0.0
 11
157.1138510196487
 21
428.6739469039272
 31
0.0
  0
LINE
  5
3CD
330
3C7
100
AcDbEntity
  8
1
  6
Continuous
 62
     7
370
     9
100
AcDbLine
 10
157.1138510196487
 20
430.2268611745423
 30
0.0
 11
157.1138510196487
 21
428.6739469039272
 31
0.0
  0
LINE
  5
3CE
330
3C7
100
AcDbEntity
  8
1
  6
Continuous
 62
     7
370
     9
100
AcDbLine
 10
154.9405179104983
 20
429.4504040392347
 30
0.0
 11
156.3894066499319
 21
429.8386326068885
 31
0.0
  0
LINE
  5
3CF
330
3C7
100
AcDbEntity
  8
1
  6
Continuous
 62
     7
370
     9
100
AcDbLine
 10
154.9405179104983
 20
429.4504040392347
 30
0.0
 11
156.3894066499319
 21
429.062175471581
 31
0.0
  0
LINE
  5
3D0
330
3C7
100
AcDbEntity
  8
1
  6
Continuous
 62
     7
370
     9
100
AcDbLine
 10
156.3894066499319
 20
429.8386326068885
 30
0.0
 11
156.3894066499319
 21
429.062175471581
 31
0.0
  0
LINE
  5
3D1
330
3C7
100
AcDbEntity
  8
1
  6
Continuous
 62
     7
370
     9
100
AcDbLine
 10
189.2160735407815
 20
429.4504040392347
 30
0.0
 11
186.3182960619143
 21
428.6739469039272
 31
0.0
  0
LINE
  5
3D2
330
3C7
100
AcDbEntity
  8
1
  6
Continuous
 62
     7
370
     9
100
AcDbLine
 10
189.2160735407815
 20
429.4504040392347
 30
0.0
 11
186.3182960619143
 21
430.2268611745423
 31
0.0
  0
LINE
  5
3D3
330
3C7
100
AcDbEntity
  8
1
  6
Continuous
 62
     7
370
     9
100
AcDbLine
 10
186.3182960619143
 20
428.6739469039272
 30
0.0
 11
186.3182960619143
 21
430.2268611745423
 31
0.0
  0
LINE
  5
3D4
330
3C7
100
AcDbEntity
  8
1
  6
Continuous
 62
     7
370
     9
100
AcDbLine
 10
188.4916291710647
 20
429.4504040392347
 30
0.0
 11
187.0427404316311
 21
429.062175471581
 31
0.0
  0
LINE
  5
3D5
330
3C7
100
AcDbEntity
  8
1
  6
Continuous
 62
     7
370
     9
100
AcDbLine
 10
188.4916291710647
 20
429.4504040392347
 30
0.0
 11
187.0427404316311
 21
429.8386326068886
 31
0.0
  0
LINE
  5
3D6
330
3C7
100
AcDbEntity
  8
1
  6
Continuous
 62
     7
370
     9
100
AcDbLine
 10
187.0427404316311
 20
429.062175471581
 30
0.0
 11
187.0427404316311
 21
429.8386326068886
 31
0.0
  0
MTEXT
  5
3D7
330
3C7
100
AcDbEntity
  8
1
  6
Continuous
 62
     7
370
     9
100
AcDbMText
 10
171.7160737164966
 20
434.7004040392347
 30
0.0
 40
10.5
 41
0.0
 46
0.0
 71
     8
 72
     1
  1
35φ
 73
     1
 44
1.0
  0
ENDBLK
  5
3C9
330
3C7
100
AcDbEntity
  8
0
100
AcDbBlockEnd
  0
BLOCK
  5
3DA
330
3D9
100
AcDbEntity
  8
0
100
AcDbBlockBegin
  2
Dim7
 70
     0
 71
     0
 10
0.0
 20
0.0
 30
0.0
  3
Dim7
  1

  0
LINE
  5
3DC
330
3D9
100
AcDbEntity
  8
1
  6
Continuous
 62
     7
370
     9
100
AcDbLine
 10
165.7160737164965
 20
375.1467158264028
 30
0.0
 11
177.7160737164965
 21
375.1467158264028
 31
0.0
  0
LINE
  5
3DD
330
3D9
100
AcDbEntity
  8
1
  6
Continuous
 62
     7
370
     9
100
AcDbLine
 10
165.7160737164965
 20
375.1467158264028
 30
0.0
 11
165.7160737164965
 21
384.3131659303529
 31
0.0
  0
LINE
  5
3DE
330
3D9
100
AcDbEntity
  8
1
  6
Continuous
 62
     7
370
     9
100
AcDbLine
 10
177.7160737164965
 20
375.1467158264028
 30
0.0
 11
177.7160737164965
 21
384.5447147869017
 31
0.0
  0
LINE
  5
3DF
330
3D9
100
AcDbEntity
  8
1
  6
Continuous
 62
     7
370
     9
100
AcDbLine
 10
165.7160737164965
 20
375.1467158264028
 30
0.0
 11
168.6138511953637
 21
375.9231729617103
 31
0.0
  0
LINE
  5
3E0
330
3D9
100
AcDbEntity
  8
1
  6
Continuous
 62
     7
370
     9
100
AcDbLine
 10
165.7160737164965
 20
375.1467158264028
 30
0.0
 11
168.6138511953637
 21
374.3702586910952
 31
0.0
  0
LINE
  5
3E1
330
3D9
100
AcDbEntity
  8
1
  6
Continuous
 62
     7
370
     9
100
AcDbLine
 10
168.6138511953637
 20
375.9231729617103
 30
0.0
 11
168.6138511953637
 21
374.3702586910952
 31
0.0
  0
LINE
  5
3E2
330
3D9
100
AcDbEntity
  8
1
  6
Continuous
 62
     7
370
     9
100
AcDbLine
 10
166.4405180862133
 20
375.1467158264028
 30
0.0
 11
167.8894068256469
 21
375.5349443940565
 31
0.0
  0
LINE
  5
3E3
330
3D9
100
AcDbEntity
  8
1
  6
Continuous
 62
     7
370
     9
100
AcDbLine
 10
166.4405180862133
 20
375.1467158264028
 30
0.0
 11
167.8894068256469
 21
374.758487258749
 31
0.0
  0
LINE
  5
3E4
330
3D9
100
AcDbEntity
  8
1
  6
Continuous
 62
     7
370
     9
100
AcDbLine
 10
167.8894068256469
 20
375.5349443940565
 30
0.0
 11
167.8894068256469
 21
374.758487258749
 31
0.0
  0
LINE
  5
3E5
330
3D9
100
AcDbEntity
  8
1
  6
Continuous
 62
     7
370
     9
100
AcDbLine
 10
177.7160737164965
 20
375.1467158264028
 30
0.0
 11
174.8182962376293
 21
374.3702586910952
 31
0.0
  0
LINE
  5
3E6
330
3D9
100
AcDbEntity
  8
1
  6
Continuous
 62
     7
370
     9
100
AcDbLine
 10
177.7160737164965
 20
375.1467158264028
 30
0.0
 11
174.8182962376293
 21
375.9231729617103
 31
0.0
  0
LINE
  5
3E7
330
3D9
100
AcDbEntity
  8
1
  6
Continuous
 62
     7
370
     9
100
AcDbLine
 10
174.8182962376293
 20
374.3702586910952
 30
0.0
 11
174.8182962376293
 21
375.9231729617103
 31
0.0
  0
LINE
  5
3E8
330
3D9
100
AcDbEntity
  8
1
  6
Continuous
 62
     7
370
     9
100
AcDbLine
 10
176.9916293467797
 20
375.1467158264028
 30
0.0
 11
175.5427406073461
 21
374.758487258749
 31
0.0
  0
LINE
  5
3E9
330
3D9
100
AcDbEntity
  8
1
  6
Continuous
 62
     7
370
     9
100
AcDbLine
 10
176.9916293467797
 20
375.1467158264028
 30
0.0
 11
175.5427406073461
 21
375.5349443940566
 31
0.0
  0
LINE
  5
3EA
330
3D9
100
AcDbEntity
  8
1
  6
Continuous
 62
     7
370
     9
100
AcDbLine
 10
175.5427406073461
 20
374.758487258749
 30
0.0
 11
175.5427406073461
 21
375.5349443940566
 31
0.0
  0
MTEXT
  5
3EB
330
3D9
100
AcDbEntity
  8
1
  6
Continuous
 62
     7
370
     9
100
AcDbMText
 10
171.7160737164965
 20
378.1467158264028
 30
0.0
 40
6.0
 41
0.0
 46
0.0
 71
     8
 72
     1
  1
12φ
 73
     1
 44
1.0
  0
ENDBLK
  5
3DB
330
3D9
100
AcDbEntity
  8
0
100
AcDbBlockEnd
  0
BLOCK
  5
3EE
330
3ED
100
AcDbEntity
  8
0
100
AcDbBlockBegin
  2
Dim8
 70
     0
 71
     0
 10
0.0
 20
0.0
 30
0.0
  3
Dim8
  1

  0
LINE
  5
3F0
330
3ED
100
AcDbEntity
  8
1
  6
Continuous
 62
     7
370
     9
100
AcDbLine
 10
157.3515306122449
 20
193.2361454002101
 30
0.0
 11
238.3515306122449
 21
193.2361454002101
 31
0.0
  0
LINE
  5
3F1
330
3ED
100
AcDbEntity
  8
1
  6
Continuous
 62
     7
370
     9
100
AcDbLine
 10
157.3515306122449
 20
193.2361454002101
 30
0.0
 11
157.3515306122449
 21
196.5306122448978
 31
0.0
  0
LINE
  5
3F2
330
3ED
100
AcDbEntity
  8
1
  6
Continuous
 62
     7
370
     9
100
AcDbLine
 10
238.3515306122449
 20
193.2361454002101
 30
0.0
 11
238.3515306122449
 21
196.5306122448978
 31
0.0
  0
LINE
  5
3F3
330
3ED
100
AcDbEntity
  8
1
  6
Continuous
 62
     7
370
     9
100
AcDbLine
 10
157.3515306122449
 20
193.2361454002101
 30
0.0
 11
160.2493080911121
 21
194.0126025355177
 31
0.0
  0
LINE
  5
3F4
330
3ED
100
AcDbEntity
  8
1
  6
Continuous
 62
     7
370
     9
100
AcDbLine
 10
157.3515306122449
 20
193.2361454002101
 30
0.0
 11
160.2493080911121
 21
192.4596882649025
 31
0.0
  0
LINE
  5
3F5
330
3ED
100
AcDbEntity
  8
1
  6
Continuous
 62
     7
370
     9
100
AcDbLine
 10
160.2493080911121
 20
194.0126025355177
 30
0.0
 11
160.2493080911121
 21
192.4596882649025
 31
0.0
  0
LINE
  5
3F6
330
3ED
100
AcDbEntity
  8
1
  6
Continuous
 62
     7
370
     9
100
AcDbLine
 10
158.0759749819617
 20
193.2361454002101
 30
0.0
 11
159.5248637213953
 21
193.6243739678639
 31
0.0
  0
LINE
  5
3F7
330
3ED
100
AcDbEntity
  8
1
  6
Continuous
 62
     7
370
     9
100
AcDbLine
 10
158.0759749819617
 20
193.2361454002101
 30
0.0
 11
159.5248637213953
 21
192.8479168325563
 31
0.0
  0
LINE
  5
3F8
330
3ED
100
AcDbEntity
  8
1
  6
Continuous
 62
     7
370
     9
100
AcDbLine
 10
159.5248637213953
 20
193.6243739678639
 30
0.0
 11
159.5248637213953
 21
192.8479168325563
 31
0.0
  0
LINE
  5
3F9
330
3ED
100
AcDbEntity
  8
1
  6
Continuous
 62
     7
370
     9
100
AcDbLine
 10
238.3515306122449
 20
193.2361454002101
 30
0.0
 11
235.4537531333777
 21
192.4596882649026
 31
0.0
  0
LINE
  5
3FA
330
3ED
100
AcDbEntity
  8
1
  6
Continuous
 62
     7
370
     9
100
AcDbLine
 10
238.3515306122449
 20
193.2361454002101
 30
0.0
 11
235.4537531333777
 21
194.0126025355177
 31
0.0
  0
LINE
  5
3FB
330
3ED
100
AcDbEntity
  8
1
  6
Continuous
 62
     7
370
     9
100
AcDbLine
 10
235.4537531333777
 20
192.4596882649026
 30
0.0
 11
235.4537531333777
 21
194.0126025355177
 31
0.0
  0
LINE
  5
3FC
330
3ED
100
AcDbEntity
  8
1
  6
Continuous
 62
     7
370
     9
100
AcDbLine
 10
237.6270862425281
 20
193.2361454002101
 30
0.0
 11
236.1781975030945
 21
192.8479168325563
 31
0.0
  0
LINE
  5
3FD
330
3ED
100
AcDbEntity
  8
1
  6
Continuous
 62
     7
370
     9
100
AcDbLine
 10
237.6270862425281
 20
193.2361454002101
 30
0.0
 11
236.1781975030945
 21
193.6243739678639
 31
0.0
  0
LINE
  5
3FE
330
3ED
100
AcDbEntity
  8
1
  6
Continuous
 62
     7
370
     9
100
AcDbLine
 10
236.1781975030945
 20
192.8479168325563
 30
0.0
 11
236.1781975030945
 21
193.6243739678639
 31
0.0
  0
MTEXT
  5
3FF
330
3ED
100
AcDbEntity
  8
1
  6
Continuous
 62
     7
370
     9
100
AcDbMText
 10
197.8515306122449
 20
198.4861454002101
 30
0.0
 40
10.5
 41
0.0
 46
0.0
 71
     8
 72
     1
  1
81
 73
     1
 44
1.0
  0
ENDBLK
  5
3EF
330
3ED
100
AcDbEntity
  8
0
100
AcDbBlockEnd
  0
BLOCK
  5
402
330
401
100
AcDbEntity
  8
0
100
AcDbBlockBegin
  2
Dim9
 70
     0
 71
     0
 10
0.0
 20
0.0
 30
0.0
  3
Dim9
  1

  0
LINE
  5
404
330
401
100
AcDbEntity
  8
1
  6
Continuous
 62
     7
370
     9
100
AcDbLine
 10
615.25
 20
50.89148583680129
 30
0.0
 11
665.25
 21
50.89148583680129
 31
0.0
  0
LINE
  5
405
330
401
100
AcDbEntity
  8
1
  6
Continuous
 62
     7
370
     9
100
AcDbLine
 10
615.25
 20
50.89148583680129
 30
0.0
 11
615.25
 21
74.53061224489784
 31
0.0
  0
LINE
  5
406
330
401
100
AcDbEntity
  8
1
  6
Continuous
 62
     7
370
     9
100
AcDbLine
 10
665.25
 20
50.89148583680129
 30
0.0
 11
665.25
 21
74.53061224489784
 31
0.0
  0
LINE
  5
407
330
401
100
AcDbEntity
  8
1
  6
Continuous
 62
     7
370
     9
100
AcDbLine
 10
615.25
 20
50.89148583680129
 30
0.0
 11
618.1477774788672
 21
51.66794297210885
 31
0.0
  0
LINE
  5
408
330
401
100
AcDbEntity
  8
1
  6
Continuous
 62
     7
370
     9
100
AcDbLine
 10
615.25
 20
50.89148583680129
 30
0.0
 11
618.1477774788672
 21
50.11502870149373
 31
0.0
  0
LINE
  5
409
330
401
100
AcDbEntity
  8
1
  6
Continuous
 62
     7
370
     9
100
AcDbLine
 10
618.1477774788672
 20
51.66794297210885
 30
0.0
 11
618.1477774788672
 21
50.11502870149373
 31
0.0
  0
LINE
  5
40A
330
401
100
AcDbEntity
  8
1
  6
Continuous
 62
     7
370
     9
100
AcDbLine
 10
615.9744443697168
 20
50.89148583680129
 30
0.0
 11
617.4233331091505
 21
51.27971440445507
 31
0.0
  0
LINE
  5
40B
330
401
100
AcDbEntity
  8
1
  6
Continuous
 62
     7
370
     9
100
AcDbLine
 10
615.9744443697168
 20
50.89148583680129
 30
0.0
 11
617.4233331091505
 21
50.5032572691475
 31
0.0
  0
LINE
  5
40C
330
401
100
AcDbEntity
  8
1
  6
Continuous
 62
     7
370
     9
100
AcDbLine
 10
617.4233331091505
 20
51.27971440445507
 30
0.0
 11
617.4233331091505
 21
50.5032572691475
 31
0.0
  0
LINE
  5
40D
330
401
100
AcDbEntity
  8
1
  6
Continuous
 62
     7
370
     9
100
AcDbLine
 10
665.25
 20
50.89148583680129
 30
0.0
 11
662.3522225211328
 21
50.11502870149373
 31
0.0
  0
LINE
  5
40E
330
401
100
AcDbEntity
  8
1
  6
Continuous
 62
     7
370
     9
100
AcDbLine
 10
665.25
 20
50.89148583680129
 30
0.0
 11
662.3522225211328
 21
51.66794297210886
 31
0.0
  0
LINE
  5
40F
330
401
100
AcDbEntity
  8
1
  6
Continuous
 62
     7
370
     9
100
AcDbLine
 10
662.3522225211328
 20
50.11502870149373
 30
0.0
 11
662.3522225211328
 21
51.66794297210886
 31
0.0
  0
LINE
  5
410
330
401
100
AcDbEntity
  8
1
  6
Continuous
 62
     7
370
     9
100
AcDbLine
 10
664.5255556302832
 20
50.89148583680129
 30
0.0
 11
663.0766668908495
 21
50.50325726914751
 31
0.0
  0
LINE
  5
411
330
401
100
AcDbEntity
  8
1
  6
Continuous
 62
     7
370
     9
100
AcDbLine
 10
664.5255556302832
 20
50.89148583680129
 30
0.0
 11
663.0766668908495
 21
51.27971440445507
 31
0.0
  0
LINE
  5
412
330
401
100
AcDbEntity
  8
1
  6
Continuous
 62
     7
370
     9
100
AcDbLine
 10
663.0766668908495
 20
50.50325726914751
 30
0.0
 11
663.0766668908495
 21
51.27971440445507
 31
0.0
  0
MTEXT
  5
413
330
401
100
AcDbEntity
  8
1
  6
Continuous
 62
     7
370
     9
100
AcDbMText
 10
640.25
 20
56.14148583680129
 30
0.0
 40
10.5
 41
0.0
 46
0.0
 71
     8
 72
     1
  1
50
 73
     1
 44
1.0
  0
ENDBLK
  5
403
330
401
100
AcDbEntity
  8
0
100
AcDbBlockEnd
  0
BLOCK
  5
416
330
415
100
AcDbEntity
  8
0
100
AcDbBlockBegin
  2
Dim10
 70
     0
 71
     0
 10
0.0
 20
0.0
 30
0.0
  3
Dim10
  1

  0
LINE
  5
418
330
415
100
AcDbEntity
  8
1
  6
Continuous
 62
     7
370
     9
100
AcDbLine
 10
665.25
 20
50.89148583680129
 30
0.0
 11
715.25
 21
50.89148583680129
 31
0.0
  0
LINE
  5
419
330
415
100
AcDbEntity
  8
1
  6
Continuous
 62
     7
370
     9
100
AcDbLine
 10
715.25
 20
50.89148583680129
 30
0.0
 11
715.25
 21
74.53061224489784
 31
0.0
  0
LINE
  5
41A
330
415
100
AcDbEntity
  8
1
  6
Continuous
 62
     7
370
     9
100
AcDbLine
 10
665.25
 20
50.89148583680129
 30
0.0
 11
668.1477774788672
 21
51.66794297210885
 31
0.0
  0
LINE
  5
41B
330
415
100
AcDbEntity
  8
1
  6
Continuous
 62
     7
370
     9
100
AcDbLine
 10
665.25
 20
50.89148583680129
 30
0.0
 11
668.1477774788672
 21
50.11502870149373
 31
0.0
  0
LINE
  5
41C
330
415
100
AcDbEntity
  8
1
  6
Continuous
 62
     7
370
     9
100
AcDbLine
 10
668.1477774788672
 20
51.66794297210885
 30
0.0
 11
668.1477774788672
 21
50.11502870149373
 31
0.0
  0
LINE
  5
41D
330
415
100
AcDbEntity
  8
1
  6
Continuous
 62
     7
370
     9
100
AcDbLine
 10
665.9744443697168
 20
50.89148583680129
 30
0.0
 11
667.4233331091505
 21
51.27971440445507
 31
0.0
  0
LINE
  5
41E
330
415
100
AcDbEntity
  8
1
  6
Continuous
 62
     7
370
     9
100
AcDbLine
 10
665.9744443697168
 20
50.89148583680129
 30
0.0
 11
667.4233331091505
 21
50.5032572691475
 31
0.0
  0
LINE
  5
41F
330
415
100
AcDbEntity
  8
1
  6
Continuous
 62
     7
370
     9
100
AcDbLine
 10
667.4233331091505
 20
51.27971440445507
 30
0.0
 11
667.4233331091505
 21
50.5032572691475
 31
0.0
  0
LINE
  5
420
330
415
100
AcDbEntity
  8
1
  6
Continuous
 62
     7
370
     9
100
AcDbLine
 10
715.25
 20
50.89148583680129
 30
0.0
 11
712.3522225211328
 21
50.11502870149373
 31
0.0
  0
LINE
  5
421
330
415
100
AcDbEntity
  8
1
  6
Continuous
 62
     7
370
     9
100
AcDbLine
 10
715.25
 20
50.89148583680129
 30
0.0
 11
712.3522225211328
 21
51.66794297210886
 31
0.0
  0
LINE
  5
422
330
415
100
AcDbEntity
  8
1
  6
Continuous
 62
     7
370
     9
100
AcDbLine
 10
712.3522225211328
 20
50.11502870149373
 30
0.0
 11
712.3522225211328
 21
51.66794297210886
 31
0.0
  0
LINE
  5
423
330
415
100
AcDbEntity
  8
1
  6
Continuous
 62
     7
370
     9
100
AcDbLine
 10
714.5255556302832
 20
50.89148583680129
 30
0.0
 11
713.0766668908495
 21
50.50325726914751
 31
0.0
  0
LINE
  5
424
330
415
100
AcDbEntity
  8
1
  6
Continuous
 62
     7
370
     9
100
AcDbLine
 10
714.5255556302832
 20
50.89148583680129
 30
0.0
 11
713.0766668908495
 21
51.27971440445507
 31
0.0
  0
LINE
  5
425
330
415
100
AcDbEntity
  8
1
  6
Continuous
 62
     7
370
     9
100
AcDbLine
 10
713.0766668908495
 20
50.50325726914751
 30
0.0
 11
713.0766668908495
 21
51.27971440445507
 31
0.0
  0
MTEXT
  5
426
330
415
100
AcDbEntity
  8
1
  6
Continuous
 62
     7
370
     9
100
AcDbMText
 10
690.25
 20
56.14148583680129
 30
0.0
 40
10.5
 41
0.0
 46
0.0
 71
     8
 72
     1
  1
50
 73
     1
 44
1.0
  0
ENDBLK
  5
417
330
415
100
AcDbEntity
  8
0
100
AcDbBlockEnd
  0
BLOCK
  5
429
330
428
100
AcDbEntity
  8
0
100
AcDbBlockBegin
  2
Dim11
 70
     0
 71
     0
 10
0.0
 20
0.0
 30
0.0
  3
Dim11
  1

  0
LINE
  5
42B
330
428
100
AcDbEntity
  8
1
  6
Continuous
 62
     7
370
     9
100
AcDbLine
 10
635.2499999999999
 20
265.9424863565514
 30
0.0
 11
695.2499999999999
 21
265.9424863565514
 31
0.0
  0
LINE
  5
42C
330
428
100
AcDbEntity
  8
1
  6
Continuous
 62
     7
370
     9
100
AcDbLine
 10
635.2499999999999
 20
265.9424863565514
 30
0.0
 11
635.25
 21
276.6198934760736
 31
0.0
  0
LINE
  5
42D
330
428
100
AcDbEntity
  8
1
  6
Continuous
 62
     7
370
     9
100
AcDbLine
 10
695.2499999999999
 20
265.9424863565514
 30
0.0
 11
695.25
 21
276.6198934760736
 31
0.0
  0
LINE
  5
42E
330
428
100
AcDbEntity
  8
1
  6
Continuous
 62
     7
370
     9
100
AcDbLine
 10
635.2499999999999
 20
265.9424863565514
 30
0.0
 11
638.147777478867
 21
266.718943491859
 31
0.0
  0
LINE
  5
42F
330
428
100
AcDbEntity
  8
1
  6
Continuous
 62
     7
370
     9
100
AcDbLine
 10
635.2499999999999
 20
265.9424863565514
 30
0.0
 11
638.147777478867
 21
265.1660292212438
 31
0.0
  0
LINE
  5
430
330
428
100
AcDbEntity
  8
1
  6
Continuous
 62
     7
370
     9
100
AcDbLine
 10
638.147777478867
 20
266.718943491859
 30
0.0
 11
638.147777478867
 21
265.1660292212438
 31
0.0
  0
LINE
  5
431
330
428
100
AcDbEntity
  8
1
  6
Continuous
 62
     7
370
     9
100
AcDbLine
 10
635.9744443697167
 20
265.9424863565514
 30
0.0
 11
637.4233331091503
 21
266.3307149242052
 31
0.0
  0
LINE
  5
432
330
428
100
AcDbEntity
  8
1
  6
Continuous
 62
     7
370
     9
100
AcDbLine
 10
635.9744443697167
 20
265.9424863565514
 30
0.0
 11
637.4233331091503
 21
265.5542577888976
 31
0.0
  0
LINE
  5
433
330
428
100
AcDbEntity
  8
1
  6
Continuous
 62
     7
370
     9
100
AcDbLine
 10
637.4233331091503
 20
266.3307149242052
 30
0.0
 11
637.4233331091503
 21
265.5542577888976
 31
0.0
  0
LINE
  5
434
330
428
100
AcDbEntity
  8
1
  6
Continuous
 62
     7
370
     9
100
AcDbLine
 10
695.2499999999999
 20
265.9424863565514
 30
0.0
 11
692.3522225211327
 21
265.1660292212438
 31
0.0
  0
LINE
  5
435
330
428
100
AcDbEntity
  8
1
  6
Continuous
 62
     7
370
     9
100
AcDbLine
 10
695.2499999999999
 20
265.9424863565514
 30
0.0
 11
692.3522225211327
 21
266.718943491859
 31
0.0
  0
LINE
  5
436
330
428
100
AcDbEntity
  8
1
  6
Continuous
 62
     7
370
     9
100
AcDbLine
 10
692.3522225211327
 20
265.1660292212438
 30
0.0
 11
692.3522225211327
 21
266.718943491859
 31
0.0
  0
LINE
  5
437
330
428
100
AcDbEntity
  8
1
  6
Continuous
 62
     7
370
     9
100
AcDbLine
 10
694.5255556302831
 20
265.9424863565514
 30
0.0
 11
693.0766668908494
 21
265.5542577888976
 31
0.0
  0
LINE
  5
438
330
428
100
AcDbEntity
  8
1
  6
Continuous
 62
     7
370
     9
100
AcDbLine
 10
694.5255556302831
 20
265.9424863565514
 30
0.0
 11
693.0766668908494
 21
266.3307149242052
 31
0.0
  0
LINE
  5
439
330
428
100
AcDbEntity
  8
1
  6
Continuous
 62
     7
370
     9
100
AcDbLine
 10
693.0766668908494
 20
265.5542577888976
 30
0.0
 11
693.0766668908494
 21
266.3307149242052
 31
0.0
  0
MTEXT
  5
43A
330
428
100
AcDbEntity
  8
1
  6
Continuous
 62
     7
370
     9
100
AcDbMText
 10
665.2499999999999
 20
271.1924863565514
 30
0.0
 40
10.5
 41
0.0
 46
0.0
 71
     8
 72
     1
  1
60
 73
     1
 44
1.0
  0
ENDBLK
  5
42A
330
428
100
AcDbEntity
  8
0
100
AcDbBlockEnd
  0
BLOCK
  5
43D
330
43C
100
AcDbEntity
  8
0
100
AcDbBlockBegin
  2
Dim12
 70
     0
 71
     0
 10
0.0
 20
0.0
 30
0.0
  3
Dim12
  1

  0
LINE
  5
43F
330
43C
100
AcDbEntity
  8
1
  6
Continuous
 62
     7
370
     9
100
AcDbLine
 10
637.25
 20
393.0628086018728
 30
0.0
 11
693.25
 21
393.0628086018728
 31
0.0
  0
LINE
  5
440
330
43C
100
AcDbEntity
  8
1
  6
Continuous
 62
     7
370
     9
100
AcDbLine
 10
637.25
 20
393.0628086018728
 30
0.0
 11
637.25
 21
378.5306122448978
 31
0.0
  0
LINE
  5
441
330
43C
100
AcDbEntity
  8
1
  6
Continuous
 62
     7
370
     9
100
AcDbLine
 10
693.25
 20
393.0628086018728
 30
0.0
 11
693.25
 21
378.1179033638761
 31
0.0
  0
LINE
  5
442
330
43C
100
AcDbEntity
  8
1
  6
Continuous
 62
     7
370
     9
100
AcDbLine
 10
637.25
 20
393.0628086018728
 30
0.0
 11
640.1477774788672
 21
393.8392657371804
 31
0.0
  0
LINE
  5
443
330
43C
100
AcDbEntity
  8
1
  6
Continuous
 62
     7
370
     9
100
AcDbLine
 10
637.25
 20
393.0628086018728
 30
0.0
 11
640.1477774788672
 21
392.2863514665652
 31
0.0
  0
LINE
  5
444
330
43C
100
AcDbEntity
  8
1
  6
Continuous
 62
     7
370
     9
100
AcDbLine
 10
640.1477774788672
 20
393.8392657371804
 30
0.0
 11
640.1477774788672
 21
392.2863514665652
 31
0.0
  0
LINE
  5
445
330
43C
100
AcDbEntity
  8
1
  6
Continuous
 62
     7
370
     9
100
AcDbLine
 10
637.9744443697168
 20
393.0628086018728
 30
0.0
 11
639.4233331091505
 21
393.4510371695266
 31
0.0
  0
LINE
  5
446
330
43C
100
AcDbEntity
  8
1
  6
Continuous
 62
     7
370
     9
100
AcDbLine
 10
637.9744443697168
 20
393.0628086018728
 30
0.0
 11
639.4233331091505
 21
392.674580034219
 31
0.0
  0
LINE
  5
447
330
43C
100
AcDbEntity
  8
1
  6
Continuous
 62
     7
370
     9
100
AcDbLine
 10
639.4233331091505
 20
393.4510371695266
 30
0.0
 11
639.4233331091505
 21
392.674580034219
 31
0.0
  0
LINE
  5
448
330
43C
100
AcDbEntity
  8
1
  6
Continuous
 62
     7
370
     9
100
AcDbLine
 10
693.25
 20
393.0628086018728
 30
0.0
 11
690.3522225211328
 21
392.2863514665652
 31
0.0
  0
LINE
  5
449
330
43C
100
AcDbEntity
  8
1
  6
Continuous
 62
     7
370
     9
100
AcDbLine
 10
693.25
 20
393.0628086018728
 30
0.0
 11
690.3522225211328
 21
393.8392657371804
 31
0.0
  0
LINE
  5
44A
330
43C
100
AcDbEntity
  8
1
  6
Continuous
 62
     7
370
     9
100
AcDbLine
 10
690.3522225211328
 20
392.2863514665652
 30
0.0
 11
690.3522225211328
 21
393.8392657371804
 31
0.0
  0
LINE
  5
44B
330
43C
100
AcDbEntity
  8
1
  6
Continuous
 62
     7
370
     9
100
AcDbLine
 10
692.5255556302832
 20
393.0628086018728
 30
0.0
 11
691.0766668908495
 21
392.674580034219
 31
0.0
  0
LINE
  5
44C
330
43C
100
AcDbEntity
  8
1
  6
Continuous
 62
     7
370
     9
100
AcDbLine
 10
692.5255556302832
 20
393.0628086018728
 30
0.0
 11
691.0766668908495
 21
393.4510371695266
 31
0.0
  0
LINE
  5
44D
330
43C
100
AcDbEntity
  8
1
  6
Continuous
 62
     7
370
     9
100
AcDbLine
 10
691.0766668908495
 20
392.674580034219
 30
0.0
 11
691.0766668908495
 21
393.4510371695266
 31
0.0
  0
MTEXT
  5
44E
330
43C
100
AcDbEntity
  8
1
  6
Continuous
 62
     7
370
     9
100
AcDbMText
 10
665.25
 20
398.3128086018728
 30
0.0
 40
10.5
 41
0.0
 46
0.0
 71
     8
 72
     1
  1
56
 73
     1
 44
1.0
  0
ENDBLK
  5
43E
330
43C
100
AcDbEntity
  8
0
100
AcDbBlockEnd
  0
BLOCK
  5
451
330
450
100
AcDbEntity
  8
0
100
AcDbBlockBegin
  2
Dim13
 70
     0
 71
     0
 10
0.0
 20
0.0
 30
0.0
  3
Dim13
  1

  0
LINE
  5
453
330
450
100
AcDbEntity
  8
1
  6
Continuous
 62
     7
370
     9
100
AcDbLine
 10
223.4515306122448
 20
172.2809738825403
 30
0.0
 11
253.2515306122448
 21
172.2809738825403
 31
0.0
  0
LINE
  5
454
330
450
100
AcDbEntity
  8
1
  6
Continuous
 62
     7
370
     9
100
AcDbLine
 10
223.4515306122448
 20
172.2809738825403
 30
0.0
 11
223.4515306122448
 21
171.1434998700663
 31
0.0
  0
LINE
  5
455
330
450
100
AcDbEntity
  8
1
  6
Continuous
 62
     7
370
     9
100
AcDbLine
 10
253.2515306122448
 20
172.2809738825403
 30
0.0
 11
253.2515306122448
 21
170.4488533004197
 31
0.0
  0
LINE
  5
456
330
450
100
AcDbEntity
  8
1
  6
Continuous
 62
     7
370
     9
100
AcDbLine
 10
223.4515306122448
 20
172.2809738825403
 30
0.0
 11
226.349308091112
 21
173.0574310178478
 31
0.0
  0
LINE
  5
457
330
450
100
AcDbEntity
  8
1
  6
Continuous
 62
     7
370
     9
100
AcDbLine
 10
223.4515306122448
 20
172.2809738825403
 30
0.0
 11
226.349308091112
 21
171.5045167472327
 31
0.0
  0
LINE
  5
458
330
450
100
AcDbEntity
  8
1
  6
Continuous
 62
     7
370
     9
100
AcDbLine
 10
226.349308091112
 20
173.0574310178478
 30
0.0
 11
226.349308091112
 21
171.5045167472327
 31
0.0
  0
LINE
  5
459
330
450
100
AcDbEntity
  8
1
  6
Continuous
 62
     7
370
     9
100
AcDbLine
 10
224.1759749819616
 20
172.2809738825403
 30
0.0
 11
225.6248637213952
 21
172.6692024501941
 31
0.0
  0
LINE
  5
45A
330
450
100
AcDbEntity
  8
1
  6
Continuous
 62
     7
370
     9
100
AcDbLine
 10
224.1759749819616
 20
172.2809738825403
 30
0.0
 11
225.6248637213952
 21
171.8927453148865
 31
0.0
  0
LINE
  5
45B
330
450
100
AcDbEntity
  8
1
  6
Continuous
 62
     7
370
     9
100
AcDbLine
 10
225.6248637213952
 20
172.6692024501941
 30
0.0
 11
225.6248637213952
 21
171.8927453148865
 31
0.0
  0
LINE
  5
45C
330
450
100
AcDbEntity
  8
1
  6
Continuous
 62
     7
370
     9
100
AcDbLine
 10
253.2515306122448
 20
172.2809738825403
 30
0.0
 11
250.3537531333776
 21
171.5045167472327
 31
0.0
  0
LINE
  5
45D
330
450
100
AcDbEntity
  8
1
  6
Continuous
 62
     7
370
     9
100
AcDbLine
 10
253.2515306122448
 20
172.2809738825403
 30
0.0
 11
250.3537531333776
 21
173.0574310178478
 31
0.0
  0
LINE
  5
45E
330
450
100
AcDbEntity
  8
1
  6
Continuous
 62
     7
370
     9
100
AcDbLine
 10
250.3537531333776
 20
171.5045167472327
 30
0.0
 11
250.3537531333776
 21
173.0574310178478
 31
0.0
  0
LINE
  5
45F
330
450
100
AcDbEntity
  8
1
  6
Continuous
 62
     7
370
     9
100
AcDbLine
 10
252.527086242528
 20
172.2809738825403
 30
0.0
 11
251.0781975030944
 21
171.8927453148865
 31
0.0
  0
LINE
  5
460
330
450
100
AcDbEntity
  8
1
  6
Continuous
 62
     7
370
     9
100
AcDbLine
 10
252.527086242528
 20
172.2809738825403
 30
0.0
 11
251.0781975030944
 21
172.6692024501941
 31
0.0
  0
LINE
  5
461
330
450
100
AcDbEntity
  8
1
  6
Continuous
 62
     7
370
     9
100
AcDbLine
 10
251.0781975030944
 20
171.8927453148865
 30
0.0
 11
251.0781975030944
 21
172.6692024501941
 31
0.0
  0
MTEXT
  5
462
330
450
100
AcDbEntity
  8
1
  6
Continuous
 62
     7
370
     9
100
AcDbMText
 10
238.3515306122448
 20
177.5309738825403
 30
0.0
 40
10.5
 41
0.0
 46
0.0
 71
     8
 72
     1
  1
29.8φ
 73
     1
 44
1.0
  0
ENDBLK
  5
452
330
450
100
AcDbEntity
  8
0
100
AcDbBlockEnd
  0
BLOCK
  5
465
330
464
100
AcDbEntity
  8
0
100
AcDbBlockBegin
  2
Dim14
 70
     0
 71
     0
 10
0.0
 20
0.0
 30
0.0
  3
Dim14
  1

  0
LINE
  5
467
330
464
100
AcDbEntity
  8
1
  6
Continuous
 62
     7
370
     9
100
AcDbLine
 10
580.25
 20
121.1665637993811
 30
0.0
 11
750.25
 21
121.1665637993811
 31
0.0
  0
LINE
  5
468
330
464
100
AcDbEntity
  8
1
  6
Continuous
 62
     7
370
     9
100
AcDbLine
 10
580.25
 20
121.1665637993811
 30
0.0
 11
580.25
 21
118.5306122448978
 31
0.0
  0
LINE
  5
469
330
464
100
AcDbEntity
  8
1
  6
Continuous
 62
     7
370
     9
100
AcDbLine
 10
750.25
 20
121.1665637993811
 30
0.0
 11
750.25
 21
118.5306122448978
 31
0.0
  0
LINE
  5
46A
330
464
100
AcDbEntity
  8
1
  6
Continuous
 62
     7
370
     9
100
AcDbLine
 10
580.25
 20
121.1665637993811
 30
0.0
 11
583.1477774788672
 21
121.9430209346887
 31
0.0
  0
LINE
  5
46B
330
464
100
AcDbEntity
  8
1
  6
Continuous
 62
     7
370
     9
100
AcDbLine
 10
580.25
 20
121.1665637993811
 30
0.0
 11
583.1477774788672
 21
120.3901066640736
 31
0.0
  0
LINE
  5
46C
330
464
100
AcDbEntity
  8
1
  6
Continuous
 62
     7
370
     9
100
AcDbLine
 10
583.1477774788672
 20
121.9430209346887
 30
0.0
 11
583.1477774788672
 21
120.3901066640736
 31
0.0
  0
LINE
  5
46D
330
464
100
AcDbEntity
  8
1
  6
Continuous
 62
     7
370
     9
100
AcDbLine
 10
580.9744443697168
 20
121.1665637993811
 30
0.0
 11
582.4233331091505
 21
121.5547923670349
 31
0.0
  0
LINE
  5
46E
330
464
100
AcDbEntity
  8
1
  6
Continuous
 62
     7
370
     9
100
AcDbLine
 10
580.9744443697168
 20
121.1665637993811
 30
0.0
 11
582.4233331091505
 21
120.7783352317273
 31
0.0
  0
LINE
  5
46F
330
464
100
AcDbEntity
  8
1
  6
Continuous
 62
     7
370
     9
100
AcDbLine
 10
582.4233331091505
 20
121.5547923670349
 30
0.0
 11
582.4233331091505
 21
120.7783352317273
 31
0.0
  0
LINE
  5
470
330
464
100
AcDbEntity
  8
1
  6
Continuous
 62
     7
370
     9
100
AcDbLine
 10
750.25
 20
121.1665637993811
 30
0.0
 11
747.3522225211328
 21
120.3901066640736
 31
0.0
  0
LINE
  5
471
330
464
100
AcDbEntity
  8
1
  6
Continuous
 62
     7
370
     9
100
AcDbLine
 10
750.25
 20
121.1665637993811
 30
0.0
 11
747.3522225211328
 21
121.9430209346887
 31
0.0
  0
LINE
  5
472
330
464
100
AcDbEntity
  8
1
  6
Continuous
 62
     7
370
     9
100
AcDbLine
 10
747.3522225211328
 20
120.3901066640736
 30
0.0
 11
747.3522225211328
 21
121.9430209346887
 31
0.0
  0
LINE
  5
473
330
464
100
AcDbEntity
  8
1
  6
Continuous
 62
     7
370
     9
100
AcDbLine
 10
749.5255556302832
 20
121.1665637993811
 30
0.0
 11
748.0766668908495
 21
120.7783352317274
 31
0.0
  0
LINE
  5
474
330
464
100
AcDbEntity
  8
1
  6
Continuous
 62
     7
370
     9
100
AcDbLine
 10
749.5255556302832
 20
121.1665637993811
 30
0.0
 11
748.0766668908495
 21
121.5547923670349
 31
0.0
  0
LINE
  5
475
330
464
100
AcDbEntity
  8
1
  6
Continuous
 62
     7
370
     9
100
AcDbLine
 10
748.0766668908495
 20
120.7783352317274
 30
0.0
 11
748.0766668908495
 21
121.5547923670349
 31
0.0
  0
MTEXT
  5
476
330
464
100
AcDbEntity
  8
1
  6
Continuous
 62
     7
370
     9
100
AcDbMText
 10
665.25
 20
126.4165637993811
 30
0.0
 40
10.5
 41
0.0
 46
0.0
 71
     8
 72
     1
  1
170
 73
     1
 44
1.0
  0
ENDBLK
  5
466
330
464
100
AcDbEntity
  8
0
100
AcDbBlockEnd
  0
BLOCK
  5
4B2
330
4B1
100
AcDbEntity
  8
0
100
AcDbBlockBegin
  2
*G26
 70
     1
 71
     0
 10
0.0
 20
0.0
 30
0.0
  3
*G26
  1

  0
LINE
  5
4B4
330
4B1
100
AcDbEntity
  8
1
  6
Continuous
 62
     7
370
     9
100
AcDbLine
 10
450.7138294283492
 20
261.3057962515255
 30
0.0
 11
450.8896222343308
 21
261.4815890575071
 31
0.0
  0
LINE
  5
4B5
330
4B1
100
AcDbEntity
  8
1
  6
Continuous
 62
     7
370
     9
100
AcDbLine
 10
448.5925090847895
 20
261.3057962515255
 30
0.0
 11
449.6341469289587
 21
262.3474340956947
 31
0.0
  0
LINE
  5
4B6
330
4B1
100
AcDbEntity
  8
1
  6
Continuous
 62
     7
370
     9
100
AcDbLine
 10
446.4711887412299
 20
261.3057962515255
 30
0.0
 11
448.3786716235867
 21
263.2132791338823
 31
0.0
  0
LINE
  5
4B7
330
4B1
100
AcDbEntity
  8
1
  6
Continuous
 62
     7
370
     9
100
AcDbLine
 10
450.4711887412299
 20
265.3057962515255
 30
0.0
 11
451.144521803004
 21
265.9791293132996
 31
0.0
  0
LINE
  5
4B8
330
4B1
100
AcDbEntity
  8
1
  6
Continuous
 62
     7
370
     9
100
AcDbLine
 10
444.3498683976702
 20
261.3057962515255
 30
0.0
 11
447.1231963182146
 21
264.0791241720699
 31
0.0
  0
LINE
  5
4B9
330
4B1
100
AcDbEntity
  8
1
  6
Continuous
 62
     7
370
     9
100
AcDbLine
 10
448.3498683976702
 20
265.3057962515255
 30
0.0
 11
451.144521803004
 21
268.1004496568593
 31
0.0
  0
LINE
  5
4BA
330
4B1
100
AcDbEntity
  8
1
  6
Continuous
 62
     7
370
     9
100
AcDbLine
 10
442.2285480541105
 20
261.3057962515255
 30
0.0
 11
445.8677210128426
 21
264.9449692102576
 31
0.0
  0
LINE
  5
4BB
330
4B1
100
AcDbEntity
  8
1
  6
Continuous
 62
     7
370
     9
100
AcDbLine
 10
446.2285480541105
 20
265.3057962515255
 30
0.0
 11
451.144521803004
 21
270.2217700004189
 31
0.0
  0
LINE
  5
4BC
330
4B1
100
AcDbEntity
  8
1
  6
Continuous
 62
     7
370
     9
100
AcDbLine
 10
440.1072277105509
 20
261.3057962515255
 30
0.0
 11
451.144521803004
 21
272.3430903439786
 31
0.0
  0
LINE
  5
4BD
330
4B1
100
AcDbEntity
  8
1
  6
Continuous
 62
     7
370
     9
100
AcDbLine
 10
437.9859073669912
 20
261.3057962515255
 30
0.0
 11
449.4859073669913
 21
272.8057962515256
 31
0.0
  0
LINE
  5
4BE
330
4B1
100
AcDbEntity
  8
1
  6
Continuous
 62
     7
370
     9
100
AcDbLine
 10
435.8645870234316
 20
261.3057962515255
 30
0.0
 11
447.3645870234317
 21
272.8057962515256
 31
0.0
  0
LINE
  5
4BF
330
4B1
100
AcDbEntity
  8
1
  6
Continuous
 62
     7
370
     9
100
AcDbLine
 10
433.7432666798719
 20
261.3057962515255
 30
0.0
 11
445.243266679872
 21
272.8057962515256
 31
0.0
  0
LINE
  5
4C0
330
4B1
100
AcDbEntity
  8
1
  6
Continuous
 62
     7
370
     9
100
AcDbLine
 10
431.6219463363122
 20
261.3057962515255
 30
0.0
 11
443.1247701985461
 21
272.8086201137594
 31
0.0
  0
LINE
  5
4C1
330
4B1
100
AcDbEntity
  8
1
  6
Continuous
 62
     7
370
     9
100
AcDbLine
 10
429.5006259927526
 20
261.3057962515255
 30
0.0
 11
441.4442152418297
 21
273.2493855006027
 31
0.0
  0
LINE
  5
4C2
330
4B1
100
AcDbEntity
  8
1
  6
Continuous
 62
     7
370
     9
100
AcDbLine
 10
427.3793056491929
 20
261.3057962515255
 30
0.0
 11
440.2556786480865
 21
274.1821692504191
 31
0.0
  0
LINE
  5
4C3
330
4B1
100
AcDbEntity
  8
1
  6
Continuous
 62
     7
370
     9
100
AcDbLine
 10
425.2579853056333
 20
261.3057962515255
 30
0.0
 11
439.4835134788634
 21
275.5313244247556
 31
0.0
  0
LINE
  5
4C4
330
4B1
100
AcDbEntity
  8
1
  6
Continuous
 62
     7
370
     9
100
AcDbLine
 10
427.1366649620736
 20
265.3057962515255
 30
0.0
 11
439.2750463565752
 21
277.4441776460271
 31
0.0
  0
LINE
  5
4C5
330
4B1
100
AcDbEntity
  8
1
  6
Continuous
 62
     7
370
     9
100
AcDbLine
 10
425.015344618514
 20
265.3057962515255
 30
0.0
 11
432.8486942529196
 21
273.1391458859312
 31
0.0
  0
LINE
  5
4C6
330
4B1
100
AcDbEntity
  8
1
  6
Continuous
 62
     7
370
     9
100
AcDbLine
 10
434.9166967221697
 20
275.2071483551813
 30
0.0
 11
439.2750463565752
 21
279.5654979895868
 31
0.0
  0
LINE
  5
4C7
330
4B1
100
AcDbEntity
  8
1
  6
Continuous
 62
     7
370
     9
100
AcDbLine
 10
423.144521803004
 20
265.5562937795752
 30
0.0
 11
430.3940242749544
 21
272.8057962515256
 31
0.0
  0
LINE
  5
4C8
330
4B1
100
AcDbEntity
  8
1
  6
Continuous
 62
     7
370
     9
100
AcDbLine
 10
435.2500463565752
 20
277.6618183331465
 30
0.0
 11
439.2750463565752
 21
281.6868183331464
 31
0.0
  0
LINE
  5
4C9
330
4B1
100
AcDbEntity
  8
1
  6
Continuous
 62
     7
370
     9
100
AcDbLine
 10
423.144521803004
 20
267.6776141231348
 30
0.0
 11
428.2727039313947
 21
272.8057962515256
 31
0.0
  0
LINE
  5
4CA
330
4B1
100
AcDbEntity
  8
1
  6
Continuous
 62
     7
370
     9
100
AcDbLine
 10
435.2500463565752
 20
279.7831386767061
 30
0.0
 11
439.2750463565752
 21
283.8081386767061
 31
0.0
  0
LINE
  5
4CB
330
4B1
100
AcDbEntity
  8
1
  6
Continuous
 62
     7
370
     9
100
AcDbLine
 10
423.144521803004
 20
269.7989344666945
 30
0.0
 11
426.1513835878351
 21
272.8057962515256
 31
0.0
  0
LINE
  5
4CC
330
4B1
100
AcDbEntity
  8
1
  6
Continuous
 62
     7
370
     9
100
AcDbLine
 10
435.2500463565752
 20
281.9044590202658
 30
0.0
 11
439.2750463565752
 21
285.9294590202658
 31
0.0
  0
LINE
  5
4CD
330
4B1
100
AcDbEntity
  8
1
  6
Continuous
 62
     7
370
     9
100
AcDbLine
 10
423.144521803004
 20
271.9202548102542
 30
0.0
 11
424.0300632442754
 21
272.8057962515256
 31
0.0
  0
LINE
  5
4CE
330
4B1
100
AcDbEntity
  8
1
  6
Continuous
 62
     7
370
     9
100
AcDbLine
 10
435.2500463565752
 20
284.0257793638254
 30
0.0
 11
439.2750463565752
 21
288.0507793638254
 31
0.0
  0
LINE
  5
4CF
330
4B1
100
AcDbEntity
  8
1
  6
Continuous
 62
     7
370
     9
100
AcDbLine
 10
435.2500463565752
 20
286.1470997073851
 30
0.0
 11
439.2750463565752
 21
290.1720997073851
 31
0.0
  0
LINE
  5
4D0
330
4B1
100
AcDbEntity
  8
1
  6
Continuous
 62
     7
370
     9
100
AcDbLine
 10
435.2500463565753
 20
288.2684200509448
 30
0.0
 11
439.2750463565752
 21
292.2934200509447
 31
0.0
  0
LINE
  5
4D1
330
4B1
100
AcDbEntity
  8
1
  6
Continuous
 62
     7
370
     9
100
AcDbLine
 10
435.2500463565753
 20
290.3897403945044
 30
0.0
 11
439.2750463565752
 21
294.4147403945044
 31
0.0
  0
LINE
  5
4D2
330
4B1
100
AcDbEntity
  8
1
  6
Continuous
 62
     7
370
     9
100
AcDbLine
 10
435.2500463565753
 20
292.5110607380641
 30
0.0
 11
439.2750463565752
 21
296.5360607380641
 31
0.0
  0
LINE
  5
4D3
330
4B1
100
AcDbEntity
  8
1
  6
Continuous
 62
     7
370
     9
100
AcDbLine
 10
435.2500463565753
 20
294.6323810816237
 30
0.0
 11
438.3408977406102
 21
297.7232324656586
 31
0.0
  0
LINE
  5
4D4
330
4B1
100
AcDbEntity
  8
1
  6
Continuous
 62
     7
370
     9
100
AcDbLine
 10
435.2500463565753
 20
296.7537014251834
 30
0.0
 11
436.2259599914817
 21
297.7296150600898
 31
0.0
  0
ENDBLK
  5
4B3
330
4B1
100
AcDbEntity
  8
0
100
AcDbBlockEnd
  0
BLOCK
  5
4D8
330
4D7
100
AcDbEntity
  8
0
100
AcDbBlockBegin
  2
Dim15
 70
     0
 71
     0
 10
0.0
 20
0.0
 30
0.0
  3
Dim15
  1

  0
LINE
  5
4DA
330
4D7
100
AcDbEntity
  8
1
  6
Continuous
 62
     7
370
     9
100
AcDbLine
 10
412.1445218030038
 20
194.7874977598613
 30
0.0
 11
437.1445218030038
 21
194.7874977598613
 31
0.0
  0
LINE
  5
4DB
330
4D7
100
AcDbEntity
  8
1
  6
Continuous
 62
     7
370
     9
100
AcDbLine
 10
412.1445218030038
 20
194.7874977598613
 30
0.0
 11
412.144521803004
 21
214.8057962515255
 31
0.0
  0
LINE
  5
4DC
330
4D7
100
AcDbEntity
  8
1
  6
Continuous
 62
     7
370
     9
100
AcDbLine
 10
437.1445218030038
 20
194.7874977598613
 30
0.0
 11
437.144521803004
 21
214.8057962515255
 31
0.0
  0
LINE
  5
4DD
330
4D7
100
AcDbEntity
  8
1
  6
Continuous
 62
     7
370
     9
100
AcDbLine
 10
412.1445218030038
 20
194.7874977598613
 30
0.0
 11
415.0422992818711
 21
195.5639548951688
 31
0.0
  0
LINE
  5
4DE
330
4D7
100
AcDbEntity
  8
1
  6
Continuous
 62
     7
370
     9
100
AcDbLine
 10
412.1445218030038
 20
194.7874977598613
 30
0.0
 11
415.0422992818711
 21
194.0110406245537
 31
0.0
  0
LINE
  5
4DF
330
4D7
100
AcDbEntity
  8
1
  6
Continuous
 62
     7
370
     9
100
AcDbLine
 10
415.0422992818711
 20
195.5639548951688
 30
0.0
 11
415.0422992818711
 21
194.0110406245537
 31
0.0
  0
LINE
  5
4E0
330
4D7
100
AcDbEntity
  8
1
  6
Continuous
 62
     7
370
     9
100
AcDbLine
 10
412.8689661727207
 20
194.7874977598613
 30
0.0
 11
414.3178549121542
 21
195.175726327515
 31
0.0
  0
LINE
  5
4E1
330
4D7
100
AcDbEntity
  8
1
  6
Continuous
 62
     7
370
     9
100
AcDbLine
 10
412.8689661727207
 20
194.7874977598613
 30
0.0
 11
414.3178549121542
 21
194.3992691922075
 31
0.0
  0
LINE
  5
4E2
330
4D7
100
AcDbEntity
  8
1
  6
Continuous
 62
     7
370
     9
100
AcDbLine
 10
414.3178549121542
 20
195.175726327515
 30
0.0
 11
414.3178549121542
 21
194.3992691922075
 31
0.0
  0
LINE
  5
4E3
330
4D7
100
AcDbEntity
  8
1
  6
Continuous
 62
     7
370
     9
100
AcDbLine
 10
437.1445218030038
 20
194.7874977598613
 30
0.0
 11
434.2467443241366
 21
194.0110406245537
 31
0.0
  0
LINE
  5
4E4
330
4D7
100
AcDbEntity
  8
1
  6
Continuous
 62
     7
370
     9
100
AcDbLine
 10
437.1445218030038
 20
194.7874977598613
 30
0.0
 11
434.2467443241366
 21
195.5639548951688
 31
0.0
  0
LINE
  5
4E5
330
4D7
100
AcDbEntity
  8
1
  6
Continuous
 62
     7
370
     9
100
AcDbLine
 10
434.2467443241366
 20
194.0110406245537
 30
0.0
 11
434.2467443241366
 21
195.5639548951688
 31
0.0
  0
LINE
  5
4E6
330
4D7
100
AcDbEntity
  8
1
  6
Continuous
 62
     7
370
     9
100
AcDbLine
 10
436.420077433287
 20
194.7874977598613
 30
0.0
 11
434.9711886938534
 21
194.3992691922075
 31
0.0
  0
LINE
  5
4E7
330
4D7
100
AcDbEntity
  8
1
  6
Continuous
 62
     7
370
     9
100
AcDbLine
 10
436.420077433287
 20
194.7874977598613
 30
0.0
 11
434.9711886938534
 21
195.175726327515
 31
0.0
  0
LINE
  5
4E8
330
4D7
100
AcDbEntity
  8
1
  6
Continuous
 62
     7
370
     9
100
AcDbLine
 10
434.9711886938534
 20
194.3992691922075
 30
0.0
 11
434.9711886938534
 21
195.175726327515
 31
0.0
  0
MTEXT
  5
4E9
330
4D7
100
AcDbEntity
  8
1
  6
Continuous
 62
     7
370
     9
100
AcDbMText
 10
424.6445218030038
 20
200.0374977598613
 30
0.0
 40
10.5
 41
0.0
 46
0.0
 71
     8
 72
     1
  1
50
 73
     1
 44
1.0
  0
ENDBLK
  5
4D9
330
4D7
100
AcDbEntity
  8
0
100
AcDbBlockEnd
  0
BLOCK
  5
4EC
330
4EB
100
AcDbEntity
  8
0
100
AcDbBlockBegin
  2
Dim16
 70
     0
 71
     0
 10
0.0
 20
0.0
 30
0.0
  3
Dim16
  1

  0
LINE
  5
4EE
330
4EB
100
AcDbEntity
  8
1
  6
Continuous
 62
     7
370
     9
100
AcDbLine
 10
437.1445218030038
 20
194.7874977598613
 30
0.0
 11
462.1445218030038
 21
194.7874977598613
 31
0.0
  0
LINE
  5
4EF
330
4EB
100
AcDbEntity
  8
1
  6
Continuous
 62
     7
370
     9
100
AcDbLine
 10
462.1445218030038
 20
194.7874977598613
 30
0.0
 11
462.144521803004
 21
214.8057962515255
 31
0.0
  0
LINE
  5
4F0
330
4EB
100
AcDbEntity
  8
1
  6
Continuous
 62
     7
370
     9
100
AcDbLine
 10
437.1445218030038
 20
194.7874977598613
 30
0.0
 11
440.0422992818711
 21
195.5639548951688
 31
0.0
  0
LINE
  5
4F1
330
4EB
100
AcDbEntity
  8
1
  6
Continuous
 62
     7
370
     9
100
AcDbLine
 10
437.1445218030038
 20
194.7874977598613
 30
0.0
 11
440.0422992818711
 21
194.0110406245537
 31
0.0
  0
LINE
  5
4F2
330
4EB
100
AcDbEntity
  8
1
  6
Continuous
 62
     7
370
     9
100
AcDbLine
 10
440.0422992818711
 20
195.5639548951688
 30
0.0
 11
440.0422992818711
 21
194.0110406245537
 31
0.0
  0
LINE
  5
4F3
330
4EB
100
AcDbEntity
  8
1
  6
Continuous
 62
     7
370
     9
100
AcDbLine
 10
437.8689661727207
 20
194.7874977598613
 30
0.0
 11
439.3178549121542
 21
195.175726327515
 31
0.0
  0
LINE
  5
4F4
330
4EB
100
AcDbEntity
  8
1
  6
Continuous
 62
     7
370
     9
100
AcDbLine
 10
437.8689661727207
 20
194.7874977598613
 30
0.0
 11
439.3178549121542
 21
194.3992691922075
 31
0.0
  0
LINE
  5
4F5
330
4EB
100
AcDbEntity
  8
1
  6
Continuous
 62
     7
370
     9
100
AcDbLine
 10
439.3178549121542
 20
195.175726327515
 30
0.0
 11
439.3178549121542
 21
194.3992691922075
 31
0.0
  0
LINE
  5
4F6
330
4EB
100
AcDbEntity
  8
1
  6
Continuous
 62
     7
370
     9
100
AcDbLine
 10
462.1445218030038
 20
194.7874977598613
 30
0.0
 11
459.2467443241366
 21
194.0110406245537
 31
0.0
  0
LINE
  5
4F7
330
4EB
100
AcDbEntity
  8
1
  6
Continuous
 62
     7
370
     9
100
AcDbLine
 10
462.1445218030038
 20
194.7874977598613
 30
0.0
 11
459.2467443241366
 21
195.5639548951688
 31
0.0
  0
LINE
  5
4F8
330
4EB
100
AcDbEntity
  8
1
  6
Continuous
 62
     7
370
     9
100
AcDbLine
 10
459.2467443241366
 20
194.0110406245537
 30
0.0
 11
459.2467443241366
 21
195.5639548951688
 31
0.0
  0
LINE
  5
4F9
330
4EB
100
AcDbEntity
  8
1
  6
Continuous
 62
     7
370
     9
100
AcDbLine
 10
461.420077433287
 20
194.7874977598613
 30
0.0
 11
459.9711886938534
 21
194.3992691922075
 31
0.0
  0
LINE
  5
4FA
330
4EB
100
AcDbEntity
  8
1
  6
Continuous
 62
     7
370
     9
100
AcDbLine
 10
461.420077433287
 20
194.7874977598613
 30
0.0
 11
459.9711886938534
 21
195.175726327515
 31
0.0
  0
LINE
  5
4FB
330
4EB
100
AcDbEntity
  8
1
  6
Continuous
 62
     7
370
     9
100
AcDbLine
 10
459.9711886938534
 20
194.3992691922075
 30
0.0
 11
459.9711886938534
 21
195.175726327515
 31
0.0
  0
MTEXT
  5
4FC
330
4EB
100
AcDbEntity
  8
1
  6
Continuous
 62
     7
370
     9
100
AcDbMText
 10
449.6445218030038
 20
200.0374977598613
 30
0.0
 40
10.5
 41
0.0
 46
0.0
 71
     8
 72
     1
  1
50
 73
     1
 44
1.0
  0
ENDBLK
  5
4ED
330
4EB
100
AcDbEntity
  8
0
100
AcDbBlockEnd
  0
ENDSEC
  0
SECTION
  2
ENTITIES
  0
LINE
  5
96
330
1F
100
AcDbEntity
  8
1
  6
Continuous
 62
     7
370
     9
100
AcDbLine
 10
74.35153061224491
 20
112.5306122448978
 30
0.0
 11
358.3515306122449
 21
112.5306122448978
 31
0.0
  0
LINE
  5
97
330
1F
100
AcDbEntity
  8
1
  6
Continuous
 62
     7
370
     9
100
AcDbLine
 10
149.3515306122449
 20
377.5306122448978
 30
0.0
 11
149.3515306122449
 21
112.5306122448978
 31
0.0
  0
LINE
  5
98
330
1F
100
AcDbEntity
  8
1
  6
Continuous
 62
     7
370
     9
100
AcDbLine
 10
134.3515306122449
 20
377.5306122448978
 30
0.0
 11
157.3515306122449
 21
377.5306122448978
 31
0.0
  0
LINE
  5
99
330
1F
100
AcDbEntity
  8
1
  6
Continuous
 62
     7
370
     9
100
AcDbLine
 10
134.3515306122449
 20
377.5306122448978
 30
0.0
 11
84.35153061224491
 21
327.5306122448978
 31
0.0
  0
LINE
  5
9A
330
1F
100
AcDbEntity
  8
1
  6
Continuous
 62
     7
370
     9
100
AcDbLine
 10
134.3515306122449
 20
377.5306122448978
 30
0.0
 11
134.3515306122449
 21
144.5306122448978
 31
0.0
  0
ARC
  5
9B
330
1F
100
AcDbEntity
  8
1
  6
Continuous
 62
     7
370
     9
100
AcDbCircle
 10
124.3515306122449
 20
144.5306122448978
 30
0.0
 40
10.0
100
AcDbArc
 50
269.9999999999998
 51
0.0
  0
LINE
  5
9C
330
1F
100
AcDbEntity
  8
1
  6
Continuous
 62
     7
370
     9
100
AcDbLine
 10
84.35153061224491
 20
124.5306122448978
 30
0.0
 11
84.35153061224491
 21
112.5306122448978
 31
0.0
  0
LINE
  5
9D
330
1F
100
AcDbEntity
  8
1
  6
Continuous
 62
     7
370
     9
100
AcDbLine
 10
94.35153061224491
 20
134.5306122448978
 30
0.0
 11
124.3515306122449
 21
134.5306122448978
 31
0.0
  0
ARC
  5
9E
330
1F
100
AcDbEntity
  8
1
  6
Continuous
 62
     7
370
     9
100
AcDbCircle
 10
94.35153061224491
 20
124.5306122448978
 30
0.0
 40
10.0
100
AcDbArc
 50
89.99999999999991
 51
179.9999999999998
  0
LINE
  5
9F
330
1F
100
AcDbEntity
  8
1
  6
Continuous
 62
     7
370
     9
100
AcDbLine
 10
84.35153061224491
 20
327.5306122448978
 30
0.0
 11
84.35153061224491
 21
124.5306122448978
 31
0.0
  0
CIRCLE
  5
A0
330
1F
100
AcDbEntity
  8
1
  6
Continuous
 62
     7
370
     9
100
AcDbCircle
 10
109.3515306122449
 20
245.0306122448978
 30
0.0
 40
15.0
  0
CIRCLE
  5
A1
330
1F
100
AcDbEntity
  8
1
  6
Continuous
 62
     7
370
     9
100
AcDbCircle
 10
109.3515306122449
 20
300.0306122448978
 30
0.0
 40
15.0
  0
LINE
  5
A2
330
1F
100
AcDbEntity
  8
1
  6
Continuous
 62
     7
370
     9
100
AcDbLine
 10
157.3515306122449
 20
112.5306122448978
 30
0.0
 11
157.3515306122449
 21
202.5306122448978
 31
0.0
  0
LINE
  5
A3
330
1F
100
AcDbEntity
  8
1
  6
Continuous
 62
     7
370
     9
100
AcDbLine
 10
157.3515306122449
 20
287.5306122448978
 30
0.0
 11
157.3515306122449
 21
377.5306122448978
 31
0.0
  0
LINE
  5
A4
330
1F
100
AcDbEntity
  8
1
  6
DOT
 62
     7
370
     9
100
AcDbLine
 10
223.4515306122449
 20
202.5306122448978
 30
0.0
 11
223.4515306122449
 21
287.5306122448978
 31
0.0
  0
LINE
  5
A5
330
1F
100
AcDbEntity
  8
1
  6
DOT
 62
     7
370
     9
100
AcDbLine
 10
197.5771683673438
 20
287.5306122448978
 30
0.0
 11
273.2515306122449
 21
287.5306122448978
 31
0.0
  0
LINE
  5
A6
330
1F
100
AcDbEntity
  8
1
  6
Continuous
 62
     7
370
     9
100
AcDbLine
 10
201.505611310502
 20
345.3961565015208
 30
0.0
 11
225.3710561879267
 21
338.5528503038375
 31
0.0
  0
LINE
  5
A7
330
1F
100
AcDbEntity
  8
1
  6
Continuous
 62
     7
370
     9
100
AcDbLine
 10
195.5451827348927
 20
358.1990519368567
 30
0.0
 11
201.505611310502
 21
345.3961565015208
 31
0.0
  0
ARC
  5
A8
330
1F
100
AcDbEntity
  8
1
  6
Continuous
 62
     7
370
     9
100
AcDbCircle
 10
188.5882325172424
 20
354.9575939178467
 30
0.0
 40
7.675037877422432
100
AcDbArc
 50
24.98226591235322
 51
204.9644817936176
  0
LINE
  5
A9
330
1F
100
AcDbEntity
  8
1
  6
Continuous
 62
     7
370
     9
100
AcDbLine
 10
231.7115176612045
 20
341.5094560450638
 30
0.0
 11
225.3710561879267
 21
338.5528503038375
 31
0.0
  0
CIRCLE
  5
AA
330
1F
100
AcDbEntity
  8
1
  6
Continuous
 62
     7
370
     9
100
AcDbCircle
 10
188.8058707621297
 20
354.3649553571387
 30
0.0
 40
5.040086323358163
  0
CIRCLE
  5
AB
330
1F
100
AcDbEntity
  8
1
  6
Continuous
 62
     7
370
     9
100
AcDbCircle
 10
162.9114717535695
 20
216.8394451530573
 30
0.0
 40
4.208904521937399
  0
CIRCLE
  5
AC
330
1F
100
AcDbEntity
  8
1
  6
Continuous
 62
     7
370
     9
100
AcDbCircle
 10
162.9114717535691
 20
216.9073961413557
 30
0.0
 40
5.719397362525598
  0
CIRCLE
  5
AD
330
1F
100
AcDbEntity
  8
1
  6
Continuous
 62
     7
370
     9
100
AcDbCircle
 10
209.5651372371674
 20
316.1020642642742
 30
0.0
 40
4.955792182251246
  0
ARC
  5
AE
330
1F
100
AcDbEntity
  8
1
  6
Continuous
 62
     7
370
     9
100
AcDbCircle
 10
210.1189585480172
 20
316.1425926226693
 30
0.0
 40
7.775928455620627
100
AcDbArc
 50
212.1795975355023
 51
285.5050274264566
  0
LINE
  5
AF
330
1F
100
AcDbEntity
  8
1
  6
Continuous
 62
     7
370
     9
100
AcDbLine
 10
203.5375459477232
 20
312.0013281380437
 30
0.0
 11
181.2585819949292
 21
352.6810988836719
 31
0.0
  0
ARC
  5
B0
330
1F
100
AcDbEntity
  8
1
  6
DOT
 62
     7
370
     9
100
AcDbCircle
 10
209.3361027535265
 20
316.0796469120197
 30
0.0
 40
7.048618408994456
100
AcDbArc
 50
55.45446297096
 51
215.1200012712811
  0
LINE
  5
B1
330
1F
100
AcDbEntity
  8
1
  6
Continuous
 62
     7
370
     9
100
AcDbLine
 10
185.7861096836302
 20
287.5306122448978
 30
0.0
 11
185.7861096836302
 21
344.4141620184259
 31
0.0
  0
CIRCLE
  5
B2
330
1F
100
AcDbEntity
  8
1
  6
Continuous
 62
     7
370
     9
100
AcDbCircle
 10
164.6334105290794
 20
275.1844706632615
 30
0.0
 40
4.208904521937399
  0
CIRCLE
  5
B3
330
1F
100
AcDbEntity
  8
1
  6
Continuous
 62
     7
370
     9
100
AcDbCircle
 10
164.6334105290794
 20
275.25242165156
 30
0.0
 40
5.719397362525598
  0
CIRCLE
  5
B4
330
1F
100
AcDbEntity
  8
1
  6
Continuous
 62
     7
370
     9
100
AcDbCircle
 10
196.2067920918369
 20
266.96485396147
 30
0.0
 40
10.60986672681921
  0
CIRCLE
  5
B5
330
1F
100
AcDbEntity
  8
1
  6
Continuous
 62
     7
370
     9
100
AcDbCircle
 10
196.2067920918369
 20
266.96485396147
 30
0.0
 40
6.555075885469307
  0
CIRCLE
  5
B6
330
1F
100
AcDbEntity
  8
1
  6
Continuous
 62
     7
370
     9
100
AcDbCircle
 10
178.9554440767772
 20
241.0202823663013
 30
0.0
 40
6.766360663147364
  0
LINE
  5
B7
330
1F
100
AcDbEntity
  8
1
  6
Continuous
 62
     7
370
     9
100
AcDbLine
 10
186.3984628195034
 20
270.9153097411553
 30
0.0
 11
170.0324862943229
 21
246.6732794243886
 31
0.0
  0
LINE
  5
B8
330
1F
100
AcDbEntity
  8
1
  6
Continuous
 62
     7
370
     9
100
AcDbLine
 10
204.5718598085788
 20
260.3911401325421
 30
0.0
 11
186.6518347182632
 21
233.6644760886721
 31
0.0
  0
ARC
  5
B9
330
1F
100
AcDbEntity
  8
1
  6
Continuous
 62
     7
370
     9
100
AcDbCircle
 10
178.9889532352975
 20
240.9854879464867
 30
0.0
 40
10.60986672681921
100
AcDbArc
 50
144.3703678168118
 51
315.9436940585937
  0
ARC
  5
BA
330
1F
100
AcDbEntity
  8
1
  6
Continuous
 62
     7
370
     9
100
AcDbCircle
 10
190.6855760422764
 20
244.6634465969032
 30
0.0
 40
2.189282579637978
100
AcDbArc
 50
65.99941086587641
 51
328.1232899793083
  0
ARC
  5
BB
330
1F
100
AcDbEntity
  8
1
  6
Continuous
 62
     7
370
     9
100
AcDbCircle
 10
178.9554440767772
 20
241.0634465969034
 30
0.0
 40
13.80724075137259
100
AcDbArc
 50
348.573482119428
 51
10.1949536198317
  0
ARC
  5
BC
330
1F
100
AcDbEntity
  8
1
  6
Continuous
 62
     7
370
     9
100
AcDbCircle
 10
190.6855760422764
 20
237.4634465969109
 30
0.0
 40
2.000000000007503
100
AcDbArc
 50
25.61467873819139
 51
300.2626204166878
  0
ARC
  5
BD
330
1F
100
AcDbEntity
  8
1
  6
Continuous
 62
     7
370
     9
100
AcDbCircle
 10
178.9554440767772
 20
241.0634465969034
 30
0.0
 40
13.80724075137259
100
AcDbArc
 50
24.50291044235966
 51
337.3038170354511
  0
LINE
  5
BE
330
1F
100
AcDbEntity
  8
1
  6
Continuous
 62
     7
370
     9
100
AcDbLine
 10
194.3755514266059
 20
242.9459495082561
 30
0.0
 11
194.3755514266059
 21
239.2355942686006
 31
0.0
  0
LINE
  5
BF
330
1F
100
AcDbEntity
  8
1
  6
Continuous
 62
     7
370
     9
100
AcDbLine
 10
208.5436987258134
 20
243.0634465969034
 30
0.0
 11
208.5436987258134
 21
239.0634465969034
 31
0.0
  0
LINE
  5
C0
330
1F
100
AcDbEntity
  8
1
  6
Continuous
 62
     7
370
     9
100
AcDbLine
 10
199.9950573979836
 20
244.6634465969032
 30
0.0
 11
192.6855760422766
 21
242.52062653649
 31
0.0
  0
LINE
  5
C1
330
1F
100
AcDbEntity
  8
1
  6
Continuous
 62
     7
370
     9
100
AcDbLine
 10
199.9950573979836
 20
244.6634465969032
 30
0.0
 11
204.8738839285711
 21
244.6634465969032
 31
0.0
  0
LINE
  5
C2
330
1F
100
AcDbEntity
  8
1
  6
Continuous
 62
     7
370
     9
100
AcDbLine
 10
199.9950573979588
 20
237.4634465969109
 30
0.0
 11
192.6855760422766
 21
239.6062666573169
 31
0.0
  0
LINE
  5
C3
330
1F
100
AcDbEntity
  8
1
  6
Continuous
 62
     7
370
     9
100
AcDbLine
 10
199.9950573979588
 20
237.4634465969109
 30
0.0
 11
205.0460778061221
 21
237.4634465969109
 31
0.0
  0
LINE
  5
C4
330
1F
100
AcDbEntity
  8
1
  6
Continuous
 62
     7
370
     9
100
AcDbLine
 10
204.8738839285711
 20
244.6634465969032
 30
0.0
 11
209.9342061338875
 21
243.0634465969034
 31
0.0
  0
LINE
  5
C5
330
1F
100
AcDbEntity
  8
1
  6
Continuous
 62
     7
370
     9
100
AcDbLine
 10
205.0460778061221
 20
237.4634465969109
 30
0.0
 11
209.9528254790929
 21
239.0634465969034
 31
0.0
  0
LINE
  5
C6
330
1F
100
AcDbEntity
  8
1
  6
Continuous
 62
     7
370
     9
100
AcDbLine
 10
208.5436987258134
 20
243.0634465969034
 30
0.0
 11
221.4515306122449
 21
243.0634465969034
 31
0.0
  0
LINE
  5
C7
330
1F
100
AcDbEntity
  8
1
  6
Continuous
 62
     7
370
     9
100
AcDbLine
 10
221.4515306122449
 20
243.0634465969034
 30
0.0
 11
221.4515306122449
 21
239.0634465969034
 31
0.0
  0
LINE
  5
C8
330
1F
100
AcDbEntity
  8
1
  6
Continuous
 62
     7
370
     9
100
AcDbLine
 10
208.5436987258134
 20
239.0634465969034
 30
0.0
 11
221.4515306122449
 21
239.0634465969034
 31
0.0
  0
CIRCLE
  5
C9
330
1F
100
AcDbEntity
  8
1
  6
Continuous
 62
     7
370
     9
100
AcDbCircle
 10
202.786033163265
 20
241.0634465969034
 30
0.0
 40
2.713484722085563
  0
LINE
  5
CA
330
1F
100
AcDbEntity
  8
1
  6
Continuous
 62
     7
370
    50
100
AcDbLine
 10
201.3223852040813
 20
241.0634465969034
 30
0.0
 11
204.3931760204078
 21
241.0634465969034
 31
0.0
  0
POLYLINE
  5
CB
330
1F
100
AcDbEntity
  8
1
  6
Continuous
 62
     7
370
     9
100
AcDb2dPolyline
 66
     1
 10
0.0
 20
0.0
 30
0.0
 70
     2
  0
VERTEX
  5
CD
330
CB
100
AcDbEntity
  8
1
  6
Continuous
 62
     7
370
     9
100
AcDbVertex
100
AcDb2dVertex
 10
204.9958545918366
 20
287.5306122448978
 30
0.0
  0
VERTEX
  5
CE
330
CB
100
AcDbEntity
  8
1
  6
Continuous
 62
     7
370
     9
100
AcDbVertex
100
AcDb2dVertex
 10
205.1798719026091
 20
287.6196464929691
 30
0.0
  0
VERTEX
  5
CF
330
CB
100
AcDbEntity
  8
1
  6
Continuous
 62
     7
370
     9
100
AcDbVertex
100
AcDb2dVertex
 10
205.7268207989561
 20
287.884416490415
 30
0.0
  0
VERTEX
  5
D0
330
CB
100
AcDbEntity
  8
1
  6
Continuous
 62
     7
370
     9
100
AcDbVertex
100
AcDb2dVertex
 10
206.6210612842901
 20
288.3185272338207
 30
0.0
  0
VERTEX
  5
D1
330
CB
100
AcDbEntity
  8
1
  6
Continuous
 62
     7
370
     9
100
AcDbVertex
100
AcDb2dVertex
 10
207.8355991995187
 20
288.9131236666958
 30
0.0
  0
VERTEX
  5
D2
330
CB
100
AcDbEntity
  8
1
  6
Continuous
 62
     7
370
     9
100
AcDbVertex
100
AcDb2dVertex
 10
209.3312584371092
 20
289.6589276503684
 30
0.0
  0
VERTEX
  5
D3
330
CB
100
AcDbEntity
  8
1
  6
Continuous
 62
     7
370
     9
100
AcDbVertex
100
AcDb2dVertex
 10
211.0564796400034
 20
290.5479487751965
 30
0.0
  0
VERTEX
  5
D4
330
CB
100
AcDbEntity
  8
1
  6
Continuous
 62
     7
370
     9
100
AcDbVertex
100
AcDb2dVertex
 10
212.9483525604043
 20
291.5741316805793
 30
0.0
  0
VERTEX
  5
D5
330
CB
100
AcDbEntity
  8
1
  6
Continuous
 62
     7
370
     9
100
AcDbVertex
100
AcDb2dVertex
 10
214.935265730821
 20
292.7324495125823
 30
0.0
  0
VERTEX
  5
D6
330
CB
100
AcDbEntity
  8
1
  6
Continuous
 62
     7
370
     9
100
AcDbVertex
100
AcDb2dVertex
 10
216.9411889881565
 20
294.0163674434472
 30
0.0
  0
VERTEX
  5
D7
330
CB
100
AcDbEntity
  8
1
  6
Continuous
 62
     7
370
     9
100
AcDbVertex
100
AcDb2dVertex
 10
218.8911807828669
 20
295.4140797656833
 30
0.0
  0
VERTEX
  5
D8
330
CB
100
AcDbEntity
  8
1
  6
Continuous
 62
     7
370
     9
100
AcDbVertex
100
AcDb2dVertex
 10
220.7173406546146
 20
296.9043456754078
 30
0.0
  0
VERTEX
  5
D9
330
CB
100
AcDbEntity
  8
1
  6
Continuous
 62
     7
370
     9
100
AcDbVertex
100
AcDb2dVertex
 10
222.3642072060004
 20
298.4529984598019
 30
0.0
  0
VERTEX
  5
DA
330
CB
100
AcDbEntity
  8
1
  6
Continuous
 62
     7
370
     9
100
AcDbVertex
100
AcDb2dVertex
 10
223.7925996014663
 20
300.0112044423449
 30
0.0
  0
VERTEX
  5
DB
330
CB
100
AcDbEntity
  8
1
  6
Continuous
 62
     7
370
     9
100
AcDbVertex
100
AcDb2dVertex
 10
224.9811316800395
 20
301.5162838135033
 30
0.0
  0
VERTEX
  5
DC
330
CB
100
AcDbEntity
  8
1
  6
Continuous
 62
     7
370
     9
100
AcDbVertex
100
AcDb2dVertex
 10
225.9250517881329
 20
302.8954217425577
 30
0.0
  0
VERTEX
  5
DD
330
CB
100
AcDbEntity
  8
1
  6
Continuous
 62
     7
370
     9
100
AcDbVertex
100
AcDb2dVertex
 10
226.6325900644839
 20
304.0719962596955
 30
0.0
  0
VERTEX
  5
DE
330
CB
100
AcDbEntity
  8
1
  6
Continuous
 62
     7
370
     9
100
AcDbVertex
100
AcDb2dVertex
 10
227.1195116793422
 20
304.9736628704945
 30
0.0
  0
VERTEX
  5
DF
330
CB
100
AcDbEntity
  8
1
  6
Continuous
 62
     7
370
     9
100
AcDbVertex
100
AcDb2dVertex
 10
227.4029617934351
 20
305.5408995853554
 30
0.0
  0
VERTEX
  5
E0
330
CB
100
AcDbEntity
  8
1
  6
Continuous
 62
     7
370
     9
100
AcDbVertex
100
AcDb2dVertex
 10
227.4958545918367
 20
305.7345344387768
 30
0.0
  0
VERTEX
  5
E1
330
CB
100
AcDbEntity
  8
1
  6
Continuous
 62
     7
370
     9
100
AcDbVertex
100
AcDb2dVertex
 10
227.5874988817204
 20
305.9296024383779
 30
0.0
  0
VERTEX
  5
E2
330
CB
100
AcDbEntity
  8
1
  6
Continuous
 62
     7
370
     9
100
AcDbVertex
100
AcDb2dVertex
 10
227.8526263417675
 20
306.5178714820264
 30
0.0
  0
VERTEX
  5
E3
330
CB
100
AcDbEntity
  8
1
  6
Continuous
 62
     7
370
     9
100
AcDbVertex
100
AcDb2dVertex
 10
228.2633590207163
 20
307.5069943503107
 30
0.0
  0
VERTEX
  5
E4
330
CB
100
AcDbEntity
  8
1
  6
Continuous
 62
     7
370
     9
100
AcDbVertex
100
AcDb2dVertex
 10
228.7780660887144
 20
308.9049172247605
 30
0.0
  0
VERTEX
  5
E5
330
CB
100
AcDbEntity
  8
1
  6
Continuous
 62
     7
370
     9
100
AcDbVertex
100
AcDb2dVertex
 10
229.3476427086742
 20
310.7137590221697
 30
0.0
  0
VERTEX
  5
E6
330
CB
100
AcDbEntity
  8
1
  6
Continuous
 62
     7
370
     9
100
AcDbVertex
100
AcDb2dVertex
 10
229.9225744965086
 20
312.9231819358557
 30
0.0
  0
VERTEX
  5
E7
330
CB
100
AcDbEntity
  8
1
  6
Continuous
 62
     7
370
     9
100
AcDbVertex
100
AcDb2dVertex
 10
230.459510408536
 20
315.5046788571923
 30
0.0
  0
VERTEX
  5
E8
330
CB
100
AcDbEntity
  8
1
  6
Continuous
 62
     7
370
     9
100
AcDbVertex
100
AcDb2dVertex
 10
230.9262275727296
 20
318.408009291895
 30
0.0
  0
VERTEX
  5
E9
330
CB
100
AcDbEntity
  8
1
  6
Continuous
 62
     7
370
     9
100
AcDbVertex
100
AcDb2dVertex
 10
231.304253770588
 20
321.5605684197218
 30
0.0
  0
VERTEX
  5
EA
330
CB
100
AcDbEntity
  8
1
  6
Continuous
 62
     7
370
     9
100
AcDbVertex
100
AcDb2dVertex
 10
231.5889259494155
 20
324.8698787894086
 30
0.0
  0
VERTEX
  5
EB
330
CB
100
AcDbEntity
  8
1
  6
Continuous
 62
     7
370
     9
100
AcDbVertex
100
AcDb2dVertex
 10
231.787188761686
 20
328.2287858960951
 30
0.0
  0
VERTEX
  5
EC
330
CB
100
AcDbEntity
  8
1
  6
Continuous
 62
     7
370
     9
100
AcDbVertex
100
AcDb2dVertex
 10
231.9138593068487
 20
331.522451283189
 30
0.0
  0
VERTEX
  5
ED
330
CB
100
AcDbEntity
  8
1
  6
Continuous
 62
     7
370
     9
100
AcDbVertex
100
AcDb2dVertex
 10
231.9873146939413
 20
334.6359712816856
 30
0.0
  0
VERTEX
  5
EE
330
CB
100
AcDbEntity
  8
1
  6
Continuous
 62
     7
370
     9
100
AcDbVertex
100
AcDb2dVertex
 10
232.0255573574546
 20
337.4614524417019
 30
0.0
  0
VERTEX
  5
EF
330
CB
100
AcDbEntity
  8
1
  6
Continuous
 62
     7
370
     9
100
AcDbVertex
100
AcDb2dVertex
 10
232.0433948479173
 20
339.9036281844931
 30
0.0
  0
VERTEX
  5
F0
330
CB
100
AcDbEntity
  8
1
  6
Continuous
 62
     7
370
     9
100
AcDbVertex
100
AcDb2dVertex
 10
232.0511022770378
 20
341.8835291432056
 30
0.0
  0
VERTEX
  5
F1
330
CB
100
AcDbEntity
  8
1
  6
Continuous
 62
     7
370
     9
100
AcDbVertex
100
AcDb2dVertex
 10
232.0545160855109
 20
343.3402078788831
 30
0.0
  0
VERTEX
  5
F2
330
CB
100
AcDbEntity
  8
1
  6
Continuous
 62
     7
370
     9
100
AcDbVertex
100
AcDb2dVertex
 10
232.0561447633037
 20
344.2309436399467
 30
0.0
  0
VERTEX
  5
F3
330
CB
100
AcDbEntity
  8
1
  6
Continuous
 62
     7
370
     9
100
AcDbVertex
100
AcDb2dVertex
 10
232.0566645408167
 20
344.5306122448978
 30
0.0
  0
SEQEND
  5
CC
330
CB
100
AcDbEntity
  8
1
  6
Continuous
370
     9
  0
LINE
  5
F4
330
1F
100
AcDbEntity
  8
1
  6
Continuous
 62
     7
370
     9
100
AcDbLine
 10
207.0058431372686
 20
288.5069033350089
 30
0.0
 11
207.0058431372686
 21
308.9801206631774
 31
0.0
  0
LINE
  5
F5
330
1F
100
AcDbEntity
  8
1
  6
Continuous
 62
     7
370
     9
100
AcDbLine
 10
149.3515306122449
 20
287.5306122448978
 30
0.0
 11
204.9958545918366
 21
287.5306122448978
 31
0.0
  0
LINE
  5
F6
330
1F
100
AcDbEntity
  8
1
  6
Continuous
 62
     7
370
     9
100
AcDbLine
 10
230.7456596850265
 20
317.2847417454693
 30
0.0
 11
212.1976425180235
 21
308.6496535264422
 31
0.0
  0
CIRCLE
  5
F7
330
1F
100
AcDbEntity
  8
1
  6
Continuous
 62
     7
370
     9
100
AcDbCircle
 10
241.6048184662152
 20
335.8110650510217
 30
0.0
 40
5.040086323358163
  0
CIRCLE
  5
F8
330
1F
100
AcDbEntity
  8
1
  6
Continuous
 62
     7
370
     9
100
AcDbCircle
 10
243.3736674732155
 20
296.153908258842
 30
0.0
 40
5.040086323358163
  0
ARC
  5
F9
330
1F
100
AcDbEntity
  8
1
  6
DOT
 62
     7
370
     9
100
AcDbCircle
 10
243.5039500498783
 20
295.8525611159969
 30
0.0
 40
7.048618408994456
100
AcDbArc
 50
244.517101224376
 51
59.01753025455152
  0
LINE
  5
FA
330
1F
100
AcDbEntity
  8
1
  6
DOT
 62
     7
370
     9
100
AcDbLine
 10
247.1324081691777
 20
301.8955167795862
 30
0.0
 11
213.3330997070096
 21
321.8854230728325
 31
0.0
  0
LINE
  5
FB
330
1F
100
AcDbEntity
  8
1
  6
DOT
 62
     7
370
     9
100
AcDbLine
 10
240.4713406197198
 20
289.4896764305945
 30
0.0
 11
207.0058431372686
 21
308.9801206631774
 31
0.0
  0
ARC
  5
FC
330
1F
100
AcDbEntity
  8
1
  6
Continuous
 62
     7
370
     9
100
AcDbCircle
 10
199.8515306122449
 20
230.446269132654
 30
0.0
 40
4.0
100
AcDbArc
 50
89.99999999999991
 51
179.9999999999998
  0
ARC
  5
FD
330
1F
100
AcDbEntity
  8
1
  6
Continuous
 62
     7
370
     9
100
AcDbCircle
 10
203.8515306122449
 20
226.446269132654
 30
0.0
 40
4.0
100
AcDbArc
 50
89.99999999999991
 51
179.9999999999998
  0
LINE
  5
FE
330
1F
100
AcDbEntity
  8
1
  6
Continuous
 62
     7
370
     9
100
AcDbLine
 10
195.8515306122449
 20
203.5948660714295
 30
0.0
 11
195.8515306122449
 21
230.446269132654
 31
0.0
  0
ARC
  5
FF
330
1F
100
AcDbEntity
  8
1
  6
Continuous
 62
     7
370
     9
100
AcDbCircle
 10
193.8515306122449
 20
204.5306122448978
 30
0.0
 40
2.208080818530133
100
AcDbArc
 50
295.0736286355224
 51
334.9263713644769
  0
LINE
  5
100
330
1F
100
AcDbEntity
  8
1
  6
Continuous
 62
     7
370
     9
100
AcDbLine
 10
199.8515306122449
 20
203.5948660714295
 30
0.0
 11
199.8515306122449
 21
226.446269132654
 31
0.0
  0
ARC
  5
101
330
1F
100
AcDbEntity
  8
1
  6
Continuous
 62
     7
370
     9
100
AcDbCircle
 10
197.8515306122449
 20
204.5306122448978
 30
0.0
 40
2.208080818530133
100
AcDbArc
 50
295.0736286355224
 51
334.9263713644769
  0
LINE
  5
102
330
1F
100
AcDbEntity
  8
1
  6
Continuous
 62
     7
370
     9
100
AcDbLine
 10
271.8944682603174
 20
234.446269132654
 30
0.0
 11
199.8515306122449
 21
234.446269132654
 31
0.0
  0
ARC
  5
103
330
1F
100
AcDbEntity
  8
1
  6
Continuous
 62
     7
370
     9
100
AcDbCircle
 10
271.2515306122449
 20
236.5586734693878
 30
0.0
 40
2.208080818530133
100
AcDbArc
 50
286.9283069445487
 51
334.9263713644769
  0
LINE
  5
104
330
1F
100
AcDbEntity
  8
1
  6
Continuous
 62
     7
370
     9
100
AcDbLine
 10
271.8944682603171
 20
230.446269132654
 30
0.0
 11
203.8515306122449
 21
230.446269132654
 31
0.0
  0
ARC
  5
105
330
1F
100
AcDbEntity
  8
1
  6
Continuous
 62
     7
370
     9
100
AcDbCircle
 10
271.2515306122446
 20
232.5586734693878
 30
0.0
 40
2.208080818530133
100
AcDbArc
 50
286.9283069445487
 51
334.9263713644769
  0
LINE
  5
106
330
1F
100
AcDbEntity
  8
1
  6
HIDDEN
 62
     7
370
     9
100
AcDbLine
 10
228.3515306122449
 20
104.5306122448978
 30
0.0
 11
248.3515306122449
 21
104.5306122448978
 31
0.0
  0
LINE
  5
107
330
1F
100
AcDbEntity
  8
1
  6
HIDDEN
 62
     7
370
     9
100
AcDbLine
 10
228.3515306122449
 20
112.5306122448978
 30
0.0
 11
228.3515306122449
 21
104.5306122448978
 31
0.0
  0
LINE
  5
108
330
1F
100
AcDbEntity
  8
1
  6
HIDDEN
 62
     7
370
     9
100
AcDbLine
 10
248.3515306122449
 20
112.5306122448978
 30
0.0
 11
248.3515306122449
 21
104.5306122448978
 31
0.0
  0
LINE
  5
109
330
1F
100
AcDbEntity
  8
1
  6
DOT
 62
     7
370
     9
100
AcDbLine
 10
83.70248379524514
 20
104.5306122448978
 30
0.0
 11
228.3515306122449
 21
104.5306122448978
 31
0.0
  0
LINE
  5
10A
330
1F
100
AcDbEntity
  8
1
  6
DOT
 62
     7
370
     9
100
AcDbLine
 10
351.3880641218274
 20
76.67660083143349
 30
0.0
 11
349.0005774292449
 21
104.5306122448978
 31
0.0
  0
LINE
  5
10B
330
1F
100
AcDbEntity
  8
1
  6
DOT
 62
     7
370
     9
100
AcDbLine
 10
248.3515306122449
 20
104.5306122448978
 30
0.0
 11
349.0005774292449
 21
104.5306122448978
 31
0.0
  0
LINE
  5
10C
330
1F
100
AcDbEntity
  8
1
  6
DOT
 62
     7
370
     9
100
AcDbLine
 10
81.73819138746705
 20
81.61386748748804
 30
0.0
 11
83.70248379524514
 21
104.5306122448978
 31
0.0
  0
LINE
  5
10D
330
1F
100
AcDbEntity
  8
1
  6
Continuous
 62
     7
370
     9
100
AcDbLine
 10
580.25
 20
112.5306122448978
 30
0.0
 11
750.25
 21
112.5306122448978
 31
0.0
  0
ARC
  5
10E
330
1F
100
AcDbEntity
  8
1
  6
Continuous
 62
     7
370
     9
100
AcDbCircle
 10
642.25
 20
372.5306122448978
 30
0.0
 40
5.0
100
AcDbArc
 50
89.99999999999991
 51
179.9999999999998
  0
LINE
  5
10F
330
1F
100
AcDbEntity
  8
1
  6
Continuous
 62
     7
370
     9
100
AcDbLine
 10
642.25
 20
377.5306122448978
 30
0.0
 11
688.25
 21
377.5306122448978
 31
0.0
  0
ARC
  5
110
330
1F
100
AcDbEntity
  8
1
  6
Continuous
 62
     7
370
     9
100
AcDbCircle
 10
688.25
 20
372.5306122448978
 30
0.0
 40
5.0
100
AcDbArc
 50
359.999999999999
 51
89.99999999999991
  0
ARC
  5
111
330
1F
100
AcDbEntity
  8
1
  6
Continuous
 62
     7
370
     9
100
AcDbCircle
 10
638.25
 20
341.5306122448978
 30
0.0
 40
3.0
100
AcDbArc
 50
89.99999999999991
 51
179.9999999999998
  0
LINE
  5
112
330
1F
100
AcDbEntity
  8
1
  6
Continuous
 62
     7
370
     9
100
AcDbLine
 10
638.25
 20
344.5306122448978
 30
0.0
 11
692.25
 21
344.5306122448978
 31
0.0
  0
ARC
  5
113
330
1F
100
AcDbEntity
  8
1
  6
Continuous
 62
     7
370
     9
100
AcDbCircle
 10
692.25
 20
341.5306122448978
 30
0.0
 40
3.0
100
AcDbArc
 50
0.0
 51
89.99999999999991
  0
LINE
  5
114
330
1F
100
AcDbEntity
  8
1
  6
Continuous
 62
     7
370
     9
100
AcDbLine
 10
695.25
 20
341.5306122448978
 30
0.0
 11
695.25
 21
205.5306122448978
 31
0.0
  0
ARC
  5
115
330
1F
100
AcDbEntity
  8
1
  6
Continuous
 62
     7
370
     9
100
AcDbCircle
 10
692.25
 20
205.5306122448978
 30
0.0
 40
3.0
100
AcDbArc
 50
269.9999999999998
 51
0.0
  0
LINE
  5
116
330
1F
100
AcDbEntity
  8
1
  6
Continuous
 62
     7
370
     9
100
AcDbLine
 10
638.25
 20
202.5306122448978
 30
0.0
 11
692.25
 21
202.5306122448978
 31
0.0
  0
LINE
  5
117
330
1F
100
AcDbEntity
  8
1
  6
Continuous
 62
     7
370
     9
100
AcDbLine
 10
635.25
 20
341.5306122448978
 30
0.0
 11
635.25
 21
205.5306122448978
 31
0.0
  0
ARC
  5
118
330
1F
100
AcDbEntity
  8
1
  6
Continuous
 62
     7
370
     9
100
AcDbCircle
 10
638.25
 20
205.5306122448978
 30
0.0
 40
3.0
100
AcDbArc
 50
179.9999999999998
 51
269.9999999999998
  0
LINE
  5
119
330
1F
100
AcDbEntity
  8
1
  6
Continuous
 62
     7
370
     9
100
AcDbLine
 10
637.25
 20
372.5306122448978
 30
0.0
 11
637.25
 21
344.5306122448978
 31
0.0
  0
LINE
  5
11A
330
1F
100
AcDbEntity
  8
1
  6
Continuous
 62
     7
370
     9
100
AcDbLine
 10
637.25
 20
202.5306122448978
 30
0.0
 11
637.25
 21
112.5306122448978
 31
0.0
  0
LINE
  5
11B
330
1F
100
AcDbEntity
  8
1
  6
Continuous
 62
     7
370
     9
100
AcDbLine
 10
693.25
 20
112.5306122448978
 30
0.0
 11
693.25
 21
202.5306122448978
 31
0.0
  0
LINE
  5
11C
330
1F
100
AcDbEntity
  8
1
  6
Continuous
 62
     7
370
     9
100
AcDbLine
 10
693.25
 20
344.5306122448978
 30
0.0
 11
693.25
 21
372.5306122448978
 31
0.0
  0
LINE
  5
11D
330
1F
100
AcDbEntity
  8
1
  6
Continuous
 62
     7
370
     9
100
AcDbLine
 10
650.35
 20
202.5306122448978
 30
0.0
 11
650.35
 21
191.5306122448978
 31
0.0
  0
LINE
  5
11E
330
1F
100
AcDbEntity
  8
1
  6
Continuous
 62
     7
370
     9
100
AcDbLine
 10
650.35
 20
191.5306122448978
 30
0.0
 11
652.35
 21
189.5306122448978
 31
0.0
  0
LINE
  5
11F
330
1F
100
AcDbEntity
  8
1
  6
Continuous
 62
     7
370
     9
100
AcDbLine
 10
652.35
 20
189.5306122448978
 30
0.0
 11
678.15
 21
189.5306122448978
 31
0.0
  0
LINE
  5
120
330
1F
100
AcDbEntity
  8
1
  6
Continuous
 62
     7
370
     9
100
AcDbLine
 10
680.15
 20
202.5306122448978
 30
0.0
 11
680.15
 21
191.5306122448978
 31
0.0
  0
LINE
  5
121
330
1F
100
AcDbEntity
  8
1
  6
Continuous
 62
     7
370
     9
100
AcDbLine
 10
678.15
 20
189.5306122448978
 30
0.0
 11
680.15
 21
191.5306122448978
 31
0.0
  0
CIRCLE
  5
122
330
1F
100
AcDbEntity
  8
1
  6
Continuous
 62
     7
370
     9
100
AcDbCircle
 10
665.25
 20
195.5306122448978
 30
0.0
 40
2.0
  0
LINE
  5
123
330
1F
100
AcDbEntity
  8
1
  6
Continuous
 62
     7
370
     9
100
AcDbLine
 10
647.35
 20
205.5306122448978
 30
0.0
 11
650.35
 21
202.5306122448979
 31
0.0
  0
LINE
  5
124
330
1F
100
AcDbEntity
  8
1
  6
Continuous
 62
     7
370
     9
100
AcDbLine
 10
683.15
 20
205.5306122448979
 30
0.0
 11
680.15
 21
202.5306122448978
 31
0.0
  0
LINE
  5
125
330
1F
100
AcDbEntity
  8
1
  6
Continuous
 62
     7
370
     9
100
AcDbLine
 10
635.25
 20
236.6451211734651
 30
0.0
 11
647.35
 21
224.5451211734656
 31
0.0
  0
LINE
  5
126
330
1F
100
AcDbEntity
  8
1
  6
Continuous
 62
     7
370
     9
100
AcDbLine
 10
647.35
 20
224.5451211734656
 30
0.0
 11
647.35
 21
205.5306122448978
 31
0.0
  0
LINE
  5
127
330
1F
100
AcDbEntity
  8
1
  6
Continuous
 62
     7
370
     9
100
AcDbLine
 10
683.15
 20
224.5451211734655
 30
0.0
 11
683.15
 21
205.5306122448979
 31
0.0
  0
LINE
  5
128
330
1F
100
AcDbEntity
  8
1
  6
Continuous
 62
     7
370
     9
100
AcDbLine
 10
695.2500000000002
 20
236.6451211734657
 30
0.0
 11
683.15
 21
224.5451211734655
 31
0.0
  0
LINE
  5
129
330
1F
100
AcDbEntity
  8
1
  6
Continuous
 62
     7
370
     9
100
AcDbLine
 10
628.25
 20
254.870687348276
 30
0.0
 11
628.25
 21
227.2562058455308
 31
0.0
  0
LINE
  5
12A
330
1F
100
AcDbEntity
  8
1
  6
Continuous
 62
     7
370
     9
100
AcDbLine
 10
628.25
 20
254.870687348276
 30
0.0
 11
635.25
 21
254.870687348276
 31
0.0
  0
LINE
  5
12B
330
1F
100
AcDbEntity
  8
1
  6
Continuous
 62
     7
370
     9
100
AcDbLine
 10
628.25
 20
227.2562058455308
 30
0.0
 11
635.25
 21
227.2562058455308
 31
0.0
  0
LINE
  5
12C
330
1F
100
AcDbEntity
  8
1
  6
Continuous
 62
     7
370
     9
100
AcDbLine
 10
628.25
 20
245.6658601806943
 30
0.0
 11
635.25
 21
245.6658601806943
 31
0.0
  0
LINE
  5
12D
330
1F
100
AcDbEntity
  8
1
  6
Continuous
 62
     7
370
     9
100
AcDbLine
 10
628.25
 20
236.4610330131125
 30
0.0
 11
635.25
 21
236.4610330131125
 31
0.0
  0
LINE
  5
12E
330
1F
100
AcDbEntity
  8
1
  6
Continuous
 62
     7
370
     9
100
AcDbLine
 10
697.25
 20
252.870687348276
 30
0.0
 11
695.25
 21
252.870687348276
 31
0.0
  0
LINE
  5
12F
330
1F
100
AcDbEntity
  8
1
  6
Continuous
 62
     7
370
     9
100
AcDbLine
 10
697.25
 20
227.2562058455308
 30
0.0
 11
725.25
 21
227.2562058455308
 31
0.0
  0
LINE
  5
130
330
1F
100
AcDbEntity
  8
1
  6
Continuous
 62
     7
370
     9
100
AcDbLine
 10
725.25
 20
249.0634465969034
 30
0.0
 11
728.25
 21
249.0634465969034
 31
0.0
  0
LINE
  5
131
330
1F
100
AcDbEntity
  8
1
  6
Continuous
 62
     7
370
     9
100
AcDbLine
 10
725.25
 20
233.0634465969034
 30
0.0
 11
728.25
 21
233.0634465969034
 31
0.0
  0
LINE
  5
132
330
1F
100
AcDbEntity
  8
1
  6
Continuous
 62
     7
370
     9
100
AcDbLine
 10
697.25
 20
254.870687348276
 30
0.0
 11
725.25
 21
254.870687348276
 31
0.0
  0
LINE
  5
133
330
1F
100
AcDbEntity
  8
1
  6
Continuous
 62
     7
370
     9
100
AcDbLine
 10
725.25
 20
254.870687348276
 30
0.0
 11
725.25
 21
227.2562058455308
 31
0.0
  0
LINE
  5
134
330
1F
100
AcDbEntity
  8
1
  6
Continuous
 62
     7
370
     9
100
AcDbLine
 10
728.25
 20
225.2562058455308
 30
0.0
 11
748.25
 21
225.2562058455308
 31
0.0
  0
LINE
  5
135
330
1F
100
AcDbEntity
  8
1
  6
Continuous
 62
     7
370
     9
100
AcDbLine
 10
748.25
 20
250.0634465969034
 30
0.0
 11
755.25
 21
250.0634465969034
 31
0.0
  0
LINE
  5
136
330
1F
100
AcDbEntity
  8
1
  6
Continuous
 62
     7
370
     9
100
AcDbLine
 10
755.25
 20
250.0634465969034
 30
0.0
 11
755.25
 21
232.0634465969034
 31
0.0
  0
LINE
  5
137
330
1F
100
AcDbEntity
  8
1
  6
Continuous
 62
     7
370
     9
100
AcDbLine
 10
748.25
 20
232.0634465969034
 30
0.0
 11
755.25
 21
232.0634465969034
 31
0.0
  0
LINE
  5
138
330
1F
100
AcDbEntity
  8
1
  6
Continuous
 62
     7
370
     9
100
AcDbLine
 10
748.25
 20
247.0634465969034
 30
0.0
 11
755.25
 21
247.0634465969034
 31
0.0
  0
LINE
  5
139
330
1F
100
AcDbEntity
  8
1
  6
Continuous
 62
     7
370
     9
100
AcDbLine
 10
748.25
 20
235.0634465969034
 30
0.0
 11
755.25
 21
235.0634465969034
 31
0.0
  0
ARC
  5
13A
330
1F
100
AcDbEntity
  8
1
  6
Continuous
 62
     7
370
     9
100
AcDbCircle
 10
753.4169424337088
 20
241.0634465969034
 30
0.0
 40
8.023427464253956
100
AcDbArc
 50
283.2066082332892
 51
76.79339176671044
  0
LINE
  5
13B
330
1F
100
AcDbEntity
  8
1
  6
Continuous
 62
     7
370
     9
100
AcDbLine
 10
697.25
 20
209.3920599489759
 30
0.0
 11
695.25
 21
209.3920599489759
 31
0.0
  0
LINE
  5
13C
330
1F
100
AcDbEntity
  8
1
  6
Continuous
 62
     7
370
     9
100
AcDbLine
 10
697.25
 20
254.870687348276
 30
0.0
 11
697.25
 21
209.3920599489759
 31
0.0
  0
LINE
  5
13D
330
1F
100
AcDbEntity
  8
1
  6
Continuous
 62
     7
370
     9
100
AcDbLine
 10
702.25
 20
225.2562058455308
 30
0.0
 11
702.25
 21
219.2562058455308
 31
0.0
  0
LINE
  5
13E
330
1F
100
AcDbEntity
  8
1
  6
Continuous
 62
     7
370
     9
100
AcDbLine
 10
700.25
 20
219.2562058455308
 30
0.0
 11
702.25
 21
219.2562058455308
 31
0.0
  0
LINE
  5
13F
330
1F
100
AcDbEntity
  8
1
  6
Continuous
 62
     7
370
     9
100
AcDbLine
 10
700.25
 20
225.2562058455308
 30
0.0
 11
700.25
 21
219.2562058455308
 31
0.0
  0
LINE
  5
140
330
1F
100
AcDbEntity
  8
1
  6
Continuous
 62
     7
370
     9
100
AcDbLine
 10
700.25
 20
225.2562058455308
 30
0.0
 11
702.1482780612275
 21
225.2562058455308
 31
0.0
  0
LINE
  5
141
330
1F
100
AcDbEntity
  8
1
  6
Continuous
 62
     7
370
     9
100
AcDbLine
 10
697.25
 20
223.4325512646002
 30
0.0
 11
700.25
 21
223.4325512646002
 31
0.0
  0
LINE
  5
142
330
1F
100
AcDbEntity
  8
1
  6
Continuous
 62
     7
370
     9
100
AcDbLine
 10
700.25
 20
221.4325512646003
 30
0.0
 11
697.25
 21
221.4325512646003
 31
0.0
  0
LINE
  5
143
330
1F
100
AcDbEntity
  8
1
  6
Continuous
 62
     7
370
     9
100
AcDbLine
 10
648.85
 20
202.5306122448978
 30
0.0
 11
648.85
 21
112.5306122448978
 31
0.0
  0
LINE
  5
144
330
1F
100
AcDbEntity
  8
1
  6
Continuous
 62
     7
370
     9
100
AcDbLine
 10
681.65
 20
112.5306122448978
 30
0.0
 11
681.65
 21
202.5306122448978
 31
0.0
  0
CIRCLE
  5
145
330
1F
100
AcDbEntity
  8
1
  6
Continuous
 62
     7
370
     9
100
AcDbCircle
 10
665.25
 20
207.5306122448978
 30
0.0
 40
4.0
  0
CIRCLE
  5
146
330
1F
100
AcDbEntity
  8
1
  6
Continuous
 62
     7
370
     9
100
AcDbCircle
 10
665.2500000000003
 20
215.0306122448978
 30
0.0
 40
2.5
  0
CIRCLE
  5
147
330
1F
100
AcDbEntity
  8
1
  6
Continuous
 62
     7
370
     9
100
AcDbCircle
 10
665.2500000000003
 20
239.0634465969035
 30
0.0
 40
2.5
  0
CIRCLE
  5
148
330
1F
100
AcDbEntity
  8
1
  6
Continuous
 62
     7
370
     9
100
AcDbCircle
 10
665.25
 20
247.0990114795881
 30
0.0
 40
4.0
  0
LINE
  5
149
330
1F
100
AcDbEntity
  8
1
  6
Continuous
 62
     7
370
     9
100
AcDbLine
 10
681.15
 20
287.5306122448978
 30
0.0
 11
649.35
 21
287.5306122448978
 31
0.0
  0
LINE
  5
14A
330
1F
100
AcDbEntity
  8
1
  6
Continuous
 62
     7
370
     9
100
AcDbLine
 10
649.35
 20
377.5306122448978
 30
0.0
 11
649.35
 21
287.5306122448978
 31
0.0
  0
LINE
  5
14B
330
1F
100
AcDbEntity
  8
1
  6
Continuous
 62
     7
370
     9
100
AcDbLine
 10
681.15
 20
377.5306122448978
 30
0.0
 11
681.15
 21
287.5306122448978
 31
0.0
  0
LINE
  5
14C
330
1F
100
AcDbEntity
  8
1
  6
Continuous
 62
     7
370
     9
100
AcDbLine
 10
649.35
 20
362.6326317952691
 30
0.0
 11
681.15
 21
362.6326317952691
 31
0.0
  0
LINE
  5
14D
330
1F
100
AcDbEntity
  8
1
  6
Continuous
 62
     7
370
     9
100
AcDbLine
 10
658.75
 20
362.6326317952691
 30
0.0
 11
658.75
 21
349.6326317952691
 31
0.0
  0
LINE
  5
14E
330
1F
100
AcDbEntity
  8
1
  6
Continuous
 62
     7
370
     9
100
AcDbLine
 10
658.75
 20
349.6326317952691
 30
0.0
 11
671.75
 21
349.6326317952691
 31
0.0
  0
LINE
  5
14F
330
1F
100
AcDbEntity
  8
1
  6
Continuous
 62
     7
370
     9
100
AcDbLine
 10
671.75
 20
362.6326317952691
 30
0.0
 11
671.75
 21
349.6326317952691
 31
0.0
  0
LINE
  5
150
330
1F
100
AcDbEntity
  8
1
  6
Continuous
 62
     7
370
     9
100
AcDbLine
 10
658.75
 20
330.9752869897919
 30
0.0
 11
658.75
 21
296.995695153057
 31
0.0
  0
LINE
  5
151
330
1F
100
AcDbEntity
  8
1
  6
Continuous
 62
     7
370
     9
100
AcDbLine
 10
658.75
 20
327.9752869897919
 30
0.0
 11
671.75
 21
327.9752869897919
 31
0.0
  0
LINE
  5
152
330
1F
100
AcDbEntity
  8
1
  6
Continuous
 62
     7
370
     9
100
AcDbLine
 10
658.75
 20
330.9752869897919
 30
0.0
 11
671.75
 21
330.9752869897919
 31
0.0
  0
LINE
  5
153
330
1F
100
AcDbEntity
  8
1
  6
Continuous
 62
     7
370
     9
100
AcDbLine
 10
658.75
 20
299.995695153057
 30
0.0
 11
671.75
 21
299.995695153057
 31
0.0
  0
LINE
  5
154
330
1F
100
AcDbEntity
  8
1
  6
Continuous
 62
     7
370
     9
100
AcDbLine
 10
658.75
 20
296.995695153057
 30
0.0
 11
671.75
 21
296.995695153057
 31
0.0
  0
LINE
  5
155
330
1F
100
AcDbEntity
  8
1
  6
Continuous
 62
     7
370
     9
100
AcDbLine
 10
671.75
 20
330.9752869897919
 30
0.0
 11
671.75
 21
296.995695153057
 31
0.0
  0
LINE
  5
156
330
1F
100
AcDbEntity
  8
1
  6
Continuous
 62
     7
370
     9
100
AcDbLine
 10
658.75
 20
313.9854910714245
 30
0.0
 11
650.85
 21
313.9854910714245
 31
0.0
  0
LINE
  5
157
330
1F
100
AcDbEntity
  8
1
  6
Continuous
 62
     7
370
     9
100
AcDbLine
 10
650.85
 20
287.5306122448978
 30
0.0
 11
650.85
 21
313.9854910714245
 31
0.0
  0
LINE
  5
158
330
1F
100
AcDbEntity
  8
1
  6
Continuous
 62
     7
370
     9
100
AcDbLine
 10
671.75
 20
313.9854910714245
 30
0.0
 11
679.65
 21
313.9854910714245
 31
0.0
  0
LINE
  5
159
330
1F
100
AcDbEntity
  8
1
  6
Continuous
 62
     7
370
     9
100
AcDbLine
 10
679.65
 20
287.5306122448978
 30
0.0
 11
679.65
 21
313.9854910714245
 31
0.0
  0
LINE
  5
15A
330
1F
100
AcDbEntity
  8
1
  6
Continuous
 62
     7
370
     9
100
AcDbLine
 10
650.35
 20
362.6326317952691
 30
0.0
 11
650.35
 21
307.9854910714245
 31
0.0
  0
LINE
  5
15B
330
1F
100
AcDbEntity
  8
1
  6
Continuous
 62
     7
370
     9
100
AcDbLine
 10
650.35
 20
307.9854910714245
 30
0.0
 11
650.85
 21
307.9854910714245
 31
0.0
  0
LINE
  5
15C
330
1F
100
AcDbEntity
  8
1
  6
Continuous
 62
     7
370
     9
100
AcDbLine
 10
679.65
 20
307.9854910714245
 30
0.0
 11
680.15
 21
307.9854910714245
 31
0.0
  0
LINE
  5
15D
330
1F
100
AcDbEntity
  8
1
  6
Continuous
 62
     7
370
     9
100
AcDbLine
 10
680.15
 20
362.6326317952691
 30
0.0
 11
680.15
 21
307.9854910714245
 31
0.0
  0
LINE
  5
15E
330
1F
100
AcDbEntity
  8
1
  6
Continuous
 62
     7
370
     9
100
AcDbLine
 10
728.25
 20
287.5306122448978
 30
0.0
 11
728.25
 21
225.2562058455308
 31
0.0
  0
LINE
  5
15F
330
1F
100
AcDbEntity
  8
1
  6
Continuous
 62
     7
370
     9
100
AcDbLine
 10
728.25
 20
287.5306122448978
 30
0.0
 11
748.25
 21
287.5306122448978
 31
0.0
  0
LINE
  5
160
330
1F
100
AcDbEntity
  8
1
  6
Continuous
 62
     7
370
     9
100
AcDbLine
 10
748.25
 20
287.5306122448978
 30
0.0
 11
748.25
 21
225.2562058455308
 31
0.0
  0
POLYLINE
  5
161
330
1F
100
AcDbEntity
  8
1
  6
Continuous
 62
     7
370
     9
100
AcDb2dPolyline
 66
     1
 10
0.0
 20
0.0
 30
0.0
 70
     2
  0
VERTEX
  5
163
330
161
100
AcDbEntity
  8
1
  6
Continuous
 62
     7
370
     9
100
AcDbVertex
100
AcDb2dVertex
 10
730.75
 20
397.0750377435088
 30
0.0
  0
VERTEX
  5
164
330
161
100
AcDbEntity
  8
1
  6
Continuous
 62
     7
370
     9
100
AcDbVertex
100
AcDb2dVertex
 10
730.7840967414932
 20
397.0891307250607
 30
0.0
  0
VERTEX
  5
165
330
161
100
AcDbEntity
  8
1
  6
Continuous
 62
     7
370
     9
100
AcDbVertex
100
AcDb2dVertex
 10
730.8854568957485
 20
397.1310053846599
 30
0.0
  0
VERTEX
  5
166
330
161
100
AcDbEntity
  8
1
  6
Continuous
 62
     7
370
     9
100
AcDbVertex
100
AcDb2dVertex
 10
731.0513156219838
 20
397.1993480894233
 30
0.0
  0
VERTEX
  5
167
330
161
100
AcDbEntity
  8
1
  6
Continuous
 62
     7
370
     9
100
AcDbVertex
100
AcDb2dVertex
 10
731.277148726509
 20
397.2916758602474
 30
0.0
  0
VERTEX
  5
168
330
161
100
AcDbEntity
  8
1
  6
Continuous
 62
     7
370
     9
100
AcDbVertex
100
AcDb2dVertex
 10
731.5567960709357
 20
397.4040320907563
 30
0.0
  0
VERTEX
  5
169
330
161
100
AcDbEntity
  8
1
  6
Continuous
 62
     7
370
     9
100
AcDbVertex
100
AcDb2dVertex
 10
731.882629604694
 20
397.530792433994
 30
0.0
  0
VERTEX
  5
16A
330
161
100
AcDbEntity
  8
1
  6
Continuous
 62
     7
370
     9
100
AcDbVertex
100
AcDb2dVertex
 10
732.2457614383676
 20
397.664729256629
 30
0.0
  0
VERTEX
  5
16B
330
161
100
AcDbEntity
  8
1
  6
Continuous
 62
     7
370
     9
100
AcDbVertex
100
AcDb2dVertex
 10
732.636286282148
 20
397.7974308482208
 30
0.0
  0
VERTEX
  5
16C
330
161
100
AcDbEntity
  8
1
  6
Continuous
 62
     7
370
     9
100
AcDbVertex
100
AcDb2dVertex
 10
733.0435516363192
 20
397.9200848370327
 30
0.0
  0
VERTEX
  5
16D
330
161
100
AcDbEntity
  8
1
  6
Continuous
 62
     7
370
     9
100
AcDbVertex
100
AcDb2dVertex
 10
733.4564483636808
 20
398.0245351713459
 30
0.0
  0
VERTEX
  5
16E
330
161
100
AcDbEntity
  8
1
  6
Continuous
 62
     7
370
     9
100
AcDbVertex
100
AcDb2dVertex
 10
733.863713717852
 20
398.1044341392794
 30
0.0
  0
VERTEX
  5
16F
330
161
100
AcDbEntity
  8
1
  6
Continuous
 62
     7
370
     9
100
AcDbVertex
100
AcDb2dVertex
 10
734.2542385616324
 20
398.1562588590389
 30
0.0
  0
VERTEX
  5
170
330
161
100
AcDbEntity
  8
1
  6
Continuous
 62
     7
370
     9
100
AcDbVertex
100
AcDb2dVertex
 10
734.617370395306
 20
398.1799612228847
 30
0.0
  0
VERTEX
  5
171
330
161
100
AcDbEntity
  8
1
  6
Continuous
 62
     7
370
     9
100
AcDbVertex
100
AcDb2dVertex
 10
734.9432039290643
 20
398.1790751344502
 30
0.0
  0
VERTEX
  5
172
330
161
100
AcDbEntity
  8
1
  6
Continuous
 62
     7
370
     9
100
AcDbVertex
100
AcDb2dVertex
 10
735.222851273491
 20
398.1602054319138
 30
0.0
  0
VERTEX
  5
173
330
161
100
AcDbEntity
  8
1
  6
Continuous
 62
     7
370
     9
100
AcDbVertex
100
AcDb2dVertex
 10
735.4486843780162
 20
398.1319481343454
 30
0.0
  0
VERTEX
  5
174
330
161
100
AcDbEntity
  8
1
  6
Continuous
 62
     7
370
     9
100
AcDbVertex
100
AcDb2dVertex
 10
735.6145431042515
 20
398.1034138985991
 30
0.0
  0
VERTEX
  5
175
330
161
100
AcDbEntity
  8
1
  6
Continuous
 62
     7
370
     9
100
AcDbVertex
100
AcDb2dVertex
 10
735.7159032585068
 20
398.0826178652766
 30
0.0
  0
VERTEX
  5
176
330
161
100
AcDbEntity
  8
1
  6
Continuous
 62
     7
370
     9
100
AcDbVertex
100
AcDb2dVertex
 10
735.75
 20
398.0750377435088
 30
0.0
  0
VERTEX
  5
177
330
161
100
AcDbEntity
  8
1
  6
Continuous
 62
     7
370
     9
100
AcDbVertex
100
AcDb2dVertex
 10
735.7840967414932
 20
398.0671610774896
 30
0.0
  0
VERTEX
  5
178
330
161
100
AcDbEntity
  8
1
  6
Continuous
 62
     7
370
     9
100
AcDbVertex
100
AcDb2dVertex
 10
735.8854568957485
 20
398.0420319583227
 30
0.0
  0
VERTEX
  5
179
330
161
100
AcDbEntity
  8
1
  6
Continuous
 62
     7
370
     9
100
AcDbVertex
100
AcDb2dVertex
 10
736.0513156219838
 20
397.9956289343963
 30
0.0
  0
VERTEX
  5
17A
330
161
100
AcDbEntity
  8
1
  6
Continuous
 62
     7
370
     9
100
AcDbVertex
100
AcDb2dVertex
 10
736.277148726509
 20
397.9227157455307
 30
0.0
  0
VERTEX
  5
17B
330
161
100
AcDbEntity
  8
1
  6
Continuous
 62
     7
370
     9
100
AcDbVertex
100
AcDb2dVertex
 10
736.5567960709357
 20
397.8186491997538
 30
0.0
  0
VERTEX
  5
17C
330
161
100
AcDbEntity
  8
1
  6
Continuous
 62
     7
370
     9
100
AcDbVertex
100
AcDb2dVertex
 10
736.882629604694
 20
397.6812261381097
 30
0.0
  0
VERTEX
  5
17D
330
161
100
AcDbEntity
  8
1
  6
Continuous
 62
     7
370
     9
100
AcDbVertex
100
AcDb2dVertex
 10
737.2457614383676
 20
397.5120912411475
 30
0.0
  0
VERTEX
  5
17E
330
161
100
AcDbEntity
  8
1
  6
Continuous
 62
     7
370
     9
100
AcDbVertex
100
AcDb2dVertex
 10
737.636286282148
 20
397.3173280630144
 30
0.0
  0
VERTEX
  5
17F
330
161
100
AcDbEntity
  8
1
  6
Continuous
 62
     7
370
     9
100
AcDbVertex
100
AcDb2dVertex
 10
738.0435516363192
 20
397.1070499341483
 30
0.0
  0
VERTEX
  5
180
330
161
100
AcDbEntity
  8
1
  6
Continuous
 62
     7
370
     9
100
AcDbVertex
100
AcDb2dVertex
 10
738.4564483636808
 20
396.8940484551142
 30
0.0
  0
VERTEX
  5
181
330
161
100
AcDbEntity
  8
1
  6
Continuous
 62
     7
370
     9
100
AcDbVertex
100
AcDb2dVertex
 10
738.863713717852
 20
396.6917868926627
 30
0.0
  0
VERTEX
  5
182
330
161
100
AcDbEntity
  8
1
  6
Continuous
 62
     7
370
     9
100
AcDbVertex
100
AcDb2dVertex
 10
739.2542385616324
 20
396.5121881279982
 30
0.0
  0
VERTEX
  5
183
330
161
100
AcDbEntity
  8
1
  6
Continuous
 62
     7
370
     9
100
AcDbVertex
100
AcDb2dVertex
 10
739.617370395306
 20
396.363722192059
 30
0.0
  0
VERTEX
  5
184
330
161
100
AcDbEntity
  8
1
  6
Continuous
 62
     7
370
     9
100
AcDbVertex
100
AcDb2dVertex
 10
739.9432039290643
 20
396.2502328363533
 30
0.0
  0
VERTEX
  5
185
330
161
100
AcDbEntity
  8
1
  6
Continuous
 62
     7
370
     9
100
AcDbVertex
100
AcDb2dVertex
 10
740.222851273491
 20
396.1707711530224
 30
0.0
  0
VERTEX
  5
186
330
161
100
AcDbEntity
  8
1
  6
Continuous
 62
     7
370
     9
100
AcDbVertex
100
AcDb2dVertex
 10
740.4486843780162
 20
396.1204676644805
 30
0.0
  0
VERTEX
  5
187
330
161
100
AcDbEntity
  8
1
  6
Continuous
 62
     7
370
     9
100
AcDbVertex
100
AcDb2dVertex
 10
740.6145431042515
 20
396.0922290668996
 30
0.0
  0
VERTEX
  5
188
330
161
100
AcDbEntity
  8
1
  6
Continuous
 62
     7
370
     9
100
AcDbVertex
100
AcDb2dVertex
 10
740.7159032585068
 20
396.0788507026556
 30
0.0
  0
VERTEX
  5
189
330
161
100
AcDbEntity
  8
1
  6
Continuous
 62
     7
370
     9
100
AcDbVertex
100
AcDb2dVertex
 10
740.75
 20
396.0750377435088
 30
0.0
  0
VERTEX
  5
18A
330
161
100
AcDbEntity
  8
1
  6
Continuous
 62
     7
370
     9
100
AcDbVertex
100
AcDb2dVertex
 10
740.7840967414932
 20
396.0715770694022
 30
0.0
  0
VERTEX
  5
18B
330
161
100
AcDbEntity
  8
1
  6
Continuous
 62
     7
370
     9
100
AcDbVertex
100
AcDb2dVertex
 10
740.8854568957485
 20
396.0633528048981
 30
0.0
  0
VERTEX
  5
18C
330
161
100
AcDbEntity
  8
1
  6
Continuous
 62
     7
370
     9
100
AcDbVertex
100
AcDb2dVertex
 10
741.0513156219838
 20
396.0564204429627
 30
0.0
  0
VERTEX
  5
18D
330
161
100
AcDbEntity
  8
1
  6
Continuous
 62
     7
370
     9
100
AcDbVertex
100
AcDb2dVertex
 10
741.277148726509
 20
396.0595627815856
 30
0.0
  0
VERTEX
  5
18E
330
161
100
AcDbEntity
  8
1
  6
Continuous
 62
     7
370
     9
100
AcDbVertex
100
AcDb2dVertex
 10
741.5567960709357
 20
396.0825977032929
 30
0.0
  0
VERTEX
  5
18F
330
161
100
AcDbEntity
  8
1
  6
Continuous
 62
     7
370
     9
100
AcDbVertex
100
AcDb2dVertex
 10
741.882629604694
 20
396.1344934225126
 30
0.0
  0
VERTEX
  5
190
330
161
100
AcDbEntity
  8
1
  6
Continuous
 62
     7
370
     9
100
AcDbVertex
100
AcDb2dVertex
 10
742.2457614383676
 20
396.2216489025516
 30
0.0
  0
VERTEX
  5
191
330
161
100
AcDbEntity
  8
1
  6
Continuous
 62
     7
370
     9
100
AcDbVertex
100
AcDb2dVertex
 10
742.636286282148
 20
396.3466510443803
 30
0.0
  0
VERTEX
  5
192
330
161
100
AcDbEntity
  8
1
  6
Continuous
 62
     7
370
     9
100
AcDbVertex
100
AcDb2dVertex
 10
743.0435516363192
 20
396.507711688854
 30
0.0
  0
VERTEX
  5
193
330
161
100
AcDbEntity
  8
1
  6
Continuous
 62
     7
370
     9
100
AcDbVertex
100
AcDb2dVertex
 10
743.4564483636808
 20
396.6988421790472
 30
0.0
  0
VERTEX
  5
194
330
161
100
AcDbEntity
  8
1
  6
Continuous
 62
     7
370
     9
100
AcDbVertex
100
AcDb2dVertex
 10
743.863713717852
 20
396.9106744108142
 30
0.0
  0
VERTEX
  5
195
330
161
100
AcDbEntity
  8
1
  6
Continuous
 62
     7
370
     9
100
AcDbVertex
100
AcDb2dVertex
 10
744.2542385616324
 20
397.1317178379438
 30
0.0
  0
VERTEX
  5
196
330
161
100
AcDbEntity
  8
1
  6
Continuous
 62
     7
370
     9
100
AcDbVertex
100
AcDb2dVertex
 10
744.617370395306
 20
397.3497767377949
 30
0.0
  0
VERTEX
  5
197
330
161
100
AcDbEntity
  8
1
  6
Continuous
 62
     7
370
     9
100
AcDbVertex
100
AcDb2dVertex
 10
744.9432039290643
 20
397.5532525946253
 30
0.0
  0
VERTEX
  5
198
330
161
100
AcDbEntity
  8
1
  6
Continuous
 62
     7
370
     9
100
AcDbVertex
100
AcDb2dVertex
 10
745.222851273491
 20
397.7321183118239
 30
0.0
  0
VERTEX
  5
199
330
161
100
AcDbEntity
  8
1
  6
Continuous
 62
     7
370
     9
100
AcDbVertex
100
AcDb2dVertex
 10
745.4486843780162
 20
397.878455419163
 30
0.0
  0
VERTEX
  5
19A
330
161
100
AcDbEntity
  8
1
  6
Continuous
 62
     7
370
     9
100
AcDbVertex
100
AcDb2dVertex
 10
745.6145431042515
 20
397.9865644240827
 30
0.0
  0
VERTEX
  5
19B
330
161
100
AcDbEntity
  8
1
  6
Continuous
 62
     7
370
     9
100
AcDbVertex
100
AcDb2dVertex
 10
745.7159032585068
 20
398.0527616074232
 30
0.0
  0
VERTEX
  5
19C
330
161
100
AcDbEntity
  8
1
  6
Continuous
 62
     7
370
     9
100
AcDbVertex
100
AcDb2dVertex
 10
745.75
 20
398.0750377435088
 30
0.0
  0
SEQEND
  5
162
330
161
100
AcDbEntity
  8
1
  6
Continuous
370
     9
  0
POLYLINE
  5
19D
330
1F
100
AcDbEntity
  8
1
  6
Continuous
 62
     7
370
     9
100
AcDb2dPolyline
 66
     1
 10
0.0
 20
0.0
 30
0.0
 70
     2
  0
VERTEX
  5
19F
330
19D
100
AcDbEntity
  8
1
  6
Continuous
 62
     7
370
     9
100
AcDbVertex
100
AcDb2dVertex
 10
730.75
 20
396.1495262923864
 30
0.0
  0
VERTEX
  5
1A0
330
19D
100
AcDbEntity
  8
1
  6
Continuous
 62
     7
370
     9
100
AcDbVertex
100
AcDb2dVertex
 10
730.7840967414932
 20
396.1636192739384
 30
0.0
  0
VERTEX
  5
1A1
330
19D
100
AcDbEntity
  8
1
  6
Continuous
 62
     7
370
     9
100
AcDbVertex
100
AcDb2dVertex
 10
730.8854568957485
 20
396.2054939335376
 30
0.0
  0
VERTEX
  5
1A2
330
19D
100
AcDbEntity
  8
1
  6
Continuous
 62
     7
370
     9
100
AcDbVertex
100
AcDb2dVertex
 10
731.0513156219838
 20
396.2738366383009
 30
0.0
  0
VERTEX
  5
1A3
330
19D
100
AcDbEntity
  8
1
  6
Continuous
 62
     7
370
     9
100
AcDbVertex
100
AcDb2dVertex
 10
731.277148726509
 20
396.3661644091251
 30
0.0
  0
VERTEX
  5
1A4
330
19D
100
AcDbEntity
  8
1
  6
Continuous
 62
     7
370
     9
100
AcDbVertex
100
AcDb2dVertex
 10
731.5567960709357
 20
396.4785206396339
 30
0.0
  0
VERTEX
  5
1A5
330
19D
100
AcDbEntity
  8
1
  6
Continuous
 62
     7
370
     9
100
AcDbVertex
100
AcDb2dVertex
 10
731.882629604694
 20
396.6052809828716
 30
0.0
  0
VERTEX
  5
1A6
330
19D
100
AcDbEntity
  8
1
  6
Continuous
 62
     7
370
     9
100
AcDbVertex
100
AcDb2dVertex
 10
732.2457614383676
 20
396.7392178055067
 30
0.0
  0
VERTEX
  5
1A7
330
19D
100
AcDbEntity
  8
1
  6
Continuous
 62
     7
370
     9
100
AcDbVertex
100
AcDb2dVertex
 10
732.636286282148
 20
396.8719193970985
 30
0.0
  0
VERTEX
  5
1A8
330
19D
100
AcDbEntity
  8
1
  6
Continuous
 62
     7
370
     9
100
AcDbVertex
100
AcDb2dVertex
 10
733.0435516363192
 20
396.9945733859104
 30
0.0
  0
VERTEX
  5
1A9
330
19D
100
AcDbEntity
  8
1
  6
Continuous
 62
     7
370
     9
100
AcDbVertex
100
AcDb2dVertex
 10
733.4564483636808
 20
397.0990237202236
 30
0.0
  0
VERTEX
  5
1AA
330
19D
100
AcDbEntity
  8
1
  6
Continuous
 62
     7
370
     9
100
AcDbVertex
100
AcDb2dVertex
 10
733.863713717852
 20
397.178922688157
 30
0.0
  0
VERTEX
  5
1AB
330
19D
100
AcDbEntity
  8
1
  6
Continuous
 62
     7
370
     9
100
AcDbVertex
100
AcDb2dVertex
 10
734.2542385616324
 20
397.2307474079165
 30
0.0
  0
VERTEX
  5
1AC
330
19D
100
AcDbEntity
  8
1
  6
Continuous
 62
     7
370
     9
100
AcDbVertex
100
AcDb2dVertex
 10
734.617370395306
 20
397.2544497717624
 30
0.0
  0
VERTEX
  5
1AD
330
19D
100
AcDbEntity
  8
1
  6
Continuous
 62
     7
370
     9
100
AcDbVertex
100
AcDb2dVertex
 10
734.9432039290643
 20
397.2535636833279
 30
0.0
  0
VERTEX
  5
1AE
330
19D
100
AcDbEntity
  8
1
  6
Continuous
 62
     7
370
     9
100
AcDbVertex
100
AcDb2dVertex
 10
735.222851273491
 20
397.2346939807915
 30
0.0
  0
VERTEX
  5
1AF
330
19D
100
AcDbEntity
  8
1
  6
Continuous
 62
     7
370
     9
100
AcDbVertex
100
AcDb2dVertex
 10
735.4486843780162
 20
397.206436683223
 30
0.0
  0
VERTEX
  5
1B0
330
19D
100
AcDbEntity
  8
1
  6
Continuous
 62
     7
370
     9
100
AcDbVertex
100
AcDb2dVertex
 10
735.6145431042515
 20
397.1779024474768
 30
0.0
  0
VERTEX
  5
1B1
330
19D
100
AcDbEntity
  8
1
  6
Continuous
 62
     7
370
     9
100
AcDbVertex
100
AcDb2dVertex
 10
735.7159032585068
 20
397.1571064141542
 30
0.0
  0
VERTEX
  5
1B2
330
19D
100
AcDbEntity
  8
1
  6
Continuous
 62
     7
370
     9
100
AcDbVertex
100
AcDb2dVertex
 10
735.75
 20
397.1495262923864
 30
0.0
  0
VERTEX
  5
1B3
330
19D
100
AcDbEntity
  8
1
  6
Continuous
 62
     7
370
     9
100
AcDbVertex
100
AcDb2dVertex
 10
735.7840967414932
 20
397.1416496263673
 30
0.0
  0
VERTEX
  5
1B4
330
19D
100
AcDbEntity
  8
1
  6
Continuous
 62
     7
370
     9
100
AcDbVertex
100
AcDb2dVertex
 10
735.8854568957485
 20
397.1165205072003
 30
0.0
  0
VERTEX
  5
1B5
330
19D
100
AcDbEntity
  8
1
  6
Continuous
 62
     7
370
     9
100
AcDbVertex
100
AcDb2dVertex
 10
736.0513156219838
 20
397.070117483274
 30
0.0
  0
VERTEX
  5
1B6
330
19D
100
AcDbEntity
  8
1
  6
Continuous
 62
     7
370
     9
100
AcDbVertex
100
AcDb2dVertex
 10
736.277148726509
 20
396.9972042944083
 30
0.0
  0
VERTEX
  5
1B7
330
19D
100
AcDbEntity
  8
1
  6
Continuous
 62
     7
370
     9
100
AcDbVertex
100
AcDb2dVertex
 10
736.5567960709357
 20
396.8931377486315
 30
0.0
  0
VERTEX
  5
1B8
330
19D
100
AcDbEntity
  8
1
  6
Continuous
 62
     7
370
     9
100
AcDbVertex
100
AcDb2dVertex
 10
736.882629604694
 20
396.7557146869873
 30
0.0
  0
VERTEX
  5
1B9
330
19D
100
AcDbEntity
  8
1
  6
Continuous
 62
     7
370
     9
100
AcDbVertex
100
AcDb2dVertex
 10
737.2457614383676
 20
396.5865797900251
 30
0.0
  0
VERTEX
  5
1BA
330
19D
100
AcDbEntity
  8
1
  6
Continuous
 62
     7
370
     9
100
AcDbVertex
100
AcDb2dVertex
 10
737.636286282148
 20
396.3918166118921
 30
0.0
  0
VERTEX
  5
1BB
330
19D
100
AcDbEntity
  8
1
  6
Continuous
 62
     7
370
     9
100
AcDbVertex
100
AcDb2dVertex
 10
738.0435516363192
 20
396.1815384830259
 30
0.0
  0
VERTEX
  5
1BC
330
19D
100
AcDbEntity
  8
1
  6
Continuous
 62
     7
370
     9
100
AcDbVertex
100
AcDb2dVertex
 10
738.4564483636808
 20
395.9685370039919
 30
0.0
  0
VERTEX
  5
1BD
330
19D
100
AcDbEntity
  8
1
  6
Continuous
 62
     7
370
     9
100
AcDbVertex
100
AcDb2dVertex
 10
738.863713717852
 20
395.7662754415404
 30
0.0
  0
VERTEX
  5
1BE
330
19D
100
AcDbEntity
  8
1
  6
Continuous
 62
     7
370
     9
100
AcDbVertex
100
AcDb2dVertex
 10
739.2542385616324
 20
395.5866766768759
 30
0.0
  0
VERTEX
  5
1BF
330
19D
100
AcDbEntity
  8
1
  6
Continuous
 62
     7
370
     9
100
AcDbVertex
100
AcDb2dVertex
 10
739.617370395306
 20
395.4382107409366
 30
0.0
  0
VERTEX
  5
1C0
330
19D
100
AcDbEntity
  8
1
  6
Continuous
 62
     7
370
     9
100
AcDbVertex
100
AcDb2dVertex
 10
739.9432039290643
 20
395.324721385231
 30
0.0
  0
VERTEX
  5
1C1
330
19D
100
AcDbEntity
  8
1
  6
Continuous
 62
     7
370
     9
100
AcDbVertex
100
AcDb2dVertex
 10
740.222851273491
 20
395.2452597019001
 30
0.0
  0
VERTEX
  5
1C2
330
19D
100
AcDbEntity
  8
1
  6
Continuous
 62
     7
370
     9
100
AcDbVertex
100
AcDb2dVertex
 10
740.4486843780162
 20
395.1949562133581
 30
0.0
  0
VERTEX
  5
1C3
330
19D
100
AcDbEntity
  8
1
  6
Continuous
 62
     7
370
     9
100
AcDbVertex
100
AcDb2dVertex
 10
740.6145431042515
 20
395.1667176157773
 30
0.0
  0
VERTEX
  5
1C4
330
19D
100
AcDbEntity
  8
1
  6
Continuous
 62
     7
370
     9
100
AcDbVertex
100
AcDb2dVertex
 10
740.7159032585068
 20
395.1533392515332
 30
0.0
  0
VERTEX
  5
1C5
330
19D
100
AcDbEntity
  8
1
  6
Continuous
 62
     7
370
     9
100
AcDbVertex
100
AcDb2dVertex
 10
740.75
 20
395.1495262923864
 30
0.0
  0
VERTEX
  5
1C6
330
19D
100
AcDbEntity
  8
1
  6
Continuous
 62
     7
370
     9
100
AcDbVertex
100
AcDb2dVertex
 10
740.7840967414932
 20
395.1460656182799
 30
0.0
  0
VERTEX
  5
1C7
330
19D
100
AcDbEntity
  8
1
  6
Continuous
 62
     7
370
     9
100
AcDbVertex
100
AcDb2dVertex
 10
740.8854568957485
 20
395.1378413537757
 30
0.0
  0
VERTEX
  5
1C8
330
19D
100
AcDbEntity
  8
1
  6
Continuous
 62
     7
370
     9
100
AcDbVertex
100
AcDb2dVertex
 10
741.0513156219838
 20
395.1309089918404
 30
0.0
  0
VERTEX
  5
1C9
330
19D
100
AcDbEntity
  8
1
  6
Continuous
 62
     7
370
     9
100
AcDbVertex
100
AcDb2dVertex
 10
741.277148726509
 20
395.1340513304632
 30
0.0
  0
VERTEX
  5
1CA
330
19D
100
AcDbEntity
  8
1
  6
Continuous
 62
     7
370
     9
100
AcDbVertex
100
AcDb2dVertex
 10
741.5567960709357
 20
395.1570862521705
 30
0.0
  0
VERTEX
  5
1CB
330
19D
100
AcDbEntity
  8
1
  6
Continuous
 62
     7
370
     9
100
AcDbVertex
100
AcDb2dVertex
 10
741.882629604694
 20
395.2089819713902
 30
0.0
  0
VERTEX
  5
1CC
330
19D
100
AcDbEntity
  8
1
  6
Continuous
 62
     7
370
     9
100
AcDbVertex
100
AcDb2dVertex
 10
742.2457614383676
 20
395.2961374514292
 30
0.0
  0
VERTEX
  5
1CD
330
19D
100
AcDbEntity
  8
1
  6
Continuous
 62
     7
370
     9
100
AcDbVertex
100
AcDb2dVertex
 10
742.636286282148
 20
395.4211395932579
 30
0.0
  0
VERTEX
  5
1CE
330
19D
100
AcDbEntity
  8
1
  6
Continuous
 62
     7
370
     9
100
AcDbVertex
100
AcDb2dVertex
 10
743.0435516363192
 20
395.5822002377317
 30
0.0
  0
VERTEX
  5
1CF
330
19D
100
AcDbEntity
  8
1
  6
Continuous
 62
     7
370
     9
100
AcDbVertex
100
AcDb2dVertex
 10
743.4564483636808
 20
395.7733307279249
 30
0.0
  0
VERTEX
  5
1D0
330
19D
100
AcDbEntity
  8
1
  6
Continuous
 62
     7
370
     9
100
AcDbVertex
100
AcDb2dVertex
 10
743.863713717852
 20
395.9851629596919
 30
0.0
  0
VERTEX
  5
1D1
330
19D
100
AcDbEntity
  8
1
  6
Continuous
 62
     7
370
     9
100
AcDbVertex
100
AcDb2dVertex
 10
744.2542385616324
 20
396.2062063868215
 30
0.0
  0
VERTEX
  5
1D2
330
19D
100
AcDbEntity
  8
1
  6
Continuous
 62
     7
370
     9
100
AcDbVertex
100
AcDb2dVertex
 10
744.617370395306
 20
396.4242652866725
 30
0.0
  0
VERTEX
  5
1D3
330
19D
100
AcDbEntity
  8
1
  6
Continuous
 62
     7
370
     9
100
AcDbVertex
100
AcDb2dVertex
 10
744.9432039290643
 20
396.6277411435029
 30
0.0
  0
VERTEX
  5
1D4
330
19D
100
AcDbEntity
  8
1
  6
Continuous
 62
     7
370
     9
100
AcDbVertex
100
AcDb2dVertex
 10
745.222851273491
 20
396.8066068607015
 30
0.0
  0
VERTEX
  5
1D5
330
19D
100
AcDbEntity
  8
1
  6
Continuous
 62
     7
370
     9
100
AcDbVertex
100
AcDb2dVertex
 10
745.4486843780162
 20
396.9529439680406
 30
0.0
  0
VERTEX
  5
1D6
330
19D
100
AcDbEntity
  8
1
  6
Continuous
 62
     7
370
     9
100
AcDbVertex
100
AcDb2dVertex
 10
745.6145431042515
 20
397.0610529729603
 30
0.0
  0
VERTEX
  5
1D7
330
19D
100
AcDbEntity
  8
1
  6
Continuous
 62
     7
370
     9
100
AcDbVertex
100
AcDb2dVertex
 10
745.7159032585068
 20
397.1272501563009
 30
0.0
  0
VERTEX
  5
1D8
330
19D
100
AcDbEntity
  8
1
  6
Continuous
 62
     7
370
     9
100
AcDbVertex
100
AcDb2dVertex
 10
745.75
 20
397.1495262923864
 30
0.0
  0
SEQEND
  5
19E
330
19D
100
AcDbEntity
  8
1
  6
Continuous
370
     9
  0
LINE
  5
1D9
330
1F
100
AcDbEntity
  8
1
  6
Continuous
 62
     7
370
     9
100
AcDbLine
 10
730.75
 20
287.5306122448978
 30
0.0
 11
730.75
 21
396.1486785279374
 31
0.0
  0
LINE
  5
1DA
330
1F
100
AcDbEntity
  8
1
  6
Continuous
 62
     7
370
     9
100
AcDbLine
 10
745.75
 20
287.5306122448978
 30
0.0
 11
745.75
 21
397.1495262923864
 31
0.0
  0
CIRCLE
  5
1DB
330
1F
100
AcDbEntity
  8
1
  6
Continuous
 62
     7
370
     9
100
AcDbCircle
 10
171.7160735407815
 20
429.4504040392347
 30
0.0
 40
17.5
  0
CIRCLE
  5
1DC
330
1F
100
AcDbEntity
  8
1
  6
Continuous
 62
     7
370
     9
100
AcDbCircle
 10
738.2499998242849
 20
429.4504040392347
 30
0.0
 40
17.5
  0
LINE
  5
1DD
330
1F
100
AcDbEntity
  8
1
  6
Continuous
 62
     7
370
     9
100
AcDbLine
 10
745.75
 20
398.0750377435088
 30
0.0
 11
745.75
 21
413.6390158217419
 31
0.0
  0
LINE
  5
1DE
330
1F
100
AcDbEntity
  8
1
  6
Continuous
 62
     7
370
     9
100
AcDbLine
 10
730.75
 20
397.0750377435088
 30
0.0
 11
730.75
 21
413.6390156550439
 31
0.0
  0
LINE
  5
1DF
330
1F
100
AcDbEntity
  8
1
  6
Continuous
 62
     7
370
     9
100
AcDbLine
 10
45.16216216216162
 20
112.5306122448978
 30
0.0
 11
65.0753638253633
 21
112.5306122448978
 31
0.0
  0
LINE
  5
1E0
330
1F
100
AcDbEntity
  8
1
  6
Continuous
 62
     7
370
     9
100
AcDbLine
 10
45.16216216216162
 20
77.53061224489784
 30
0.0
 11
62.29677754677698
 21
77.53061224489784
 31
0.0
  0
LINE
  5
1E1
330
1F
100
AcDbEntity
  8
1
  6
Continuous
 62
     7
370
     9
100
AcDbLine
 10
111.3515306122449
 20
76.53061224489784
 30
0.0
 11
107.3515306122449
 21
80.53061224489784
 31
0.0
  0
LINE
  5
1E2
330
1F
100
AcDbEntity
  8
1
  6
Continuous
 62
     7
370
     9
100
AcDbLine
 10
163.7554209183667
 20
76.53061224489784
 30
0.0
 11
167.7554209183667
 21
80.53061224489784
 31
0.0
  0
LINE
  5
1E3
330
1F
100
AcDbEntity
  8
1
  6
Continuous
 62
     7
370
     9
100
AcDbLine
 10
307.0207270408166
 20
76.53061224489781
 30
0.0
 11
303.0207270408165
 21
80.53061224489784
 31
0.0
  0
LINE
  5
1E4
330
1F
100
AcDbEntity
  8
1
  6
Continuous
 62
     7
370
     9
100
AcDbLine
 10
167.7554209183667
 20
80.53061224489784
 30
0.0
 11
303.0207270408165
 21
80.53061224489784
 31
0.0
  0
LINE
  5
1E5
330
1F
100
AcDbEntity
  8
1
  6
Continuous
 62
     7
370
     9
100
AcDbLine
 10
111.3515306122449
 20
76.53061224489784
 30
0.0
 11
163.7554209183667
 21
76.53061224489784
 31
0.0
  0
LINE
  5
1E6
330
1F
100
AcDbEntity
  8
1
  6
Continuous
 62
     7
370
     9
100
AcDbLine
 10
107.3515306122449
 20
80.53061224489784
 30
0.0
 11
71.35153061224491
 21
80.53061224489784
 31
0.0
  0
LINE
  5
1E7
330
1F
100
AcDbEntity
  8
1
  6
Continuous
 62
     7
370
     9
100
AcDbLine
 10
71.35153061224491
 20
80.53061224489784
 30
0.0
 11
74.35153061224491
 21
112.5306122448978
 31
0.0
  0
LINE
  5
1E8
330
1F
100
AcDbEntity
  8
1
  6
Continuous
 62
     7
370
     9
100
AcDbLine
 10
307.5947066326533
 20
76.53061224489784
 30
0.0
 11
361.3515306122449
 21
76.53061224489784
 31
0.0
  0
LINE
  5
1E9
330
1F
100
AcDbEntity
  8
1
  6
Continuous
 62
     7
370
     9
100
AcDbLine
 10
358.3515306122449
 20
112.5306122448978
 30
0.0
 11
361.3515306122449
 21
76.53061224489784
 31
0.0
  0
POLYLINE
  5
1EA
330
1F
100
AcDbEntity
  8
1
  6
Continuous
 62
     7
370
     9
100
AcDb2dPolyline
 66
     1
 10
0.0
 20
0.0
 30
0.0
 70
     2
  0
VERTEX
  5
1EC
330
1EA
100
AcDbEntity
  8
1
  6
Continuous
 62
     7
370
     9
100
AcDbVertex
100
AcDb2dVertex
 10
165.7160737164966
 20
397.1779024474768
 30
0.0
  0
VERTEX
  5
1ED
330
1EA
100
AcDbEntity
  8
1
  6
Continuous
 62
     7
370
     9
100
AcDbVertex
100
AcDb2dVertex
 10
165.7427359463769
 20
397.1675489457381
 30
0.0
  0
VERTEX
  5
1EE
330
1EA
100
AcDbEntity
  8
1
  6
Continuous
 62
     7
370
     9
100
AcDbVertex
100
AcDb2dVertex
 10
165.8219974008007
 20
397.1367825974553
 30
0.0
  0
VERTEX
  5
1EF
330
1EA
100
AcDbEntity
  8
1
  6
Continuous
 62
     7
370
     9
100
AcDbVertex
100
AcDb2dVertex
 10
165.9517136432898
 20
397.0865439268333
 30
0.0
  0
VERTEX
  5
1F0
330
1EA
100
AcDbEntity
  8
1
  6
Continuous
 62
     7
370
     9
100
AcDbVertex
100
AcDb2dVertex
 10
166.1284099237258
 20
397.0185690067629
 30
0.0
  0
VERTEX
  5
1F1
330
1EA
100
AcDbEntity
  8
1
  6
Continuous
 62
     7
370
     9
100
AcDbVertex
100
AcDb2dVertex
 10
166.3474141799553
 20
396.935561961858
 30
0.0
  0
VERTEX
  5
1F2
330
1EA
100
AcDbEntity
  8
1
  6
Continuous
 62
     7
370
     9
100
AcDbVertex
100
AcDb2dVertex
 10
166.6030155102815
 20
396.8412997125856
 30
0.0
  0
VERTEX
  5
1F3
330
1EA
100
AcDbEntity
  8
1
  6
Continuous
 62
     7
370
     9
100
AcDbVertex
100
AcDb2dVertex
 10
166.8886290918624
 20
396.7405815281672
 30
0.0
  0
VERTEX
  5
1F4
330
1EA
100
AcDbEntity
  8
1
  6
Continuous
 62
     7
370
     9
100
AcDbVertex
100
AcDb2dVertex
 10
167.1969529837559
 20
396.6389668782762
 30
0.0
  0
VERTEX
  5
1F5
330
1EA
100
AcDbEntity
  8
1
  6
Continuous
 62
     7
370
     9
100
AcDbVertex
100
AcDb2dVertex
 10
167.5201103916096
 20
396.542296390348
 30
0.0
  0
VERTEX
  5
1F6
330
1EA
100
AcDbEntity
  8
1
  6
Continuous
 62
     7
370
     9
100
AcDbVertex
100
AcDb2dVertex
 10
167.8497806301825
 20
396.4560499190958
 30
0.0
  0
VERTEX
  5
1F7
330
1EA
100
AcDbEntity
  8
1
  6
Continuous
 62
     7
370
     9
100
AcDbVertex
100
AcDb2dVertex
 10
168.177330590732
 20
396.3846477085556
 30
0.0
  0
VERTEX
  5
1F8
330
1EA
100
AcDbEntity
  8
1
  6
Continuous
 62
     7
370
     9
100
AcDbVertex
100
AcDb2dVertex
 10
168.4939635867749
 20
396.3308314035082
 30
0.0
  0
VERTEX
  5
1F9
330
1EA
100
AcDbEntity
  8
1
  6
Continuous
 62
     7
370
     9
100
AcDbVertex
100
AcDb2dVertex
 10
168.7909024035953
 20
396.2952619390573
 30
0.0
  0
VERTEX
  5
1FA
330
1EA
100
AcDbEntity
  8
1
  6
Continuous
 62
     7
370
     9
100
AcDbVertex
100
AcDb2dVertex
 10
169.0596178352838
 20
396.2764389101811
 30
0.0
  0
VERTEX
  5
1FB
330
1EA
100
AcDbEntity
  8
1
  6
Continuous
 62
     7
370
     9
100
AcDbVertex
100
AcDb2dVertex
 10
169.2921039426294
 20
396.2709865760114
 30
0.0
  0
VERTEX
  5
1FC
330
1EA
100
AcDbEntity
  8
1
  6
Continuous
 62
     7
370
     9
100
AcDbVertex
100
AcDb2dVertex
 10
169.4811888561745
 20
396.2742776007214
 30
0.0
  0
VERTEX
  5
1FD
330
1EA
100
AcDbEntity
  8
1
  6
Continuous
 62
     7
370
     9
100
AcDbVertex
100
AcDb2dVertex
 10
169.6208580131388
 20
396.2812933380031
 30
0.0
  0
VERTEX
  5
1FE
330
1EA
100
AcDbEntity
  8
1
  6
Continuous
 62
     7
370
     9
100
AcDbVertex
100
AcDb2dVertex
 10
169.7065581106853
 20
396.2875654572574
 30
0.0
  0
VERTEX
  5
1FF
330
1EA
100
AcDbEntity
  8
1
  6
Continuous
 62
     7
370
     9
100
AcDbVertex
100
AcDb2dVertex
 10
169.7354469854474
 20
396.2900207900203
 30
0.0
  0
VERTEX
  5
200
330
1EA
100
AcDbEntity
  8
1
  6
Continuous
 62
     7
370
     9
100
AcDbVertex
100
AcDb2dVertex
 10
169.7643663125531
 20
396.2926514305923
 30
0.0
  0
VERTEX
  5
201
330
1EA
100
AcDbEntity
  8
1
  6
Continuous
 62
     7
370
     9
100
AcDbVertex
100
AcDb2dVertex
 10
169.8505107217906
 20
396.3014874786033
 30
0.0
  0
VERTEX
  5
202
330
1EA
100
AcDbEntity
  8
1
  6
Continuous
 62
     7
370
     9
100
AcDbVertex
100
AcDb2dVertex
 10
169.9920069357451
 20
396.3190949028128
 30
0.0
  0
VERTEX
  5
203
330
1EA
100
AcDbEntity
  8
1
  6
Continuous
 62
     7
370
     9
100
AcDbVertex
100
AcDb2dVertex
 10
170.1856378234596
 20
396.3489271041954
 30
0.0
  0
VERTEX
  5
204
330
1EA
100
AcDbEntity
  8
1
  6
Continuous
 62
     7
370
     9
100
AcDbVertex
100
AcDb2dVertex
 10
170.4267437705604
 20
396.3943013740864
 30
0.0
  0
VERTEX
  5
205
330
1EA
100
AcDbEntity
  8
1
  6
Continuous
 62
     7
370
     9
100
AcDbVertex
100
AcDb2dVertex
 10
170.709160600611
 20
396.4573361142781
 30
0.0
  0
VERTEX
  5
206
330
1EA
100
AcDbEntity
  8
1
  6
Continuous
 62
     7
370
     9
100
AcDbVertex
100
AcDb2dVertex
 10
171.0252455930284
 20
396.5381096355574
 30
0.0
  0
VERTEX
  5
207
330
1EA
100
AcDbEntity
  8
1
  6
Continuous
 62
     7
370
     9
100
AcDbVertex
100
AcDb2dVertex
 10
171.3660297718706
 20
396.634249553343
 30
0.0
  0
VERTEX
  5
208
330
1EA
100
AcDbEntity
  8
1
  6
Continuous
 62
     7
370
     9
100
AcDbVertex
100
AcDb2dVertex
 10
171.7215103532563
 20
396.7410597467871
 30
0.0
  0
VERTEX
  5
209
330
1EA
100
AcDbEntity
  8
1
  6
Continuous
 62
     7
370
     9
100
AcDbVertex
100
AcDb2dVertex
 10
172.0810677373241
 20
396.852164085157
 30
0.0
  0
VERTEX
  5
20A
330
1EA
100
AcDbEntity
  8
1
  6
Continuous
 62
     7
370
     9
100
AcDbVertex
100
AcDb2dVertex
 10
172.4339637746189
 20
396.9605233605162
 30
0.0
  0
VERTEX
  5
20B
330
1EA
100
AcDbEntity
  8
1
  6
Continuous
 62
     7
370
     9
100
AcDbVertex
100
AcDb2dVertex
 10
172.7698589407349
 20
397.05959357507
 30
0.0
  0
VERTEX
  5
20C
330
1EA
100
AcDbEntity
  8
1
  6
Continuous
 62
     7
370
     9
100
AcDbVertex
100
AcDb2dVertex
 10
173.0792802521805
 20
397.1443610648476
 30
0.0
  0
VERTEX
  5
20D
330
1EA
100
AcDbEntity
  8
1
  6
Continuous
 62
     7
370
     9
100
AcDbVertex
100
AcDb2dVertex
 10
173.3539808462446
 20
397.2120206368078
 30
0.0
  0
VERTEX
  5
20E
330
1EA
100
AcDbEntity
  8
1
  6
Continuous
 62
     7
370
     9
100
AcDbVertex
100
AcDb2dVertex
 10
173.5871541762432
 20
397.2621494294541
 30
0.0
  0
VERTEX
  5
20F
330
1EA
100
AcDbEntity
  8
1
  6
Continuous
 62
     7
370
     9
100
AcDbVertex
100
AcDb2dVertex
 10
173.7734956878899
 20
397.2963506182642
 30
0.0
  0
VERTEX
  5
210
330
1EA
100
AcDbEntity
  8
1
  6
Continuous
 62
     7
370
     9
100
AcDbVertex
100
AcDb2dVertex
 10
173.9091356838145
 20
397.3174680469936
 30
0.0
  0
VERTEX
  5
211
330
1EA
100
AcDbEntity
  8
1
  6
Continuous
 62
     7
370
     9
100
AcDbVertex
100
AcDb2dVertex
 10
173.9914916451519
 20
397.3285747531639
 30
0.0
  0
VERTEX
  5
212
330
1EA
100
AcDbEntity
  8
1
  6
Continuous
 62
     7
370
     9
100
AcDbVertex
100
AcDb2dVertex
 10
174.0191008316013
 20
397.3319906444902
 30
0.0
  0
VERTEX
  5
213
330
1EA
100
AcDbEntity
  8
1
  6
Continuous
 62
     7
370
     9
100
AcDbVertex
100
AcDb2dVertex
 10
174.0466615948553
 20
397.3352419990837
 30
0.0
  0
VERTEX
  5
214
330
1EA
100
AcDbEntity
  8
1
  6
Continuous
 62
     7
370
     9
100
AcDbVertex
100
AcDb2dVertex
 10
174.1283085493065
 20
397.3439434251894
 30
0.0
  0
VERTEX
  5
215
330
1EA
100
AcDbEntity
  8
1
  6
Continuous
 62
     7
370
     9
100
AcDbVertex
100
AcDb2dVertex
 10
174.2610132538578
 20
397.3551334024539
 30
0.0
  0
VERTEX
  5
216
330
1EA
100
AcDbEntity
  8
1
  6
Continuous
 62
     7
370
     9
100
AcDbVertex
100
AcDb2dVertex
 10
174.4399749126357
 20
397.3644919386205
 30
0.0
  0
VERTEX
  5
217
330
1EA
100
AcDbEntity
  8
1
  6
Continuous
 62
     7
370
     9
100
AcDbVertex
100
AcDb2dVertex
 10
174.6589509530315
 20
397.3671370481962
 30
0.0
  0
VERTEX
  5
218
330
1EA
100
AcDbEntity
  8
1
  6
Continuous
 62
     7
370
     9
100
AcDbVertex
100
AcDb2dVertex
 10
174.910649509661
 20
397.3585133165569
 30
0.0
  0
VERTEX
  5
219
330
1EA
100
AcDbEntity
  8
1
  6
Continuous
 62
     7
370
     9
100
AcDbVertex
100
AcDb2dVertex
 10
175.1871310174513
 20
397.3352052205852
 30
0.0
  0
VERTEX
  5
21A
330
1EA
100
AcDbEntity
  8
1
  6
Continuous
 62
     7
370
     9
100
AcDbVertex
100
AcDb2dVertex
 10
175.4801715845149
 20
397.2955293611171
 30
0.0
  0
VERTEX
  5
21B
330
1EA
100
AcDbEntity
  8
1
  6
Continuous
 62
     7
370
     9
100
AcDbVertex
100
AcDb2dVertex
 10
175.7815549893771
 20
397.23981043427
 30
0.0
  0
VERTEX
  5
21C
330
1EA
100
AcDbEntity
  8
1
  6
Continuous
 62
     7
370
     9
100
AcDbVertex
100
AcDb2dVertex
 10
176.0832795124043
 20
397.1703136105507
 30
0.0
  0
VERTEX
  5
21D
330
1EA
100
AcDbEntity
  8
1
  6
Continuous
 62
     7
370
     9
100
AcDbVertex
100
AcDb2dVertex
 10
176.37768582048
 20
397.0908754882306
 30
0.0
  0
VERTEX
  5
21E
330
1EA
100
AcDbEntity
  8
1
  6
Continuous
 62
     7
370
     9
100
AcDbVertex
100
AcDb2dVertex
 10
176.6575282706679
 20
397.006331580687
 30
0.0
  0
VERTEX
  5
21F
330
1EA
100
AcDbEntity
  8
1
  6
Continuous
 62
     7
370
     9
100
AcDbVertex
100
AcDb2dVertex
 10
176.9160208622468
 20
396.9218687332462
 30
0.0
  0
VERTEX
  5
220
330
1EA
100
AcDbEntity
  8
1
  6
Continuous
 62
     7
370
     9
100
AcDbVertex
100
AcDb2dVertex
 10
177.1468890815277
 20
396.8424306129793
 30
0.0
  0
VERTEX
  5
221
330
1EA
100
AcDbEntity
  8
1
  6
Continuous
 62
     7
370
     9
100
AcDbVertex
100
AcDb2dVertex
 10
177.3444506537051
 20
396.7722755345752
 30
0.0
  0
VERTEX
  5
222
330
1EA
100
AcDbEntity
  8
1
  6
Continuous
 62
     7
370
     9
100
AcDbVertex
100
AcDb2dVertex
 10
177.5037343033061
 20
396.7147371133887
 30
0.0
  0
VERTEX
  5
223
330
1EA
100
AcDbEntity
  8
1
  6
Continuous
 62
     7
370
     9
100
AcDbVertex
100
AcDb2dVertex
 10
177.6206298753523
 20
396.6721826872693
 30
0.0
  0
VERTEX
  5
224
330
1EA
100
AcDbEntity
  8
1
  6
Continuous
 62
     7
370
     9
100
AcDbVertex
100
AcDb2dVertex
 10
177.6920497387808
 20
396.6461163039974
 30
0.0
  0
VERTEX
  5
225
330
1EA
100
AcDbEntity
  8
1
  6
Continuous
 62
     7
370
     9
100
AcDbVertex
100
AcDb2dVertex
 10
177.7160737164966
 20
396.6373440748436
 30
0.0
  0
SEQEND
  5
1EB
330
1EA
100
AcDbEntity
  8
1
  6
Continuous
370
     9
  0
POLYLINE
  5
226
330
1F
100
AcDbEntity
  8
1
  6
Continuous
 62
     7
370
     9
100
AcDb2dPolyline
 66
     1
 10
0.0
 20
0.0
 30
0.0
 70
     2
  0
VERTEX
  5
228
330
226
100
AcDbEntity
  8
1
  6
Continuous
 62
     7
370
     9
100
AcDbVertex
100
AcDb2dVertex
 10
165.7160737164966
 20
397.6257488399208
 30
0.0
  0
VERTEX
  5
229
330
226
100
AcDbEntity
  8
1
  6
Continuous
 62
     7
370
     9
100
AcDbVertex
100
AcDb2dVertex
 10
165.7427359463769
 20
397.6153953381822
 30
0.0
  0
VERTEX
  5
22A
330
226
100
AcDbEntity
  8
1
  6
Continuous
 62
     7
370
     9
100
AcDbVertex
100
AcDb2dVertex
 10
165.8219974008007
 20
397.5846289898994
 30
0.0
  0
VERTEX
  5
22B
330
226
100
AcDbEntity
  8
1
  6
Continuous
 62
     7
370
     9
100
AcDbVertex
100
AcDb2dVertex
 10
165.9517136432898
 20
397.5343903192773
 30
0.0
  0
VERTEX
  5
22C
330
226
100
AcDbEntity
  8
1
  6
Continuous
 62
     7
370
     9
100
AcDbVertex
100
AcDb2dVertex
 10
166.1284099237258
 20
397.466415399207
 30
0.0
  0
VERTEX
  5
22D
330
226
100
AcDbEntity
  8
1
  6
Continuous
 62
     7
370
     9
100
AcDbVertex
100
AcDb2dVertex
 10
166.3474141799553
 20
397.3834083543021
 30
0.0
  0
VERTEX
  5
22E
330
226
100
AcDbEntity
  8
1
  6
Continuous
 62
     7
370
     9
100
AcDbVertex
100
AcDb2dVertex
 10
166.6030155102815
 20
397.2891461050297
 30
0.0
  0
VERTEX
  5
22F
330
226
100
AcDbEntity
  8
1
  6
Continuous
 62
     7
370
     9
100
AcDbVertex
100
AcDb2dVertex
 10
166.8886290918624
 20
397.1884279206113
 30
0.0
  0
VERTEX
  5
230
330
226
100
AcDbEntity
  8
1
  6
Continuous
 62
     7
370
     9
100
AcDbVertex
100
AcDb2dVertex
 10
167.1969529837559
 20
397.0868132707203
 30
0.0
  0
VERTEX
  5
231
330
226
100
AcDbEntity
  8
1
  6
Continuous
 62
     7
370
     9
100
AcDbVertex
100
AcDb2dVertex
 10
167.5201103916096
 20
396.9901427827921
 30
0.0
  0
VERTEX
  5
232
330
226
100
AcDbEntity
  8
1
  6
Continuous
 62
     7
370
     9
100
AcDbVertex
100
AcDb2dVertex
 10
167.8497806301825
 20
396.9038963115399
 30
0.0
  0
VERTEX
  5
233
330
226
100
AcDbEntity
  8
1
  6
Continuous
 62
     7
370
     9
100
AcDbVertex
100
AcDb2dVertex
 10
168.177330590732
 20
396.8324941009997
 30
0.0
  0
VERTEX
  5
234
330
226
100
AcDbEntity
  8
1
  6
Continuous
 62
     7
370
     9
100
AcDbVertex
100
AcDb2dVertex
 10
168.4939635867749
 20
396.7786777959523
 30
0.0
  0
VERTEX
  5
235
330
226
100
AcDbEntity
  8
1
  6
Continuous
 62
     7
370
     9
100
AcDbVertex
100
AcDb2dVertex
 10
168.7909024035953
 20
396.7431083315014
 30
0.0
  0
VERTEX
  5
236
330
226
100
AcDbEntity
  8
1
  6
Continuous
 62
     7
370
     9
100
AcDbVertex
100
AcDb2dVertex
 10
169.0596178352838
 20
396.7242853026252
 30
0.0
  0
VERTEX
  5
237
330
226
100
AcDbEntity
  8
1
  6
Continuous
 62
     7
370
     9
100
AcDbVertex
100
AcDb2dVertex
 10
169.2921039426294
 20
396.7188329684554
 30
0.0
  0
VERTEX
  5
238
330
226
100
AcDbEntity
  8
1
  6
Continuous
 62
     7
370
     9
100
AcDbVertex
100
AcDb2dVertex
 10
169.4811888561745
 20
396.7221239931655
 30
0.0
  0
VERTEX
  5
239
330
226
100
AcDbEntity
  8
1
  6
Continuous
 62
     7
370
     9
100
AcDbVertex
100
AcDb2dVertex
 10
169.6208580131388
 20
396.7291397304472
 30
0.0
  0
VERTEX
  5
23A
330
226
100
AcDbEntity
  8
1
  6
Continuous
 62
     7
370
     9
100
AcDbVertex
100
AcDb2dVertex
 10
169.7065581106853
 20
396.7354118497014
 30
0.0
  0
VERTEX
  5
23B
330
226
100
AcDbEntity
  8
1
  6
Continuous
 62
     7
370
     9
100
AcDbVertex
100
AcDb2dVertex
 10
169.7354469854474
 20
396.7378671824644
 30
0.0
  0
VERTEX
  5
23C
330
226
100
AcDbEntity
  8
1
  6
Continuous
 62
     7
370
     9
100
AcDbVertex
100
AcDb2dVertex
 10
169.7643663125531
 20
396.7404978230364
 30
0.0
  0
VERTEX
  5
23D
330
226
100
AcDbEntity
  8
1
  6
Continuous
 62
     7
370
     9
100
AcDbVertex
100
AcDb2dVertex
 10
169.8505107217906
 20
396.7493338710474
 30
0.0
  0
VERTEX
  5
23E
330
226
100
AcDbEntity
  8
1
  6
Continuous
 62
     7
370
     9
100
AcDbVertex
100
AcDb2dVertex
 10
169.9920069357451
 20
396.7669412952569
 30
0.0
  0
VERTEX
  5
23F
330
226
100
AcDbEntity
  8
1
  6
Continuous
 62
     7
370
     9
100
AcDbVertex
100
AcDb2dVertex
 10
170.1856378234596
 20
396.7967734966395
 30
0.0
  0
VERTEX
  5
240
330
226
100
AcDbEntity
  8
1
  6
Continuous
 62
     7
370
     9
100
AcDbVertex
100
AcDb2dVertex
 10
170.4267437705604
 20
396.8421477665305
 30
0.0
  0
VERTEX
  5
241
330
226
100
AcDbEntity
  8
1
  6
Continuous
 62
     7
370
     9
100
AcDbVertex
100
AcDb2dVertex
 10
170.709160600611
 20
396.9051825067222
 30
0.0
  0
VERTEX
  5
242
330
226
100
AcDbEntity
  8
1
  6
Continuous
 62
     7
370
     9
100
AcDbVertex
100
AcDb2dVertex
 10
171.0252455930284
 20
396.9859560280015
 30
0.0
  0
VERTEX
  5
243
330
226
100
AcDbEntity
  8
1
  6
Continuous
 62
     7
370
     9
100
AcDbVertex
100
AcDb2dVertex
 10
171.3660297718706
 20
397.0820959457871
 30
0.0
  0
VERTEX
  5
244
330
226
100
AcDbEntity
  8
1
  6
Continuous
 62
     7
370
     9
100
AcDbVertex
100
AcDb2dVertex
 10
171.7215103532563
 20
397.1889061392312
 30
0.0
  0
VERTEX
  5
245
330
226
100
AcDbEntity
  8
1
  6
Continuous
 62
     7
370
     9
100
AcDbVertex
100
AcDb2dVertex
 10
172.0810677373241
 20
397.3000104776011
 30
0.0
  0
VERTEX
  5
246
330
226
100
AcDbEntity
  8
1
  6
Continuous
 62
     7
370
     9
100
AcDbVertex
100
AcDb2dVertex
 10
172.4339637746189
 20
397.4083697529603
 30
0.0
  0
VERTEX
  5
247
330
226
100
AcDbEntity
  8
1
  6
Continuous
 62
     7
370
     9
100
AcDbVertex
100
AcDb2dVertex
 10
172.7698589407349
 20
397.5074399675141
 30
0.0
  0
VERTEX
  5
248
330
226
100
AcDbEntity
  8
1
  6
Continuous
 62
     7
370
     9
100
AcDbVertex
100
AcDb2dVertex
 10
173.0792802521805
 20
397.5922074572917
 30
0.0
  0
VERTEX
  5
249
330
226
100
AcDbEntity
  8
1
  6
Continuous
 62
     7
370
     9
100
AcDbVertex
100
AcDb2dVertex
 10
173.3539808462446
 20
397.6598670292519
 30
0.0
  0
VERTEX
  5
24A
330
226
100
AcDbEntity
  8
1
  6
Continuous
 62
     7
370
     9
100
AcDbVertex
100
AcDb2dVertex
 10
173.5871541762432
 20
397.7099958218982
 30
0.0
  0
VERTEX
  5
24B
330
226
100
AcDbEntity
  8
1
  6
Continuous
 62
     7
370
     9
100
AcDbVertex
100
AcDb2dVertex
 10
173.7734956878899
 20
397.7441970107083
 30
0.0
  0
VERTEX
  5
24C
330
226
100
AcDbEntity
  8
1
  6
Continuous
 62
     7
370
     9
100
AcDbVertex
100
AcDb2dVertex
 10
173.9091356838145
 20
397.7653144394376
 30
0.0
  0
VERTEX
  5
24D
330
226
100
AcDbEntity
  8
1
  6
Continuous
 62
     7
370
     9
100
AcDbVertex
100
AcDb2dVertex
 10
173.9914916451519
 20
397.776421145608
 30
0.0
  0
VERTEX
  5
24E
330
226
100
AcDbEntity
  8
1
  6
Continuous
 62
     7
370
     9
100
AcDbVertex
100
AcDb2dVertex
 10
174.0191008316013
 20
397.7798370369343
 30
0.0
  0
VERTEX
  5
24F
330
226
100
AcDbEntity
  8
1
  6
Continuous
 62
     7
370
     9
100
AcDbVertex
100
AcDb2dVertex
 10
174.0466615948553
 20
397.7830883915278
 30
0.0
  0
VERTEX
  5
250
330
226
100
AcDbEntity
  8
1
  6
Continuous
 62
     7
370
     9
100
AcDbVertex
100
AcDb2dVertex
 10
174.1283085493065
 20
397.7917898176335
 30
0.0
  0
VERTEX
  5
251
330
226
100
AcDbEntity
  8
1
  6
Continuous
 62
     7
370
     9
100
AcDbVertex
100
AcDb2dVertex
 10
174.2610132538578
 20
397.802979794898
 30
0.0
  0
VERTEX
  5
252
330
226
100
AcDbEntity
  8
1
  6
Continuous
 62
     7
370
     9
100
AcDbVertex
100
AcDb2dVertex
 10
174.4399749126357
 20
397.8123383310646
 30
0.0
  0
VERTEX
  5
253
330
226
100
AcDbEntity
  8
1
  6
Continuous
 62
     7
370
     9
100
AcDbVertex
100
AcDb2dVertex
 10
174.6589509530315
 20
397.8149834406403
 30
0.0
  0
VERTEX
  5
254
330
226
100
AcDbEntity
  8
1
  6
Continuous
 62
     7
370
     9
100
AcDbVertex
100
AcDb2dVertex
 10
174.910649509661
 20
397.806359709001
 30
0.0
  0
VERTEX
  5
255
330
226
100
AcDbEntity
  8
1
  6
Continuous
 62
     7
370
     9
100
AcDbVertex
100
AcDb2dVertex
 10
175.1871310174513
 20
397.7830516130293
 30
0.0
  0
VERTEX
  5
256
330
226
100
AcDbEntity
  8
1
  6
Continuous
 62
     7
370
     9
100
AcDbVertex
100
AcDb2dVertex
 10
175.4801715845149
 20
397.7433757535612
 30
0.0
  0
VERTEX
  5
257
330
226
100
AcDbEntity
  8
1
  6
Continuous
 62
     7
370
     9
100
AcDbVertex
100
AcDb2dVertex
 10
175.7815549893771
 20
397.6876568267141
 30
0.0
  0
VERTEX
  5
258
330
226
100
AcDbEntity
  8
1
  6
Continuous
 62
     7
370
     9
100
AcDbVertex
100
AcDb2dVertex
 10
176.0832795124043
 20
397.6181600029948
 30
0.0
  0
VERTEX
  5
259
330
226
100
AcDbEntity
  8
1
  6
Continuous
 62
     7
370
     9
100
AcDbVertex
100
AcDb2dVertex
 10
176.37768582048
 20
397.5387218806747
 30
0.0
  0
VERTEX
  5
25A
330
226
100
AcDbEntity
  8
1
  6
Continuous
 62
     7
370
     9
100
AcDbVertex
100
AcDb2dVertex
 10
176.6575282706679
 20
397.4541779731311
 30
0.0
  0
VERTEX
  5
25B
330
226
100
AcDbEntity
  8
1
  6
Continuous
 62
     7
370
     9
100
AcDbVertex
100
AcDb2dVertex
 10
176.9160208622468
 20
397.3697151256903
 30
0.0
  0
VERTEX
  5
25C
330
226
100
AcDbEntity
  8
1
  6
Continuous
 62
     7
370
     9
100
AcDbVertex
100
AcDb2dVertex
 10
177.1468890815277
 20
397.2902770054234
 30
0.0
  0
VERTEX
  5
25D
330
226
100
AcDbEntity
  8
1
  6
Continuous
 62
     7
370
     9
100
AcDbVertex
100
AcDb2dVertex
 10
177.3444506537051
 20
397.2201219270192
 30
0.0
  0
VERTEX
  5
25E
330
226
100
AcDbEntity
  8
1
  6
Continuous
 62
     7
370
     9
100
AcDbVertex
100
AcDb2dVertex
 10
177.5037343033061
 20
397.1625835058328
 30
0.0
  0
VERTEX
  5
25F
330
226
100
AcDbEntity
  8
1
  6
Continuous
 62
     7
370
     9
100
AcDbVertex
100
AcDb2dVertex
 10
177.6206298753523
 20
397.1200290797134
 30
0.0
  0
VERTEX
  5
260
330
226
100
AcDbEntity
  8
1
  6
Continuous
 62
     7
370
     9
100
AcDbVertex
100
AcDb2dVertex
 10
177.6920497387808
 20
397.0939626964415
 30
0.0
  0
VERTEX
  5
261
330
226
100
AcDbEntity
  8
1
  6
Continuous
 62
     7
370
     9
100
AcDbVertex
100
AcDb2dVertex
 10
177.7160737164966
 20
397.0851904672877
 30
0.0
  0
SEQEND
  5
227
330
226
100
AcDbEntity
  8
1
  6
Continuous
370
     9
  0
LINE
  5
262
330
1F
100
AcDbEntity
  8
1
  6
Continuous
 62
     7
370
     9
100
AcDbLine
 10
177.7160737164966
 20
397.0851904672877
 30
0.0
 11
177.7160737164966
 21
412.491288590192
 31
0.0
  0
LINE
  5
263
330
1F
100
AcDbEntity
  8
1
  6
Continuous
 62
     7
370
     9
100
AcDbLine
 10
177.7160737164966
 20
287.5306122448978
 30
0.0
 11
177.7160737164966
 21
396.6373440748436
 31
0.0
  0
LINE
  5
264
330
1F
100
AcDbEntity
  8
1
  6
Continuous
 62
     7
370
     9
100
AcDbLine
 10
165.7160737164966
 20
397.6257488399208
 30
0.0
 11
165.7160737164966
 21
413.0111217523287
 31
0.0
  0
LINE
  5
265
330
1F
100
AcDbEntity
  8
1
  6
Continuous
 62
     7
370
     9
100
AcDbLine
 10
223.4515306122449
 20
194.5306122448978
 30
0.0
 11
225.4515306122449
 21
192.5306122448978
 31
0.0
  0
LINE
  5
266
330
1F
100
AcDbEntity
  8
1
  6
Continuous
 62
     7
370
     9
100
AcDbLine
 10
225.4515306122449
 20
192.5306122448978
 30
0.0
 11
251.2515306122448
 21
192.5306122448978
 31
0.0
  0
LINE
  5
267
330
1F
100
AcDbEntity
  8
1
  6
Continuous
 62
     7
370
     9
100
AcDbLine
 10
251.2515306122448
 20
192.5306122448978
 30
0.0
 11
253.2515306122448
 21
194.5306122448978
 31
0.0
  0
CIRCLE
  5
268
330
1F
100
AcDbEntity
  8
1
  6
Continuous
 62
     7
370
     9
100
AcDbCircle
 10
238.3515306122449
 20
198.5306122448978
 30
0.0
 40
2.0
  0
LINE
  5
269
330
1F
100
AcDbEntity
  8
1
  6
Continuous
 62
     7
370
     9
100
AcDbLine
 10
233.3515306122449
 20
188.8555255977124
 30
0.0
 11
243.3515306122449
 21
188.8555255977124
 31
0.0
  0
LINE
  5
26A
330
1F
100
AcDbEntity
  8
1
  6
Continuous
 62
     7
370
     9
100
AcDbLine
 10
233.3515306122449
 20
191.7498863045732
 30
0.0
 11
233.3515306122449
 21
187.8135557432426
 31
0.0
  0
LINE
  5
26B
330
1F
100
AcDbEntity
  8
1
  6
Continuous
 62
     7
370
     9
100
AcDbLine
 10
243.3515306122449
 20
191.7498863045732
 30
0.0
 11
243.3515306122449
 21
187.5241196725565
 31
0.0
  0
LINE
  5
26C
330
1F
100
AcDbEntity
  8
1
  6
Continuous
 62
     7
370
     9
100
AcDbLine
 10
256.7833452442832
 20
192.5306122448978
 30
0.0
 11
265.0033296517676
 21
192.5306122448978
 31
0.0
  0
LINE
  5
26D
330
1F
100
AcDbEntity
  8
1
  6
Continuous
 62
     7
370
     9
100
AcDbLine
 10
223.4515306122449
 20
202.5306122448978
 30
0.0
 11
223.4515306122449
 21
194.5306122448978
 31
0.0
  0
LINE
  5
26E
330
1F
100
AcDbEntity
  8
1
  6
Continuous
 62
     7
370
     9
100
AcDbLine
 10
253.2515306122448
 20
202.5306122448978
 30
0.0
 11
253.2515306122448
 21
194.5306122448978
 31
0.0
  0
LINE
  5
26F
330
1F
100
AcDbEntity
  8
1
  6
Continuous
 62
     7
370
     9
100
AcDbLine
 10
295.3362298596679
 20
344.5306122448978
 30
0.0
 11
295.3362298596679
 21
202.5306122448978
 31
0.0
  0
LINE
  5
270
330
1F
100
AcDbEntity
  8
1
  6
Continuous
 62
     7
370
     9
100
AcDbLine
 10
295.3362298596679
 20
195.5306122448978
 30
0.0
 11
295.3362298596679
 21
202.5306122448978
 31
0.0
  0
LINE
  5
271
330
1F
100
AcDbEntity
  8
1
  6
Continuous
 62
     7
370
     9
100
AcDbLine
 10
256.7833452442833
 20
195.5306122448978
 30
0.0
 11
295.3362298596679
 21
195.5306122448978
 31
0.0
  0
LINE
  5
272
330
1F
100
AcDbEntity
  8
1
  6
Continuous
 62
     7
370
     9
100
AcDbLine
 10
45.16216216216162
 20
377.5306122448978
 30
0.0
 11
45.93861929746919
 21
374.6328347660306
 31
0.0
  0
LINE
  5
273
330
1F
100
AcDbEntity
  8
1
  6
Continuous
 62
     7
370
     9
100
AcDbLine
 10
45.16216216216162
 20
377.5306122448978
 30
0.0
 11
44.38570502685406
 21
374.6328347660306
 31
0.0
  0
LINE
  5
274
330
1F
100
AcDbEntity
  8
1
  6
Continuous
 62
     7
370
     9
100
AcDbLine
 10
45.93861929746919
 20
374.6328347660306
 30
0.0
 11
44.38570502685406
 21
374.6328347660306
 31
0.0
  0
LINE
  5
275
330
1F
100
AcDbEntity
  8
1
  6
Continuous
 62
     7
370
     9
100
AcDbLine
 10
45.16216216216162
 20
376.806167875181
 30
0.0
 11
45.5503907298154
 21
375.3572791357474
 31
0.0
  0
LINE
  5
276
330
1F
100
AcDbEntity
  8
1
  6
Continuous
 62
     7
370
     9
100
AcDbLine
 10
45.16216216216162
 20
376.806167875181
 30
0.0
 11
44.77393359450785
 21
375.3572791357474
 31
0.0
  0
LINE
  5
277
330
1F
100
AcDbEntity
  8
1
  6
Continuous
 62
     7
370
     9
100
AcDbLine
 10
45.5503907298154
 20
375.3572791357474
 30
0.0
 11
44.77393359450785
 21
375.3572791357474
 31
0.0
  0
POLYLINE
  5
278
330
1F
100
AcDbEntity
  8
1
  6
Continuous
 62
     7
370
     9
100
AcDb2dPolyline
 66
     1
 10
0.0
 20
0.0
 30
0.0
  0
VERTEX
  5
27A
330
278
100
AcDbEntity
  8
1
  6
Continuous
 62
     7
370
     9
100
AcDbVertex
100
AcDb2dVertex
 10
45.16216216216162
 20
377.5306122448978
 30
0.0
  0
VERTEX
  5
27B
330
278
100
AcDbEntity
  8
1
  6
Continuous
 62
     7
370
     9
100
AcDbVertex
100
AcDb2dVertex
 10
45.16216216216162
 20
369.9368665540534
 30
0.0
  0
SEQEND
  5
279
330
278
100
AcDbEntity
  8
1
  6
Continuous
370
     9
  0
LINE
  5
27C
330
1F
100
AcDbEntity
  8
1
  6
Continuous
 62
     7
370
     9
100
AcDbLine
 10
45.16216216216162
 20
112.5306122448978
 30
0.0
 11
44.38570502685406
 21
115.4283897237651
 31
0.0
  0
LINE
  5
27D
330
1F
100
AcDbEntity
  8
1
  6
Continuous
 62
     7
370
     9
100
AcDbLine
 10
45.16216216216162
 20
112.5306122448978
 30
0.0
 11
45.93861929746919
 21
115.428389723765
 31
0.0
  0
LINE
  5
27E
330
1F
100
AcDbEntity
  8
1
  6
Continuous
 62
     7
370
     9
100
AcDbLine
 10
44.38570502685406
 20
115.4283897237651
 30
0.0
 11
45.93861929746919
 21
115.428389723765
 31
0.0
  0
LINE
  5
27F
330
1F
100
AcDbEntity
  8
1
  6
Continuous
 62
     7
370
     9
100
AcDbLine
 10
45.16216216216162
 20
113.2550566146146
 30
0.0
 11
44.77393359450785
 21
114.7039453540482
 31
0.0
  0
LINE
  5
280
330
1F
100
AcDbEntity
  8
1
  6
Continuous
 62
     7
370
     9
100
AcDbLine
 10
45.16216216216162
 20
113.2550566146146
 30
0.0
 11
45.5503907298154
 21
114.7039453540482
 31
0.0
  0
LINE
  5
281
330
1F
100
AcDbEntity
  8
1
  6
Continuous
 62
     7
370
     9
100
AcDbLine
 10
44.77393359450785
 20
114.7039453540482
 30
0.0
 11
45.5503907298154
 21
114.7039453540482
 31
0.0
  0
POLYLINE
  5
282
330
1F
100
AcDbEntity
  8
1
  6
Continuous
 62
     7
370
     9
100
AcDb2dPolyline
 66
     1
 10
0.0
 20
0.0
 30
0.0
  0
VERTEX
  5
284
330
282
100
AcDbEntity
  8
1
  6
Continuous
 62
     7
370
     9
100
AcDbVertex
100
AcDb2dVertex
 10
45.16216216216162
 20
112.5306122448978
 30
0.0
  0
VERTEX
  5
285
330
282
100
AcDbEntity
  8
1
  6
Continuous
 62
     7
370
     9
100
AcDbVertex
100
AcDb2dVertex
 10
45.16216216216162
 20
118.9379060550929
 30
0.0
  0
SEQEND
  5
283
330
282
100
AcDbEntity
  8
1
  6
Continuous
370
     9
  0
LINE
  5
286
330
1F
100
AcDbEntity
  8
1
  6
Continuous
 62
     7
370
     9
100
AcDbLine
 10
45.16216216216162
 20
112.5306122448978
 30
0.0
 11
45.93861929746919
 21
109.6328347660306
 31
0.0
  0
LINE
  5
287
330
1F
100
AcDbEntity
  8
1
  6
Continuous
 62
     7
370
     9
100
AcDbLine
 10
45.16216216216162
 20
112.5306122448978
 30
0.0
 11
44.38570502685406
 21
109.6328347660306
 31
0.0
  0
LINE
  5
288
330
1F
100
AcDbEntity
  8
1
  6
Continuous
 62
     7
370
     9
100
AcDbLine
 10
45.93861929746919
 20
109.6328347660306
 30
0.0
 11
44.38570502685406
 21
109.6328347660306
 31
0.0
  0
LINE
  5
289
330
1F
100
AcDbEntity
  8
1
  6
Continuous
 62
     7
370
     9
100
AcDbLine
 10
45.16216216216162
 20
111.806167875181
 30
0.0
 11
45.5503907298154
 21
110.3572791357474
 31
0.0
  0
LINE
  5
28A
330
1F
100
AcDbEntity
  8
1
  6
Continuous
 62
     7
370
     9
100
AcDbLine
 10
45.16216216216162
 20
111.806167875181
 30
0.0
 11
44.77393359450785
 21
110.3572791357474
 31
0.0
  0
LINE
  5
28B
330
1F
100
AcDbEntity
  8
1
  6
Continuous
 62
     7
370
     9
100
AcDbLine
 10
45.5503907298154
 20
110.3572791357474
 30
0.0
 11
44.77393359450785
 21
110.3572791357474
 31
0.0
  0
POLYLINE
  5
28C
330
1F
100
AcDbEntity
  8
1
  6
Continuous
 62
     7
370
     9
100
AcDb2dPolyline
 66
     1
 10
0.0
 20
0.0
 30
0.0
  0
VERTEX
  5
28E
330
28C
100
AcDbEntity
  8
1
  6
Continuous
 62
     7
370
     9
100
AcDbVertex
100
AcDb2dVertex
 10
45.16216216216162
 20
112.5306122448978
 30
0.0
  0
VERTEX
  5
28F
330
28C
100
AcDbEntity
  8
1
  6
Continuous
 62
     7
370
     9
100
AcDbVertex
100
AcDb2dVertex
 10
45.16216216216162
 20
106.8973655145523
 30
0.0
  0
SEQEND
  5
28D
330
28C
100
AcDbEntity
  8
1
  6
Continuous
370
     9
  0
LINE
  5
290
330
1F
100
AcDbEntity
  8
1
  6
Continuous
 62
     7
370
     9
100
AcDbLine
 10
45.16216216216162
 20
77.53061224489784
 30
0.0
 11
44.38570502685406
 21
80.42838972376505
 31
0.0
  0
LINE
  5
291
330
1F
100
AcDbEntity
  8
1
  6
Continuous
 62
     7
370
     9
100
AcDbLine
 10
45.16216216216162
 20
77.53061224489784
 30
0.0
 11
45.93861929746919
 21
80.42838972376504
 31
0.0
  0
LINE
  5
292
330
1F
100
AcDbEntity
  8
1
  6
Continuous
 62
     7
370
     9
100
AcDbLine
 10
44.38570502685406
 20
80.42838972376505
 30
0.0
 11
45.93861929746919
 21
80.42838972376504
 31
0.0
  0
LINE
  5
293
330
1F
100
AcDbEntity
  8
1
  6
Continuous
 62
     7
370
     9
100
AcDbLine
 10
45.16216216216162
 20
78.25505661461465
 30
0.0
 11
44.77393359450785
 21
79.70394535404824
 31
0.0
  0
LINE
  5
294
330
1F
100
AcDbEntity
  8
1
  6
Continuous
 62
     7
370
     9
100
AcDbLine
 10
45.16216216216162
 20
78.25505661461465
 30
0.0
 11
45.5503907298154
 21
79.70394535404824
 31
0.0
  0
LINE
  5
295
330
1F
100
AcDbEntity
  8
1
  6
Continuous
 62
     7
370
     9
100
AcDbLine
 10
44.77393359450785
 20
79.70394535404824
 30
0.0
 11
45.5503907298154
 21
79.70394535404824
 31
0.0
  0
POLYLINE
  5
296
330
1F
100
AcDbEntity
  8
1
  6
Continuous
 62
     7
370
     9
100
AcDb2dPolyline
 66
     1
 10
0.0
 20
0.0
 30
0.0
  0
VERTEX
  5
298
330
296
100
AcDbEntity
  8
1
  6
Continuous
 62
     7
370
     9
100
AcDbVertex
100
AcDb2dVertex
 10
45.16216216216162
 20
77.53061224489784
 30
0.0
  0
VERTEX
  5
299
330
296
100
AcDbEntity
  8
1
  6
Continuous
 62
     7
370
     9
100
AcDbVertex
100
AcDb2dVertex
 10
45.16216216216162
 20
82.35318672037351
 30
0.0
  0
SEQEND
  5
297
330
296
100
AcDbEntity
  8
1
  6
Continuous
370
     9
  0
LINE
  5
29A
330
1F
100
AcDbEntity
  8
1
  6
Continuous
 62
     7
370
     9
100
AcDbLine
 10
295.3362298596679
 20
202.5306122448978
 30
0.0
 11
294.5597727243604
 21
205.428389723765
 31
0.0
  0
LINE
  5
29B
330
1F
100
AcDbEntity
  8
1
  6
Continuous
 62
     7
370
     9
100
AcDbLine
 10
295.3362298596679
 20
202.5306122448978
 30
0.0
 11
296.1126869949755
 21
205.428389723765
 31
0.0
  0
LINE
  5
29C
330
1F
100
AcDbEntity
  8
1
  6
Continuous
 62
     7
370
     9
100
AcDbLine
 10
294.5597727243604
 20
205.428389723765
 30
0.0
 11
296.1126869949755
 21
205.428389723765
 31
0.0
  0
LINE
  5
29D
330
1F
100
AcDbEntity
  8
1
  6
Continuous
 62
     7
370
     9
100
AcDbLine
 10
295.3362298596679
 20
203.2550566146146
 30
0.0
 11
294.9480012920142
 21
204.7039453540482
 31
0.0
  0
LINE
  5
29E
330
1F
100
AcDbEntity
  8
1
  6
Continuous
 62
     7
370
     9
100
AcDbLine
 10
295.3362298596679
 20
203.2550566146146
 30
0.0
 11
295.7244584273217
 21
204.7039453540482
 31
0.0
  0
LINE
  5
29F
330
1F
100
AcDbEntity
  8
1
  6
Continuous
 62
     7
370
     9
100
AcDbLine
 10
294.9480012920142
 20
204.7039453540482
 30
0.0
 11
295.7244584273217
 21
204.7039453540482
 31
0.0
  0
POLYLINE
  5
2A0
330
1F
100
AcDbEntity
  8
1
  6
Continuous
 62
     7
370
     9
100
AcDb2dPolyline
 66
     1
 10
0.0
 20
0.0
 30
0.0
  0
VERTEX
  5
2A2
330
2A0
100
AcDbEntity
  8
1
  6
Continuous
 62
     7
370
     9
100
AcDbVertex
100
AcDb2dVertex
 10
295.3362298596679
 20
202.5306122448978
 30
0.0
  0
VERTEX
  5
2A3
330
2A0
100
AcDbEntity
  8
1
  6
Continuous
 62
     7
370
     9
100
AcDbVertex
100
AcDb2dVertex
 10
295.3362298596679
 20
204.379434121621
 30
0.0
  0
SEQEND
  5
2A1
330
2A0
100
AcDbEntity
  8
1
  6
Continuous
370
     9
  0
LINE
  5
2A4
330
1F
100
AcDbEntity
  8
1
  6
Continuous
 62
     7
370
     9
100
AcDbLine
 10
295.3362298596679
 20
202.5306122448978
 30
0.0
 11
296.1126869949755
 21
199.6328347660306
 31
0.0
  0
LINE
  5
2A5
330
1F
100
AcDbEntity
  8
1
  6
Continuous
 62
     7
370
     9
100
AcDbLine
 10
295.3362298596679
 20
202.5306122448978
 30
0.0
 11
294.5597727243604
 21
199.6328347660306
 31
0.0
  0
LINE
  5
2A6
330
1F
100
AcDbEntity
  8
1
  6
Continuous
 62
     7
370
     9
100
AcDbLine
 10
296.1126869949755
 20
199.6328347660306
 30
0.0
 11
294.5597727243604
 21
199.6328347660306
 31
0.0
  0
LINE
  5
2A7
330
1F
100
AcDbEntity
  8
1
  6
Continuous
 62
     7
370
     9
100
AcDbLine
 10
295.3362298596679
 20
201.806167875181
 30
0.0
 11
295.7244584273217
 21
200.3572791357474
 31
0.0
  0
LINE
  5
2A8
330
1F
100
AcDbEntity
  8
1
  6
Continuous
 62
     7
370
     9
100
AcDbLine
 10
295.3362298596679
 20
201.806167875181
 30
0.0
 11
294.9480012920142
 21
200.3572791357474
 31
0.0
  0
LINE
  5
2A9
330
1F
100
AcDbEntity
  8
1
  6
Continuous
 62
     7
370
     9
100
AcDbLine
 10
295.7244584273217
 20
200.3572791357474
 30
0.0
 11
294.9480012920142
 21
200.3572791357474
 31
0.0
  0
POLYLINE
  5
2AA
330
1F
100
AcDbEntity
  8
1
  6
Continuous
 62
     7
370
     9
100
AcDb2dPolyline
 66
     1
 10
0.0
 20
0.0
 30
0.0
  0
VERTEX
  5
2AC
330
2AA
100
AcDbEntity
  8
1
  6
Continuous
 62
     7
370
     9
100
AcDbVertex
100
AcDb2dVertex
 10
295.3362298596679
 20
202.5306122448978
 30
0.0
  0
VERTEX
  5
2AD
330
2AA
100
AcDbEntity
  8
1
  6
Continuous
 62
     7
370
     9
100
AcDbVertex
100
AcDb2dVertex
 10
295.3362298596679
 20
201.948171127858
 30
0.0
  0
SEQEND
  5
2AB
330
2AA
100
AcDbEntity
  8
1
  6
Continuous
370
     9
  0
LINE
  5
2AE
330
1F
100
AcDbEntity
  8
1
  6
Continuous
 62
     7
370
     9
100
AcDbLine
 10
295.3362298596679
 20
195.5306122448978
 30
0.0
 11
294.5597727243604
 21
198.428389723765
 31
0.0
  0
LINE
  5
2AF
330
1F
100
AcDbEntity
  8
1
  6
Continuous
 62
     7
370
     9
100
AcDbLine
 10
295.3362298596679
 20
195.5306122448978
 30
0.0
 11
296.1126869949755
 21
198.428389723765
 31
0.0
  0
LINE
  5
2B0
330
1F
100
AcDbEntity
  8
1
  6
Continuous
 62
     7
370
     9
100
AcDbLine
 10
294.5597727243604
 20
198.428389723765
 30
0.0
 11
296.1126869949755
 21
198.428389723765
 31
0.0
  0
LINE
  5
2B1
330
1F
100
AcDbEntity
  8
1
  6
Continuous
 62
     7
370
     9
100
AcDbLine
 10
295.3362298596679
 20
196.2550566146146
 30
0.0
 11
294.9480012920142
 21
197.7039453540482
 31
0.0
  0
LINE
  5
2B2
330
1F
100
AcDbEntity
  8
1
  6
Continuous
 62
     7
370
     9
100
AcDbLine
 10
295.3362298596679
 20
196.2550566146146
 30
0.0
 11
295.7244584273217
 21
197.7039453540482
 31
0.0
  0
LINE
  5
2B3
330
1F
100
AcDbEntity
  8
1
  6
Continuous
 62
     7
370
     9
100
AcDbLine
 10
294.9480012920142
 20
197.7039453540482
 30
0.0
 11
295.7244584273217
 21
197.7039453540482
 31
0.0
  0
POLYLINE
  5
2B4
330
1F
100
AcDbEntity
  8
1
  6
Continuous
 62
     7
370
     9
100
AcDb2dPolyline
 66
     1
 10
0.0
 20
0.0
 30
0.0
  0
VERTEX
  5
2B6
330
2B4
100
AcDbEntity
  8
1
  6
Continuous
 62
     7
370
     9
100
AcDbVertex
100
AcDb2dVertex
 10
295.3362298596679
 20
195.5306122448978
 30
0.0
  0
VERTEX
  5
2B7
330
2B4
100
AcDbEntity
  8
1
  6
Continuous
 62
     7
370
     9
100
AcDbVertex
100
AcDb2dVertex
 10
295.3362298596679
 20
196.2173369282739
 30
0.0
  0
SEQEND
  5
2B5
330
2B4
100
AcDbEntity
  8
1
  6
Continuous
370
     9
  0
LINE
  5
2B8
330
1F
100
AcDbEntity
  8
1
  6
Continuous
 62
     7
370
     9
100
AcDbLine
 10
295.3362298596679
 20
344.5306122448978
 30
0.0
 11
296.1126869949755
 21
341.6328347660306
 31
0.0
  0
LINE
  5
2B9
330
1F
100
AcDbEntity
  8
1
  6
Continuous
 62
     7
370
     9
100
AcDbLine
 10
295.3362298596679
 20
344.5306122448978
 30
0.0
 11
294.5597727243604
 21
341.6328347660306
 31
0.0
  0
LINE
  5
2BA
330
1F
100
AcDbEntity
  8
1
  6
Continuous
 62
     7
370
     9
100
AcDbLine
 10
296.1126869949755
 20
341.6328347660306
 30
0.0
 11
294.5597727243604
 21
341.6328347660306
 31
0.0
  0
LINE
  5
2BB
330
1F
100
AcDbEntity
  8
1
  6
Continuous
 62
     7
370
     9
100
AcDbLine
 10
295.3362298596679
 20
343.806167875181
 30
0.0
 11
295.7244584273217
 21
342.3572791357474
 31
0.0
  0
LINE
  5
2BC
330
1F
100
AcDbEntity
  8
1
  6
Continuous
 62
     7
370
     9
100
AcDbLine
 10
295.3362298596679
 20
343.806167875181
 30
0.0
 11
294.9480012920142
 21
342.3572791357474
 31
0.0
  0
LINE
  5
2BD
330
1F
100
AcDbEntity
  8
1
  6
Continuous
 62
     7
370
     9
100
AcDbLine
 10
295.7244584273217
 20
342.3572791357474
 30
0.0
 11
294.9480012920142
 21
342.3572791357474
 31
0.0
  0
POLYLINE
  5
2BE
330
1F
100
AcDbEntity
  8
1
  6
Continuous
 62
     7
370
     9
100
AcDb2dPolyline
 66
     1
 10
0.0
 20
0.0
 30
0.0
  0
VERTEX
  5
2C0
330
2BE
100
AcDbEntity
  8
1
  6
Continuous
 62
     7
370
     9
100
AcDbVertex
100
AcDb2dVertex
 10
295.3362298596679
 20
344.5306122448978
 30
0.0
  0
VERTEX
  5
2C1
330
2BE
100
AcDbEntity
  8
1
  6
Continuous
 62
     7
370
     9
100
AcDbVertex
100
AcDb2dVertex
 10
295.3362298596679
 20
340.9353722713093
 30
0.0
  0
SEQEND
  5
2BF
330
2BE
100
AcDbEntity
  8
1
  6
Continuous
370
     9
  0
LINE
  5
2C2
330
1F
100
AcDbEntity
  8
1
  6
Continuous
 62
     7
370
     9
100
AcDbLine
 10
141.124691398129
 20
287.5306122448978
 30
0.0
 11
141.124691398129
 21
202.5306122448978
 31
0.0
  0
LINE
  5
2C3
330
1F
100
AcDbEntity
  8
1
  6
Continuous
 62
     7
370
     9
100
AcDbLine
 10
141.124691398129
 20
287.5306122448978
 30
0.0
 11
146.2187662422038
 21
287.5306122448978
 31
0.0
  0
LINE
  5
2C4
330
1F
100
AcDbEntity
  8
1
  6
Continuous
 62
     7
370
     9
100
AcDbLine
 10
141.124691398129
 20
202.5306122448978
 30
0.0
 11
145.0610219594596
 21
202.5306122448978
 31
0.0
  0
LINE
  5
2C5
330
1F
100
AcDbEntity
  8
1
  6
Continuous
 62
     7
370
     9
100
AcDbLine
 10
141.124691398129
 20
287.5306122448978
 30
0.0
 11
141.9011485334365
 21
284.6328347660306
 31
0.0
  0
LINE
  5
2C6
330
1F
100
AcDbEntity
  8
1
  6
Continuous
 62
     7
370
     9
100
AcDbLine
 10
141.124691398129
 20
287.5306122448978
 30
0.0
 11
140.3482342628214
 21
284.6328347660306
 31
0.0
  0
LINE
  5
2C7
330
1F
100
AcDbEntity
  8
1
  6
Continuous
 62
     7
370
     9
100
AcDbLine
 10
141.9011485334365
 20
284.6328347660306
 30
0.0
 11
140.3482342628214
 21
284.6328347660306
 31
0.0
  0
LINE
  5
2C8
330
1F
100
AcDbEntity
  8
1
  6
Continuous
 62
     7
370
     9
100
AcDbLine
 10
141.124691398129
 20
286.806167875181
 30
0.0
 11
141.5129199657827
 21
285.3572791357474
 31
0.0
  0
LINE
  5
2C9
330
1F
100
AcDbEntity
  8
1
  6
Continuous
 62
     7
370
     9
100
AcDbLine
 10
141.124691398129
 20
286.806167875181
 30
0.0
 11
140.7364628304752
 21
285.3572791357474
 31
0.0
  0
LINE
  5
2CA
330
1F
100
AcDbEntity
  8
1
  6
Continuous
 62
     7
370
     9
100
AcDbLine
 10
141.5129199657827
 20
285.3572791357474
 30
0.0
 11
140.7364628304752
 21
285.3572791357474
 31
0.0
  0
POLYLINE
  5
2CB
330
1F
100
AcDbEntity
  8
1
  6
Continuous
 62
     7
370
     9
100
AcDb2dPolyline
 66
     1
 10
0.0
 20
0.0
 30
0.0
  0
VERTEX
  5
2CD
330
2CB
100
AcDbEntity
  8
1
  6
Continuous
 62
     7
370
     9
100
AcDbVertex
100
AcDb2dVertex
 10
141.124691398129
 20
287.5306122448978
 30
0.0
  0
VERTEX
  5
2CE
330
2CB
100
AcDbEntity
  8
1
  6
Continuous
 62
     7
370
     9
100
AcDbVertex
100
AcDb2dVertex
 10
141.124691398129
 20
284.2059024168394
 30
0.0
  0
SEQEND
  5
2CC
330
2CB
100
AcDbEntity
  8
1
  6
Continuous
370
     9
  0
LINE
  5
2CF
330
1F
100
AcDbEntity
  8
1
  6
Continuous
 62
     7
370
     9
100
AcDbLine
 10
141.124691398129
 20
202.5306122448978
 30
0.0
 11
140.3482342628214
 21
205.428389723765
 31
0.0
  0
LINE
  5
2D0
330
1F
100
AcDbEntity
  8
1
  6
Continuous
 62
     7
370
     9
100
AcDbLine
 10
141.124691398129
 20
202.5306122448978
 30
0.0
 11
141.9011485334365
 21
205.428389723765
 31
0.0
  0
LINE
  5
2D1
330
1F
100
AcDbEntity
  8
1
  6
Continuous
 62
     7
370
     9
100
AcDbLine
 10
140.3482342628214
 20
205.428389723765
 30
0.0
 11
141.9011485334365
 21
205.428389723765
 31
0.0
  0
LINE
  5
2D2
330
1F
100
AcDbEntity
  8
1
  6
Continuous
 62
     7
370
     9
100
AcDbLine
 10
141.124691398129
 20
203.2550566146146
 30
0.0
 11
140.7364628304752
 21
204.7039453540482
 31
0.0
  0
LINE
  5
2D3
330
1F
100
AcDbEntity
  8
1
  6
Continuous
 62
     7
370
     9
100
AcDbLine
 10
141.124691398129
 20
203.2550566146146
 30
0.0
 11
141.5129199657827
 21
204.7039453540482
 31
0.0
  0
LINE
  5
2D4
330
1F
100
AcDbEntity
  8
1
  6
Continuous
 62
     7
370
     9
100
AcDbLine
 10
140.7364628304752
 20
204.7039453540482
 30
0.0
 11
141.5129199657827
 21
204.7039453540482
 31
0.0
  0
POLYLINE
  5
2D5
330
1F
100
AcDbEntity
  8
1
  6
Continuous
 62
     7
370
     9
100
AcDb2dPolyline
 66
     1
 10
0.0
 20
0.0
 30
0.0
  0
VERTEX
  5
2D7
330
2D5
100
AcDbEntity
  8
1
  6
Continuous
 62
     7
370
     9
100
AcDbVertex
100
AcDb2dVertex
 10
141.124691398129
 20
202.5306122448978
 30
0.0
  0
VERTEX
  5
2D8
330
2D5
100
AcDbEntity
  8
1
  6
Continuous
 62
     7
370
     9
100
AcDbVertex
100
AcDb2dVertex
 10
141.124691398129
 20
205.4792911902282
 30
0.0
  0
SEQEND
  5
2D6
330
2D5
100
AcDbEntity
  8
1
  6
Continuous
370
     9
  0
LINE
  5
2D9
330
1F
100
AcDbEntity
  8
1
  6
Continuous
 62
     7
370
     9
100
AcDbLine
 10
165.7160737164966
 20
397.1779024474768
 30
0.0
 11
165.7160737164966
 21
287.5306122448978
 31
0.0
  0
LINE
  5
2DA
330
1F
100
AcDbEntity
  8
1
  6
DOT
 62
     7
370
     9
100
AcDbLine
 10
207.0058431372686
 20
287.5306122448978
 30
0.0
 11
207.0058431372686
 21
264.2810843804943
 31
0.0
  0
LINE
  5
2DB
330
1F
100
AcDbEntity
  8
1
  6
DOT
 62
     7
370
     9
100
AcDbLine
 10
185.7861096836302
 20
287.5306122448978
 30
0.0
 11
185.7861096836302
 21
264.7759627839641
 31
0.0
  0
LINE
  5
2DC
330
1F
100
AcDbEntity
  8
1
  6
DOT
 62
     7
370
     9
100
AcDbLine
 10
253.2515306122449
 20
202.5306122448978
 30
0.0
 11
253.2515306122449
 21
289.7051877598748
 31
0.0
  0
ARC
  5
2DD
330
1F
100
AcDbEntity
  8
1
  6
DOT
 62
     7
370
     9
100
AcDbCircle
 10
238.3515306122449
 20
289.7051877598748
 30
0.0
 40
14.89999999999998
100
AcDbArc
 50
0.0
 51
40.44547622605151
  0
LINE
  5
2DE
330
1F
100
AcDbEntity
  8
1
  6
Continuous
 62
     7
370
     9
100
AcDbLine
 10
45.16216216216162
 20
377.5306122448978
 30
0.0
 11
45.16216216216162
 21
77.215696465696
 31
0.0
  0
LINE
  5
2DF
330
1F
100
AcDbEntity
  8
1
  6
Continuous
 62
     7
370
     9
100
AcDbLine
 10
45.16216216216162
 20
377.5306122448978
 30
0.0
 11
114.6268191268185
 21
377.5306122448978
 31
0.0
  0
ARC
  5
2E0
330
1F
100
AcDbEntity
  8
1
  6
Continuous
 62
     7
370
     9
100
AcDbCircle
 10
177.7160737164966
 20
287.5306122448978
 30
0.0
 40
82.15610811835094
100
AcDbArc
 50
45.37074811725005
 51
87.27995520248795
  0
LINE
  5
2E1
330
1F
100
AcDbEntity
  8
1
  6
Continuous
 62
     7
370
     9
100
AcDbLine
 10
235.4320936379829
 20
345.9984422506092
 30
0.0
 11
232.7979787424842
 21
347.4342133734948
 31
0.0
  0
LINE
  5
2E2
330
1F
100
AcDbEntity
  8
1
  6
Continuous
 62
     7
370
     9
100
AcDbLine
 10
235.4320936379829
 20
345.9984422506092
 30
0.0
 11
233.8687687834368
 21
348.5589139647976
 31
0.0
  0
LINE
  5
2E3
330
1F
100
AcDbEntity
  8
1
  6
Continuous
 62
     7
370
     9
100
AcDbLine
 10
232.7979787424842
 20
347.4342133734948
 30
0.0
 11
233.8687687834368
 21
348.5589139647976
 31
0.0
  0
LINE
  5
2E4
330
1F
100
AcDbEntity
  8
1
  6
Continuous
 62
     7
370
     9
100
AcDbLine
 10
234.9074136692273
 20
346.4979726052435
 30
0.0
 11
233.590356221478
 21
347.2158581666862
 31
0.0
  0
LINE
  5
2E5
330
1F
100
AcDbEntity
  8
1
  6
Continuous
 62
     7
370
     9
100
AcDbLine
 10
234.9074136692273
 20
346.4979726052435
 30
0.0
 11
234.1257512419543
 21
347.7782084623377
 31
0.0
  0
LINE
  5
2E6
330
1F
100
AcDbEntity
  8
1
  6
Continuous
 62
     7
370
     9
100
AcDbLine
 10
233.590356221478
 20
347.2158581666862
 30
0.0
 11
234.1257512419543
 21
347.7782084623377
 31
0.0
  0
POLYLINE
  5
2E7
330
1F
100
AcDbEntity
  8
1
  6
Continuous
 62
     7
370
     9
100
AcDb2dPolyline
 66
     1
 10
0.0
 20
0.0
 30
0.0
  0
VERTEX
  5
2E9
330
2E7
100
AcDbEntity
  8
1
  6
Continuous
 62
     7
370
     9
100
AcDbVertex
100
AcDb2dVertex
 10
235.4320936379829
 20
345.9984422506092
 30
0.0
  0
VERTEX
  5
2EA
330
2E7
100
AcDbEntity
  8
1
  6
Continuous
 62
     7
370
     9
100
AcDbVertex
100
AcDb2dVertex
 10
233.280699021551
 20
348.046713539207
 30
0.0
  0
SEQEND
  5
2E8
330
2E7
100
AcDbEntity
  8
1
  6
Continuous
370
     9
  0
LINE
  5
2EB
330
1F
100
AcDbEntity
  8
1
  6
Continuous
 62
     7
370
     9
100
AcDbLine
 10
233.3515306122449
 20
188.8555255977124
 30
0.0
 11
236.2493080911121
 21
189.63198273302
 31
0.0
  0
LINE
  5
2EC
330
1F
100
AcDbEntity
  8
1
  6
Continuous
 62
     7
370
     9
100
AcDbLine
 10
233.3515306122449
 20
188.8555255977124
 30
0.0
 11
236.2493080911121
 21
188.0790684624048
 31
0.0
  0
LINE
  5
2ED
330
1F
100
AcDbEntity
  8
1
  6
Continuous
 62
     7
370
     9
100
AcDbLine
 10
236.2493080911121
 20
189.63198273302
 30
0.0
 11
236.2493080911121
 21
188.0790684624048
 31
0.0
  0
LINE
  5
2EE
330
1F
100
AcDbEntity
  8
1
  6
Continuous
 62
     7
370
     9
100
AcDbLine
 10
234.0759749819617
 20
188.8555255977124
 30
0.0
 11
235.5248637213953
 21
189.2437541653662
 31
0.0
  0
LINE
  5
2EF
330
1F
100
AcDbEntity
  8
1
  6
Continuous
 62
     7
370
     9
100
AcDbLine
 10
234.0759749819617
 20
188.8555255977124
 30
0.0
 11
235.5248637213953
 21
188.4672970300586
 31
0.0
  0
LINE
  5
2F0
330
1F
100
AcDbEntity
  8
1
  6
Continuous
 62
     7
370
     9
100
AcDbLine
 10
235.5248637213953
 20
189.2437541653662
 30
0.0
 11
235.5248637213953
 21
188.4672970300586
 31
0.0
  0
POLYLINE
  5
2F1
330
1F
100
AcDbEntity
  8
1
  6
Continuous
 62
     7
370
     9
100
AcDb2dPolyline
 66
     1
 10
0.0
 20
0.0
 30
0.0
  0
VERTEX
  5
2F3
330
2F1
100
AcDbEntity
  8
1
  6
Continuous
 62
     7
370
     9
100
AcDbVertex
100
AcDb2dVertex
 10
233.3515306122449
 20
188.8555255977124
 30
0.0
  0
VERTEX
  5
2F4
330
2F1
100
AcDbEntity
  8
1
  6
Continuous
 62
     7
370
     9
100
AcDbVertex
100
AcDb2dVertex
 10
234.0915573024949
 20
188.8555255977124
 30
0.0
  0
SEQEND
  5
2F2
330
2F1
100
AcDbEntity
  8
1
  6
Continuous
370
     9
  0
LINE
  5
2F5
330
1F
100
AcDbEntity
  8
1
  6
Continuous
 62
     7
370
     9
100
AcDbLine
 10
243.3515306122449
 20
188.8555255977124
 30
0.0
 11
240.4537531333777
 21
188.0790684624049
 31
0.0
  0
LINE
  5
2F6
330
1F
100
AcDbEntity
  8
1
  6
Continuous
 62
     7
370
     9
100
AcDbLine
 10
243.3515306122449
 20
188.8555255977124
 30
0.0
 11
240.4537531333777
 21
189.63198273302
 31
0.0
  0
LINE
  5
2F7
330
1F
100
AcDbEntity
  8
1
  6
Continuous
 62
     7
370
     9
100
AcDbLine
 10
240.4537531333777
 20
188.0790684624049
 30
0.0
 11
240.4537531333777
 21
189.63198273302
 31
0.0
  0
LINE
  5
2F8
330
1F
100
AcDbEntity
  8
1
  6
Continuous
 62
     7
370
     9
100
AcDbLine
 10
242.6270862425281
 20
188.8555255977124
 30
0.0
 11
241.1781975030945
 21
188.4672970300586
 31
0.0
  0
LINE
  5
2F9
330
1F
100
AcDbEntity
  8
1
  6
Continuous
 62
     7
370
     9
100
AcDbLine
 10
242.6270862425281
 20
188.8555255977124
 30
0.0
 11
241.1781975030945
 21
189.2437541653662
 31
0.0
  0
LINE
  5
2FA
330
1F
100
AcDbEntity
  8
1
  6
Continuous
 62
     7
370
     9
100
AcDbLine
 10
241.1781975030945
 20
188.4672970300586
 30
0.0
 11
241.1781975030945
 21
189.2437541653662
 31
0.0
  0
POLYLINE
  5
2FB
330
1F
100
AcDbEntity
  8
1
  6
Continuous
 62
     7
370
     9
100
AcDb2dPolyline
 66
     1
 10
0.0
 20
0.0
 30
0.0
  0
VERTEX
  5
2FD
330
2FB
100
AcDbEntity
  8
1
  6
Continuous
 62
     7
370
     9
100
AcDbVertex
100
AcDb2dVertex
 10
243.3515306122449
 20
188.8555255977124
 30
0.0
  0
VERTEX
  5
2FE
330
2FB
100
AcDbEntity
  8
1
  6
Continuous
 62
     7
370
     9
100
AcDbVertex
100
AcDb2dVertex
 10
241.7326695686071
 20
188.8555255977124
 30
0.0
  0
SEQEND
  5
2FC
330
2FB
100
AcDbEntity
  8
1
  6
Continuous
370
     9
  0
LINE
  5
2FF
330
1F
100
AcDbEntity
  8
1
  6
Continuous
 62
     7
370
     9
100
AcDbLine
 10
221.7615806912683
 20
192.5306122448978
 30
0.0
 11
210.878784433472
 21
192.5306122448978
 31
0.0
  0
LINE
  5
300
330
1F
100
AcDbEntity
  8
1
  6
Continuous
 62
     7
370
     9
100
AcDbLine
 10
210.878784433472
 20
112.5306122448978
 30
0.0
 11
210.878784433472
 21
192.5306122448978
 31
0.0
  0
LINE
  5
301
330
1F
100
AcDbEntity
  8
1
  6
Continuous
 62
     7
370
     9
100
AcDbLine
 10
210.878784433472
 20
192.5306122448978
 30
0.0
 11
211.6552415687796
 21
189.6328347660306
 31
0.0
  0
LINE
  5
302
330
1F
100
AcDbEntity
  8
1
  6
Continuous
 62
     7
370
     9
100
AcDbLine
 10
210.878784433472
 20
192.5306122448978
 30
0.0
 11
210.1023272981645
 21
189.6328347660306
 31
0.0
  0
LINE
  5
303
330
1F
100
AcDbEntity
  8
1
  6
Continuous
 62
     7
370
     9
100
AcDbLine
 10
211.6552415687796
 20
189.6328347660306
 30
0.0
 11
210.1023272981645
 21
189.6328347660306
 31
0.0
  0
LINE
  5
304
330
1F
100
AcDbEntity
  8
1
  6
Continuous
 62
     7
370
     9
100
AcDbLine
 10
210.878784433472
 20
191.806167875181
 30
0.0
 11
211.2670130011258
 21
190.3572791357474
 31
0.0
  0
LINE
  5
305
330
1F
100
AcDbEntity
  8
1
  6
Continuous
 62
     7
370
     9
100
AcDbLine
 10
210.878784433472
 20
191.806167875181
 30
0.0
 11
210.4905558658183
 21
190.3572791357474
 31
0.0
  0
LINE
  5
306
330
1F
100
AcDbEntity
  8
1
  6
Continuous
 62
     7
370
     9
100
AcDbLine
 10
211.2670130011258
 20
190.3572791357474
 30
0.0
 11
210.4905558658183
 21
190.3572791357474
 31
0.0
  0
POLYLINE
  5
307
330
1F
100
AcDbEntity
  8
1
  6
Continuous
 62
     7
370
     9
100
AcDb2dPolyline
 66
     1
 10
0.0
 20
0.0
 30
0.0
  0
VERTEX
  5
309
330
307
100
AcDbEntity
  8
1
  6
Continuous
 62
     7
370
     9
100
AcDbVertex
100
AcDb2dVertex
 10
210.878784433472
 20
192.5306122448978
 30
0.0
  0
VERTEX
  5
30A
330
307
100
AcDbEntity
  8
1
  6
Continuous
 62
     7
370
     9
100
AcDbVertex
100
AcDb2dVertex
 10
210.878784433472
 20
192.2231191528061
 30
0.0
  0
SEQEND
  5
308
330
307
100
AcDbEntity
  8
1
  6
Continuous
370
     9
  0
LINE
  5
30B
330
1F
100
AcDbEntity
  8
1
  6
Continuous
 62
     7
370
     9
100
AcDbLine
 10
210.878784433472
 20
112.5306122448978
 30
0.0
 11
210.1023272981645
 21
115.4283897237651
 31
0.0
  0
LINE
  5
30C
330
1F
100
AcDbEntity
  8
1
  6
Continuous
 62
     7
370
     9
100
AcDbLine
 10
210.878784433472
 20
112.5306122448978
 30
0.0
 11
211.6552415687796
 21
115.428389723765
 31
0.0
  0
LINE
  5
30D
330
1F
100
AcDbEntity
  8
1
  6
Continuous
 62
     7
370
     9
100
AcDbLine
 10
210.1023272981645
 20
115.4283897237651
 30
0.0
 11
211.6552415687796
 21
115.428389723765
 31
0.0
  0
LINE
  5
30E
330
1F
100
AcDbEntity
  8
1
  6
Continuous
 62
     7
370
     9
100
AcDbLine
 10
210.878784433472
 20
113.2550566146146
 30
0.0
 11
210.4905558658183
 21
114.7039453540482
 31
0.0
  0
LINE
  5
30F
330
1F
100
AcDbEntity
  8
1
  6
Continuous
 62
     7
370
     9
100
AcDbLine
 10
210.878784433472
 20
113.2550566146146
 30
0.0
 11
211.2670130011258
 21
114.7039453540482
 31
0.0
  0
LINE
  5
310
330
1F
100
AcDbEntity
  8
1
  6
Continuous
 62
     7
370
     9
100
AcDbLine
 10
210.4905558658183
 20
114.7039453540482
 30
0.0
 11
211.2670130011258
 21
114.7039453540482
 31
0.0
  0
POLYLINE
  5
311
330
1F
100
AcDbEntity
  8
1
  6
Continuous
 62
     7
370
     9
100
AcDb2dPolyline
 66
     1
 10
0.0
 20
0.0
 30
0.0
  0
VERTEX
  5
313
330
311
100
AcDbEntity
  8
1
  6
Continuous
 62
     7
370
     9
100
AcDbVertex
100
AcDb2dVertex
 10
210.878784433472
 20
112.5306122448978
 30
0.0
  0
VERTEX
  5
314
330
311
100
AcDbEntity
  8
1
  6
Continuous
 62
     7
370
     9
100
AcDbVertex
100
AcDb2dVertex
 10
210.878784433472
 20
115.4357295997946
 30
0.0
  0
SEQEND
  5
312
330
311
100
AcDbEntity
  8
1
  6
Continuous
370
     9
  0
LINE
  5
315
330
1F
100
AcDbEntity
  8
1
  6
Continuous
 62
     7
370
     9
100
AcDbLine
 10
610.2500003061616
 20
76.53061224489781
 30
0.0
 11
614.2500003061616
 21
80.53061224489784
 31
0.0
  0
LINE
  5
316
330
1F
100
AcDbEntity
  8
1
  6
Continuous
 62
     7
370
     9
100
AcDbLine
 10
610.2500003061616
 20
76.53061224489781
 30
0.0
 11
614.2500003061616
 21
80.53061224489784
 31
0.0
  0
LINE
  5
317
330
1F
100
AcDbEntity
  8
1
  6
Continuous
 62
     7
370
     9
100
AcDbLine
 10
614.3294005102058
 20
80.53061224489784
 30
0.0
 11
716.2499999999999
 21
80.53061224489784
 31
0.0
  0
LINE
  5
318
330
1F
100
AcDbEntity
  8
1
  6
Continuous
 62
     7
370
     9
100
AcDbLine
 10
720.2499999999999
 20
76.53061224489781
 30
0.0
 11
716.2499999999999
 21
80.53061224489784
 31
0.0
  0
LINE
  5
319
330
1F
100
AcDbEntity
  8
1
  6
Continuous
 62
     7
370
     9
100
AcDbLine
 10
580.25
 20
112.5306122448978
 30
0.0
 11
580.25
 21
76.53061224489784
 31
0.0
  0
LINE
  5
31A
330
1F
100
AcDbEntity
  8
1
  6
Continuous
 62
     7
370
     9
100
AcDbLine
 10
610.2499999999999
 20
76.53061224489784
 30
0.0
 11
580.25
 21
76.53061224489784
 31
0.0
  0
LINE
  5
31B
330
1F
100
AcDbEntity
  8
1
  6
Continuous
 62
     7
370
     9
100
AcDbLine
 10
720.2499999999999
 20
76.53061224489784
 30
0.0
 11
750.25
 21
76.53061224489784
 31
0.0
  0
LINE
  5
31C
330
1F
100
AcDbEntity
  8
1
  6
Continuous
 62
     7
370
     9
100
AcDbLine
 10
750.25
 20
112.5306122448978
 30
0.0
 11
750.25
 21
76.53061224489784
 31
0.0
  0
LINE
  5
31D
330
1F
100
AcDbEntity
  8
1
  6
Continuous
 62
     7
370
     9
100
AcDbLine
 10
650.35
 20
167.5306122448978
 30
0.0
 11
650.35
 21
156.5306122448978
 31
0.0
  0
LINE
  5
31E
330
1F
100
AcDbEntity
  8
1
  6
Continuous
 62
     7
370
     9
100
AcDbLine
 10
650.35
 20
156.5306122448978
 30
0.0
 11
652.35
 21
154.5306122448978
 31
0.0
  0
LINE
  5
31F
330
1F
100
AcDbEntity
  8
1
  6
Continuous
 62
     7
370
     9
100
AcDbLine
 10
652.35
 20
154.5306122448978
 30
0.0
 11
678.15
 21
154.5306122448978
 31
0.0
  0
LINE
  5
320
330
1F
100
AcDbEntity
  8
1
  6
Continuous
 62
     7
370
     9
100
AcDbLine
 10
680.15
 20
167.5306122448978
 30
0.0
 11
680.15
 21
156.5306122448978
 31
0.0
  0
LINE
  5
321
330
1F
100
AcDbEntity
  8
1
  6
Continuous
 62
     7
370
     9
100
AcDbLine
 10
678.15
 20
154.5306122448978
 30
0.0
 11
680.15
 21
156.5306122448978
 31
0.0
  0
CIRCLE
  5
322
330
1F
100
AcDbEntity
  8
1
  6
Continuous
 62
     7
370
     9
100
AcDbCircle
 10
665.25
 20
160.5306122448978
 30
0.0
 40
2.0
  0
LINE
  5
323
330
1F
100
AcDbEntity
  8
1
  6
Continuous
 62
     7
370
     9
100
AcDbLine
 10
715.25
 20
154.5306122448978
 30
0.0
 11
715.25
 21
189.5892509095659
 31
0.0
  0
LINE
  5
324
330
1F
100
AcDbEntity
  8
1
  6
Continuous
 62
     7
370
     9
100
AcDbLine
 10
686.017038071724
 20
154.5306122448978
 30
0.0
 11
715.25
 21
154.5306122448978
 31
0.0
  0
LINE
  5
325
330
1F
100
AcDbEntity
  8
1
  6
Continuous
 62
     7
370
     9
100
AcDbLine
 10
684.6277449324308
 20
189.5306122448978
 30
0.0
 11
715.25
 21
189.5306122448978
 31
0.0
  0
LINE
  5
326
330
1F
100
AcDbEntity
  8
1
  6
Continuous
 62
     7
370
     9
100
AcDbLine
 10
783.8464299636153
 20
429.4504040392347
 30
0.0
 11
783.8464299636153
 21
242.5634465969034
 31
0.0
  0
LINE
  5
327
330
1F
100
AcDbEntity
  8
1
  6
Continuous
 62
     7
370
     9
100
AcDbLine
 10
760.2284465956321
 20
429.4504040392347
 30
0.0
 11
783.8464299636153
 21
429.4504040392347
 31
0.0
  0
LINE
  5
328
330
1F
100
AcDbEntity
  8
1
  6
Continuous
 62
     7
370
     9
100
AcDbLine
 10
765.5540702962556
 20
242.5634465969034
 30
0.0
 11
783.8464299636153
 21
242.5634465969034
 31
0.0
  0
LINE
  5
329
330
1F
100
AcDbEntity
  8
1
  6
Continuous
 62
     7
370
     9
100
AcDbLine
 10
661.0097615644478
 20
195.5306122448978
 30
0.0
 11
654.294844724531
 21
195.5306122448978
 31
0.0
  0
LINE
  5
32A
330
1F
100
AcDbEntity
  8
1
  6
Continuous
 62
     7
370
     9
100
AcDbLine
 10
657.6523031444893
 20
195.5306122448978
 30
0.0
 11
657.6523031444893
 21
189.5306122448978
 31
0.0
  0
LINE
  5
32B
330
1F
100
AcDbEntity
  8
1
  6
Continuous
 62
     7
370
     9
100
AcDbLine
 10
715.25
 20
189.5306122448978
 30
0.0
 11
716.0264571353075
 21
186.6328347660306
 31
0.0
  0
LINE
  5
32C
330
1F
100
AcDbEntity
  8
1
  6
Continuous
 62
     7
370
     9
100
AcDbLine
 10
715.25
 20
189.5306122448978
 30
0.0
 11
714.4735428646925
 21
186.6328347660306
 31
0.0
  0
LINE
  5
32D
330
1F
100
AcDbEntity
  8
1
  6
Continuous
 62
     7
370
     9
100
AcDbLine
 10
716.0264571353075
 20
186.6328347660306
 30
0.0
 11
714.4735428646925
 21
186.6328347660306
 31
0.0
  0
LINE
  5
32E
330
1F
100
AcDbEntity
  8
1
  6
Continuous
 62
     7
370
     9
100
AcDbLine
 10
715.25
 20
188.806167875181
 30
0.0
 11
715.6382285676538
 21
187.3572791357474
 31
0.0
  0
LINE
  5
32F
330
1F
100
AcDbEntity
  8
1
  6
Continuous
 62
     7
370
     9
100
AcDbLine
 10
715.25
 20
188.806167875181
 30
0.0
 11
714.8617714323462
 21
187.3572791357474
 31
0.0
  0
LINE
  5
330
330
1F
100
AcDbEntity
  8
1
  6
Continuous
 62
     7
370
     9
100
AcDbLine
 10
715.6382285676538
 20
187.3572791357474
 30
0.0
 11
714.8617714323462
 21
187.3572791357474
 31
0.0
  0
POLYLINE
  5
331
330
1F
100
AcDbEntity
  8
1
  6
Continuous
 62
     7
370
     9
100
AcDb2dPolyline
 66
     1
 10
0.0
 20
0.0
 30
0.0
  0
VERTEX
  5
333
330
331
100
AcDbEntity
  8
1
  6
Continuous
 62
     7
370
     9
100
AcDbVertex
100
AcDb2dVertex
 10
715.25
 20
189.5306122448978
 30
0.0
  0
VERTEX
  5
334
330
331
100
AcDbEntity
  8
1
  6
Continuous
 62
     7
370
     9
100
AcDbVertex
100
AcDb2dVertex
 10
715.25
 20
184.6688377079037
 30
0.0
  0
SEQEND
  5
332
330
331
100
AcDbEntity
  8
1
  6
Continuous
370
     9
  0
LINE
  5
335
330
1F
100
AcDbEntity
  8
1
  6
Continuous
 62
     7
370
     9
100
AcDbLine
 10
715.25
 20
154.5306122448978
 30
0.0
 11
714.4735428646925
 21
157.428389723765
 31
0.0
  0
LINE
  5
336
330
1F
100
AcDbEntity
  8
1
  6
Continuous
 62
     7
370
     9
100
AcDbLine
 10
715.25
 20
154.5306122448978
 30
0.0
 11
716.0264571353075
 21
157.428389723765
 31
0.0
  0
LINE
  5
337
330
1F
100
AcDbEntity
  8
1
  6
Continuous
 62
     7
370
     9
100
AcDbLine
 10
714.4735428646925
 20
157.428389723765
 30
0.0
 11
716.0264571353075
 21
157.428389723765
 31
0.0
  0
LINE
  5
338
330
1F
100
AcDbEntity
  8
1
  6
Continuous
 62
     7
370
     9
100
AcDbLine
 10
715.25
 20
155.2550566146146
 30
0.0
 11
714.8617714323462
 21
156.7039453540482
 31
0.0
  0
LINE
  5
339
330
1F
100
AcDbEntity
  8
1
  6
Continuous
 62
     7
370
     9
100
AcDbLine
 10
715.25
 20
155.2550566146146
 30
0.0
 11
715.6382285676538
 21
156.7039453540482
 31
0.0
  0
LINE
  5
33A
330
1F
100
AcDbEntity
  8
1
  6
Continuous
 62
     7
370
     9
100
AcDbLine
 10
714.8617714323462
 20
156.7039453540482
 30
0.0
 11
715.6382285676538
 21
156.7039453540482
 31
0.0
  0
POLYLINE
  5
33B
330
1F
100
AcDbEntity
  8
1
  6
Continuous
 62
     7
370
     9
100
AcDb2dPolyline
 66
     1
 10
0.0
 20
0.0
 30
0.0
  0
VERTEX
  5
33D
330
33B
100
AcDbEntity
  8
1
  6
Continuous
 62
     7
370
     9
100
AcDbVertex
100
AcDb2dVertex
 10
715.25
 20
154.5306122448978
 30
0.0
  0
VERTEX
  5
33E
330
33B
100
AcDbEntity
  8
1
  6
Continuous
 62
     7
370
     9
100
AcDbVertex
100
AcDb2dVertex
 10
715.25
 20
160.1246589137251
 30
0.0
  0
SEQEND
  5
33C
330
33B
100
AcDbEntity
  8
1
  6
Continuous
370
     9
  0
LINE
  5
33F
330
1F
100
AcDbEntity
  8
1
  6
Continuous
 62
     7
370
     9
100
AcDbLine
 10
783.8464299636153
 20
242.5634465969034
 30
0.0
 11
783.0699728283078
 21
245.4612240757706
 31
0.0
  0
LINE
  5
340
330
1F
100
AcDbEntity
  8
1
  6
Continuous
 62
     7
370
     9
100
AcDbLine
 10
783.8464299636153
 20
242.5634465969034
 30
0.0
 11
784.6228870989228
 21
245.4612240757706
 31
0.0
  0
LINE
  5
341
330
1F
100
AcDbEntity
  8
1
  6
Continuous
 62
     7
370
     9
100
AcDbLine
 10
783.0699728283078
 20
245.4612240757706
 30
0.0
 11
784.6228870989228
 21
245.4612240757706
 31
0.0
  0
LINE
  5
342
330
1F
100
AcDbEntity
  8
1
  6
Continuous
 62
     7
370
     9
100
AcDbLine
 10
783.8464299636153
 20
243.2878909666202
 30
0.0
 11
783.4582013959615
 21
244.7367797060538
 31
0.0
  0
LINE
  5
343
330
1F
100
AcDbEntity
  8
1
  6
Continuous
 62
     7
370
     9
100
AcDbLine
 10
783.8464299636153
 20
243.2878909666202
 30
0.0
 11
784.234658531269
 21
244.7367797060538
 31
0.0
  0
LINE
  5
344
330
1F
100
AcDbEntity
  8
1
  6
Continuous
 62
     7
370
     9
100
AcDbLine
 10
783.4582013959615
 20
244.7367797060538
 30
0.0
 11
784.234658531269
 21
244.7367797060538
 31
0.0
  0
POLYLINE
  5
345
330
1F
100
AcDbEntity
  8
1
  6
Continuous
 62
     7
370
     9
100
AcDb2dPolyline
 66
     1
 10
0.0
 20
0.0
 30
0.0
  0
VERTEX
  5
347
330
345
100
AcDbEntity
  8
1
  6
Continuous
 62
     7
370
     9
100
AcDbVertex
100
AcDb2dVertex
 10
783.8464299636153
 20
242.5634465969034
 30
0.0
  0
VERTEX
  5
348
330
345
100
AcDbEntity
  8
1
  6
Continuous
 62
     7
370
     9
100
AcDbVertex
100
AcDb2dVertex
 10
783.8464299636153
 20
247.6501266891924
 30
0.0
  0
SEQEND
  5
346
330
345
100
AcDbEntity
  8
1
  6
Continuous
370
     9
  0
LINE
  5
349
330
1F
100
AcDbEntity
  8
1
  6
Continuous
 62
     7
370
     9
100
AcDbLine
 10
783.8464299636153
 20
429.4504040392347
 30
0.0
 11
784.6228870989228
 21
426.5526265603675
 31
0.0
  0
LINE
  5
34A
330
1F
100
AcDbEntity
  8
1
  6
Continuous
 62
     7
370
     9
100
AcDbLine
 10
783.8464299636153
 20
429.4504040392347
 30
0.0
 11
783.0699728283078
 21
426.5526265603675
 31
0.0
  0
LINE
  5
34B
330
1F
100
AcDbEntity
  8
1
  6
Continuous
 62
     7
370
     9
100
AcDbLine
 10
784.6228870989228
 20
426.5526265603675
 30
0.0
 11
783.0699728283078
 21
426.5526265603675
 31
0.0
  0
LINE
  5
34C
330
1F
100
AcDbEntity
  8
1
  6
Continuous
 62
     7
370
     9
100
AcDbLine
 10
783.8464299636153
 20
428.7259596695179
 30
0.0
 11
784.234658531269
 21
427.2770709300843
 31
0.0
  0
LINE
  5
34D
330
1F
100
AcDbEntity
  8
1
  6
Continuous
 62
     7
370
     9
100
AcDbLine
 10
783.8464299636153
 20
428.7259596695179
 30
0.0
 11
783.4582013959615
 21
427.2770709300843
 31
0.0
  0
LINE
  5
34E
330
1F
100
AcDbEntity
  8
1
  6
Continuous
 62
     7
370
     9
100
AcDbLine
 10
784.234658531269
 20
427.2770709300843
 30
0.0
 11
783.4582013959615
 21
427.2770709300843
 31
0.0
  0
POLYLINE
  5
34F
330
1F
100
AcDbEntity
  8
1
  6
Continuous
 62
     7
370
     9
100
AcDb2dPolyline
 66
     1
 10
0.0
 20
0.0
 30
0.0
  0
VERTEX
  5
351
330
34F
100
AcDbEntity
  8
1
  6
Continuous
 62
     7
370
     9
100
AcDbVertex
100
AcDb2dVertex
 10
783.8464299636153
 20
429.4504040392347
 30
0.0
  0
VERTEX
  5
352
330
34F
100
AcDbEntity
  8
1
  6
Continuous
 62
     7
370
     9
100
AcDbVertex
100
AcDb2dVertex
 10
783.8464299636153
 20
425.1323252338897
 30
0.0
  0
SEQEND
  5
350
330
34F
100
AcDbEntity
  8
1
  6
Continuous
370
     9
  0
TEXT
  5
353
330
1F
100
AcDbEntity
  8
1
  6
Continuous
 62
     7
370
     9
100
AcDbText
 10
40.36208048708136
 20
232.0634465969034
 30
0.0
 40
10.5
  1
265
 41
0.5
100
AcDbText
  0
TEXT
  5
354
330
1F
100
AcDbEntity
  8
1
  6
Continuous
 62
     7
370
     9
100
AcDbText
 10
290.5361481845877
 20
252.8954489345141
 30
0.0
 40
10.5
  1
142
 41
0.5
100
AcDbText
  0
TEXT
  5
355
330
1F
100
AcDbEntity
  8
1
  6
Continuous
 62
     7
370
     9
100
AcDbText
 10
267.3233753155658
 20
189.5306122448978
 30
0.0
 40
6.0
  1
6
 41
0.5
100
AcDbText
  0
TEXT
  5
356
330
1F
100
AcDbEntity
  8
1
  6
Continuous
 62
     7
370
     9
100
AcDbText
 10
298.3509220931123
 20
192.9242950883606
 30
0.0
 40
10.5
  1
10～13
 41
0.6
100
AcDbText
  0
TEXT
  5
357
330
1F
100
AcDbEntity
  8
1
  6
Continuous
 62
     7
370
     9
100
AcDbText
 10
259.4507141929047
 20
171.3902514293171
 30
0.0
 40
10.5
  1
10φХ25
 41
0.6666666666666666
100
AcDbText
  0
LINE
  5
358
330
1F
100
AcDbEntity
  8
1
  6
Continuous
 62
     7
370
     9
100
AcDbLine
 10
223.4515306122449
 20
192.5306122448978
 30
0.0
 11
223.4515306122449
 21
164.2925383316048
 31
0.0
  0
LINE
  5
359
330
1F
100
AcDbEntity
  8
1
  6
Continuous
 62
     7
370
     9
100
AcDbLine
 10
253.2515306122448
 20
192.5306122448978
 30
0.0
 11
253.2515306122448
 21
164.2925383316048
 31
0.0
  0
TEXT
  5
35A
330
1F
100
AcDbEntity
  8
1
  6
Continuous
 62
     7
370
     9
100
AcDbText
 10
196.93252292471
 20
144.2621611014467
 30
0.0
 40
10.5
  1
0～170
 41
0.6
100
AcDbText
  0
TEXT
  5
35B
330
1F
100
AcDbEntity
  8
1
  6
Continuous
 62
     7
370
     9
100
AcDbText
 10
252.2726996398902
 20
92.62741577920205
 30
0.0
 40
6.0
  1
+0.1
 41
0.5
100
AcDbText
  0
TEXT
  5
35C
330
1F
100
AcDbEntity
  8
1
  6
Continuous
 62
     7
370
     9
100
AcDbText
 10
252.2148124257529
 20
87.30179207857839
 30
0.0
 40
6.0
  1
-0
 41
0.5
100
AcDbText
  0
TEXT
  5
35D
330
1F
100
AcDbEntity
  8
1
  6
Continuous
 62
     7
370
     9
100
AcDbText
 10
779.046348288535
 20
333.2429021569669
 30
0.0
 40
10.5
  1
265
 41
0.5
100
AcDbText
  0
TEXT
  5
35E
330
1F
100
AcDbEntity
  8
1
  6
Continuous
 62
     7
370
     9
100
AcDbText
 10
710.4499183249197
 20
166.5277254417913
 30
0.0
 40
10.5
  1
35
 41
0.5
100
AcDbText
  0
TEXT
  5
35F
330
1F
100
AcDbEntity
  8
1
  6
Continuous
 62
     7
370
     9
100
AcDbText
 10
662.5772734444611
 20
183.5306122448978
 30
0.0
 40
6.0
  1
6
 41
0.5
100
AcDbText
  0
LINE
  5
360
330
1F
100
AcDbEntity
  8
1
  6
Continuous
 62
     7
370
     9
100
AcDbLine
 10
657.6523031444893
 20
191.4995289760957
 30
0.0
 11
661.7044081340944
 21
186.9843262733931
 31
0.0
  0
TEXT
  5
361
330
1F
100
AcDbEntity
  8
1
  6
Continuous
 62
     7
370
     9
100
AcDbText
 10
660.4499183249197
 20
143.7201630717292
 30
0.0
 40
10.5
  1
M5
 41
0.5
100
AcDbText
  0
LINE
  5
362
330
1F
100
AcDbEntity
  8
1
  6
Continuous
 62
     7
370
     9
100
AcDbLine
 10
665.25
 20
159.8931100571771
 30
0.0
 11
663.4989117723478
 21
153.5255165020836
 31
0.0
  0
DIMENSION
  5
376
330
1F
100
AcDbEntity
  8
1
  6
Continuous
 62
     7
370
     9
100
AcDbDimension
  2
Dim1
 10
71.35153061224474
 20
53.19250259875214
 30
0.0
 11
216.3515306122447
 21
58.44250259875214
 31
0.0
 70
   160
  1
<>
 71
     5
 42
-1.0
 73
     0
 74
     0
 75
     0
  3
Standard
100
AcDbAlignedDimension
 13
71.35153061224491
 23
76.53061224489784
 33
0.0
 14
361.3515306122449
 24
76.53061224489784
 34
0.0
100
AcDbRotatedDimension
1001
ACAD
1000
DSTYLE
1002
{
1070
   344
1005
0
1070
   343
1005
0
1070
   173
1070
     1
1070
   289
1070
     2
1070
   279
1070
     2
1070
   288
1070
     1
1070
    77
1070
     3
1070
   172
1070
     1
1070
   174
1070
     0
1070
    74
1070
     0
1070
    73
1070
     0
1070
   284
1070
     8
1070
    78
1070
     8
1070
   140
1040
4.0
1070
    40
1040
3.0
1070
    42
1040
2.0
1070
    44
1040
0.0
1070
    43
1040
10.0
1070
   271
1070
     2
1070
    41
1040
4.0
1002
}
  0
DIMENSION
  5
38A
330
1F
100
AcDbEntity
  8
1
  6
Continuous
 62
     7
370
     9
100
AcDbDimension
  2
Dim2
 10
84.3515306122448
 20
166.419893451143
 30
0.0
 11
109.3515306122448
 21
171.669893451143
 31
0.0
 70
   160
  1
<>
 71
     5
 42
-1.0
 73
     0
 74
     0
 75
     0
  3
Standard
100
AcDbAlignedDimension
 13
84.35153061224491
 23
178.4604339916835
 33
0.0
 14
134.3515306122449
 24
181.007471413721
 34
0.0
100
AcDbRotatedDimension
1001
ACAD
1000
DSTYLE
1002
{
1070
   344
1005
0
1070
   343
1005
0
1070
   173
1070
     1
1070
   289
1070
     2
1070
   279
1070
     2
1070
   288
1070
     1
1070
    77
1070
     3
1070
   172
1070
     1
1070
   174
1070
     0
1070
    74
1070
     0
1070
    73
1070
     0
1070
   284
1070
     8
1070
    78
1070
     8
1070
   140
1040
4.0
1070
    40
1040
3.0
1070
    42
1040
2.0
1070
    44
1040
0.0
1070
    43
1040
10.0
1070
   271
1070
     2
1070
    41
1040
4.0
1002
}
  0
DIMENSION
  5
39E
330
1F
100
AcDbEntity
  8
1
  6
Continuous
 62
     7
370
     9
100
AcDbDimension
  2
Dim3
 10
134.3515306122449
 20
166.419893451143
 30
0.0
 11
141.8515306122449
 21
171.669893451143
 31
0.0
 70
   160
  1
<>
 71
     5
 42
-1.0
 73
     0
 74
     0
 75
     0
  3
Standard
100
AcDbAlignedDimension
 13
134.3515306122449
 23
173.1348102910598
 33
0.0
 14
149.3515306122449
 24
173.0190358627854
 34
0.0
100
AcDbRotatedDimension
1001
ACAD
1000
DSTYLE
1002
{
1070
   344
1005
0
1070
   343
1005
0
1070
   173
1070
     1
1070
   289
1070
     2
1070
   279
1070
     2
1070
   288
1070
     1
1070
    77
1070
     3
1070
   172
1070
     1
1070
   174
1070
     0
1070
    74
1070
     0
1070
    73
1070
     0
1070
   284
1070
     8
1070
    78
1070
     8
1070
   140
1040
4.0
1070
    40
1040
3.0
1070
    42
1040
2.0
1070
    44
1040
0.0
1070
    43
1040
10.0
1070
   271
1070
     2
1070
    41
1040
4.0
1002
}
  0
DIMENSION
  5
3B2
330
1F
100
AcDbEntity
  8
1
  6
Continuous
 62
     7
370
     9
100
AcDbDimension
  2
Dim4
 10
149.3515306122448
 20
166.419893451143
 30
0.0
 11
153.3515306122449
 21
171.669893451143
 31
0.0
 70
   160
  1
<>
 71
     5
 42
-1.0
 73
     0
 74
     0
 75
     0
  3
Standard
100
AcDbAlignedDimension
 13
149.3515306122449
 23
175.9133965696461
 33
0.0
 14
157.3515306122449
 24
175.6818477130973
 34
0.0
100
AcDbRotatedDimension
1001
ACAD
1000
DSTYLE
1002
{
1070
   344
1005
0
1070
   343
1005
0
1070
   173
1070
     1
1070
   289
1070
     2
1070
   279
1070
     2
1070
   288
1070
     1
1070
    77
1070
     3
1070
   172
1070
     1
1070
   174
1070
     0
1070
    74
1070
     0
1070
    73
1070
     0
1070
   284
1070
     8
1070
    78
1070
     8
1070
   140
1040
4.0
1070
    40
1040
3.0
1070
    42
1040
2.0
1070
    44
1040
0.0
1070
    43
1040
10.0
1070
   271
1070
     2
1070
    41
1040
4.0
1002
}
  0
DIMENSION
  5
3C6
330
1F
100
AcDbEntity
  8
1
  6
Continuous
 62
     7
370
     9
100
AcDbDimension
  2
Dim5
 10
228.3515306122449
 20
94.52397349272294
 30
0.0
 11
238.5054573804575
 21
89.27397349272294
 31
0.0
 70
   160
  1
<>
 71
     5
 42
-1.0
 73
     0
 74
     0
 75
     0
  3
Standard
100
AcDbAlignedDimension
 13
228.3515306122449
 23
104.5306122448978
 33
0.0
 14
248.3515306122449
 24
104.5306122448978
 34
0.0
100
AcDbRotatedDimension
1001
ACAD
1000
DSTYLE
1002
{
1070
   344
1005
0
1070
   343
1005
0
1070
   173
1070
     1
1070
   289
1070
     2
1070
   279
1070
     2
1070
   288
1070
     1
1070
    77
1070
     3
1070
   172
1070
     1
1070
   174
1070
     0
1070
    74
1070
     0
1070
    73
1070
     0
1070
   284
1070
     8
1070
    78
1070
     8
1070
   140
1040
4.0
1070
    40
1040
3.0
1070
    42
1040
2.0
1070
    44
1040
0.0
1070
    43
1040
10.0
1070
   271
1070
     2
1070
    41
1040
4.0
1002
}
  0
DIMENSION
  5
3D8
330
1F
100
AcDbEntity
  8
1
  6
Continuous
 62
     7
370
     9
100
AcDbDimension
  2
Dim6
 10
154.2160735407815
 20
429.4504040392347
 30
0.0
 11
171.7160737164966
 21
434.7004040392347
 31
0.0
 70
   160
  1
<>
 71
     5
 42
-1.0
 73
     0
 74
     0
 75
     0
  3
Standard
100
AcDbAlignedDimension
 13
154.2160735407815
 23
429.4504040392347
 33
0.0
 14
189.2160735407815
 24
429.4504040392347
 34
0.0
100
AcDbRotatedDimension
1001
ACAD
1000
DSTYLE
1002
{
1070
   344
1005
0
1070
   343
1005
0
1070
   173
1070
     1
1070
   289
1070
     2
1070
   279
1070
     2
1070
   288
1070
     1
1070
    77
1070
     3
1070
   172
1070
     1
1070
   174
1070
     0
1070
    74
1070
     0
1070
    73
1070
     0
1070
   284
1070
     8
1070
    78
1070
     8
1070
   140
1040
4.0
1070
    40
1040
3.0
1070
    42
1040
2.0
1070
    44
1040
0.0
1070
    43
1040
10.0
1070
   271
1070
     2
1070
    41
1040
4.0
1002
}
  0
DIMENSION
  5
3EC
330
1F
100
AcDbEntity
  8
1
  6
Continuous
 62
     7
370
     9
100
AcDbDimension
  2
Dim7
 10
165.7160737164965
 20
375.1467158264028
 30
0.0
 11
171.7160737164965
 21
378.1467158264028
 31
0.0
 70
   160
  1
<>
 71
     5
 42
-1.0
 73
     0
 74
     0
 75
     0
  3
Standard
100
AcDbAlignedDimension
 13
165.7160737164966
 23
390.3131659303529
 33
0.0
 14
177.7160737164966
 24
390.5447147869017
 34
0.0
100
AcDbRotatedDimension
1001
ACAD
1000
DSTYLE
1002
{
1070
   344
1005
0
1070
   343
1005
0
1070
   173
1070
     1
1070
   289
1070
     2
1070
   279
1070
     2
1070
   288
1070
     1
1070
    77
1070
     3
1070
   172
1070
     1
1070
   174
1070
     0
1070
    74
1070
     0
1070
    73
1070
     0
1070
   284
1070
     8
1070
    78
1070
     8
1070
   140
1040
4.0
1070
    40
1040
3.0
1070
    42
1040
2.0
1070
    44
1040
0.0
1070
    43
1040
10.0
1070
   271
1070
     2
1070
    41
1040
4.0
1002
}
  0
DIMENSION
  5
400
330
1F
100
AcDbEntity
  8
1
  6
Continuous
 62
     7
370
     9
100
AcDbDimension
  2
Dim8
 10
157.3515306122449
 20
193.2361454002101
 30
0.0
 11
197.8515306122449
 21
198.4861454002101
 31
0.0
 70
   160
  1
<>
 71
     5
 42
-1.0
 73
     0
 74
     0
 75
     0
  3
Standard
100
AcDbAlignedDimension
 13
157.3515306122449
 23
202.5306122448978
 33
0.0
 14
238.3515306122449
 24
202.5306122448978
 34
0.0
100
AcDbRotatedDimension
1001
ACAD
1000
DSTYLE
1002
{
1070
   344
1005
0
1070
   343
1005
0
1070
   173
1070
     1
1070
   289
1070
     2
1070
   279
1070
     2
1070
   288
1070
     1
1070
    77
1070
     3
1070
   172
1070
     1
1070
   174
1070
     0
1070
    74
1070
     0
1070
    73
1070
     0
1070
   284
1070
     8
1070
    78
1070
     8
1070
   140
1040
4.0
1070
    40
1040
3.0
1070
    42
1040
2.0
1070
    44
1040
0.0
1070
    43
1040
10.0
1070
   271
1070
     2
1070
    41
1040
4.0
1002
}
  0
DIMENSION
  5
414
330
1F
100
AcDbEntity
  8
1
  6
Continuous
 62
     7
370
     9
100
AcDbDimension
  2
Dim9
 10
615.25
 20
50.89148583680129
 30
0.0
 11
640.25
 21
56.14148583680129
 31
0.0
 70
   160
  1
<>
 71
     5
 42
-1.0
 73
     0
 74
     0
 75
     0
  3
Standard
100
AcDbAlignedDimension
 13
615.25
 23
80.53061224489784
 33
0.0
 14
665.25
 24
80.53061224489784
 34
0.0
100
AcDbRotatedDimension
1001
ACAD
1000
DSTYLE
1002
{
1070
   344
1005
0
1070
   343
1005
0
1070
   173
1070
     1
1070
   289
1070
     2
1070
   279
1070
     2
1070
   288
1070
     1
1070
    77
1070
     3
1070
   172
1070
     1
1070
   174
1070
     0
1070
    74
1070
     0
1070
    73
1070
     0
1070
   284
1070
     8
1070
    78
1070
     8
1070
   140
1040
4.0
1070
    40
1040
3.0
1070
    42
1040
2.0
1070
    44
1040
0.0
1070
    43
1040
10.0
1070
   271
1070
     2
1070
    41
1040
4.0
1002
}
  0
DIMENSION
  5
427
330
1F
100
AcDbEntity
  8
1
  6
Continuous
 62
     7
370
     9
100
AcDbDimension
  2
Dim10
 10
665.25
 20
50.89148583680129
 30
0.0
 11
690.25
 21
56.14148583680129
 31
0.0
 70
   160
  1
<>
 71
     5
 42
-1.0
 73
     0
 74
     0
 75
     0
  3
Standard
100
AcDbAlignedDimension
 13
665.25
 23
80.53061224489784
 33
0.0
 14
715.25
 24
80.53061224489784
 34
0.0
100
AcDbRotatedDimension
1001
ACAD
1000
DSTYLE
1002
{
1070
   344
1005
0
1070
   343
1005
0
1070
   173
1070
     1
1070
   289
1070
     2
1070
   279
1070
     2
1070
   288
1070
     1
1070
    77
1070
     3
1070
   172
1070
     1
1070
   174
1070
     0
1070
    74
1070
     0
1070
    73
1070
     0
1070
   284
1070
     8
1070
    78
1070
     8
1070
   140
1040
4.0
1070
    40
1040
3.0
1070
    42
1040
2.0
1070
    44
1040
0.0
1070
    43
1040
10.0
1070
   271
1070
     2
1070
    41
1040
4.0
1002
}
  0
DIMENSION
  5
43B
330
1F
100
AcDbEntity
  8
1
  6
Continuous
 62
     7
370
     9
100
AcDbDimension
  2
Dim11
 10
635.2499999999999
 20
265.9424863565514
 30
0.0
 11
665.2499999999999
 21
271.1924863565514
 31
0.0
 70
   160
  1
<>
 71
     5
 42
-1.0
 73
     0
 74
     0
 75
     0
  3
Standard
100
AcDbAlignedDimension
 13
635.25
 23
282.6198934760736
 33
0.0
 14
695.25
 24
282.6198934760736
 34
0.0
100
AcDbRotatedDimension
1001
ACAD
1000
DSTYLE
1002
{
1070
   344
1005
0
1070
   343
1005
0
1070
   173
1070
     1
1070
   289
1070
     2
1070
   279
1070
     2
1070
   288
1070
     1
1070
    77
1070
     3
1070
   172
1070
     1
1070
   174
1070
     0
1070
    74
1070
     0
1070
    73
1070
     0
1070
   284
1070
     8
1070
    78
1070
     8
1070
   140
1040
4.0
1070
    40
1040
3.0
1070
    42
1040
2.0
1070
    44
1040
0.0
1070
    43
1040
10.0
1070
   271
1070
     2
1070
    41
1040
4.0
1002
}
  0
DIMENSION
  5
44F
330
1F
100
AcDbEntity
  8
1
  6
Continuous
 62
     7
370
     9
100
AcDbDimension
  2
Dim12
 10
637.25
 20
393.0628086018728
 30
0.0
 11
665.25
 21
398.3128086018728
 31
0.0
 70
   160
  1
<>
 71
     5
 42
-1.0
 73
     0
 74
     0
 75
     0
  3
Standard
100
AcDbAlignedDimension
 13
637.25
 23
372.5306122448978
 33
0.0
 14
693.25
 24
372.1179033638761
 34
0.0
100
AcDbRotatedDimension
1001
ACAD
1000
DSTYLE
1002
{
1070
   344
1005
0
1070
   343
1005
0
1070
   173
1070
     1
1070
   289
1070
     2
1070
   279
1070
     2
1070
   288
1070
     1
1070
    77
1070
     3
1070
   172
1070
     1
1070
   174
1070
     0
1070
    74
1070
     0
1070
    73
1070
     0
1070
   284
1070
     8
1070
    78
1070
     8
1070
   140
1040
4.0
1070
    40
1040
3.0
1070
    42
1040
2.0
1070
    44
1040
0.0
1070
    43
1040
10.0
1070
   271
1070
     2
1070
    41
1040
4.0
1002
}
  0
DIMENSION
  5
463
330
1F
100
AcDbEntity
  8
1
  6
Continuous
 62
     7
370
     9
100
AcDbDimension
  2
Dim13
 10
223.4515306122448
 20
172.2809738825403
 30
0.0
 11
238.3515306122448
 21
177.5309738825403
 31
0.0
 70
   160
  1
<>
 71
     5
 42
-1.0
 73
     0
 74
     0
 75
     0
  3
Standard
100
AcDbAlignedDimension
 13
223.4515306122449
 23
177.1434998700663
 33
0.0
 14
253.2515306122448
 24
176.4488533004197
 34
0.0
100
AcDbRotatedDimension
1001
ACAD
1000
DSTYLE
1002
{
1070
   344
1005
0
1070
   343
1005
0
1070
   173
1070
     1
1070
   289
1070
     2
1070
   279
1070
     2
1070
   288
1070
     1
1070
    77
1070
     3
1070
   172
1070
     1
1070
   174
1070
     0
1070
    74
1070
     0
1070
    73
1070
     0
1070
   284
1070
     8
1070
    78
1070
     8
1070
   140
1040
4.0
1070
    40
1040
3.0
1070
    42
1040
2.0
1070
    44
1040
0.0
1070
    43
1040
10.0
1070
   271
1070
     2
1070
    41
1040
4.0
1002
}
  0
DIMENSION
  5
477
330
1F
100
AcDbEntity
  8
1
  6
Continuous
 62
     7
370
     9
100
AcDbDimension
  2
Dim14
 10
580.25
 20
121.1665637993811
 30
0.0
 11
665.25
 21
126.4165637993811
 31
0.0
 70
   160
  1
<>
 71
     5
 42
-1.0
 73
     0
 74
     0
 75
     0
  3
Standard
100
AcDbAlignedDimension
 13
580.25
 23
112.5306122448978
 33
0.0
 14
750.25
 24
112.5306122448978
 34
0.0
100
AcDbRotatedDimension
1001
ACAD
1000
DSTYLE
1002
{
1070
   344
1005
0
1070
   343
1005
0
1070
   173
1070
     1
1070
   289
1070
     2
1070
   279
1070
     2
1070
   288
1070
     1
1070
    77
1070
     3
1070
   172
1070
     1
1070
   174
1070
     0
1070
    74
1070
     0
1070
    73
1070
     0
1070
   284
1070
     8
1070
    78
1070
     8
1070
   140
1040
4.0
1070
    40
1040
3.0
1070
    42
1040
2.0
1070
    44
1040
0.0
1070
    43
1040
10.0
1070
   271
1070
     2
1070
    41
1040
4.0
1002
}
  0
ARC
  5
478
330
1F
100
AcDbEntity
  8
1
  6
Continuous
 62
     7
370
     9
100
AcDbCircle
 10
408.7375463565752
 20
260.2964840718038
 30
0.0
 40
-0.7
100
AcDbArc
 50
0.0
 51
308.6598082540854
  0
ARC
  5
479
330
1F
100
AcDbEntity
  8
1
  6
Continuous
 62
     7
370
     9
100
AcDbCircle
 10
465.7875463565751
 20
260.2964840718038
 30
0.0
 40
-0.7
100
AcDbArc
 50
231.3401917459139
 51
179.9999999999998
  0
LINE
  5
47A
330
1F
100
AcDbEntity
  8
1
  6
Continuous
 62
     7
370
     9
100
AcDbLine
 10
433.3250463565754
 20
261.3057962515255
 30
0.0
 11
441.2000463565754
 21
261.3057962515255
 31
0.0
  0
CIRCLE
  5
47B
330
1F
100
AcDbEntity
  8
1
  6
Continuous
 62
     7
370
     9
100
AcDbCircle
 10
437.144521803004
 20
220.8057962515255
 30
0.0
 40
5.0
  0
CIRCLE
  5
47C
330
1F
100
AcDbEntity
  8
1
  6
Continuous
 62
     7
370
     9
100
AcDbCircle
 10
412.144521803004
 20
220.8057962515255
 30
0.0
 40
1.5
  0
CIRCLE
  5
47D
330
1F
100
AcDbEntity
  8
1
  6
Continuous
 62
     7
370
     9
100
AcDbCircle
 10
462.144521803004
 20
220.8057962515255
 30
0.0
 40
1.5
  0
LINE
  5
47E
330
1F
100
AcDbEntity
  8
1
  6
Continuous
 62
     7
370
     9
100
AcDbLine
 10
409.1424928534287
 20
220.8057962515255
 30
0.0
 11
412.144521803004
 21
220.8057962515255
 31
0.0
  0
LINE
  5
47F
330
1F
100
AcDbEntity
  8
1
  6
Continuous
 62
     7
370
     9
100
AcDbLine
 10
409.1424928534287
 20
261.3057962515255
 30
0.0
 11
409.1424928534287
 21
220.8057962515255
 31
0.0
  0
LINE
  5
480
330
1F
100
AcDbEntity
  8
1
  6
Continuous
 62
     7
370
     9
100
AcDbLine
 10
409.1424928534287
 20
261.3057962515255
 30
0.0
 11
409.9189499887363
 21
258.4080187726583
 31
0.0
  0
LINE
  5
481
330
1F
100
AcDbEntity
  8
1
  6
Continuous
 62
     7
370
     9
100
AcDbLine
 10
409.1424928534287
 20
261.3057962515255
 30
0.0
 11
408.3660357181212
 21
258.4080187726583
 31
0.0
  0
LINE
  5
482
330
1F
100
AcDbEntity
  8
1
  6
Continuous
 62
     7
370
     9
100
AcDbLine
 10
409.9189499887363
 20
258.4080187726583
 30
0.0
 11
408.3660357181212
 21
258.4080187726583
 31
0.0
  0
LINE
  5
483
330
1F
100
AcDbEntity
  8
1
  6
Continuous
 62
     7
370
     9
100
AcDbLine
 10
409.1424928534287
 20
260.5813518818087
 30
0.0
 11
409.5307214210825
 21
259.1324631423751
 31
0.0
  0
LINE
  5
484
330
1F
100
AcDbEntity
  8
1
  6
Continuous
 62
     7
370
     9
100
AcDbLine
 10
409.1424928534287
 20
260.5813518818087
 30
0.0
 11
408.754264285775
 21
259.1324631423751
 31
0.0
  0
LINE
  5
485
330
1F
100
AcDbEntity
  8
1
  6
Continuous
 62
     7
370
     9
100
AcDbLine
 10
409.5307214210825
 20
259.1324631423751
 30
0.0
 11
408.754264285775
 21
259.1324631423751
 31
0.0
  0
POLYLINE
  5
486
330
1F
100
AcDbEntity
  8
1
  6
Continuous
 62
     7
370
     9
100
AcDb2dPolyline
 66
     1
 10
0.0
 20
0.0
 30
0.0
  0
VERTEX
  5
488
330
486
100
AcDbEntity
  8
1
  6
Continuous
 62
     7
370
     9
100
AcDbVertex
100
AcDb2dVertex
 10
409.1424928534287
 20
261.3057962515255
 30
0.0
  0
VERTEX
  5
489
330
486
100
AcDbEntity
  8
1
  6
Continuous
 62
     7
370
     9
100
AcDbVertex
100
AcDb2dVertex
 10
409.1424928534287
 20
259.7369520218155
 30
0.0
  0
SEQEND
  5
487
330
486
100
AcDbEntity
  8
1
  6
Continuous
370
     9
  0
LINE
  5
48A
330
1F
100
AcDbEntity
  8
1
  6
Continuous
 62
     7
370
     9
100
AcDbLine
 10
409.1424928534287
 20
220.8057962515255
 30
0.0
 11
408.3660357181212
 21
223.7035737303927
 31
0.0
  0
LINE
  5
48B
330
1F
100
AcDbEntity
  8
1
  6
Continuous
 62
     7
370
     9
100
AcDbLine
 10
409.1424928534287
 20
220.8057962515255
 30
0.0
 11
409.9189499887363
 21
223.7035737303927
 31
0.0
  0
LINE
  5
48C
330
1F
100
AcDbEntity
  8
1
  6
Continuous
 62
     7
370
     9
100
AcDbLine
 10
408.3660357181212
 20
223.7035737303927
 30
0.0
 11
409.9189499887363
 21
223.7035737303927
 31
0.0
  0
LINE
  5
48D
330
1F
100
AcDbEntity
  8
1
  6
Continuous
 62
     7
370
     9
100
AcDbLine
 10
409.1424928534287
 20
221.5302406212423
 30
0.0
 11
408.754264285775
 21
222.979129360676
 31
0.0
  0
LINE
  5
48E
330
1F
100
AcDbEntity
  8
1
  6
Continuous
 62
     7
370
     9
100
AcDbLine
 10
409.1424928534287
 20
221.5302406212423
 30
0.0
 11
409.5307214210825
 21
222.979129360676
 31
0.0
  0
LINE
  5
48F
330
1F
100
AcDbEntity
  8
1
  6
Continuous
 62
     7
370
     9
100
AcDbLine
 10
408.754264285775
 20
222.979129360676
 30
0.0
 11
409.5307214210825
 21
222.979129360676
 31
0.0
  0
POLYLINE
  5
490
330
1F
100
AcDbEntity
  8
1
  6
Continuous
 62
     7
370
     9
100
AcDb2dPolyline
 66
     1
 10
0.0
 20
0.0
 30
0.0
  0
VERTEX
  5
492
330
490
100
AcDbEntity
  8
1
  6
Continuous
 62
     7
370
     9
100
AcDbVertex
100
AcDb2dVertex
 10
409.1424928534287
 20
220.8057962515255
 30
0.0
  0
VERTEX
  5
493
330
490
100
AcDbEntity
  8
1
  6
Continuous
 62
     7
370
     9
100
AcDbVertex
100
AcDb2dVertex
 10
409.1424928534287
 20
221.9366011902147
 30
0.0
  0
SEQEND
  5
491
330
490
100
AcDbEntity
  8
1
  6
Continuous
370
     9
  0
TEXT
  5
494
330
1F
100
AcDbEntity
  8
1
  6
Continuous
 62
     7
370
     9
100
AcDbText
 10
404.3424111783485
 20
235.054584558199
 30
0.0
 40
10.5
  1
81
 41
0.5
100
AcDbText
  0
LINE
  5
495
330
1F
100
AcDbEntity
  8
1
  6
Continuous
 62
     7
370
     9
100
AcDbLine
 10
423.144521803004
 20
261.3057962515255
 30
0.0
 11
451.144521803004
 21
261.3057962515255
 31
0.0
  0
LINE
  5
496
330
1F
100
AcDbEntity
  8
1
  6
Continuous
 62
     7
370
     9
100
AcDbLine
 10
423.144521803004
 20
265.3057962515255
 30
0.0
 11
428.9445218030039
 21
265.3057962515255
 31
0.0
  0
LINE
  5
497
330
1F
100
AcDbEntity
  8
1
  6
Continuous
 62
     7
370
     9
100
AcDbLine
 10
428.9445218030039
 20
265.3057962515255
 30
0.0
 11
423.144521803004
 21
261.3057962515255
 31
0.0
  0
LINE
  5
498
330
1F
100
AcDbEntity
  8
1
  6
Continuous
 62
     7
370
     9
100
AcDbLine
 10
445.3445218030039
 20
265.3057962515255
 30
0.0
 11
451.144521803004
 21
261.3057962515255
 31
0.0
  0
LINE
  5
499
330
1F
100
AcDbEntity
  8
1
  6
Continuous
 62
     7
370
     9
100
AcDbLine
 10
445.3445218030039
 20
265.3057962515255
 30
0.0
 11
451.144521803004
 21
265.3057962515255
 31
0.0
  0
LINE
  5
49A
330
1F
100
AcDbEntity
  8
1
  6
Continuous
 62
     7
370
     9
100
AcDbLine
 10
423.144521803004
 20
272.8057962515256
 30
0.0
 11
431.2500463565752
 21
272.8057962515256
 31
0.0
  0
ARC
  5
49B
330
1F
100
AcDbEntity
  8
1
  6
Continuous
 62
     7
370
     9
100
AcDbCircle
 10
431.2500463565752
 20
276.8057962515256
 30
0.0
 40
4.0
100
AcDbArc
 50
269.9999999999998
 51
0.0
  0
LINE
  5
49C
330
1F
100
AcDbEntity
  8
1
  6
Continuous
 62
     7
370
     9
100
AcDbLine
 10
443.2750463565752
 20
272.8057962515256
 30
0.0
 11
451.144521803004
 21
272.8057962515256
 31
0.0
  0
ARC
  5
49D
330
1F
100
AcDbEntity
  8
1
  6
Continuous
 62
     7
370
     9
100
AcDbCircle
 10
443.2750463565752
 20
276.8057962515256
 30
0.0
 40
4.0
100
AcDbArc
 50
179.9999999999998
 51
269.9999999999998
  0
ARC
  5
49E
330
1F
100
AcDbEntity
  8
1
  6
Continuous
 62
     7
370
     9
100
AcDbCircle
 10
437.262546356576
 20
290.8067913076243
 30
0.0
 40
7.0
100
AcDbArc
 50
51.34019174590963
 51
128.6598082540897
  0
LINE
  5
49F
330
1F
100
AcDbEntity
  8
1
  6
Continuous
 62
     7
370
     9
100
AcDbLine
 10
423.144521803004
 20
286.3658609649746
 30
0.0
 11
423.144521803004
 21
265.3057962515255
 31
0.0
  0
LINE
  5
4A0
330
1F
100
AcDbEntity
  8
1
  6
Continuous
 62
     7
370
     9
100
AcDbLine
 10
424.166271810846
 20
288.6211939711019
 30
0.0
 11
432.8896810236947
 21
296.2728729737253
 31
0.0
  0
ARC
  5
4A1
330
1F
100
AcDbEntity
  8
1
  6
Continuous
 62
     7
370
     9
100
AcDbCircle
 10
426.144521803004
 20
286.3658609649746
 30
0.0
 40
3.0
100
AcDbArc
 50
131.2553994397198
 51
179.9999999999998
  0
LINE
  5
4A2
330
1F
100
AcDbEntity
  8
1
  6
Continuous
 62
     7
370
     9
100
AcDbLine
 10
450.1227717951618
 20
288.8282428384258
 30
0.0
 11
441.6354116894572
 21
296.2728729737253
 31
0.0
  0
LINE
  5
4A3
330
1F
100
AcDbEntity
  8
1
  6
Continuous
 62
     7
370
     9
100
AcDbLine
 10
451.144521803004
 20
286.5729098322985
 30
0.0
 11
451.144521803004
 21
265.3057962515255
 31
0.0
  0
ARC
  5
4A4
330
1F
100
AcDbEntity
  8
1
  6
Continuous
 62
     7
370
     9
100
AcDbCircle
 10
448.144521803004
 20
286.5729098322985
 30
0.0
 40
3.0
100
AcDbArc
 50
0.0
 51
48.74460056028101
  0
LINE
  5
4A5
330
1F
100
AcDbEntity
  8
1
  6
Continuous
 62
     7
370
     9
100
AcDbLine
 10
435.2500463565752
 20
297.5112557716958
 30
0.0
 11
435.2500463565752
 21
276.8057962515256
 31
0.0
  0
LINE
  5
4A6
330
1F
100
AcDbEntity
  8
1
  6
Continuous
 62
     7
370
     9
100
AcDbLine
 10
439.2750463565752
 20
297.4316841044937
 30
0.0
 11
439.2750463565752
 21
276.8057962515256
 31
0.0
  0
ARC
  5
4A7
330
1F
100
AcDbEntity
  8
1
  6
Continuous
 62
     7
370
     9
100
AcDbCircle
 10
437.262546356576
 20
292.3067913076243
 30
0.0
 40
7.0
100
AcDbArc
 50
51.34019174590963
 51
128.6598082540897
  0
LINE
  5
4A8
330
1F
100
AcDbEntity
  8
1
  6
Continuous
 62
     7
370
     9
100
AcDbLine
 10
395.666271810846
 20
265.1226128653311
 30
0.0
 11
432.8896827347145
 21
297.7728743425406
 31
0.0
  0
ARC
  5
4A9
330
1F
100
AcDbEntity
  8
1
  6
Continuous
 62
     7
370
     9
100
AcDbCircle
 10
397.644521803004
 20
262.8672798592038
 30
0.0
 40
3.0
100
AcDbArc
 50
131.2553994397206
 51
179.9999999999998
  0
LINE
  5
4AA
330
1F
100
AcDbEntity
  8
1
  6
Continuous
 62
     7
370
     9
100
AcDbLine
 10
478.622771795162
 20
265.3296618266461
 30
0.0
 11
441.6354100855935
 21
297.7728743425406
 31
0.0
  0
ARC
  5
4AB
330
1F
100
AcDbEntity
  8
1
  6
Continuous
 62
     7
370
     9
100
AcDbCircle
 10
476.644521803004
 20
263.0743288205188
 30
0.0
 40
3.0
100
AcDbArc
 50
0.0
 51
48.74460056027939
  0
LINE
  5
4AC
330
1F
100
AcDbEntity
  8
1
  6
Continuous
 62
     7
370
     9
100
AcDbLine
 10
397.644521803004
 20
154.3057962515256
 30
0.0
 11
476.644521803004
 21
154.3057962515256
 31
0.0
  0
LINE
  5
4AD
330
1F
100
AcDbEntity
  8
1
  6
Continuous
 62
     7
370
     9
100
AcDbLine
 10
394.644521803004
 20
262.8672798592038
 30
0.0
 11
394.644521803004
 21
157.3057962515256
 31
0.0
  0
ARC
  5
4AE
330
1F
100
AcDbEntity
  8
1
  6
Continuous
 62
     7
370
     9
100
AcDbCircle
 10
397.644521803004
 20
157.3057962515256
 30
0.0
 40
3.0
100
AcDbArc
 50
179.9999999999998
 51
269.9999999999998
  0
LINE
  5
4AF
330
1F
100
AcDbEntity
  8
1
  6
Continuous
 62
     7
370
     9
100
AcDbLine
 10
479.644521803004
 20
263.0743288205188
 30
0.0
 11
479.644521803004
 21
157.3057962515256
 31
0.0
  0
ARC
  5
4B0
330
1F
100
AcDbEntity
  8
1
  6
Continuous
 62
     7
370
     9
100
AcDbCircle
 10
476.644521803004
 20
157.3057962515256
 30
0.0
 40
3.0
100
AcDbArc
 50
269.9999999999998
 51
0.0
  0
INSERT
  5
4D5
330
1F
100
AcDbEntity
  8
0
100
AcDbBlockReference
  2
*G26
 10
0.0
 20
0.0
 30
0.0
  0
LINE
  5
4D6
330
1F
100
AcDbEntity
  8
1
  6
Continuous
 62
     7
370
     9
100
AcDbLine
 10
409.1424928534287
 20
261.3057962515255
 30
0.0
 11
420.5028586278565
 21
261.3057962515255
 31
0.0
  0
DIMENSION
  5
4EA
330
1F
100
AcDbEntity
  8
1
  6
Continuous
 62
     7
370
     9
100
AcDbDimension
  2
Dim15
 10
412.1445218030038
 20
194.7874977598613
 30
0.0
 11
424.6445218030038
 21
200.0374977598613
 31
0.0
 70
   160
  1
50
 71
     5
 42
-1.0
 73
     0
 74
     0
 75
     0
  3
Standard
100
AcDbAlignedDimension
 13
412.144521803004
 23
220.8057962515255
 33
0.0
 14
437.144521803004
 24
220.8057962515255
 34
0.0
100
AcDbRotatedDimension
1001
ACAD
1000
DSTYLE
1002
{
1070
   344
1005
0
1070
   343
1005
0
1070
   173
1070
     1
1070
   289
1070
     2
1070
   279
1070
     2
1070
   288
1070
     1
1070
    77
1070
     3
1070
   172
1070
     1
1070
   174
1070
     0
1070
    74
1070
     0
1070
    73
1070
     0
1070
   284
1070
     8
1070
    78
1070
     8
1070
   140
1040
4.0
1070
    40
1040
3.0
1070
    42
1040
2.0
1070
    44
1040
0.0
1070
    43
1040
10.0
1070
   271
1070
     2
1070
    41
1040
4.0
1002
}
  0
DIMENSION
  5
4FD
330
1F
100
AcDbEntity
  8
1
  6
Continuous
 62
     7
370
     9
100
AcDbDimension
  2
Dim16
 10
437.1445218030038
 20
194.7874977598613
 30
0.0
 11
449.6445218030038
 21
200.0374977598613
 31
0.0
 70
   160
  1
50
 71
     5
 42
-1.0
 73
     0
 74
     0
 75
     0
  3
Standard
100
AcDbAlignedDimension
 13
437.144521803004
 23
220.8057962515255
 33
0.0
 14
462.144521803004
 24
220.8057962515255
 34
0.0
100
AcDbRotatedDimension
1001
ACAD
1000
DSTYLE
1002
{
1070
   344
1005
0
1070
   343
1005
0
1070
   173
1070
     1
1070
   289
1070
     2
1070
   279
1070
     2
1070
   288
1070
     1
1070
    77
1070
     3
1070
   172
1070
     1
1070
   174
1070
     0
1070
    74
1070
     0
1070
    73
1070
     0
1070
   284
1070
     8
1070
    78
1070
     8
1070
   140
1040
4.0
1070
    40
1040
3.0
1070
    42
1040
2.0
1070
    44
1040
0.0
1070
    43
1040
10.0
1070
   271
1070
     2
1070
    41
1040
4.0
1002
}
  0
TEXT
  5
4FE
330
1F
100
AcDbEntity
  8
1
  6
Continuous
 62
     7
370
     9
100
AcDbText
 10
34.1536767708688
 20
88.72730964137601
 30
0.0
 40
10.5
  1
38±1
 41
0.625
100
AcDbText
  0
LINE
  5
4FF
330
1F
100
AcDbEntity
  8
1
  6
Continuous
 62
     7
370
     9
100
AcDbLine
 10
232.0566645408167
 20
344.5306122448978
 30
0.0
 11
273.2515306122449
 21
344.5306122448978
 31
0.0
  0
LINE
  5
500
330
1F
100
AcDbEntity
  8
1
  6
Continuous
 62
     7
370
     9
100
AcDbLine
 10
273.2515306122449
 20
202.5306122448978
 30
0.0
 11
273.2515306122449
 21
344.5306122448978
 31
0.0
  0
LINE
  5
501
330
1F
100
AcDbEntity
  8
1
  6
Continuous
 62
     7
370
     9
100
AcDbLine
 10
149.3515306122449
 20
202.5306122448978
 30
0.0
 11
273.2515306122449
 21
202.5306122448978
 31
0.0
  0
ARC
  5
502
330
1F
100
AcDbEntity
  8
1
  6
Continuous
 62
     7
370
     9
100
AcDbCircle
 10
266.2515306122449
 20
209.5306122448978
 30
0.0
 40
7.0
100
AcDbArc
 50
269.9999999999998
 51
281.3453396597771
  0
ARC
  5
503
330
1F
100
AcDbEntity
  8
1
  6
Continuous
 62
     7
370
     9
100
AcDbCircle
 10
266.2515306122449
 20
337.5306122448978
 30
0.0
 40
7.0
100
AcDbArc
 50
0.0
 51
4.280462792869772
  0
LINE
  5
504
330
1F
100
AcDbEntity
  8
1
  6
Continuous
 62
     7
370
     9
100
AcDbLine
 10
276.4153282122908
 20
344.5306122448978
 30
0.0
 11
295.3362298596679
 21
344.5306122448978
 31
0.0
  0
LINE
  5
505
330
1F
100
AcDbEntity
  8
1
  6
Continuous
 62
     7
370
     9
100
AcDbLine
 10
275.6686801675983
 20
202.5306122448978
 30
0.0
 11
295.3362298596679
 21
202.5306122448978
 31
0.0
  0
VIEWPORT
  5
3B
330
1B
100
AcDbEntity
 67
     1
  8
0
100
AcDbViewport
 10
445.5
 20
315.0
 30
0.0
 40
891.0
 41
630.0
 68
     1
 69
     1
 12
445.5
 22
315.0
 13
0.0
 23
0.0
 14
0.5
 24
0.5
 15
0.5
 25
0.5
 16
0.0
 26
0.0
 36
1.0
 17
0.0
 27
0.0
 37
0.0
 42
50.0
 43
0.0
 44
0.0
 45
9.0
 50
0.0
 51
0.0
 72
   100
 90
   557152
  1

281
     0
 71
     1
 74
     0
110
0.0
120
0.0
130
0.0
111
1.0
121
0.0
131
0.0
112
0.0
122
1.0
132
0.0
 79
     0
146
0.0
170
     0
 61
     5
292
     1
282
     1
141
0.0
142
0.0
 63
   256
  0
ENDSEC
  0
SECTION
  2
OBJECTS
  0
DICTIONARY
  5
C
330
0
100
AcDbDictionary
281
     1
  3
ACAD_GROUP
350
D
  3
ACAD_LAYOUT
350
1A
  3
ACAD_MLINESTYLE
350
17
  3
ACAD_PLOTSETTINGS
350
19
  3
ACAD_PLOTSTYLENAME
350
E
  3
ACAD_TABLESTYLE
350
506
  3
ACAD_VISUALSTYLE
350
2A
  0
DICTIONARY
  5
D
102
{ACAD_REACTORS
330
C
102
}
330
C
100
AcDbDictionary
281
     1
  0
DICTIONARY
  5
1A
102
{ACAD_REACTORS
330
C
102
}
330
C
100
AcDbDictionary
281
     1
  3
Layout1
350
1E
  3
Layout2
350
26
  3
Model
350
22
  0
DICTIONARY
  5
17
102
{ACAD_REACTORS
330
C
102
}
330
C
100
AcDbDictionary
281
     1
  3
Standard
350
18
  0
DICTIONARY
  5
19
102
{ACAD_REACTORS
330
C
102
}
330
C
100
AcDbDictionary
281
     1
  0
ACDBDICTIONARYWDFLT
  5
E
102
{ACAD_REACTORS
330
C
102
}
330
C
100
AcDbDictionary
281
     1
  3
Normal
350
F
100
AcDbDictionaryWithDefault
340
F
  0
DICTIONARY
  5
506
102
{ACAD_REACTORS
330
C
102
}
330
C
100
AcDbDictionary
281
     1
  0
DICTIONARY
  5
2A
102
{ACAD_REACTORS
330
C
102
}
330
C
100
AcDbDictionary
281
     1
  3
2dWireframe
350
2F
  3
3D Hidden
350
31
  3
3dWireframe
350
30
  3
Basic
350
32
  3
Brighten
350
36
  3
ColorChange
350
3A
  3
Conceptual
350
34
  3
Dim
350
35
  3
Facepattern
350
39
  3
Flat
350
2B
  3
FlatWithEdges
350
2C
  3
Gouraud
350
2D
  3
GouraudWithEdges
350
2E
  3
Linepattern
350
38
  3
Realistic
350
33
  3
Thicken
350
37
  0
LAYOUT
  5
1E
102
{ACAD_REACTORS
330
1A
102
}
330
1A
100
AcDbPlotSettings
  1

  2
none_device
  4

  6

 40
0.0
 41
0.0
 42
0.0
 43
0.0
 44
0.0
 45
0.0
 46
0.0
 47
0.0
 48
0.0
 49
0.0
140
0.0
141
0.0
142
1.0
143
1.0
 70
   688
 72
     0
 73
     0
 74
     5
  7

 75
    16
 76
     0
 77
     2
 78
   300
147
1.0
148
0.0
149
0.0
100
AcDbLayout
  1
Layout1
 70
     1
 71
     1
 10
0.0
 20
0.0
 11
297.0
 21
210.0
 12
0.0
 22
0.0
 32
0.0
 14
0.0
 24
0.0
 34
0.0
 15
297.0
 25
210.0
 35
0.0
146
0.0
 13
0.0
 23
0.0
 33
0.0
 16
1.0
 26
0.0
 36
0.0
 17
0.0
 27
1.0
 37
0.0
 76
     0
330
1B
331
3B
  0
LAYOUT
  5
26
102
{ACAD_REACTORS
330
1A
102
}
330
1A
100
AcDbPlotSettings
  1

  2
none_device
  4

  6

 40
0.0
 41
0.0
 42
0.0
 43
0.0
 44
0.0
 45
0.0
 46
0.0
 47
0.0
 48
0.0
 49
0.0
140
0.0
141
0.0
142
1.0
143
1.0
 70
   688
 72
     0
 73
     0
 74
     5
  7

 75
    16
 76
     0
 77
     2
 78
   300
147
1.0
148
0.0
149
0.0
100
AcDbLayout
  1
Layout2
 70
     1
 71
     2
 10
0.0
 20
0.0
 11
0.0
 21
0.0
 12
0.0
 22
0.0
 32
0.0
 14
0.0
 24
0.0
 34
0.0
 15
0.0
 25
0.0
 35
0.0
146
0.0
 13
0.0
 23
0.0
 33
0.0
 16
1.0
 26
0.0
 36
0.0
 17
0.0
 27
1.0
 37
0.0
 76
     0
330
23
  0
LAYOUT
  5
22
102
{ACAD_REACTORS
330
1A
102
}
330
1A
100
AcDbPlotSettings
  1

  2
none_device
  4

  6

 40
0.0
 41
0.0
 42
0.0
 43
0.0
 44
0.0
 45
0.0
 46
0.0
 47
0.0
 48
0.0
 49
0.0
140
0.0
141
0.0
142
1.0
143
1.0
 70
  1712
 72
     0
 73
     0
 74
     0
  7

 75
     0
 76
     0
 77
     2
 78
   300
147
1.0
148
0.0
149
0.0
100
AcDbLayout
  1
Model
 70
     1
 71
     0
 10
0.0
 20
0.0
 11
891.0
 21
630.0
 12
0.0
 22
0.0
 32
0.0
 14
0.0
 24
0.0
 34
0.0
 15
891.0
 25
630.0
 35
0.0
146
0.0
 13
0.0
 23
0.0
 33
0.0
 16
1.0
 26
0.0
 36
0.0
 17
0.0
 27
1.0
 37
0.0
 76
     0
330
1F
331
29
  0
MLINESTYLE
  5
18
102
{ACAD_REACTORS
330
17
102
}
330
17
100
AcDbMlineStyle
  2
Standard
 70
     0
  3

 62
   256
 51
90.0
 52
90.0
 71
     2
 49
0.5
 62
   256
  6
BYLAYER
 49
-0.5
 62
   256
  6
BYLAYER
  0
ACDBPLACEHOLDER
  5
F
102
{ACAD_REACTORS
330
E
102
}
330
E
  0
VISUALSTYLE
  5
2F
102
{ACAD_REACTORS
330
2A
102
}
330
2A
100
AcDbVisualStyle
  2
2dWireframe
 70
     4
 71
     0
 72
     2
 73
     0
 90
        0
 40
-0.6
 41
-30.0
 62
     5
 63
     7
421
 16777215
 74
     1
 91
        4
 64
     7
 65
   257
 75
     1
175
     1
 42
1.0
 92
        0
 66
   257
 43
1.0
 76
     1
 77
     6
 78
     2
 67
     7
 79
     5
170
     0
171
     0
290
     0
174
     0
 93
        1
 44
0.0
173
     0
291
     0
 45
0.0
  0
VISUALSTYLE
  5
31
102
{ACAD_REACTORS
330
2A
102
}
330
2A
100
AcDbVisualStyle
  2
3D Hidden
 70
     6
 71
     1
 72
     2
 73
     2
 90
        0
 40
-0.6
 41
-30.0
 62
     5
 63
     7
421
 16777215
 74
     2
 91
        2
 64
     7
 65
   257
 75
     2
175
     1
 42
40.0
 92
        0
 66
   257
 43
1.0
 76
     1
 77
     6
 78
     2
 67
     7
 79
     3
170
     0
171
     0
290
     0
174
     0
 93
        1
 44
0.0
173
     0
291
     0
 45
0.0
  0
VISUALSTYLE
  5
30
102
{ACAD_REACTORS
330
2A
102
}
330
2A
100
AcDbVisualStyle
  2
3dWireframe
 70
     5
 71
     0
 72
     2
 73
     0
 90
        0
 40
-0.6
 41
-30.0
 62
     5
 63
     7
421
 16777215
 74
     1
 91
        4
 64
     7
 65
   257
 75
     1
175
     1
 42
1.0
 92
        0
 66
   257
 43
1.0
 76
     1
 77
     6
 78
     2
 67
     7
 79
     5
170
     0
171
     0
290
     0
174
     0
 93
        1
 44
0.0
173
     0
291
     0
 45
0.0
  0
VISUALSTYLE
  5
32
102
{ACAD_REACTORS
330
2A
102
}
330
2A
100
AcDbVisualStyle
  2
Basic
 70
     7
 71
     1
 72
     0
 73
     1
 90
        0
 40
-0.6
 41
-30.0
 62
     5
 63
     7
421
 16777215
 74
     0
 91
        4
 64
     7
 65
   257
 75
     1
175
     1
 42
1.0
 92
        8
 66
     7
 43
1.0
 76
     1
 77
     6
 78
     2
 67
     7
 79
     5
170
     0
171
     0
290
     0
174
     0
 93
        1
 44
0.0
173
     0
291
     1
 45
0.0
  0
VISUALSTYLE
  5
36
102
{ACAD_REACTORS
330
2A
102
}
330
2A
100
AcDbVisualStyle
  2
Brighten
 70
    12
 71
     2
 72
     2
 73
     0
 90
        0
 40
-0.6
 41
-30.0
 62
     5
 63
     7
421
 16777215
 74
     1
 91
        4
 64
     7
 65
   257
 75
     1
175
     1
 42
1.0
 92
        8
 66
     7
 43
1.0
 76
     1
 77
     6
 78
     2
 67
     7
 79
     5
170
     0
171
     0
290
     0
174
     0
 93
        1
 44
50.0
173
     0
291
     1
 45
0.0
  0
VISUALSTYLE
  5
3A
102
{ACAD_REACTORS
330
2A
102
}
330
2A
100
AcDbVisualStyle
  2
ColorChange
 70
    16
 71
     2
 72
     2
 73
     3
 90
        0
 40
-0.6
 41
-30.0
 62
     5
 63
     8
421
  8421504
 74
     1
 91
        4
 64
     7
 65
   257
 75
     1
175
     1
 42
1.0
 92
        8
 66
     8
424
  8421504
 43
1.0
 76
     1
 77
     6
 78
     2
 67
     7
 79
     5
170
     0
171
     0
290
     0
174
     0
 93
        1
 44
0.0
173
     0
291
     1
 45
0.0
  0
VISUALSTYLE
  5
34
102
{ACAD_REACTORS
330
2A
102
}
330
2A
100
AcDbVisualStyle
  2
Conceptual
 70
     9
 71
     3
 72
     2
 73
     0
 90
        0
 40
-0.6
 41
-30.0
 62
     5
 63
     7
421
 16777215
 74
     2
 91
        2
 64
     7
 65
   257
 75
     1
175
     1
 42
40.0
 92
        8
 66
     7
 43
1.0
 76
     1
 77
     6
 78
     2
 67
     7
 79
     3
170
     0
171
     0
290
     0
174
     0
 93
        1
 44
0.0
173
     0
291
     0
 45
0.0
  0
VISUALSTYLE
  5
35
102
{ACAD_REACTORS
330
2A
102
}
330
2A
100
AcDbVisualStyle
  2
Dim
 70
    11
 71
     2
 72
     2
 73
     0
 90
        0
 40
-0.6
 41
-30.0
 62
     5
 63
     7
421
 16777215
 74
     1
 91
        4
 64
     7
 65
   257
 75
     1
175
     1
 42
1.0
 92
        8
 66
     7
 43
1.0
 76
     1
 77
     6
 78
     2
 67
     7
 79
     5
170
     0
171
     0
290
     0
174
     0
 93
        1
 44
-50.0
173
     0
291
     1
 45
0.0
  0
VISUALSTYLE
  5
39
102
{ACAD_REACTORS
330
2A
102
}
330
2A
100
AcDbVisualStyle
  2
Facepattern
 70
    15
 71
     2
 72
     2
 73
     0
 90
        0
 40
-0.6
 41
-30.0
 62
     5
 63
     7
421
 16777215
 74
     1
 91
        4
 64
     7
 65
   257
 75
     1
175
     1
 42
1.0
 92
        8
 66
     7
 43
1.0
 76
     1
 77
     6
 78
     2
 67
     7
 79
     5
170
     0
171
     0
290
     0
174
     0
 93
        1
 44
0.0
173
     0
291
     1
 45
0.0
  0
VISUALSTYLE
  5
2B
102
{ACAD_REACTORS
330
2A
102
}
330
2A
100
AcDbVisualStyle
  2
Flat
 70
     0
 71
     2
 72
     1
 73
     1
 90
        2
 40
-0.6
 41
30.0
 62
     5
 63
     7
421
 16777215
 74
     0
 91
        4
 64
     7
 65
   257
 75
     1
175
     1
 42
1.0
 92
        8
 66
     7
 43
1.0
 76
     1
 77
     6
 78
     2
 67
     7
 79
     5
170
     0
171
     0
290
     0
174
     0
 93
       13
 44
0.0
173
     0
291
     1
 45
0.0
  0
VISUALSTYLE
  5
2C
102
{ACAD_REACTORS
330
2A
102
}
330
2A
100
AcDbVisualStyle
  2
FlatWithEdges
 70
     1
 71
     2
 72
     1
 73
     1
 90
        2
 40
-0.6
 41
30.0
 62
     5
 63
     7
421
 16777215
 74
     1
 91
        4
 64
     7
 65
   257
 75
     1
175
     1
 42
1.0
 92
        0
 66
   257
 43
1.0
 76
     1
 77
     6
 78
     2
 67
     7
 79
     5
170
     0
171
     0
290
     0
174
     0
 93
       13
 44
0.0
173
     0
291
     1
 45
0.0
  0
VISUALSTYLE
  5
2D
102
{ACAD_REACTORS
330
2A
102
}
330
2A
100
AcDbVisualStyle
  2
Gouraud
 70
     2
 71
     2
 72
     2
 73
     1
 90
        2
 40
-0.6
 41
30.0
 62
     5
 63
     7
421
 16777215
 74
     0
 91
        4
 64
     7
 65
   257
 75
     1
175
     1
 42
1.0
 92
        0
 66
     7
 43
1.0
 76
     1
 77
     6
 78
     2
 67
     7
 79
     5
170
     0
171
     0
290
     0
174
     0
 93
       13
 44
0.0
173
     0
291
     1
 45
0.0
  0
VISUALSTYLE
  5
2E
102
{ACAD_REACTORS
330
2A
102
}
330
2A
100
AcDbVisualStyle
  2
GouraudWithEdges
 70
     3
 71
     2
 72
     2
 73
     1
 90
        2
 40
-0.6
 41
30.0
 62
     5
 63
     7
421
 16777215
 74
     1
 91
        4
 64
     7
 65
   257
 75
     1
175
     1
 42
1.0
 92
        0
 66
   257
 43
1.0
 76
     1
 77
     6
 78
     2
 67
     7
 79
     5
170
     0
171
     0
290
     0
174
     0
 93
       13
 44
0.0
173
     0
291
     1
 45
0.0
  0
VISUALSTYLE
  5
38
102
{ACAD_REACTORS
330
2A
102
}
330
2A
100
AcDbVisualStyle
  2
Linepattern
 70
    14
 71
     2
 72
     2
 73
     0
 90
        0
 40
-0.6
 41
-30.0
 62
     5
 63
     7
421
 16777215
 74
     1
 91
        4
 64
     7
 65
   257
 75
     7
175
     7
 42
1.0
 92
        8
 66
     7
 43
1.0
 76
     1
 77
     6
 78
     2
 67
     7
 79
     5
170
     0
171
     0
290
     0
174
     0
 93
        1
 44
0.0
173
     0
291
     1
 45
0.0
  0
VISUALSTYLE
  5
33
102
{ACAD_REACTORS
330
2A
102
}
330
2A
100
AcDbVisualStyle
  2
Realistic
 70
     8
 71
     2
 72
     2
 73
     0
 90
        0
 40
-0.6
 41
-30.0
 62
     5
 63
     7
421
 16777215
 74
     1
 91
        0
 64
     7
 65
   257
 75
     1
175
     1
 42
1.0
 92
        8
 66
     8
424
  7895160
 43
1.0
 76
     1
 77
     6
 78
     2
 67
     7
 79
     5
170
     0
171
     0
290
     0
174
     0
 93
       13
 44
0.0
173
     0
291
     0
 45
0.0
  0
VISUALSTYLE
  5
37
102
{ACAD_REACTORS
330
2A
102
}
330
2A
100
AcDbVisualStyle
  2
Thicken
 70
    13
 71
     2
 72
     2
 73
     0
 90
        0
 40
-0.6
 41
-30.0
 62
     5
 63
     7
421
 16777215
 74
     1
 91
        4
 64
     7
 65
   257
 75
     1
175
     1
 42
1.0
 92
       12
 66
     7
 43
1.0
 76
     1
 77
     6
 78
     2
 67
     7
 79
     5
170
     0
171
     0
290
     0
174
     0
 93
        1
 44
0.0
173
     0
291
     1
 45
0.0
  0
ENDSEC
  0
EOF
