  0
SECTION
  2
HEADER
  9
$ACADVER
  1
AC1021
  9
$ACADMAINTVER
 70
     1
  9
$DWGCODEPAGE
  3
ANSI_932
  9
$INSBASE
 10
0.0
 20
0.0
 30
0.0
  9
$EXTMIN
 10
0.0
 20
0.0
 30
0.0
  9
$EXTMAX
 10
891.0
 20
630.0
 30
0.0
  9
$LIMMIN
 10
0.0
 20
0.0
  9
$LIMMAX
 10
891.0
 20
630.0
  9
$ORTHOMODE
 70
     0
  9
$REGENMODE
 70
     1
  9
$FILLMODE
 70
     1
  9
$QTEXTMODE
 70
     0
  9
$MIRRTEXT
 70
     1
  9
$LTSCALE
 40
0.75
  9
$ATTMODE
 70
     1
  9
$TEXTSIZE
 40
15.0
  9
$TRACEWID
 40
0.05
  9
$TEXTSTYLE
  7
Standard
  9
$CLAYER
  8
0
  9
$CELTYPE
  6
ByLayer
  9
$CECOLOR
 62
   256
  9
$CELTSCALE
 40
1.0
  9
$DISPSILH
 70
     0
  9
$DIMSCALE
 40
3.0
  9
$DIMASZ
 40
4.0
  9
$DIMEXO
 40
2.0
  9
$DIMDLI
 40
10.0
  9
$DIMRND
 40
0.0
  9
$DIMDLE
 40
0.0
  9
$DIMEXE
 40
2.0
  9
$DIMTP
 40
0.0
  9
$DIMTM
 40
0.0
  9
$DIMTXT
 40
4.0
  9
$DIMCEN
 40
0.09
  9
$DIMTSZ
 40
0.0
  9
$DIMTOL
 70
     0
  9
$DIMLIM
 70
     0
  9
$DIMTIH
 70
     0
  9
$DIMTOH
 70
     0
  9
$DIMSE1
 70
     0
  9
$DIMSE2
 70
     0
  9
$DIMTAD
 70
     3
  9
$DIMZIN
 70
     8
  9
$DIMBLK
  1

  9
$DIMASO
 70
     1
  9
$DIMSHO
 70
     1
  9
$DIMPOST
  1

  9
$DIMAPOST
  1

  9
$DIMALT
 70
     0
  9
$DIMALTD
 70
     2
  9
$DIMALTF
 40
25.4
  9
$DIMLFAC
 40
1.0
  9
$DIMTOFL
 70
     1
  9
$DIMTVP
 40
0.7
  9
$DIMTIX
 70
     0
  9
$DIMSOXD
 70
     0
  9
$DIMSAH
 70
     0
  9
$DIMBLK1
  1

  9
$DIMBLK2
  1

  9
$DIMSTYLE
  2
Standard
  9
$DIMCLRD
 70
     0
  9
$DIMCLRE
 70
     0
  9
$DIMCLRT
 70
     0
  9
$DIMTFAC
 40
0.5
  9
$DIMGAP
 40
0.09
  9
$DIMJUST
 70
     0
  9
$DIMSD1
 70
     0
  9
$DIMSD2
 70
     0
  9
$DIMTOLJ
 70
     1
  9
$DIMTZIN
 70
     8
  9
$DIMALTZ
 70
     0
  9
$DIMALTTZ
 70
     0
  9
$DIMUPT
 70
     1
  9
$DIMDEC
 70
     2
  9
$DIMTDEC
 70
     4
  9
$DIMALTU
 70
     2
  9
$DIMALTTD
 70
     2
  9
$DIMTXSTY
  7
Standard
  9
$DIMAUNIT
 70
     0
  9
$DIMADEC
 70
     0
  9
$DIMALTRND
 40
0.0
  9
$DIMAZIN
 70
     0
  9
$DIMDSEP
 70
    46
  9
$DIMATFIT
 70
     2
  9
$DIMFRAC
 70
     0
  9
$DIMLDRBLK
  1

  9
$DIMLUNIT
 70
     2
  9
$DIMLWD
 70
    -2
  9
$DIMLWE
 70
    -2
  9
$DIMTMOVE
 70
     2
  9
$DIMFXL
 40
1.0
  9
$DIMFXLON
 70
     0
  9
$DIMJOGANG
 40
0.7853981633974483
  9
$DIMTFILL
 70
     0
  9
$DIMTFILLCLR
 70
     0
  9
$DIMARCSYM
 70
     0
  9
$DIMLTYPE
  6

  9
$DIMLTEX1
  6

  9
$DIMLTEX2
  6

  9
$LUNITS
 70
     2
  9
$LUPREC
 70
     4
  9
$SKETCHINC
 40
0.1
  9
$FILLETRAD
 40
0.5
  9
$AUNITS
 70
     0
  9
$AUPREC
 70
     0
  9
$MENU
  1
.
  9
$ELEVATION
 40
0.0
  9
$PELEVATION
 40
0.0
  9
$THICKNESS
 40
0.0
  9
$LIMCHECK
 70
     0
  9
$CHAMFERA
 40
0.5
  9
$CHAMFERB
 40
0.5
  9
$CHAMFERC
 40
1.0
  9
$CHAMFERD
 40
0.0
  9
$SKPOLY
 70
     0
  9
$TDCREATE
 40
2454850.075416666
  9
$TDUCREATE
 40
2454849.700416666
  9
$TDUPDATE
 40
2454850.075416666
  9
$TDUUPDATE
 40
2454849.700416666
  9
$TDINDWG
 40
0.0000000116
  9
$TDUSRTIMER
 40
0.0000000116
  9
$USRTIMER
 70
     1
  9
$ANGBASE
 50
0.0
  9
$ANGDIR
 70
     0
  9
$PDMODE
 70
     0
  9
$PDSIZE
 40
0.0
  9
$PLINEWID
 40
0.0
  9
$SPLFRAME
 70
     0
  9
$SPLINETYPE
 70
     6
  9
$SPLINESEGS
 70
     8
  9
$HANDSEED
  5
3F6
  9
$SURFTAB1
 70
     6
  9
$SURFTAB2
 70
     6
  9
$SURFTYPE
 70
     6
  9
$SURFU
 70
     6
  9
$SURFV
 70
     6
  9
$UCSBASE
  2

  9
$UCSNAME
  2

  9
$UCSORG
 10
0.0
 20
0.0
 30
0.0
  9
$UCSXDIR
 10
1.0
 20
0.0
 30
0.0
  9
$UCSYDIR
 10
0.0
 20
1.0
 30
0.0
  9
$UCSORTHOREF
  2

  9
$UCSORTHOVIEW
 70
     0
  9
$UCSORGTOP
 10
0.0
 20
0.0
 30
0.0
  9
$UCSORGBOTTOM
 10
0.0
 20
0.0
 30
0.0
  9
$UCSORGLEFT
 10
0.0
 20
0.0
 30
0.0
  9
$UCSORGRIGHT
 10
0.0
 20
0.0
 30
0.0
  9
$UCSORGFRONT
 10
0.0
 20
0.0
 30
0.0
  9
$UCSORGBACK
 10
0.0
 20
0.0
 30
0.0
  9
$PUCSBASE
  2

  9
$PUCSNAME
  2

  9
$PUCSORG
 10
0.0
 20
0.0
 30
0.0
  9
$PUCSXDIR
 10
1.0
 20
0.0
 30
0.0
  9
$PUCSYDIR
 10
0.0
 20
1.0
 30
0.0
  9
$PUCSORTHOREF
  2

  9
$PUCSORTHOVIEW
 70
     0
  9
$PUCSORGTOP
 10
0.0
 20
0.0
 30
0.0
  9
$PUCSORGBOTTOM
 10
0.0
 20
0.0
 30
0.0
  9
$PUCSORGLEFT
 10
0.0
 20
0.0
 30
0.0
  9
$PUCSORGRIGHT
 10
0.0
 20
0.0
 30
0.0
  9
$PUCSORGFRONT
 10
0.0
 20
0.0
 30
0.0
  9
$PUCSORGBACK
 10
0.0
 20
0.0
 30
0.0
  9
$USERI1
 70
     0
  9
$USERI2
 70
     0
  9
$USERI3
 70
     0
  9
$USERI4
 70
     0
  9
$USERI5
 70
     0
  9
$USERR1
 40
0.0
  9
$USERR2
 40
0.0
  9
$USERR3
 40
0.0
  9
$USERR4
 40
0.0
  9
$USERR5
 40
0.0
  9
$WORLDVIEW
 70
     1
  9
$SHADEDGE
 70
     3
  9
$SHADEDIF
 70
    70
  9
$TILEMODE
 70
     1
  9
$MAXACTVP
 70
    64
  9
$PINSBASE
 10
0.0
 20
0.0
 30
0.0
  9
$PLIMCHECK
 70
     0
  9
$PEXTMIN
 10
0.0
 20
0.0
 30
0.0
  9
$PEXTMAX
 10
297.0
 20
210.0
 30
0.0
  9
$PLIMMIN
 10
0.0
 20
0.0
  9
$PLIMMAX
 10
297.0
 20
210.0
  9
$UNITMODE
 70
     0
  9
$VISRETAIN
 70
     1
  9
$PLINEGEN
 70
     0
  9
$PSLTSCALE
 70
     1
  9
$TREEDEPTH
 70
  3020
  9
$CMLSTYLE
  2
Standard
  9
$CMLJUST
 70
     0
  9
$CMLSCALE
 40
1.0
  9
$PROXYGRAPHICS
 70
     1
  9
$MEASUREMENT
 70
     1
  9
$CELWEIGHT
370
    -1
  9
$ENDCAPS
280
     0
  9
$JOINSTYLE
280
     0
  9
$LWDISPLAY
290
     0
  9
$INSUNITS
 70
     4
  9
$HYPERLINKBASE
  1

  9
$STYLESHEET
  1

  9
$XEDIT
290
     1
  9
$CEPSNTYPE
380
     0
  9
$PSTYLEMODE
290
     1
  9
$FINGERPRINTGUID
  2
{48EF0B24-0276-471F-8E69-C55898172664}
  9
$VERSIONGUID
  2
{FAEB1C32-E019-11D5-929B-00C0DF256EC4}
  9
$EXTNAMES
290
     1
  9
$PSVPSCALE
 40
0.0
  9
$OLESTARTUP
290
     0
  9
$SORTENTS
280
   127
  9
$INDEXCTL
280
     0
  9
$HIDETEXT
280
     1
  9
$XCLIPFRAME
290
     0
  9
$HALOGAP
280
     0
  9
$OBSCOLOR
 70
   257
  9
$OBSLTYPE
280
     0
  9
$INTERSECTIONDISPLAY
280
     0
  9
$INTERSECTIONCOLOR
 70
   257
  9
$DIMASSOC
280
     1
  9
$PROJECTNAME
  1

  9
$CAMERADISPLAY
290
     0
  9
$LENSLENGTH
 40
50.0
  9
$CAMERAHEIGHT
 40
0.0
  9
$STEPSPERSEC
 40
2.0
  9
$STEPSIZE
 40
6.0
  9
$3DDWFPREC
 40
2.0
  9
$PSOLWIDTH
 40
0.25
  9
$PSOLHEIGHT
 40
4.0
  9
$LOFTANG1
 40
1.570796326794897
  9
$LOFTANG2
 40
1.570796326794897
  9
$LOFTMAG1
 40
0.0
  9
$LOFTMAG2
 40
0.0
  9
$LOFTPARAM
 70
     7
  9
$LOFTNORMALS
280
     1
  9
$LATITUDE
 40
37.795
  9
$LONGITUDE
 40
-122.394
  9
$NORTHDIRECTION
 40
0.0
  9
$TIMEZONE
 70
 -8000
  9
$LIGHTGLYPHDISPLAY
280
     1
  9
$TILEMODELIGHTSYNCH
280
     1
  9
$SOLIDHIST
280
     1
  9
$SHOWHIST
280
     1
  9
$DWFFRAME
280
     2
  9
$DGNFRAME
280
     2
  9
$REALWORLDSCALE
290
     1
  9
$INTERFERECOLOR
 62
   256
  9
$CSHADOW
280
     0
  9
$SHADOWPLANELOCATION
 40
0.0
  0
ENDSEC
  0
SECTION
  2
CLASSES
  0
CLASS
  1
ACDBDICTIONARYWDFLT
  2
AcDbDictionaryWithDefault
  3
ObjectDBX Classes
 90
        0
 91
        3
280
     0
281
     0
  0
CLASS
  1
VISUALSTYLE
  2
AcDbVisualStyle
  3
ObjectDBX Classes
 90
     4095
 91
        3
280
     0
281
     0
  0
ENDSEC
  0
SECTION
  2
TABLES
  0
TABLE
  2
VPORT
  5
8
330
0
100
AcDbSymbolTable
 70
     1
  0
VPORT
  5
29
330
8
100
AcDbSymbolTableRecord
100
AcDbViewportTableRecord
  2
*Active
 70
     0
 10
0.0
 20
0.0
 11
1.0
 21
1.0
 12
10.42990654205607
 22
4.5
 13
0.0
 23
0.0
 14
0.5
 24
0.5
 15
0.5
 25
0.5
 16
0.0
 26
0.0
 36
1.0
 17
0.0
 27
0.0
 37
0.0
 40
9.0
 41
1.972972972850329
 42
50.0
 43
0.0
 44
0.0
 50
0.0
 51
0.0
 71
     0
 72
   100
 73
     1
 74
     3
 75
     0
 76
     0
 77
     0
 78
     0
281
     0
 65
     1
110
0.0
120
0.0
130
0.0
111
1.0
121
0.0
131
0.0
112
0.0
122
1.0
132
0.0
 79
     0
146
0.0
 60
     3
 61
     5
292
     1
282
     1
141
0.0
142
0.0
 63
   256
  0
ENDTAB
  0
TABLE
  2
LTYPE
  5
5
330
0
100
AcDbSymbolTable
 70
     9
  0
LTYPE
  5
14
330
5
100
AcDbSymbolTableRecord
100
AcDbLinetypeTableRecord
  2
ByBlock
 70
     0
  3

 72
    65
 73
     0
 40
0.0
  0
LTYPE
  5
15
330
5
100
AcDbSymbolTableRecord
100
AcDbLinetypeTableRecord
  2
ByLayer
 70
     0
  3

 72
    65
 73
     0
 40
0.0
  0
LTYPE
  5
16
330
5
100
AcDbSymbolTableRecord
100
AcDbLinetypeTableRecord
  2
Continuous
 70
     0
  3
Solid line
 72
    65
 73
     0
 40
0.0
  0
LTYPE
  5
79
330
5
100
AcDbSymbolTableRecord
100
AcDbLinetypeTableRecord
  2
DOT
 70
     0
  3
DOT
 72
    65
 73
     2
 40
4.0
 49
6.0
 74
     0
 49
-2.0
 74
     0
  0
LTYPE
  5
7A
330
5
100
AcDbSymbolTableRecord
100
AcDbLinetypeTableRecord
  2
HIDDEN
 70
     0
  3
HIDDEN
 72
    65
 73
     2
 40
4.2
 49
8.4
 74
     0
 49
-4.2
 74
     0
  0
LTYPE
  5
7B
330
5
100
AcDbSymbolTableRecord
100
AcDbLinetypeTableRecord
  2
DASHDOT
 70
     0
  3
DASHDOT
 72
    65
 73
     4
 40
14.5
 49
30.0
 74
     0
 49
-9.0
 74
     0
 49
2.5
 74
     0
 49
-9.0
 74
     0
  0
LTYPE
  5
7C
330
5
100
AcDbSymbolTableRecord
100
AcDbLinetypeTableRecord
  2
PHANTOM
 70
     0
  3
PHANTOM
 72
    65
 73
     6
 40
12.0
 49
30.0
 74
     0
 49
-9.0
 74
     0
 49
2.5
 74
     0
 49
-5.0
 74
     0
 49
2.5
 74
     0
 49
-9.0
 74
     0
  0
LTYPE
  5
7D
330
5
100
AcDbSymbolTableRecord
100
AcDbLinetypeTableRecord
  2
ACAD_ISO14W100
 70
     0
  3
ACAD_ISO14W100
 72
    65
 73
     8
 40
1.5
 49
12.0
 74
     0
 49
-3.0
 74
     0
 49
0.5
 74
     0
 49
-3.0
 74
     0
 49
0.5
 74
     0
 49
-3.0
 74
     0
 49
0.5
 74
     0
 49
-3.0
 74
     0
  0
LTYPE
  5
7E
330
5
100
AcDbSymbolTableRecord
100
AcDbLinetypeTableRecord
  2
ACAD_ISO06W100
 70
     0
  3
ACAD_ISO06W100
 72
    65
 73
     8
 40
13.5
 49
24.0
 74
     0
 49
-3.0
 74
     0
 49
0.5
 74
     0
 49
-3.0
 74
     0
 49
0.5
 74
     0
 49
-3.0
 74
     0
 49
0.5
 74
     0
 49
-3.0
 74
     0
  0
LTYPE
  5
7F
330
5
100
AcDbSymbolTableRecord
100
AcDbLinetypeTableRecord
  2
ACAD_ISO11W100
 70
     0
  3
ACAD_ISO11W100
 72
    65
 73
     6
 40
15.5
 49
12.0
 74
     0
 49
-3.0
 74
     0
 49
12.0
 74
     0
 49
-3.0
 74
     0
 49
0.5
 74
     0
 49
-3.0
 74
     0
  0
LTYPE
  5
80
330
5
100
AcDbSymbolTableRecord
100
AcDbLinetypeTableRecord
  2
ACAD_ISO13W100
 70
     0
  3
ACAD_ISO13W100
 72
    65
 73
     8
 40
13.0
 49
12.0
 74
     0
 49
-3.0
 74
     0
 49
12.0
 74
     0
 49
-3.0
 74
     0
 49
0.5
 74
     0
 49
-3.0
 74
     0
 49
0.5
 74
     0
 49
-3.0
 74
     0
  0
ENDTAB
  0
TABLE
  2
LAYER
  5
2
330
0
100
AcDbSymbolTable
 70
    22
  0
LAYER
  5
10
330
2
100
AcDbSymbolTableRecord
100
AcDbLayerTableRecord
  2
0
 70
     0
 62
     7
  6
Continuous
370
    -3
390
F
347
0
  0
LAYER
  5
81
330
2
100
AcDbSymbolTableRecord
100
AcDbLayerTableRecord
  2
1
 70
     0
 62
     7
  6
Continuous
370
    -3
390
F
347
0
  0
LAYER
  5
82
330
2
100
AcDbSymbolTableRecord
100
AcDbLayerTableRecord
  2
2
 70
     0
 62
   134
  6
Continuous
370
    -3
390
F
347
0
  0
LAYER
  5
83
330
2
100
AcDbSymbolTableRecord
100
AcDbLayerTableRecord
  2
3
 70
     0
 62
   214
  6
Continuous
370
    -3
390
F
347
0
  0
LAYER
  5
84
330
2
100
AcDbSymbolTableRecord
100
AcDbLayerTableRecord
  2
4
 70
     0
 62
    54
  6
Continuous
370
    -3
390
F
347
0
  0
LAYER
  5
85
330
2
100
AcDbSymbolTableRecord
100
AcDbLayerTableRecord
  2
5
 70
     0
 62
    94
  6
Continuous
370
    -3
390
F
347
0
  0
LAYER
  5
86
330
2
100
AcDbSymbolTableRecord
100
AcDbLayerTableRecord
  2
6
 70
     0
 62
    14
  6
Continuous
370
    -3
390
F
347
0
  0
LAYER
  5
87
330
2
100
AcDbSymbolTableRecord
100
AcDbLayerTableRecord
  2
7
 70
     0
 62
     4
  6
Continuous
370
    -3
390
F
347
0
  0
LAYER
  5
88
330
2
100
AcDbSymbolTableRecord
100
AcDbLayerTableRecord
  2
8
 70
     0
 62
     6
  6
Continuous
370
    -3
390
F
347
0
  0
LAYER
  5
89
330
2
100
AcDbSymbolTableRecord
100
AcDbLayerTableRecord
  2
9
 70
     0
 62
     2
  6
Continuous
370
    -3
390
F
347
0
  0
LAYER
  5
8A
330
2
100
AcDbSymbolTableRecord
100
AcDbLayerTableRecord
  2
10
 70
     0
 62
     3
  6
Continuous
370
    -3
390
F
347
0
  0
LAYER
  5
8B
330
2
100
AcDbSymbolTableRecord
100
AcDbLayerTableRecord
  2
11
 70
     0
 62
   251
  6
Continuous
370
    -3
390
F
347
0
  0
LAYER
  5
8C
330
2
100
AcDbSymbolTableRecord
100
AcDbLayerTableRecord
  2
12
 70
     0
 62
   136
  6
Continuous
370
    -3
390
F
347
0
  0
LAYER
  5
8D
330
2
100
AcDbSymbolTableRecord
100
AcDbLayerTableRecord
  2
13
 70
     0
 62
   216
  6
Continuous
370
    -3
390
F
347
0
  0
LAYER
  5
8E
330
2
100
AcDbSymbolTableRecord
100
AcDbLayerTableRecord
  2
14
 70
     0
 62
    56
  6
Continuous
370
    -3
390
F
347
0
  0
LAYER
  5
8F
330
2
100
AcDbSymbolTableRecord
100
AcDbLayerTableRecord
  2
15
 70
     0
 62
    96
  6
Continuous
370
    -3
390
F
347
0
  0
LAYER
  5
90
330
2
100
AcDbSymbolTableRecord
100
AcDbLayerTableRecord
  2
16
 70
     0
 62
    16
  6
Continuous
370
    -3
390
F
347
0
  0
LAYER
  5
91
330
2
100
AcDbSymbolTableRecord
100
AcDbLayerTableRecord
  2
17
 70
     0
 62
   132
  6
Continuous
370
    -3
390
F
347
0
  0
LAYER
  5
92
330
2
100
AcDbSymbolTableRecord
100
AcDbLayerTableRecord
  2
18
 70
     0
 62
   212
  6
Continuous
370
    -3
390
F
347
0
  0
LAYER
  5
93
330
2
100
AcDbSymbolTableRecord
100
AcDbLayerTableRecord
  2
19
 70
     0
 62
    52
  6
Continuous
370
    -3
390
F
347
0
  0
LAYER
  5
94
330
2
100
AcDbSymbolTableRecord
100
AcDbLayerTableRecord
  2
20
 70
     0
 62
   250
  6
Continuous
370
    -3
390
F
347
0
  0
LAYER
  5
95
330
2
100
AcDbSymbolTableRecord
100
AcDbLayerTableRecord
  2
21
 70
     0
 62
     7
  6
Continuous
370
    -3
390
F
347
0
  0
ENDTAB
  0
TABLE
  2
STYLE
  5
3
330
0
100
AcDbSymbolTable
 70
     2
  0
STYLE
  5
11
330
3
100
AcDbSymbolTableRecord
100
AcDbTextStyleTableRecord
  2
Standard
 70
     0
 40
0.0
 41
1.0
 50
0.0
 71
     0
 42
0.2
  3
txt
  4
bigfont
  0
STYLE
  5
3D
330
3
100
AcDbSymbolTableRecord
100
AcDbTextStyleTableRecord
  2
T_STANDARD
 70
     4
 40
10.0
 41
1.0
 50
0.0
 71
     0
 42
10.0
  3
txt
  4
bigfont
  0
ENDTAB
  0
TABLE
  2
VIEW
  5
6
330
0
100
AcDbSymbolTable
 70
     0
  0
ENDTAB
  0
TABLE
  2
UCS
  5
7
330
0
100
AcDbSymbolTable
 70
     0
  0
ENDTAB
  0
TABLE
  2
APPID
  5
9
330
0
100
AcDbSymbolTable
 70
     2
  0
APPID
  5
12
330
9
100
AcDbSymbolTableRecord
100
AcDbRegAppTableRecord
  2
ACAD
 70
     0
  0
APPID
  5
3C
330
9
100
AcDbSymbolTableRecord
100
AcDbRegAppTableRecord
  2
ODA
 70
     0
  0
ENDTAB
  0
TABLE
  2
DIMSTYLE
  5
A
330
0
100
AcDbSymbolTable
 70
     1
100
AcDbDimStyleTable
  0
DIMSTYLE
105
27
102
{ACAD_REACTORS
330
36A
330
372
330
37A
330
384
330
38E
330
398
330
3A2
330
3AC
330
3B6
330
3C0
330
3CA
330
3D4
102
}
330
A
100
AcDbSymbolTableRecord
100
AcDbDimStyleTableRecord
  2
Standard
 70
     0
340
11
  0
ENDTAB
  0
TABLE
  2
BLOCK_RECORD
  5
1
330
0
100
AcDbSymbolTable
 70
    24
  0
BLOCK_RECORD
  5
1F
330
1
100
AcDbSymbolTableRecord
100
AcDbBlockTableRecord
  2
*Model_Space
340
22
 70
     0
280
     1
281
     0
  0
BLOCK_RECORD
  5
1B
330
1
100
AcDbSymbolTableRecord
100
AcDbBlockTableRecord
  2
*Paper_Space
340
1E
 70
     0
280
     1
281
     0
  0
BLOCK_RECORD
  5
23
330
1
100
AcDbSymbolTableRecord
100
AcDbBlockTableRecord
  2
*Paper_Space0
340
26
 70
     0
280
     1
281
     0
  0
BLOCK_RECORD
  5
3E
330
1
100
AcDbSymbolTableRecord
100
AcDbBlockTableRecord
  2
_ORIGIN
340
0
 70
     0
280
     1
281
     0
  0
BLOCK_RECORD
  5
43
330
1
100
AcDbSymbolTableRecord
100
AcDbBlockTableRecord
  2
_DOTBLANK
340
0
 70
     0
280
     1
281
     0
  0
BLOCK_RECORD
  5
48
330
1
100
AcDbSymbolTableRecord
100
AcDbBlockTableRecord
  2
_DOT
340
0
 70
     0
280
     1
281
     0
  0
BLOCK_RECORD
  5
4D
330
1
100
AcDbSymbolTableRecord
100
AcDbBlockTableRecord
  2
_OPEN
340
0
 70
     0
280
     1
281
     0
  0
BLOCK_RECORD
  5
53
330
1
100
AcDbSymbolTableRecord
100
AcDbBlockTableRecord
  2
_CLOSED
340
0
 70
     0
280
     1
281
     0
  0
BLOCK_RECORD
  5
5A
330
1
100
AcDbSymbolTableRecord
100
AcDbBlockTableRecord
  2
_CLOSEDBLANK
340
0
 70
     0
280
     1
281
     0
  0
BLOCK_RECORD
  5
60
330
1
100
AcDbSymbolTableRecord
100
AcDbBlockTableRecord
  2
_BOXBLANK
340
0
 70
     0
280
     1
281
     0
  0
BLOCK_RECORD
  5
68
330
1
100
AcDbSymbolTableRecord
100
AcDbBlockTableRecord
  2
_BOXFILLED
340
0
 70
     0
280
     1
281
     0
  0
BLOCK_RECORD
  5
6D
330
1
100
AcDbSymbolTableRecord
100
AcDbBlockTableRecord
  2
_INTEGRAL
340
0
 70
     0
280
     1
281
     0
  0
BLOCK_RECORD
  5
72
330
1
100
AcDbSymbolTableRecord
100
AcDbBlockTableRecord
  2
_OBLIQUE
340
0
 70
     0
280
     1
281
     0
  0
BLOCK_RECORD
  5
76
330
1
100
AcDbSymbolTableRecord
100
AcDbBlockTableRecord
  2
_NONE
340
0
 70
     0
280
     1
281
     0
  0
BLOCK_RECORD
  5
361
330
1
100
AcDbSymbolTableRecord
100
AcDbBlockTableRecord
  2
Dim1
340
0
 70
     0
280
     1
281
     0
  0
BLOCK_RECORD
  5
36B
330
1
100
AcDbSymbolTableRecord
100
AcDbBlockTableRecord
  2
Dim2
340
0
 70
     0
280
     1
281
     0
  0
BLOCK_RECORD
  5
373
330
1
100
AcDbSymbolTableRecord
100
AcDbBlockTableRecord
  2
Dim3
340
0
 70
     0
280
     1
281
     0
  0
BLOCK_RECORD
  5
37B
330
1
100
AcDbSymbolTableRecord
100
AcDbBlockTableRecord
  2
Dim4
340
0
 70
     0
280
     1
281
     0
  0
BLOCK_RECORD
  5
385
330
1
100
AcDbSymbolTableRecord
100
AcDbBlockTableRecord
  2
Dim5
340
0
 70
     0
280
     1
281
     0
  0
BLOCK_RECORD
  5
38F
330
1
100
AcDbSymbolTableRecord
100
AcDbBlockTableRecord
  2
Dim6
340
0
 70
     0
280
     1
281
     0
  0
BLOCK_RECORD
  5
399
330
1
100
AcDbSymbolTableRecord
100
AcDbBlockTableRecord
  2
Dim7
340
0
 70
     0
280
     1
281
     0
  0
BLOCK_RECORD
  5
3A3
330
1
100
AcDbSymbolTableRecord
100
AcDbBlockTableRecord
  2
Dim8
340
0
 70
     0
280
     1
281
     0
  0
BLOCK_RECORD
  5
3AD
330
1
100
AcDbSymbolTableRecord
100
AcDbBlockTableRecord
  2
Dim9
340
0
 70
     0
280
     1
281
     0
  0
BLOCK_RECORD
  5
3B7
330
1
100
AcDbSymbolTableRecord
100
AcDbBlockTableRecord
  2
Dim10
340
0
 70
     0
280
     1
281
     0
  0
BLOCK_RECORD
  5
3C1
330
1
100
AcDbSymbolTableRecord
100
AcDbBlockTableRecord
  2
Dim11
340
0
 70
     0
280
     1
281
     0
  0
BLOCK_RECORD
  5
3CB
330
1
100
AcDbSymbolTableRecord
100
AcDbBlockTableRecord
  2
Dim12
340
0
 70
     0
280
     1
281
     0
  0
ENDTAB
  0
ENDSEC
  0
SECTION
  2
BLOCKS
  0
BLOCK
  5
20
330
1F
100
AcDbEntity
  8
0
100
AcDbBlockBegin
  2
*Model_Space
 70
     0
 71
     0
 10
0.0
 20
0.0
 30
0.0
  3
*Model_Space
  1

  0
ENDBLK
  5
21
330
1F
100
AcDbEntity
  8
0
100
AcDbBlockEnd
  0
BLOCK
  5
1C
330
1B
100
AcDbEntity
 67
     1
  8
0
100
AcDbBlockBegin
  2
*Paper_Space
 70
     0
 71
     0
 10
0.0
 20
0.0
 30
0.0
  3
*Paper_Space
  1

  0
ENDBLK
  5
1D
330
1B
100
AcDbEntity
 67
     1
  8
0
100
AcDbBlockEnd
  0
BLOCK
  5
24
330
23
100
AcDbEntity
  8
0
100
AcDbBlockBegin
  2
*Paper_Space0
 70
     0
 71
     0
 10
0.0
 20
0.0
 30
0.0
  3
*Paper_Space0
  1

  0
ENDBLK
  5
25
330
23
100
AcDbEntity
  8
0
100
AcDbBlockEnd
  0
BLOCK
  5
41
330
3E
100
AcDbEntity
  8
0
100
AcDbBlockBegin
  2
_ORIGIN
 70
     0
 71
     0
 10
0.0
 20
0.0
 30
0.0
  3
_ORIGIN
  1

  0
CIRCLE
  5
3F
330
3E
100
AcDbEntity
  8
0
100
AcDbCircle
 10
0.0
 20
0.0
 30
0.0
 40
0.5
  0
LINE
  5
40
330
3E
100
AcDbEntity
  8
0
100
AcDbLine
 10
0.0
 20
0.0
 30
0.0
 11
-1.0
 21
0.0
 31
0.0
  0
ENDBLK
  5
42
330
3E
100
AcDbEntity
  8
0
100
AcDbBlockEnd
  0
BLOCK
  5
46
330
43
100
AcDbEntity
  8
0
100
AcDbBlockBegin
  2
_DOTBLANK
 70
     0
 71
     0
 10
0.0
 20
0.0
 30
0.0
  3
_DOTBLANK
  1

  0
CIRCLE
  5
44
330
43
100
AcDbEntity
  8
0
100
AcDbCircle
 10
0.0
 20
0.0
 30
0.0
 40
0.5
  0
LINE
  5
45
330
43
100
AcDbEntity
  8
0
100
AcDbLine
 10
-0.5
 20
0.0
 30
0.0
 11
-1.0
 21
0.0
 31
0.0
  0
ENDBLK
  5
47
330
43
100
AcDbEntity
  8
0
100
AcDbBlockEnd
  0
BLOCK
  5
4B
330
48
100
AcDbEntity
  8
0
100
AcDbBlockBegin
  2
_DOT
 70
     0
 71
     0
 10
0.0
 20
0.0
 30
0.0
  3
_DOT
  1

  0
LWPOLYLINE
  5
49
330
48
100
AcDbEntity
  8
0
100
AcDbPolyline
 90
        2
 70
     1
 43
0.5
 10
-0.25
 20
0.0
 42
1.0
 10
0.25
 20
0.0
 42
1.0
  0
LINE
  5
4A
330
48
100
AcDbEntity
  8
0
100
AcDbLine
 10
-0.5
 20
0.0
 30
0.0
 11
-1.0
 21
0.0
 31
0.0
  0
ENDBLK
  5
4C
330
48
100
AcDbEntity
  8
0
100
AcDbBlockEnd
  0
BLOCK
  5
51
330
4D
100
AcDbEntity
  8
0
100
AcDbBlockBegin
  2
_OPEN
 70
     0
 71
     0
 10
0.0
 20
0.0
 30
0.0
  3
_OPEN
  1

  0
LINE
  5
4E
330
4D
100
AcDbEntity
  8
0
100
AcDbLine
 10
-1.0
 20
0.1666666666666667
 30
0.0
 11
0.0
 21
0.0
 31
0.0
  0
LINE
  5
4F
330
4D
100
AcDbEntity
  8
0
100
AcDbLine
 10
-1.0
 20
-0.1666666666666667
 30
0.0
 11
0.0
 21
0.0
 31
0.0
  0
LINE
  5
50
330
4D
100
AcDbEntity
  8
0
100
AcDbLine
 10
0.0
 20
0.0
 30
0.0
 11
-1.0
 21
0.0
 31
0.0
  0
ENDBLK
  5
52
330
4D
100
AcDbEntity
  8
0
100
AcDbBlockEnd
  0
BLOCK
  5
58
330
53
100
AcDbEntity
  8
0
100
AcDbBlockBegin
  2
_CLOSED
 70
     0
 71
     0
 10
0.0
 20
0.0
 30
0.0
  3
_CLOSED
  1

  0
LINE
  5
54
330
53
100
AcDbEntity
  8
0
100
AcDbLine
 10
-1.0
 20
0.1666666666666667
 30
0.0
 11
0.0
 21
0.0
 31
0.0
  0
LINE
  5
55
330
53
100
AcDbEntity
  8
0
100
AcDbLine
 10
0.0
 20
0.0
 30
0.0
 11
-1.0
 21
-0.1666666666666667
 31
0.0
  0
LINE
  5
56
330
53
100
AcDbEntity
  8
0
100
AcDbLine
 10
-1.0
 20
0.1666666666666667
 30
0.0
 11
-1.0
 21
-0.1666666666666667
 31
0.0
  0
LINE
  5
57
330
53
100
AcDbEntity
  8
0
100
AcDbLine
 10
0.0
 20
0.0
 30
0.0
 11
-1.0
 21
0.0
 31
0.0
  0
ENDBLK
  5
59
330
53
100
AcDbEntity
  8
0
100
AcDbBlockEnd
  0
BLOCK
  5
5E
330
5A
100
AcDbEntity
  8
0
100
AcDbBlockBegin
  2
_CLOSEDBLANK
 70
     0
 71
     0
 10
0.0
 20
0.0
 30
0.0
  3
_CLOSEDBLANK
  1

  0
LINE
  5
5B
330
5A
100
AcDbEntity
  8
0
100
AcDbLine
 10
-1.0
 20
0.1666666666666667
 30
0.0
 11
0.0
 21
0.0
 31
0.0
  0
LINE
  5
5C
330
5A
100
AcDbEntity
  8
0
100
AcDbLine
 10
0.0
 20
0.0
 30
0.0
 11
-1.0
 21
-0.1666666666666667
 31
0.0
  0
LINE
  5
5D
330
5A
100
AcDbEntity
  8
0
100
AcDbLine
 10
-1.0
 20
0.1666666666666667
 30
0.0
 11
-1.0
 21
-0.1666666666666667
 31
0.0
  0
ENDBLK
  5
5F
330
5A
100
AcDbEntity
  8
0
100
AcDbBlockEnd
  0
BLOCK
  5
66
330
60
100
AcDbEntity
  8
0
100
AcDbBlockBegin
  2
_BOXBLANK
 70
     0
 71
     0
 10
0.0
 20
0.0
 30
0.0
  3
_BOXBLANK
  1

  0
LINE
  5
61
330
60
100
AcDbEntity
  8
0
100
AcDbLine
 10
-0.5
 20
-0.5
 30
0.0
 11
0.5
 21
-0.5
 31
0.0
  0
LINE
  5
62
330
60
100
AcDbEntity
  8
0
100
AcDbLine
 10
0.5
 20
-0.5
 30
0.0
 11
0.5
 21
0.5
 31
0.0
  0
LINE
  5
63
330
60
100
AcDbEntity
  8
0
100
AcDbLine
 10
0.5
 20
0.5
 30
0.0
 11
-0.5
 21
0.5
 31
0.0
  0
LINE
  5
64
330
60
100
AcDbEntity
  8
0
100
AcDbLine
 10
-0.5
 20
0.5
 30
0.0
 11
-0.5
 21
-0.5
 31
0.0
  0
LINE
  5
65
330
60
100
AcDbEntity
  8
0
100
AcDbLine
 10
-0.5
 20
0.0
 30
0.0
 11
-1.0
 21
0.0
 31
0.0
  0
ENDBLK
  5
67
330
60
100
AcDbEntity
  8
0
100
AcDbBlockEnd
  0
BLOCK
  5
6B
330
68
100
AcDbEntity
  8
0
100
AcDbBlockBegin
  2
_BOXFILLED
 70
     0
 71
     0
 10
0.0
 20
0.0
 30
0.0
  3
_BOXFILLED
  1

  0
SOLID
  5
69
330
68
100
AcDbEntity
  8
0
100
AcDbTrace
 10
-0.5
 20
0.5
 30
0.0
 11
0.5
 21
0.5
 31
0.0
 12
-0.5
 22
-0.5
 32
0.0
 13
0.5
 23
-0.5
 33
0.0
  0
LINE
  5
6A
330
68
100
AcDbEntity
  8
0
100
AcDbLine
 10
-0.5
 20
0.0
 30
0.0
 11
-1.0
 21
0.0
 31
0.0
  0
ENDBLK
  5
6C
330
68
100
AcDbEntity
  8
0
100
AcDbBlockEnd
  0
BLOCK
  5
70
330
6D
100
AcDbEntity
  8
0
100
AcDbBlockBegin
  2
_INTEGRAL
 70
     0
 71
     0
 10
0.0
 20
0.0
 30
0.0
  3
_INTEGRAL
  1

  0
ARC
  5
6E
330
6D
100
AcDbEntity
  8
0
100
AcDbCircle
 10
0.444888
 20
-0.0913346
 30
0.0
 40
0.4541666
100
AcDbArc
 50
84.16951033439696
 51
265.6909581978302
  0
ARC
  5
6F
330
6D
100
AcDbEntity
  8
0
100
AcDbCircle
 10
-0.444888
 20
0.0913346
 30
0.0
 40
0.4541666
100
AcDbArc
 50
317.4098226892151
 51
138.9312705526484
  0
ENDBLK
  5
71
330
6D
100
AcDbEntity
  8
0
100
AcDbBlockEnd
  0
BLOCK
  5
74
330
72
100
AcDbEntity
  8
0
100
AcDbBlockBegin
  2
_OBLIQUE
 70
     0
 71
     0
 10
0.0
 20
0.0
 30
0.0
  3
_OBLIQUE
  1

  0
LINE
  5
73
330
72
100
AcDbEntity
  8
0
100
AcDbLine
 10
-0.5
 20
-0.5
 30
0.0
 11
0.5
 21
0.5
 31
0.0
  0
ENDBLK
  5
75
330
72
100
AcDbEntity
  8
0
100
AcDbBlockEnd
  0
BLOCK
  5
77
330
76
100
AcDbEntity
  8
0
100
AcDbBlockBegin
  2
_NONE
 70
     0
 71
     0
 10
0.0
 20
0.0
 30
0.0
  3
_NONE
  1

  0
ENDBLK
  5
78
330
76
100
AcDbEntity
  8
0
100
AcDbBlockEnd
  0
BLOCK
  5
362
330
361
100
AcDbEntity
  8
0
100
AcDbBlockBegin
  2
Dim1
 70
     0
 71
     0
 10
0.0
 20
0.0
 30
0.0
  3
Dim1
  1

  0
LINE
  5
364
330
361
100
AcDbEntity
  8
1
  6
Continuous
 62
     7
370
     9
100
AcDbLine
 10
47.74999999999981
 20
18.43707770270255
 30
0.0
 11
397.7499999999998
 21
18.43707770270255
 31
0.0
  0
LINE
  5
365
330
361
100
AcDbEntity
  8
1
  6
Continuous
 62
     7
370
     9
100
AcDbLine
 10
47.74999999999981
 20
18.43707770270255
 30
0.0
 11
47.74999999999995
 21
35.53061224489784
 31
0.0
  0
LINE
  5
366
330
361
100
AcDbEntity
  8
1
  6
Continuous
 62
     7
370
     9
100
AcDbLine
 10
397.7499999999998
 20
18.43707770270255
 30
0.0
 11
397.7499999999999
 21
35.53061224489784
 31
0.0
  0
CIRCLE
  5
367
330
361
100
AcDbEntity
  8
1
  6
Continuous
 62
     7
370
     9
100
AcDbCircle
 10
47.74999999999981
 20
18.43707770270255
 30
0.0
 40
0.8999999999999999
  0
CIRCLE
  5
368
330
361
100
AcDbEntity
  8
1
  6
Continuous
 62
     7
370
     9
100
AcDbCircle
 10
397.7499999999998
 20
18.43707770270255
 30
0.0
 40
0.8999999999999999
  0
MTEXT
  5
369
330
361
100
AcDbEntity
  8
1
  6
Continuous
 62
     7
370
     9
100
AcDbMText
 10
222.7499999999998
 20
23.68707770270255
 30
0.0
 40
10.5
 41
0.0
 46
0.0
 71
     8
 72
     1
  1
350
 73
     1
 44
1.0
  0
ENDBLK
  5
363
330
361
100
AcDbEntity
  8
0
100
AcDbBlockEnd
  0
BLOCK
  5
36C
330
36B
100
AcDbEntity
  8
0
100
AcDbBlockBegin
  2
Dim2
 70
     0
 71
     0
 10
0.0
 20
0.0
 30
0.0
  3
Dim2
  1

  0
LINE
  5
36E
330
36B
100
AcDbEntity
  8
1
  6
Continuous
 62
     7
370
     9
100
AcDbLine
 10
212.75
 20
111.5306122448978
 30
0.0
 11
142.75
 21
111.5306122448978
 31
0.0
  0
CIRCLE
  5
36F
330
36B
100
AcDbEntity
  8
1
  6
Continuous
 62
     7
370
     9
100
AcDbCircle
 10
212.75
 20
111.5306122448978
 30
0.0
 40
0.8999999999999999
  0
CIRCLE
  5
370
330
36B
100
AcDbEntity
  8
1
  6
Continuous
 62
     7
370
     9
100
AcDbCircle
 10
142.75
 20
111.5306122448978
 30
0.0
 40
0.8999999999999999
  0
MTEXT
  5
371
330
36B
100
AcDbEntity
  8
1
  6
Continuous
 62
     7
370
     9
100
AcDbMText
 10
177.75
 20
116.7806122448978
 30
0.0
 40
10.5
 41
0.0
 46
0.0
 71
     8
 72
     1
  1
70
 73
     1
 44
1.0
  0
ENDBLK
  5
36D
330
36B
100
AcDbEntity
  8
0
100
AcDbBlockEnd
  0
BLOCK
  5
374
330
373
100
AcDbEntity
  8
0
100
AcDbBlockBegin
  2
Dim3
 70
     0
 71
     0
 10
0.0
 20
0.0
 30
0.0
  3
Dim3
  1

  0
LINE
  5
376
330
373
100
AcDbEntity
  8
1
  6
Continuous
 62
     7
370
     9
100
AcDbLine
 10
47.75000000000001
 20
111.5306122448978
 30
0.0
 11
142.75
 21
111.5306122448978
 31
0.0
  0
CIRCLE
  5
377
330
373
100
AcDbEntity
  8
1
  6
Continuous
 62
     7
370
     9
100
AcDbCircle
 10
47.75000000000001
 20
111.5306122448978
 30
0.0
 40
0.8999999999999999
  0
CIRCLE
  5
378
330
373
100
AcDbEntity
  8
1
  6
Continuous
 62
     7
370
     9
100
AcDbCircle
 10
142.75
 20
111.5306122448978
 30
0.0
 40
0.8999999999999999
  0
MTEXT
  5
379
330
373
100
AcDbEntity
  8
1
  6
Continuous
 62
     7
370
     9
100
AcDbMText
 10
95.25
 20
116.7806122448978
 30
0.0
 40
10.5
 41
0.0
 46
0.0
 71
     8
 72
     1
  1
95
 73
     1
 44
1.0
  0
ENDBLK
  5
375
330
373
100
AcDbEntity
  8
0
100
AcDbBlockEnd
  0
BLOCK
  5
37C
330
37B
100
AcDbEntity
  8
0
100
AcDbBlockBegin
  2
Dim4
 70
     0
 71
     0
 10
0.0
 20
0.0
 30
0.0
  3
Dim4
  1

  0
LINE
  5
37E
330
37B
100
AcDbEntity
  8
1
  6
Continuous
 62
     7
370
     9
100
AcDbLine
 10
390.5
 20
320.1741813929312
 30
0.0
 11
445.5
 21
320.1741813929312
 31
0.0
  0
LINE
  5
37F
330
37B
100
AcDbEntity
  8
1
  6
Continuous
 62
     7
370
     9
100
AcDbLine
 10
390.5
 20
320.1741813929312
 30
0.0
 11
390.5
 21
320.0596413721414
 31
0.0
  0
LINE
  5
380
330
37B
100
AcDbEntity
  8
1
  6
Continuous
 62
     7
370
     9
100
AcDbLine
 10
445.5
 20
320.1741813929312
 30
0.0
 11
445.5
 21
320.0596413721414
 31
0.0
  0
CIRCLE
  5
381
330
37B
100
AcDbEntity
  8
1
  6
Continuous
 62
     7
370
     9
100
AcDbCircle
 10
390.5
 20
320.1741813929312
 30
0.0
 40
0.8999999999999999
  0
CIRCLE
  5
382
330
37B
100
AcDbEntity
  8
1
  6
Continuous
 62
     7
370
     9
100
AcDbCircle
 10
445.5
 20
320.1741813929312
 30
0.0
 40
0.8999999999999999
  0
MTEXT
  5
383
330
37B
100
AcDbEntity
  8
1
  6
Continuous
 62
     7
370
     9
100
AcDbMText
 10
418.0
 20
325.4241813929312
 30
0.0
 40
10.5
 41
0.0
 46
0.0
 71
     8
 72
     1
  1
55
 73
     1
 44
1.0
  0
ENDBLK
  5
37D
330
37B
100
AcDbEntity
  8
0
100
AcDbBlockEnd
  0
BLOCK
  5
386
330
385
100
AcDbEntity
  8
0
100
AcDbBlockBegin
  2
Dim5
 70
     0
 71
     0
 10
0.0
 20
0.0
 30
0.0
  3
Dim5
  1

  0
LINE
  5
388
330
385
100
AcDbEntity
  8
1
  6
Continuous
 62
     7
370
     9
100
AcDbLine
 10
445.5
 20
320.1741813929312
 30
0.0
 11
500.4999999999999
 21
320.1741813929312
 31
0.0
  0
LINE
  5
389
330
385
100
AcDbEntity
  8
1
  6
Continuous
 62
     7
370
     9
100
AcDbLine
 10
445.5
 20
320.1741813929312
 30
0.0
 11
445.5
 21
320.0596413721414
 31
0.0
  0
LINE
  5
38A
330
385
100
AcDbEntity
  8
1
  6
Continuous
 62
     7
370
     9
100
AcDbLine
 10
500.4999999999999
 20
320.1741813929312
 30
0.0
 11
500.4999999999999
 21
320.0596413721414
 31
0.0
  0
CIRCLE
  5
38B
330
385
100
AcDbEntity
  8
1
  6
Continuous
 62
     7
370
     9
100
AcDbCircle
 10
445.5
 20
320.1741813929312
 30
0.0
 40
0.8999999999999999
  0
CIRCLE
  5
38C
330
385
100
AcDbEntity
  8
1
  6
Continuous
 62
     7
370
     9
100
AcDbCircle
 10
500.4999999999999
 20
320.1741813929312
 30
0.0
 40
0.8999999999999999
  0
MTEXT
  5
38D
330
385
100
AcDbEntity
  8
1
  6
Continuous
 62
     7
370
     9
100
AcDbMText
 10
473.0
 20
325.4241813929312
 30
0.0
 40
10.5
 41
0.0
 46
0.0
 71
     8
 72
     1
  1
55
 73
     1
 44
1.0
  0
ENDBLK
  5
387
330
385
100
AcDbEntity
  8
0
100
AcDbBlockEnd
  0
BLOCK
  5
390
330
38F
100
AcDbEntity
  8
0
100
AcDbBlockBegin
  2
Dim6
 70
     0
 71
     0
 10
0.0
 20
0.0
 30
0.0
  3
Dim6
  1

  0
LINE
  5
392
330
38F
100
AcDbEntity
  8
1
  6
Continuous
 62
     7
370
     9
100
AcDbLine
 10
395.4999999999999
 20
289.3781834719334
 30
0.0
 11
445.4999999999999
 21
289.3781834719334
 31
0.0
  0
LINE
  5
393
330
38F
100
AcDbEntity
  8
1
  6
Continuous
 62
     7
370
     9
100
AcDbLine
 10
395.4999999999999
 20
289.3781834719334
 30
0.0
 11
395.4999999999999
 21
293.0596413721415
 31
0.0
  0
LINE
  5
394
330
38F
100
AcDbEntity
  8
1
  6
Continuous
 62
     7
370
     9
100
AcDbLine
 10
445.4999999999999
 20
289.3781834719334
 30
0.0
 11
445.4999999999999
 21
293.0596413721414
 31
0.0
  0
CIRCLE
  5
395
330
38F
100
AcDbEntity
  8
1
  6
Continuous
 62
     7
370
     9
100
AcDbCircle
 10
395.4999999999999
 20
289.3781834719334
 30
0.0
 40
0.8999999999999999
  0
CIRCLE
  5
396
330
38F
100
AcDbEntity
  8
1
  6
Continuous
 62
     7
370
     9
100
AcDbCircle
 10
445.4999999999999
 20
289.3781834719334
 30
0.0
 40
0.8999999999999999
  0
MTEXT
  5
397
330
38F
100
AcDbEntity
  8
1
  6
Continuous
 62
     7
370
     9
100
AcDbMText
 10
420.5
 20
294.6281834719334
 30
0.0
 40
10.5
 41
0.0
 46
0.0
 71
     8
 72
     1
  1
50
 73
     1
 44
1.0
  0
ENDBLK
  5
391
330
38F
100
AcDbEntity
  8
0
100
AcDbBlockEnd
  0
BLOCK
  5
39A
330
399
100
AcDbEntity
  8
0
100
AcDbBlockBegin
  2
Dim7
 70
     0
 71
     0
 10
0.0
 20
0.0
 30
0.0
  3
Dim7
  1

  0
LINE
  5
39C
330
399
100
AcDbEntity
  8
1
  6
Continuous
 62
     7
370
     9
100
AcDbLine
 10
445.4999999999999
 20
289.3781834719334
 30
0.0
 11
495.4999999999999
 21
289.3781834719334
 31
0.0
  0
LINE
  5
39D
330
399
100
AcDbEntity
  8
1
  6
Continuous
 62
     7
370
     9
100
AcDbLine
 10
445.4999999999999
 20
289.3781834719334
 30
0.0
 11
445.4999999999999
 21
293.0596413721414
 31
0.0
  0
LINE
  5
39E
330
399
100
AcDbEntity
  8
1
  6
Continuous
 62
     7
370
     9
100
AcDbLine
 10
495.4999999999999
 20
289.3781834719334
 30
0.0
 11
495.4999999999999
 21
293.0596413721414
 31
0.0
  0
CIRCLE
  5
39F
330
399
100
AcDbEntity
  8
1
  6
Continuous
 62
     7
370
     9
100
AcDbCircle
 10
445.4999999999999
 20
289.3781834719334
 30
0.0
 40
0.8999999999999999
  0
CIRCLE
  5
3A0
330
399
100
AcDbEntity
  8
1
  6
Continuous
 62
     7
370
     9
100
AcDbCircle
 10
495.4999999999999
 20
289.3781834719334
 30
0.0
 40
0.8999999999999999
  0
MTEXT
  5
3A1
330
399
100
AcDbEntity
  8
1
  6
Continuous
 62
     7
370
     9
100
AcDbMText
 10
470.5
 20
294.6281834719334
 30
0.0
 40
10.5
 41
0.0
 46
0.0
 71
     8
 72
     1
  1
50
 73
     1
 44
1.0
  0
ENDBLK
  5
39B
330
399
100
AcDbEntity
  8
0
100
AcDbBlockEnd
  0
BLOCK
  5
3A4
330
3A3
100
AcDbEntity
  8
0
100
AcDbBlockBegin
  2
Dim8
 70
     0
 71
     0
 10
0.0
 20
0.0
 30
0.0
  3
Dim8
  1

  0
LINE
  5
3A6
330
3A3
100
AcDbEntity
  8
1
  6
Continuous
 62
     7
370
     9
100
AcDbLine
 10
648.3500000000003
 20
141.4184641372141
 30
0.0
 11
688.1500000000002
 21
141.4184641372141
 31
0.0
  0
LINE
  5
3A7
330
3A3
100
AcDbEntity
  8
1
  6
Continuous
 62
     7
370
     9
100
AcDbLine
 10
648.3500000000003
 20
141.4184641372141
 30
0.0
 11
648.3500000000004
 21
148.5306122448978
 31
0.0
  0
LINE
  5
3A8
330
3A3
100
AcDbEntity
  8
1
  6
Continuous
 62
     7
370
     9
100
AcDbLine
 10
688.1500000000002
 20
141.4184641372141
 30
0.0
 11
688.1500000000003
 21
148.5306122448978
 31
0.0
  0
CIRCLE
  5
3A9
330
3A3
100
AcDbEntity
  8
1
  6
Continuous
 62
     7
370
     9
100
AcDbCircle
 10
648.3500000000003
 20
141.4184641372141
 30
0.0
 40
0.8999999999999999
  0
CIRCLE
  5
3AA
330
3A3
100
AcDbEntity
  8
1
  6
Continuous
 62
     7
370
     9
100
AcDbCircle
 10
688.1500000000002
 20
141.4184641372141
 30
0.0
 40
0.8999999999999999
  0
MTEXT
  5
3AB
330
3A3
100
AcDbEntity
  8
1
  6
Continuous
 62
     7
370
     9
100
AcDbMText
 10
668.2500000000002
 20
146.6684641372141
 30
0.0
 40
10.5
 41
0.0
 46
0.0
 71
     8
 72
     1
  1
39.8φ
 73
     1
 44
1.0
  0
ENDBLK
  5
3A5
330
3A3
100
AcDbEntity
  8
0
100
AcDbBlockEnd
  0
BLOCK
  5
3AE
330
3AD
100
AcDbEntity
  8
0
100
AcDbBlockBegin
  2
Dim9
 70
     0
 71
     0
 10
0.0
 20
0.0
 30
0.0
  3
Dim9
  1

  0
LINE
  5
3B0
330
3AD
100
AcDbEntity
  8
1
  6
Continuous
 62
     7
370
     9
100
AcDbLine
 10
627.2499999999999
 20
108.0754287941789
 30
0.0
 11
709.25
 21
108.0754287941789
 31
0.0
  0
LINE
  5
3B1
330
3AD
100
AcDbEntity
  8
1
  6
Continuous
 62
     7
370
     9
100
AcDbLine
 10
627.2499999999999
 20
108.0754287941789
 30
0.0
 11
627.25
 21
114.5790670478172
 31
0.0
  0
LINE
  5
3B2
330
3AD
100
AcDbEntity
  8
1
  6
Continuous
 62
     7
370
     9
100
AcDbLine
 10
709.25
 20
108.0754287941789
 30
0.0
 11
709.25
 21
110.6427364864866
 31
0.0
  0
CIRCLE
  5
3B3
330
3AD
100
AcDbEntity
  8
1
  6
Continuous
 62
     7
370
     9
100
AcDbCircle
 10
627.2499999999999
 20
108.0754287941789
 30
0.0
 40
0.8999999999999999
  0
CIRCLE
  5
3B4
330
3AD
100
AcDbEntity
  8
1
  6
Continuous
 62
     7
370
     9
100
AcDbCircle
 10
709.25
 20
108.0754287941789
 30
0.0
 40
0.8999999999999999
  0
MTEXT
  5
3B5
330
3AD
100
AcDbEntity
  8
1
  6
Continuous
 62
     7
370
     9
100
AcDbMText
 10
668.25
 20
113.3254287941789
 30
0.0
 40
10.5
 41
0.0
 46
0.0
 71
     8
 72
     1
  1
82
 73
     1
 44
1.0
  0
ENDBLK
  5
3AF
330
3AD
100
AcDbEntity
  8
0
100
AcDbBlockEnd
  0
BLOCK
  5
3B8
330
3B7
100
AcDbEntity
  8
0
100
AcDbBlockBegin
  2
Dim10
 70
     0
 71
     0
 10
0.0
 20
0.0
 30
0.0
  3
Dim10
  1

  0
LINE
  5
3BA
330
3B7
100
AcDbEntity
  8
1
  6
Continuous
 62
     7
370
     9
100
AcDbLine
 10
590.2499999999999
 20
17.77137474012481
 30
0.0
 11
746.2499999999999
 21
17.77137474012481
 31
0.0
  0
LINE
  5
3BB
330
3B7
100
AcDbEntity
  8
1
  6
Continuous
 62
     7
370
     9
100
AcDbLine
 10
590.2499999999999
 20
17.77137474012481
 30
0.0
 11
590.25
 21
35.53061224489784
 31
0.0
  0
LINE
  5
3BC
330
3B7
100
AcDbEntity
  8
1
  6
Continuous
 62
     7
370
     9
100
AcDbLine
 10
746.2499999999999
 20
17.77137474012481
 30
0.0
 11
746.25
 21
35.53061224489784
 31
0.0
  0
CIRCLE
  5
3BD
330
3B7
100
AcDbEntity
  8
1
  6
Continuous
 62
     7
370
     9
100
AcDbCircle
 10
590.2499999999999
 20
17.77137474012481
 30
0.0
 40
0.8999999999999999
  0
CIRCLE
  5
3BE
330
3B7
100
AcDbEntity
  8
1
  6
Continuous
 62
     7
370
     9
100
AcDbCircle
 10
746.2499999999999
 20
17.77137474012481
 30
0.0
 40
0.8999999999999999
  0
MTEXT
  5
3BF
330
3B7
100
AcDbEntity
  8
1
  6
Continuous
 62
     7
370
     9
100
AcDbMText
 10
668.2499999999999
 20
23.02137474012481
 30
0.0
 40
10.5
 41
0.0
 46
0.0
 71
     8
 72
     1
  1
156
 73
     1
 44
1.0
  0
ENDBLK
  5
3B9
330
3B7
100
AcDbEntity
  8
0
100
AcDbBlockEnd
  0
BLOCK
  5
3C2
330
3C1
100
AcDbEntity
  8
0
100
AcDbBlockBegin
  2
Dim11
 70
     0
 71
     0
 10
0.0
 20
0.0
 30
0.0
  3
Dim11
  1

  0
LINE
  5
3C4
330
3C1
100
AcDbEntity
  8
1
  6
Continuous
 62
     7
370
     9
100
AcDbLine
 10
657.2500000000003
 20
336.7299246361749
 30
0.0
 11
679.2500000000003
 21
336.7299246361749
 31
0.0
  0
LINE
  5
3C5
330
3C1
100
AcDbEntity
  8
1
  6
Continuous
 62
     7
370
     9
100
AcDbLine
 10
657.2500000000003
 20
336.7299246361749
 30
0.0
 11
657.2500000000003
 21
331.5306122448978
 31
0.0
  0
LINE
  5
3C6
330
3C1
100
AcDbEntity
  8
1
  6
Continuous
 62
     7
370
     9
100
AcDbLine
 10
679.2500000000003
 20
336.7299246361749
 30
0.0
 11
679.2500000000003
 21
331.5306122448978
 31
0.0
  0
CIRCLE
  5
3C7
330
3C1
100
AcDbEntity
  8
1
  6
Continuous
 62
     7
370
     9
100
AcDbCircle
 10
657.2500000000003
 20
336.7299246361749
 30
0.0
 40
0.8999999999999999
  0
CIRCLE
  5
3C8
330
3C1
100
AcDbEntity
  8
1
  6
Continuous
 62
     7
370
     9
100
AcDbCircle
 10
679.2500000000003
 20
336.7299246361749
 30
0.0
 40
0.8999999999999999
  0
MTEXT
  5
3C9
330
3C1
100
AcDbEntity
  8
1
  6
Continuous
 62
     7
370
     9
100
AcDbMText
 10
668.2500000000002
 20
341.9799246361749
 30
0.0
 40
10.5
 41
0.0
 46
0.0
 71
     8
 72
     1
  1
M22
 73
     1
 44
1.0
  0
ENDBLK
  5
3C3
330
3C1
100
AcDbEntity
  8
0
100
AcDbBlockEnd
  0
BLOCK
  5
3CC
330
3CB
100
AcDbEntity
  8
0
100
AcDbBlockBegin
  2
Dim12
 70
     0
 71
     0
 10
0.0
 20
0.0
 30
0.0
  3
Dim12
  1

  0
LINE
  5
3CE
330
3CB
100
AcDbEntity
  8
1
  6
Continuous
 62
     7
370
     9
100
AcDbLine
 10
375.4999999999998
 20
160.0002598752602
 30
0.0
 11
515.4999999999998
 21
160.0002598752602
 31
0.0
  0
LINE
  5
3CF
330
3CB
100
AcDbEntity
  8
1
  6
Continuous
 62
     7
370
     9
100
AcDbLine
 10
375.4999999999998
 20
160.0002598752602
 30
0.0
 11
375.4999999999999
 21
183.0596413721414
 31
0.0
  0
LINE
  5
3D0
330
3CB
100
AcDbEntity
  8
1
  6
Continuous
 62
     7
370
     9
100
AcDbLine
 10
515.4999999999998
 20
160.0002598752602
 30
0.0
 11
515.5
 21
183.0596413721414
 31
0.0
  0
CIRCLE
  5
3D1
330
3CB
100
AcDbEntity
  8
1
  6
Continuous
 62
     7
370
     9
100
AcDbCircle
 10
375.4999999999998
 20
160.0002598752602
 30
0.0
 40
0.8999999999999999
  0
CIRCLE
  5
3D2
330
3CB
100
AcDbEntity
  8
1
  6
Continuous
 62
     7
370
     9
100
AcDbCircle
 10
515.4999999999998
 20
160.0002598752602
 30
0.0
 40
0.8999999999999999
  0
MTEXT
  5
3D3
330
3CB
100
AcDbEntity
  8
1
  6
Continuous
 62
     7
370
     9
100
AcDbMText
 10
445.4999999999998
 20
165.2502598752602
 30
0.0
 40
10.5
 41
0.0
 46
0.0
 71
     8
 72
     1
  1
140
 73
     1
 44
1.0
  0
ENDBLK
  5
3CD
330
3CB
100
AcDbEntity
  8
0
100
AcDbBlockEnd
  0
ENDSEC
  0
SECTION
  2
ENTITIES
  0
LINE
  5
96
330
1F
100
AcDbEntity
  8
1
  6
Continuous
 62
     7
370
     9
100
AcDbLine
 10
142.75
 20
71.53061224489784
 30
0.0
 11
142.75
 21
65.53061224489784
 31
0.0
  0
LINE
  5
97
330
1F
100
AcDbEntity
  8
1
  6
Continuous
 62
     7
370
     9
100
AcDbLine
 10
282.75
 20
71.53061224489784
 30
0.0
 11
282.75
 21
65.53061224489784
 31
0.0
  0
LINE
  5
98
330
1F
100
AcDbEntity
  8
1
  6
Continuous
 62
     7
370
     9
100
AcDbLine
 10
142.75
 20
71.53061224489784
 30
0.0
 11
282.75
 21
71.53061224489784
 31
0.0
  0
LINE
  5
99
330
1F
100
AcDbEntity
  8
1
  6
Continuous
 62
     7
370
     9
100
AcDbLine
 10
190.25
 20
190.5306122448978
 30
0.0
 11
190.25
 21
230.5306122448978
 31
0.0
  0
LINE
  5
9A
330
1F
100
AcDbEntity
  8
1
  6
Continuous
 62
     7
370
     9
100
AcDbLine
 10
190.25
 20
190.5306122448978
 30
0.0
 11
237.25
 21
190.5306122448978
 31
0.0
  0
LINE
  5
9B
330
1F
100
AcDbEntity
  8
1
  6
Continuous
 62
     7
370
     9
100
AcDbLine
 10
237.25
 20
190.5306122448978
 30
0.0
 11
237.25
 21
230.5306122448978
 31
0.0
  0
LINE
  5
9C
330
1F
100
AcDbEntity
  8
1
  6
Continuous
 62
     7
370
     9
100
AcDbLine
 10
138.9485703071926
 20
65.53061224489784
 30
0.0
 11
282.75
 21
65.53061224489784
 31
0.0
  0
LINE
  5
9D
330
1F
100
AcDbEntity
  8
1
  6
Continuous
 62
     7
370
     9
100
AcDbLine
 10
47.75
 20
41.53061224489784
 30
0.0
 11
397.75
 21
41.53061224489784
 31
0.0
  0
LINE
  5
9E
330
1F
100
AcDbEntity
  8
1
  6
Continuous
 62
     7
370
     9
100
AcDbLine
 10
47.75
 20
48.53061224489784
 30
0.0
 11
47.75
 21
41.53061224489784
 31
0.0
  0
LINE
  5
9F
330
1F
100
AcDbEntity
  8
1
  6
Continuous
 62
     7
370
     9
100
AcDbLine
 10
47.75
 20
48.53061224489784
 30
0.0
 11
107.75
 21
48.53061224489784
 31
0.0
  0
LINE
  5
A0
330
1F
100
AcDbEntity
  8
1
  6
Continuous
 62
     7
370
     9
100
AcDbLine
 10
107.75
 20
48.53061224489784
 30
0.0
 11
138.9485703071926
 21
65.53061224489784
 31
0.0
  0
ARC
  5
A1
330
1F
100
AcDbEntity
  8
1
  6
Continuous
 62
     7
370
     9
100
AcDbCircle
 10
57.75683438986378
 20
93.53061224489784
 30
0.0
 40
3.0
100
AcDbArc
 50
90.00000000000014
 51
179.9999999999998
  0
LINE
  5
A2
330
1F
100
AcDbEntity
  8
1
  6
Continuous
 62
     7
370
     9
100
AcDbLine
 10
57.75683438986377
 20
96.53061224489784
 30
0.0
 11
120.6474841521454
 21
96.53061224489784
 31
0.0
  0
ARC
  5
A3
330
1F
100
AcDbEntity
  8
1
  6
Continuous
 62
     7
370
     9
100
AcDbCircle
 10
120.6474841521454
 20
93.53061224489784
 30
0.0
 40
3.0
100
AcDbArc
 50
0.0000000000002714
 51
89.99999999999991
  0
LINE
  5
A4
330
1F
100
AcDbEntity
  8
1
  6
Continuous
 62
     7
370
     9
100
AcDbLine
 10
123.6474841521455
 20
93.53061224489785
 30
0.0
 11
123.6474841521455
 21
79.53061224489785
 31
0.0
  0
ARC
  5
A5
330
1F
100
AcDbEntity
  8
1
  6
Continuous
 62
     7
370
     9
100
AcDbCircle
 10
120.6474841521455
 20
79.53061224489784
 30
0.0
 40
3.0
100
AcDbArc
 50
269.9999999999999
 51
0.0000000000002714
  0
LINE
  5
A6
330
1F
100
AcDbEntity
  8
1
  6
Continuous
 62
     7
370
     9
100
AcDbLine
 10
57.75683438986377
 20
76.53061224489784
 30
0.0
 11
120.6474841521455
 21
76.53061224489784
 31
0.0
  0
LINE
  5
A7
330
1F
100
AcDbEntity
  8
1
  6
Continuous
 62
     7
370
     9
100
AcDbLine
 10
54.75683438986378
 20
93.53061224489784
 30
0.0
 11
54.75683438986378
 21
79.53061224489784
 31
0.0
  0
ARC
  5
A8
330
1F
100
AcDbEntity
  8
1
  6
Continuous
 62
     7
370
     9
100
AcDbCircle
 10
57.75683438986378
 20
79.53061224489784
 30
0.0
 40
3.0
100
AcDbArc
 50
179.9999999999998
 51
269.9999999999995
  0
ARC
  5
A9
330
1F
100
AcDbEntity
  8
1
  6
Continuous
 62
     7
370
     9
100
AcDbCircle
 10
110.4092124524511
 20
207.5306122448978
 30
0.0
 40
3.0
100
AcDbArc
 50
89.99999999999991
 51
152.8547507962856
  0
LINE
  5
AA
330
1F
100
AcDbEntity
  8
1
  6
Continuous
 62
     7
370
     9
100
AcDbLine
 10
110.4092124524511
 20
210.5306122448978
 30
0.0
 11
155.5599896792976
 21
210.5306122448978
 31
0.0
  0
ARC
  5
AB
330
1F
100
AcDbEntity
  8
1
  6
Continuous
 62
     7
370
     9
100
AcDbCircle
 10
155.5599896792976
 20
207.5306122448978
 30
0.0
 40
3.0
100
AcDbArc
 50
347.2976330170485
 51
89.99999999999991
  0
LINE
  5
AC
330
1F
100
AcDbEntity
  8
1
  6
Continuous
 62
     7
370
     9
100
AcDbLine
 10
158.4865660620123
 20
206.8709527295894
 30
0.0
 11
142.3017661649131
 21
135.0671629886556
 31
0.0
  0
ARC
  5
AD
330
1F
100
AcDbEntity
  8
1
  6
Continuous
 62
     7
370
     9
100
AcDbCircle
 10
139.3751897821984
 20
135.7268225039641
 30
0.0
 40
3.0
100
AcDbArc
 50
269.9999999999991
 51
347.2976330170485
  0
LINE
  5
AE
330
1F
100
AcDbEntity
  8
1
  6
Continuous
 62
     7
370
     9
100
AcDbLine
 10
73.59377159736138
 20
132.7268225039641
 30
0.0
 11
139.3751897821984
 21
132.7268225039641
 31
0.0
  0
LINE
  5
AF
330
1F
100
AcDbEntity
  8
1
  6
Continuous
 62
     7
370
     9
100
AcDbLine
 10
107.7396541678219
 20
208.8993556704409
 30
0.0
 11
70.92421331273218
 21
137.0955659295072
 31
0.0
  0
ARC
  5
B0
330
1F
100
AcDbEntity
  8
1
  6
Continuous
 62
     7
370
     9
100
AcDbCircle
 10
73.59377159736138
 20
135.7268225039641
 30
0.0
 40
3.0
100
AcDbArc
 50
152.8547507962854
 51
269.9999999999998
  0
CIRCLE
  5
B1
330
1F
100
AcDbEntity
  8
1
  6
Continuous
 62
     7
370
     9
100
AcDbCircle
 10
217.75
 20
465.5306122448978
 30
0.0
 40
12.0
  0
CIRCLE
  5
B2
330
1F
100
AcDbEntity
  8
1
  6
Continuous
 62
     7
370
     9
100
AcDbCircle
 10
212.75
 20
216.0306122448978
 30
0.0
 40
14.5
  0
CIRCLE
  5
B3
330
1F
100
AcDbEntity
  8
1
  6
Continuous
 62
     7
370
     9
100
AcDbCircle
 10
212.75
 20
216.0306122448978
 30
0.0
 40
10.0
  0
LINE
  5
B4
330
1F
100
AcDbEntity
  8
1
  6
Continuous
 62
     7
370
     9
100
AcDbLine
 10
214.4850224171405
 20
201.6347900310741
 30
0.0
 11
203.863906497629
 21
190.5306122448978
 31
0.0
  0
LINE
  5
B5
330
1F
100
AcDbEntity
  8
1
  6
Continuous
 62
     7
370
     9
100
AcDbLine
 10
205.7787047299059
 20
466.3601238820818
 30
0.0
 11
198.25
 21
216.0306122448978
 31
0.0
  0
ARC
  5
B6
330
1F
100
AcDbEntity
  8
1
  6
Continuous
 62
     7
370
     9
100
AcDbCircle
 10
215.9312630836913
 20
238.4270357240979
 30
0.0
 40
6.0
100
AcDbArc
 50
178.2773384742245
 51
301.7464075869813
  0
LINE
  5
B7
330
1F
100
AcDbEntity
  8
1
  6
Continuous
 62
     7
370
     9
100
AcDbLine
 10
212.75
 20
180.1515451664048
 30
0.0
 11
212.75
 21
41.53061224489784
 31
0.0
  0
LINE
  5
B8
330
1F
100
AcDbEntity
  8
1
  6
DOT
 62
     7
370
     9
100
AcDbLine
 10
204.75
 20
325.5306122448978
 30
0.0
 11
220.75
 21
325.5306122448978
 31
0.0
  0
LINE
  5
B9
330
1F
100
AcDbEntity
  8
1
  6
DOT
 62
     7
370
     9
100
AcDbLine
 10
223.75
 20
322.5306122448978
 30
0.0
 11
223.75
 21
230.5306122448978
 31
0.0
  0
ARC
  5
BA
330
1F
100
AcDbEntity
  8
1
  6
DOT
 62
     7
370
     9
100
AcDbCircle
 10
220.75
 20
322.5306122448978
 30
0.0
 40
3.0
100
AcDbArc
 50
0.0
 51
89.99999999999991
  0
LINE
  5
BB
330
1F
100
AcDbEntity
  8
1
  6
DOT
 62
     7
370
     9
100
AcDbLine
 10
201.75
 20
230.5306122448978
 30
0.0
 11
201.75
 21
322.5306122448978
 31
0.0
  0
ARC
  5
BC
330
1F
100
AcDbEntity
  8
1
  6
DOT
 62
     7
370
     9
100
AcDbCircle
 10
204.75
 20
322.5306122448978
 30
0.0
 40
3.0
100
AcDbArc
 50
89.99999999999991
 51
179.9999999999998
  0
ARC
  5
BD
330
1F
100
AcDbEntity
  8
1
  6
DOT
 62
     7
370
     9
100
AcDbCircle
 10
200.7158139547246
 20
317.9012776021807
 30
0.0
 40
0.710798586302019
100
AcDbArc
 50
89.99999999999542
 51
250.0000147688139
  0
LINE
  5
BE
330
1F
100
AcDbEntity
  8
1
  6
DOT
 62
     7
370
     9
100
AcDbLine
 10
224.2500003066539
 20
313.0407669607068
 30
0.0
 11
200.472706692531
 21
317.2333453531031
 31
0.0
  0
LINE
  5
BF
330
1F
100
AcDbEntity
  8
1
  6
DOT
 62
     7
370
     9
100
AcDbLine
 10
224.4931077465416
 20
314.4194977647541
 30
0.0
 11
200.7158139547246
 21
318.6120761884828
 31
0.0
  0
ARC
  5
C0
330
1F
100
AcDbEntity
  8
1
  6
DOT
 62
     7
370
     9
100
AcDbCircle
 10
224.2500003061616
 20
313.7515655618097
 30
0.0
 40
0.7107986038943181
100
AcDbArc
 50
269.9999999999998
 51
69.99999999997154
  0
ARC
  5
C1
330
1F
100
AcDbEntity
  8
1
  6
DOT
 62
     7
370
     9
100
AcDbCircle
 10
200.7158139547246
 20
301.4796803972703
 30
0.0
 40
0.710798586302019
100
AcDbArc
 50
89.99999999999542
 51
250.0000147688139
  0
LINE
  5
C2
330
1F
100
AcDbEntity
  8
1
  6
DOT
 62
     7
370
     9
100
AcDbLine
 10
224.2500003066539
 20
296.6191697557963
 30
0.0
 11
200.472706692531
 21
300.8117481481927
 31
0.0
  0
LINE
  5
C3
330
1F
100
AcDbEntity
  8
1
  6
DOT
 62
     7
370
     9
100
AcDbLine
 10
224.4931077465416
 20
297.9979005598436
 30
0.0
 11
200.7158139547246
 21
302.1904789835723
 31
0.0
  0
ARC
  5
C4
330
1F
100
AcDbEntity
  8
1
  6
DOT
 62
     7
370
     9
100
AcDbCircle
 10
224.2500003061616
 20
297.3299683568993
 30
0.0
 40
0.7107986038943181
100
AcDbArc
 50
269.9999999999998
 51
69.99999999997154
  0
ARC
  5
C5
330
1F
100
AcDbEntity
  8
1
  6
DOT
 62
     7
370
     9
100
AcDbCircle
 10
200.7158139547246
 20
285.0580831923598
 30
0.0
 40
0.710798586302019
100
AcDbArc
 50
89.99999999999542
 51
250.0000147688139
  0
LINE
  5
C6
330
1F
100
AcDbEntity
  8
1
  6
DOT
 62
     7
370
     9
100
AcDbLine
 10
224.2500003066539
 20
280.1975725508859
 30
0.0
 11
200.472706692531
 21
284.3901509432823
 31
0.0
  0
LINE
  5
C7
330
1F
100
AcDbEntity
  8
1
  6
DOT
 62
     7
370
     9
100
AcDbLine
 10
224.4931077465416
 20
281.5763033549332
 30
0.0
 11
200.7158139547246
 21
285.7688817786619
 31
0.0
  0
ARC
  5
C8
330
1F
100
AcDbEntity
  8
1
  6
DOT
 62
     7
370
     9
100
AcDbCircle
 10
224.2500003061616
 20
280.9083711519888
 30
0.0
 40
0.7107986038943181
100
AcDbArc
 50
269.9999999999998
 51
69.99999999997154
  0
ARC
  5
C9
330
1F
100
AcDbEntity
  8
1
  6
DOT
 62
     7
370
     9
100
AcDbCircle
 10
200.7158139547246
 20
268.6364859874494
 30
0.0
 40
0.710798586302019
100
AcDbArc
 50
89.99999999999542
 51
250.0000147688139
  0
LINE
  5
CA
330
1F
100
AcDbEntity
  8
1
  6
DOT
 62
     7
370
     9
100
AcDbLine
 10
224.2500003066539
 20
263.7759753459755
 30
0.0
 11
200.4727066925311
 21
267.9685537383718
 31
0.0
  0
LINE
  5
CB
330
1F
100
AcDbEntity
  8
1
  6
DOT
 62
     7
370
     9
100
AcDbLine
 10
224.4931077465416
 20
265.1547061500228
 30
0.0
 11
200.7158139547247
 21
269.3472845737515
 31
0.0
  0
ARC
  5
CC
330
1F
100
AcDbEntity
  8
1
  6
DOT
 62
     7
370
     9
100
AcDbCircle
 10
224.2500003061617
 20
264.4867739470784
 30
0.0
 40
0.7107986038943181
100
AcDbArc
 50
269.9999999999998
 51
69.99999999997154
  0
ARC
  5
CD
330
1F
100
AcDbEntity
  8
1
  6
DOT
 62
     7
370
     9
100
AcDbCircle
 10
200.7158139547246
 20
252.214888782539
 30
0.0
 40
0.710798586302019
100
AcDbArc
 50
89.99999999999542
 51
250.0000147688139
  0
LINE
  5
CE
330
1F
100
AcDbEntity
  8
1
  6
DOT
 62
     7
370
     9
100
AcDbLine
 10
224.2500003066539
 20
247.3543781410651
 30
0.0
 11
200.4727066925311
 21
251.5469565334614
 31
0.0
  0
LINE
  5
CF
330
1F
100
AcDbEntity
  8
1
  6
DOT
 62
     7
370
     9
100
AcDbLine
 10
224.4931077465416
 20
248.7331089451123
 30
0.0
 11
200.7158139547247
 21
252.925687368841
 31
0.0
  0
ARC
  5
D0
330
1F
100
AcDbEntity
  8
1
  6
DOT
 62
     7
370
     9
100
AcDbCircle
 10
224.2500003061617
 20
248.065176742168
 30
0.0
 40
0.7107986038943181
100
AcDbArc
 50
269.9999999999998
 51
69.99999999997154
  0
CIRCLE
  5
D1
330
1F
100
AcDbEntity
  8
1
  6
Continuous
 62
     7
370
     9
100
AcDbCircle
 10
217.75
 20
465.5306122448978
 30
0.0
 40
9.919869255157124
  0
CIRCLE
  5
D2
330
1F
100
AcDbEntity
  8
1
  6
Continuous
 62
     7
370
     9
100
AcDbCircle
 10
249.1357963549985
 20
235.5306122448978
 30
0.0
 40
8.956513932331063
  0
CIRCLE
  5
D3
330
1F
100
AcDbEntity
  8
1
  6
Continuous
 62
     7
370
     9
100
AcDbCircle
 10
249.1357963549985
 20
235.5306122448978
 30
0.0
 40
6.36489698890648
  0
LINE
  5
D4
330
1F
100
AcDbEntity
  8
1
  6
Continuous
 62
     7
370
     9
100
AcDbLine
 10
219.0882267197711
 20
233.3247244242584
 30
0.0
 11
242.2108920393674
 21
247.631459018344
 31
0.0
  0
ARC
  5
D5
330
1F
100
AcDbEntity
  8
1
  6
Continuous
 62
     7
370
     9
100
AcDbCircle
 10
239.5800890093009
 20
251.8833851015436
 30
0.0
 40
5.0
100
AcDbArc
 50
301.7464075869811
 51
8.04289423350459
  0
LINE
  5
D6
330
1F
100
AcDbEntity
  8
1
  6
Continuous
 62
     7
370
     9
100
AcDbLine
 10
215.2962151920606
 20
416.9019550267953
 30
0.0
 11
209.9339747933142
 21
238.607405239554
 31
0.0
  0
LINE
  5
D7
330
1F
100
AcDbEntity
  8
1
  6
Continuous
 62
     7
370
     9
100
AcDbLine
 10
221.2653501369884
 20
417.2315135342477
 30
0.0
 11
244.5309070088664
 21
252.5829572101778
 31
0.0
  0
ARC
  5
D8
330
1F
100
AcDbEntity
  8
1
  6
Continuous
 62
     7
370
     9
100
AcDbCircle
 10
218.2948593372491
 20
416.8117702690672
 30
0.0
 40
3.0
100
AcDbArc
 50
8.042894233504436
 51
178.2773384742237
  0
LINE
  5
D9
330
1F
100
AcDbEntity
  8
1
  6
Continuous
 62
     7
370
     9
100
AcDbLine
 10
254.830329114546
 20
228.6174770320959
 30
0.0
 11
222.9283025640475
 21
205.7033591292478
 31
0.0
  0
LINE
  5
DA
330
1F
100
AcDbEntity
  8
1
  6
DOT
 62
     7
370
     9
100
AcDbLine
 10
223.75
 20
295.5306122448978
 30
0.0
 11
236.1071441597579
 21
295.5306122448978
 31
0.0
  0
LINE
  5
DB
330
1F
100
AcDbEntity
  8
1
  6
DOT
 62
     7
370
     9
100
AcDbLine
 10
224.1071441597579
 20
320.5306122448978
 30
0.0
 11
236.1071441597579
 21
320.5306122448978
 31
0.0
  0
LINE
  5
DC
330
1F
100
AcDbEntity
  8
1
  6
DOT
 62
     7
370
     9
100
AcDbLine
 10
236.1071441597579
 20
320.5306122448978
 30
0.0
 11
236.1071441597579
 21
295.5306122448978
 31
0.0
  0
LINE
  5
DD
330
1F
100
AcDbEntity
  8
1
  6
DOT
 62
     7
370
     9
100
AcDbLine
 10
236.1071441597579
 20
312.1972789115645
 30
0.0
 11
224.357770646712
 21
312.1972789115645
 31
0.0
  0
LINE
  5
DE
330
1F
100
AcDbEntity
  8
1
  6
DOT
 62
     7
370
     9
100
AcDbLine
 10
236.1071441597579
 20
303.8639455782312
 30
0.0
 11
224.608397133666
 21
303.8639455782312
 31
0.0
  0
CIRCLE
  5
DF
330
1F
100
AcDbEntity
  8
1
  6
Continuous
 62
     7
370
     9
100
AcDbCircle
 10
212.75
 20
308.0306122448978
 30
0.0
 40
2.382917866038269
  0
LINE
  5
E0
330
1F
100
AcDbEntity
  8
1
  6
Continuous
 62
     7
370
     9
100
AcDbLine
 10
249.5026277880579
 20
304.9222464342324
 30
0.0
 11
268.8804219315875
 21
268.3611013350076
 31
0.0
  0
LINE
  5
E1
330
1F
100
AcDbEntity
  8
1
  6
Continuous
 62
     7
370
     9
100
AcDbLine
 10
268.8804219315875
 20
268.3611013350076
 30
0.0
 11
258.0923102873296
 21
235.5306122448978
 31
0.0
  0
LINE
  5
E2
330
1F
100
AcDbEntity
  8
1
  6
DOT
 62
     7
370
     9
100
AcDbLine
 10
211.3703727722168
 20
304.4902672757247
 30
0.0
 11
237.9008156404455
 21
299.503603817467
 31
0.0
  0
ARC
  5
E3
330
1F
100
AcDbEntity
  8
1
  6
DOT
 62
     7
370
     9
100
AcDbCircle
 10
212.7500004883568
 20
308.0306122448978
 30
0.0
 40
3.799660070995659
100
AcDbArc
 50
89.99999999999991
 51
248.7097496331953
  0
LINE
  5
E4
330
1F
100
AcDbEntity
  8
1
  6
DOT
 62
     7
370
     9
100
AcDbLine
 10
212.75
 20
311.8302723158935
 30
0.0
 11
249.5026277880579
 21
304.9222464342324
 31
0.0
  0
LINE
  5
E5
330
1F
100
AcDbEntity
  8
1
  6
Continuous
 62
     7
370
     9
100
AcDbLine
 10
253.5036946346605
 20
270.221503715369
 30
0.0
 11
256.5155416428212
 21
272.7002091253848
 31
0.0
  0
LINE
  5
E6
330
1F
100
AcDbEntity
  8
1
  6
Continuous
 62
     7
370
     9
100
AcDbLine
 10
252.8521839564936
 20
279.2424236569868
 30
0.0
 11
256.5155416428212
 21
272.7002091253848
 31
0.0
  0
CIRCLE
  5
E7
330
1F
100
AcDbEntity
  8
1
  6
Continuous
 62
     7
370
     9
100
AcDbCircle
 10
253.2317698001862
 20
274.6358304023743
 30
0.0
 40
0.8359969259113728
  0
LINE
  5
E8
330
1F
100
AcDbEntity
  8
1
  6
DOT
 62
     7
370
     9
100
AcDbLine
 10
250.1069685834997
 20
277.7052215691153
 30
0.0
 11
237.9008156404455
 21
299.503603817467
 31
0.0
  0
LINE
  5
E9
330
1F
100
AcDbEntity
  8
1
  6
DOT
 62
     7
370
     9
100
AcDbLine
 10
252.8521839564936
 20
279.2424236569868
 30
0.0
 11
249.5026277880579
 21
277.3668168152741
 31
0.0
  0
LINE
  5
EA
330
1F
100
AcDbEntity
  8
1
  6
DOT
 62
     7
370
     9
100
AcDbLine
 10
253.5036946346604
 20
270.2215037153691
 30
0.0
 11
249.5026277880579
 21
277.3668168152741
 31
0.0
  0
LINE
  5
EB
330
1F
100
AcDbEntity
  8
1
  6
DOT
 62
     7
370
     9
100
AcDbLine
 10
237.3492580426164
 20
303.4069345097964
 30
0.0
 11
251.3510301109415
 21
278.4018423137888
 31
0.0
  0
LINE
  5
EC
330
1F
100
AcDbEntity
  8
1
  6
Continuous
 62
     7
370
     9
100
AcDbLine
 10
200.6409766855416
 20
295.5306122448978
 30
0.0
 11
189.3928561464037
 21
295.5306122448978
 31
0.0
  0
LINE
  5
ED
330
1F
100
AcDbEntity
  8
1
  6
Continuous
 62
     7
370
     9
100
AcDbLine
 10
189.3928561464037
 20
303.8639455782312
 30
0.0
 11
200.8916031724956
 21
303.8639455782312
 31
0.0
  0
LINE
  5
EE
330
1F
100
AcDbEntity
  8
1
  6
Continuous
 62
     7
370
     9
100
AcDbLine
 10
189.3928561464037
 20
312.1972789115645
 30
0.0
 11
201.1422296594497
 21
312.1972789115645
 31
0.0
  0
LINE
  5
EF
330
1F
100
AcDbEntity
  8
1
  6
Continuous
 62
     7
370
     9
100
AcDbLine
 10
201.3928561464037
 20
320.5306122448978
 30
0.0
 11
189.3928561464037
 21
320.5306122448978
 31
0.0
  0
LINE
  5
F0
330
1F
100
AcDbEntity
  8
1
  6
Continuous
 62
     7
370
     9
100
AcDbLine
 10
189.3928561464037
 20
320.5306122448978
 30
0.0
 11
189.3928561464037
 21
295.5306122448978
 31
0.0
  0
POLYLINE
  5
F1
330
1F
100
AcDbEntity
  8
1
  6
Continuous
 62
     7
370
     9
100
AcDb2dPolyline
 66
     1
 10
0.0
 20
0.0
 30
0.0
 70
     2
  0
VERTEX
  5
F3
330
F1
100
AcDbEntity
  8
1
  6
Continuous
 62
     7
370
     9
100
AcDbVertex
100
AcDb2dVertex
 10
201.25
 20
156.9383914421566
 30
0.0
  0
VERTEX
  5
F4
330
F1
100
AcDbEntity
  8
1
  6
Continuous
 62
     7
370
     9
100
AcDbVertex
100
AcDb2dVertex
 10
201.3023232277113
 20
156.9451235632451
 30
0.0
  0
VERTEX
  5
F5
330
F1
100
AcDbEntity
  8
1
  6
Continuous
 62
     7
370
     9
100
AcDbVertex
100
AcDb2dVertex
 10
201.4578506248789
 20
156.9651109323445
 30
0.0
  0
VERTEX
  5
F6
330
F1
100
AcDbEntity
  8
1
  6
Continuous
 62
     7
370
     9
100
AcDbVertex
100
AcDb2dVertex
 10
201.71221000083
 20
156.9975895398172
 30
0.0
  0
VERTEX
  5
F7
330
F1
100
AcDbEntity
  8
1
  6
Continuous
 62
     7
370
     9
100
AcDbVertex
100
AcDb2dVertex
 10
202.0579944782415
 20
157.0408835510306
 30
0.0
  0
VERTEX
  5
F8
330
F1
100
AcDbEntity
  8
1
  6
Continuous
 62
     7
370
     9
100
AcDbVertex
100
AcDb2dVertex
 10
202.4846827960141
 20
157.091976120508
 30
0.0
  0
VERTEX
  5
F9
330
F1
100
AcDbEntity
  8
1
  6
Continuous
 62
     7
370
     9
100
AcDbVertex
100
AcDb2dVertex
 10
202.9786975561298
 20
157.1462061084954
 30
0.0
  0
VERTEX
  5
FA
330
F1
100
AcDbEntity
  8
1
  6
Continuous
 62
     7
370
     9
100
AcDbVertex
100
AcDb2dVertex
 10
203.5237082043899
 20
157.1972816565294
 30
0.0
  0
VERTEX
  5
FB
330
F1
100
AcDbEntity
  8
1
  6
Continuous
 62
     7
370
     9
100
AcDbVertex
100
AcDb2dVertex
 10
204.1012446584885
 20
157.2377352865323
 30
0.0
  0
VERTEX
  5
FC
330
F1
100
AcDbEntity
  8
1
  6
Continuous
 62
     7
370
     9
100
AcDbVertex
100
AcDb2dVertex
 10
204.6916206633223
 20
157.2598347725566
 30
0.0
  0
VERTEX
  5
FD
330
F1
100
AcDbEntity
  8
1
  6
Continuous
 62
     7
370
     9
100
AcDbVertex
100
AcDb2dVertex
 10
205.2750892248813
 20
157.2568365088394
 30
0.0
  0
VERTEX
  5
FE
330
F1
100
AcDbEntity
  8
1
  6
Continuous
 62
     7
370
     9
100
AcDbVertex
100
AcDb2dVertex
 10
205.8330852355842
 20
157.2243560885709
 30
0.0
  0
VERTEX
  5
FF
330
F1
100
AcDbEntity
  8
1
  6
Continuous
 62
     7
370
     9
100
AcDbVertex
100
AcDb2dVertex
 10
206.3493705762124
 20
157.1615644857296
 30
0.0
  0
VERTEX
  5
100
330
F1
100
AcDbEntity
  8
1
  6
Continuous
 62
     7
370
     9
100
AcDbVertex
100
AcDb2dVertex
 10
206.8108965002162
 20
157.0719176973615
 30
0.0
  0
VERTEX
  5
101
330
F1
100
AcDbEntity
  8
1
  6
Continuous
 62
     7
370
     9
100
AcDbVertex
100
AcDb2dVertex
 10
207.2082397905617
 20
156.9631976940701
 30
0.0
  0
VERTEX
  5
102
330
F1
100
AcDbEntity
  8
1
  6
Continuous
 62
     7
370
     9
100
AcDbVertex
100
AcDb2dVertex
 10
207.5355457468122
 20
156.8467707773767
 30
0.0
  0
VERTEX
  5
103
330
F1
100
AcDbEntity
  8
1
  6
Continuous
 62
     7
370
     9
100
AcDbVertex
100
AcDb2dVertex
 10
207.7900065918969
 20
156.7361291431865
 30
0.0
  0
VERTEX
  5
104
330
F1
100
AcDbEntity
  8
1
  6
Continuous
 62
     7
370
     9
100
AcDbVertex
100
AcDb2dVertex
 10
207.9709973973114
 20
156.6449372617599
 30
0.0
  0
VERTEX
  5
105
330
F1
100
AcDbEntity
  8
1
  6
Continuous
 62
     7
370
     9
100
AcDbVertex
100
AcDb2dVertex
 10
208.0790619087807
 20
156.584920914882
 30
0.0
  0
VERTEX
  5
106
330
F1
100
AcDbEntity
  8
1
  6
Continuous
 62
     7
370
     9
100
AcDbVertex
100
AcDb2dVertex
 10
208.11497127576
 20
156.5639857369268
 30
0.0
  0
VERTEX
  5
107
330
F1
100
AcDbEntity
  8
1
  6
Continuous
 62
     7
370
     9
100
AcDbVertex
100
AcDb2dVertex
 10
208.1506560719053
 20
156.5426720257452
 30
0.0
  0
VERTEX
  5
108
330
F1
100
AcDbEntity
  8
1
  6
Continuous
 62
     7
370
     9
100
AcDbVertex
100
AcDb2dVertex
 10
208.2554397967811
 20
156.4771258544652
 30
0.0
  0
VERTEX
  5
109
330
F1
100
AcDbEntity
  8
1
  6
Continuous
 62
     7
370
     9
100
AcDbVertex
100
AcDb2dVertex
 10
208.4229062640581
 20
156.3631402043089
 30
0.0
  0
VERTEX
  5
10A
330
F1
100
AcDbEntity
  8
1
  6
Continuous
 62
     7
370
     9
100
AcDbVertex
100
AcDb2dVertex
 10
208.6435876093278
 20
156.1955737035032
 30
0.0
  0
VERTEX
  5
10B
330
F1
100
AcDbEntity
  8
1
  6
Continuous
 62
     7
370
     9
100
AcDbVertex
100
AcDb2dVertex
 10
208.9064982231227
 20
155.9706462977989
 30
0.0
  0
VERTEX
  5
10C
330
F1
100
AcDbEntity
  8
1
  6
Continuous
 62
     7
370
     9
100
AcDbVertex
100
AcDb2dVertex
 10
209.2007491788739
 20
155.6882627188547
 30
0.0
  0
VERTEX
  5
10D
330
F1
100
AcDbEntity
  8
1
  6
Continuous
 62
     7
370
     9
100
AcDbVertex
100
AcDb2dVertex
 10
209.516869435077
 20
155.3537426776908
 30
0.0
  0
VERTEX
  5
10E
330
F1
100
AcDbEntity
  8
1
  6
Continuous
 62
     7
370
     9
100
AcDbVertex
100
AcDb2dVertex
 10
209.8475370109216
 20
154.9784696923128
 30
0.0
  0
VERTEX
  5
10F
330
F1
100
AcDbEntity
  8
1
  6
Continuous
 62
     7
370
     9
100
AcDbVertex
100
AcDb2dVertex
 10
210.1875727120252
 20
154.5792256834187
 30
0.0
  0
VERTEX
  5
110
330
F1
100
AcDbEntity
  8
1
  6
Continuous
 62
     7
370
     9
100
AcDbVertex
100
AcDb2dVertex
 10
210.5332345738356
 20
154.1762944933756
 30
0.0
  0
VERTEX
  5
111
330
F1
100
AcDbEntity
  8
1
  6
Continuous
 62
     7
370
     9
100
AcDbVertex
100
AcDb2dVertex
 10
210.8810278445056
 20
153.7907177932586
 30
0.0
  0
VERTEX
  5
112
330
F1
100
AcDbEntity
  8
1
  6
Continuous
 62
     7
370
     9
100
AcDbVertex
100
AcDb2dVertex
 10
211.2263699064494
 20
153.4412983604585
 30
0.0
  0
VERTEX
  5
113
330
F1
100
AcDbEntity
  8
1
  6
Continuous
 62
     7
370
     9
100
AcDbVertex
100
AcDb2dVertex
 10
211.5624913570175
 20
153.1420164820925
 30
0.0
  0
VERTEX
  5
114
330
F1
100
AcDbEntity
  8
1
  6
Continuous
 62
     7
370
     9
100
AcDbVertex
100
AcDb2dVertex
 10
211.8799027756397
 20
152.9004370744506
 30
0.0
  0
VERTEX
  5
115
330
F1
100
AcDbEntity
  8
1
  6
Continuous
 62
     7
370
     9
100
AcDbVertex
100
AcDb2dVertex
 10
212.1666233252877
 20
152.7174580834502
 30
0.0
  0
VERTEX
  5
116
330
F1
100
AcDbEntity
  8
1
  6
Continuous
 62
     7
370
     9
100
AcDbVertex
100
AcDb2dVertex
 10
212.4091839033938
 20
152.5884384791204
 30
0.0
  0
VERTEX
  5
117
330
F1
100
AcDbEntity
  8
1
  6
Continuous
 62
     7
370
     9
100
AcDbVertex
100
AcDb2dVertex
 10
212.5942279461214
 20
152.5054210528619
 30
0.0
  0
VERTEX
  5
118
330
F1
100
AcDbEntity
  8
1
  6
Continuous
 62
     7
370
     9
100
AcDbVertex
100
AcDb2dVertex
 10
212.7103827860177
 20
152.4599085453209
 30
0.0
  0
VERTEX
  5
119
330
F1
100
AcDbEntity
  8
1
  6
Continuous
 62
     7
370
     9
100
AcDbVertex
100
AcDb2dVertex
 10
212.75
 20
152.4455229793991
 30
0.0
  0
VERTEX
  5
11A
330
F1
100
AcDbEntity
  8
1
  6
Continuous
 62
     7
370
     9
100
AcDbVertex
100
AcDb2dVertex
 10
212.7898954516681
 20
152.4316109125064
 30
0.0
  0
VERTEX
  5
11B
330
F1
100
AcDbEntity
  8
1
  6
Continuous
 62
     7
370
     9
100
AcDbVertex
100
AcDb2dVertex
 10
212.9101087180516
 20
152.3930239067633
 30
0.0
  0
VERTEX
  5
11C
330
F1
100
AcDbEntity
  8
1
  6
Continuous
 62
     7
370
     9
100
AcDbVertex
100
AcDb2dVertex
 10
213.1118321536082
 20
152.3386194566737
 30
0.0
  0
VERTEX
  5
11D
330
F1
100
AcDbEntity
  8
1
  6
Continuous
 62
     7
370
     9
100
AcDbVertex
100
AcDb2dVertex
 10
213.3958575048448
 20
152.2813130043145
 30
0.0
  0
VERTEX
  5
11E
330
F1
100
AcDbEntity
  8
1
  6
Continuous
 62
     7
370
     9
100
AcDbVertex
100
AcDb2dVertex
 10
213.7611055974191
 20
152.2357007040466
 30
0.0
  0
VERTEX
  5
11F
330
F1
100
AcDbEntity
  8
1
  6
Continuous
 62
     7
370
     9
100
AcDbVertex
100
AcDb2dVertex
 10
214.2031336585475
 20
152.2154290884281
 30
0.0
  0
VERTEX
  5
120
330
F1
100
AcDbEntity
  8
1
  6
Continuous
 62
     7
370
     9
100
AcDbVertex
100
AcDb2dVertex
 10
214.7130186575802
 20
152.2308229063389
 30
0.0
  0
VERTEX
  5
121
330
F1
100
AcDbEntity
  8
1
  6
Continuous
 62
     7
370
     9
100
AcDbVertex
100
AcDb2dVertex
 10
215.2769354516666
 20
152.2872106764123
 30
0.0
  0
VERTEX
  5
122
330
F1
100
AcDbEntity
  8
1
  6
Continuous
 62
     7
370
     9
100
AcDbVertex
100
AcDb2dVertex
 10
215.8765918198
 20
152.3842250481451
 30
0.0
  0
VERTEX
  5
123
330
F1
100
AcDbEntity
  8
1
  6
Continuous
 62
     7
370
     9
100
AcDbVertex
100
AcDb2dVertex
 10
216.4904861072017
 20
152.5161405751939
 30
0.0
  0
VERTEX
  5
124
330
F1
100
AcDbEntity
  8
1
  6
Continuous
 62
     7
370
     9
100
AcDbVertex
100
AcDb2dVertex
 10
217.0957640936679
 20
152.6730945821515
 30
0.0
  0
VERTEX
  5
125
330
F1
100
AcDbEntity
  8
1
  6
Continuous
 62
     7
370
     9
100
AcDbVertex
100
AcDb2dVertex
 10
217.6703149348449
 20
152.842866233139
 30
0.0
  0
VERTEX
  5
126
330
F1
100
AcDbEntity
  8
1
  6
Continuous
 62
     7
370
     9
100
AcDbVertex
100
AcDb2dVertex
 10
218.1946940457198
 20
153.0128012748236
 30
0.0
  0
VERTEX
  5
127
330
F1
100
AcDbEntity
  8
1
  6
Continuous
 62
     7
370
     9
100
AcDbVertex
100
AcDb2dVertex
 10
218.6535056215243
 20
153.1714812862888
 30
0.0
  0
VERTEX
  5
128
330
F1
100
AcDbEntity
  8
1
  6
Continuous
 62
     7
370
     9
100
AcDbVertex
100
AcDb2dVertex
 10
219.0360078773705
 20
153.3098388308991
 30
0.0
  0
VERTEX
  5
129
330
F1
100
AcDbEntity
  8
1
  6
Continuous
 62
     7
370
     9
100
AcDbVertex
100
AcDb2dVertex
 10
219.3358882841584
 20
153.4215844539341
 30
0.0
  0
VERTEX
  5
12A
330
F1
100
AcDbEntity
  8
1
  6
Continuous
 62
     7
370
     9
100
AcDbVertex
100
AcDb2dVertex
 10
219.5503495262602
 20
153.5029948942723
 30
0.0
  0
VERTEX
  5
12B
330
F1
100
AcDbEntity
  8
1
  6
Continuous
 62
     7
370
     9
100
AcDbVertex
100
AcDb2dVertex
 10
219.678803011196
 20
153.5522679432278
 30
0.0
  0
VERTEX
  5
12C
330
F1
100
AcDbEntity
  8
1
  6
Continuous
 62
     7
370
     9
100
AcDbVertex
100
AcDb2dVertex
 10
219.7215481378835
 20
153.5687400950885
 30
0.0
  0
VERTEX
  5
12D
330
F1
100
AcDbEntity
  8
1
  6
Continuous
 62
     7
370
     9
100
AcDbVertex
100
AcDb2dVertex
 10
219.76405385894
 20
153.585155088365
 30
0.0
  0
VERTEX
  5
12E
330
F1
100
AcDbEntity
  8
1
  6
Continuous
 62
     7
370
     9
100
AcDbVertex
100
AcDb2dVertex
 10
219.8890088472332
 20
153.633614689541
 30
0.0
  0
VERTEX
  5
12F
330
F1
100
AcDbEntity
  8
1
  6
Continuous
 62
     7
370
     9
100
AcDbVertex
100
AcDb2dVertex
 10
220.0890404731227
 20
153.711842914985
 30
0.0
  0
VERTEX
  5
130
330
F1
100
AcDbEntity
  8
1
  6
Continuous
 62
     7
370
     9
100
AcDbVertex
100
AcDb2dVertex
 10
220.3528501567964
 20
153.816299744919
 30
0.0
  0
VERTEX
  5
131
330
F1
100
AcDbEntity
  8
1
  6
Continuous
 62
     7
370
     9
100
AcDbVertex
100
AcDb2dVertex
 10
220.6665091152673
 20
153.9425153778222
 30
0.0
  0
VERTEX
  5
132
330
F1
100
AcDbEntity
  8
1
  6
Continuous
 62
     7
370
     9
100
AcDbVertex
100
AcDb2dVertex
 10
221.0149375486541
 20
154.0854767303301
 30
0.0
  0
VERTEX
  5
133
330
F1
100
AcDbEntity
  8
1
  6
Continuous
 62
     7
370
     9
100
AcDbVertex
100
AcDb2dVertex
 10
221.3833186924712
 20
154.2400055226404
 30
0.0
  0
VERTEX
  5
134
330
F1
100
AcDbEntity
  8
1
  6
Continuous
 62
     7
370
     9
100
AcDbVertex
100
AcDb2dVertex
 10
221.7582292162113
 20
154.4010743248723
 30
0.0
  0
VERTEX
  5
135
330
F1
100
AcDbEntity
  8
1
  6
Continuous
 62
     7
370
     9
100
AcDbVertex
100
AcDb2dVertex
 10
222.1283401471259
 20
154.5640242675049
 30
0.0
  0
VERTEX
  5
136
330
F1
100
AcDbEntity
  8
1
  6
Continuous
 62
     7
370
     9
100
AcDbVertex
100
AcDb2dVertex
 10
222.4846403822186
 20
154.72467154126
 30
0.0
  0
VERTEX
  5
137
330
F1
100
AcDbEntity
  8
1
  6
Continuous
 62
     7
370
     9
100
AcDbVertex
100
AcDb2dVertex
 10
222.8202353677687
 20
154.8793139040477
 30
0.0
  0
VERTEX
  5
138
330
F1
100
AcDbEntity
  8
1
  6
Continuous
 62
     7
370
     9
100
AcDbVertex
100
AcDb2dVertex
 10
223.1298543390298
 20
155.0246678017714
 30
0.0
  0
VERTEX
  5
139
330
F1
100
AcDbEntity
  8
1
  6
Continuous
 62
     7
370
     9
100
AcDbVertex
100
AcDb2dVertex
 10
223.4092436760677
 20
155.1577773186555
 30
0.0
  0
VERTEX
  5
13A
330
F1
100
AcDbEntity
  8
1
  6
Continuous
 62
     7
370
     9
100
AcDbVertex
100
AcDb2dVertex
 10
223.6546236914895
 20
155.275936135666
 30
0.0
  0
VERTEX
  5
13B
330
F1
100
AcDbEntity
  8
1
  6
Continuous
 62
     7
370
     9
100
AcDbVertex
100
AcDb2dVertex
 10
223.8623445158571
 20
155.3766537125726
 30
0.0
  0
VERTEX
  5
13C
330
F1
100
AcDbEntity
  8
1
  6
Continuous
 62
     7
370
     9
100
AcDbVertex
100
AcDb2dVertex
 10
224.0288063899191
 20
155.4576800760213
 30
0.0
  0
VERTEX
  5
13D
330
F1
100
AcDbEntity
  8
1
  6
Continuous
 62
     7
370
     9
100
AcDbVertex
100
AcDb2dVertex
 10
224.1506296763663
 20
155.517084479096
 30
0.0
  0
VERTEX
  5
13E
330
F1
100
AcDbEntity
  8
1
  6
Continuous
 62
     7
370
     9
100
AcDbVertex
100
AcDb2dVertex
 10
224.224990882493
 20
155.5533667552542
 30
0.0
  0
VERTEX
  5
13F
330
F1
100
AcDbEntity
  8
1
  6
Continuous
 62
     7
370
     9
100
AcDbVertex
100
AcDb2dVertex
 10
224.25
 20
155.5655705229807
 30
0.0
  0
SEQEND
  5
F2
330
F1
100
AcDbEntity
  8
1
  6
Continuous
370
     9
  0
LINE
  5
140
330
1F
100
AcDbEntity
  8
1
  6
DOT
 62
     7
370
     9
100
AcDbLine
 10
224.25
 20
138.5306122448978
 30
0.0
 11
224.25
 21
155.5655705229807
 31
0.0
  0
LINE
  5
141
330
1F
100
AcDbEntity
  8
1
  6
DOT
 62
     7
370
     9
100
AcDbLine
 10
201.25
 20
138.5306122448978
 30
0.0
 11
201.25
 21
156.9383914421566
 31
0.0
  0
LINE
  5
142
330
1F
100
AcDbEntity
  8
1
  6
Continuous
 62
     7
370
     9
100
AcDbLine
 10
282.75
 20
65.53061224489784
 30
0.0
 11
397.75
 21
48.53061224489784
 31
0.0
  0
LINE
  5
143
330
1F
100
AcDbEntity
  8
1
  6
Continuous
 62
     7
370
     9
100
AcDbLine
 10
397.75
 20
48.53061224489784
 30
0.0
 11
397.75
 21
41.53061224489784
 31
0.0
  0
LINE
  5
144
330
1F
100
AcDbEntity
  8
1
  6
Continuous
 62
     7
370
     9
100
AcDbLine
 10
598.25
 20
71.53061224489782
 30
0.0
 11
598.25
 21
65.53061224489782
 31
0.0
  0
LINE
  5
145
330
1F
100
AcDbEntity
  8
1
  6
Continuous
 62
     7
370
     9
100
AcDbLine
 10
598.25
 20
71.53061224489782
 30
0.0
 11
738.25
 21
71.53061224489782
 31
0.0
  0
LINE
  5
146
330
1F
100
AcDbEntity
  8
1
  6
Continuous
 62
     7
370
     9
100
AcDbLine
 10
738.25
 20
71.53061224489782
 30
0.0
 11
738.25
 21
65.53061224489782
 31
0.0
  0
LINE
  5
147
330
1F
100
AcDbEntity
  8
1
  6
Continuous
 62
     7
370
     9
100
AcDbLine
 10
590.25
 20
41.53061224489784
 30
0.0
 11
590.25
 21
57.53061224489784
 31
0.0
  0
ARC
  5
148
330
1F
100
AcDbEntity
  8
1
  6
Continuous
 62
     7
370
     9
100
AcDbCircle
 10
598.25
 20
57.53061224489782
 30
0.0
 40
8.0
100
AcDbArc
 50
89.99999999999991
 51
179.9999999999999
  0
LINE
  5
149
330
1F
100
AcDbEntity
  8
1
  6
Continuous
 62
     7
370
     9
100
AcDbLine
 10
598.25
 20
65.53061224489782
 30
0.0
 11
738.25
 21
65.53061224489782
 31
0.0
  0
LINE
  5
14A
330
1F
100
AcDbEntity
  8
1
  6
Continuous
 62
     7
370
     9
100
AcDbLine
 10
746.25
 20
41.53061224489784
 30
0.0
 11
746.25
 21
57.53061224489784
 31
0.0
  0
ARC
  5
14B
330
1F
100
AcDbEntity
  8
1
  6
Continuous
 62
     7
370
     9
100
AcDbCircle
 10
738.25
 20
57.53061224489782
 30
0.0
 40
8.0
100
AcDbArc
 50
0.0000000000001018
 51
89.99999999999991
  0
LINE
  5
14C
330
1F
100
AcDbEntity
  8
1
  6
Continuous
 62
     7
370
     9
100
AcDbLine
 10
627.25
 20
71.53061224489782
 30
0.0
 11
627.25
 21
190.5306122448978
 31
0.0
  0
LINE
  5
14D
330
1F
100
AcDbEntity
  8
1
  6
Continuous
 62
     7
370
     9
100
AcDbLine
 10
709.25
 20
71.53061224489782
 30
0.0
 11
709.25
 21
190.5306122448978
 31
0.0
  0
LINE
  5
14E
330
1F
100
AcDbEntity
  8
1
  6
Continuous
 62
     7
370
     9
100
AcDbLine
 10
624.25
 20
190.5306122448978
 30
0.0
 11
712.25
 21
190.5306122448978
 31
0.0
  0
LINE
  5
14F
330
1F
100
AcDbEntity
  8
1
  6
Continuous
 62
     7
370
     9
100
AcDbLine
 10
624.25
 20
190.5306122448978
 30
0.0
 11
624.25
 21
215.5306122448978
 31
0.0
  0
LINE
  5
150
330
1F
100
AcDbEntity
  8
1
  6
Continuous
 62
     7
370
     9
100
AcDbLine
 10
624.25
 20
215.5306122448978
 30
0.0
 11
712.25
 21
215.5306122448978
 31
0.0
  0
LINE
  5
151
330
1F
100
AcDbEntity
  8
1
  6
Continuous
 62
     7
370
     9
100
AcDbLine
 10
712.25
 20
190.5306122448978
 30
0.0
 11
712.25
 21
215.5306122448978
 31
0.0
  0
LINE
  5
152
330
1F
100
AcDbEntity
  8
1
  6
Continuous
 62
     7
370
     9
100
AcDbLine
 10
636.25
 20
311.8302723158935
 30
0.0
 11
636.25
 21
225.6418383518246
 31
0.0
  0
LINE
  5
153
330
1F
100
AcDbEntity
  8
1
  6
Continuous
 62
     7
370
     9
100
AcDbLine
 10
627.25
 20
225.5306122448978
 30
0.0
 11
627.25
 21
311.8302723158935
 31
0.0
  0
LINE
  5
154
330
1F
100
AcDbEntity
  8
1
  6
Continuous
 62
     7
370
     9
100
AcDbLine
 10
636.25
 20
225.5306122448978
 30
0.0
 11
627.25
 21
225.5306122448978
 31
0.0
  0
LINE
  5
155
330
1F
100
AcDbEntity
  8
1
  6
Continuous
 62
     7
370
     9
100
AcDbLine
 10
636.25
 20
311.8302723158935
 30
0.0
 11
627.25
 21
311.8302723158935
 31
0.0
  0
LINE
  5
156
330
1F
100
AcDbEntity
  8
1
  6
Continuous
 62
     7
370
     9
100
AcDbLine
 10
700.2500003061616
 20
311.8302723158935
 30
0.0
 11
700.2500003061616
 21
225.6418383518246
 31
0.0
  0
LINE
  5
157
330
1F
100
AcDbEntity
  8
1
  6
Continuous
 62
     7
370
     9
100
AcDbLine
 10
709.2500003061616
 20
225.5306122448978
 30
0.0
 11
709.2500003061616
 21
311.8302723158935
 31
0.0
  0
LINE
  5
158
330
1F
100
AcDbEntity
  8
1
  6
Continuous
 62
     7
370
     9
100
AcDbLine
 10
700.2500003061616
 20
225.5306122448978
 30
0.0
 11
709.2500003061616
 21
225.5306122448978
 31
0.0
  0
LINE
  5
159
330
1F
100
AcDbEntity
  8
1
  6
Continuous
 62
     7
370
     9
100
AcDbLine
 10
700.2500003061616
 20
311.8302723158935
 30
0.0
 11
709.2500003061616
 21
311.8302723158935
 31
0.0
  0
LINE
  5
15A
330
1F
100
AcDbEntity
  8
1
  6
Continuous
 62
     7
370
     9
100
AcDbLine
 10
654.2500000000003
 20
235.5306122448978
 30
0.0
 11
654.2500000000003
 21
230.5306122448978
 31
0.0
  0
LINE
  5
15B
330
1F
100
AcDbEntity
  8
1
  6
Continuous
 62
     7
370
     9
100
AcDbLine
 10
654.2500000000003
 20
235.5306122448978
 30
0.0
 11
682.2500000000003
 21
235.5306122448978
 31
0.0
  0
LINE
  5
15C
330
1F
100
AcDbEntity
  8
1
  6
Continuous
 62
     7
370
     9
100
AcDbLine
 10
682.2500000000003
 20
235.5306122448978
 30
0.0
 11
682.2500000000003
 21
230.5306122448978
 31
0.0
  0
LINE
  5
15D
330
1F
100
AcDbEntity
  8
1
  6
Continuous
 62
     7
370
     9
100
AcDbLine
 10
653.2500000000003
 20
320.5306122448978
 30
0.0
 11
683.2500000000003
 21
320.5306122448978
 31
0.0
  0
LINE
  5
15E
330
1F
100
AcDbEntity
  8
1
  6
Continuous
 62
     7
370
     9
100
AcDbLine
 10
657.2500000000003
 20
325.5306122448978
 30
0.0
 11
679.2500000000003
 21
325.5306122448978
 31
0.0
  0
LINE
  5
15F
330
1F
100
AcDbEntity
  8
1
  6
Continuous
 62
     7
370
     9
100
AcDbLine
 10
700.2500003061616
 20
309.8302723158935
 30
0.0
 11
636.25
 21
309.8302723158935
 31
0.0
  0
LINE
  5
160
330
1F
100
AcDbEntity
  8
1
  6
Continuous
 62
     7
370
     9
100
AcDbLine
 10
636.25
 20
300.8302723158935
 30
0.0
 11
700.2500003061616
 21
300.8302723158935
 31
0.0
  0
LINE
  5
161
330
1F
100
AcDbEntity
  8
1
  6
Continuous
 62
     7
370
     9
100
AcDbLine
 10
653.2500000000003
 20
290.1302723158935
 30
0.0
 11
683.2500000000003
 21
290.1302723158935
 31
0.0
  0
LINE
  5
162
330
1F
100
AcDbEntity
  8
1
  6
Continuous
 62
     7
370
     9
100
AcDbLine
 10
653.2500000000003
 20
320.5306122448978
 30
0.0
 11
653.2500000000003
 21
309.8302723158935
 31
0.0
  0
LINE
  5
163
330
1F
100
AcDbEntity
  8
1
  6
Continuous
 62
     7
370
     9
100
AcDbLine
 10
653.2500000000003
 20
300.8302723158935
 30
0.0
 11
653.2500000000003
 21
290.1302723158935
 31
0.0
  0
LINE
  5
164
330
1F
100
AcDbEntity
  8
1
  6
Continuous
 62
     7
370
     9
100
AcDbLine
 10
683.2500000000003
 20
320.5306122448978
 30
0.0
 11
683.2500000000003
 21
309.8302723158935
 31
0.0
  0
LINE
  5
165
330
1F
100
AcDbEntity
  8
1
  6
Continuous
 62
     7
370
     9
100
AcDbLine
 10
683.2500000000003
 20
300.8302723158935
 30
0.0
 11
683.2500000000003
 21
290.1302723158935
 31
0.0
  0
LINE
  5
166
330
1F
100
AcDbEntity
  8
1
  6
DOT
 62
     7
370
     9
100
AcDbLine
 10
657.2500000000003
 20
320.5306122448978
 30
0.0
 11
657.2500000000003
 21
325.5306122448978
 31
0.0
  0
LINE
  5
167
330
1F
100
AcDbEntity
  8
1
  6
DOT
 62
     7
370
     9
100
AcDbLine
 10
679.2500000000003
 20
325.5306122448978
 30
0.0
 11
679.2500000000003
 21
320.5306122448978
 31
0.0
  0
CIRCLE
  5
168
330
1F
100
AcDbEntity
  8
1
  6
Continuous
 62
     7
370
     9
100
AcDbCircle
 10
668.25
 20
315.1804422803957
 30
0.0
 40
1.0
  0
CIRCLE
  5
169
330
1F
100
AcDbEntity
  8
1
  6
Continuous
 62
     7
370
     9
100
AcDbCircle
 10
668.25
 20
295.4801023513913
 30
0.0
 40
1.0
  0
LINE
  5
16A
330
1F
100
AcDbEntity
  8
1
  6
Continuous
 62
     7
370
     9
100
AcDbLine
 10
636.25
 20
230.5306122448978
 30
0.0
 11
700.2500003061616
 21
230.5306122448978
 31
0.0
  0
LINE
  5
16B
330
1F
100
AcDbEntity
  8
1
  6
Continuous
 62
     7
370
     9
100
AcDbLine
 10
621.25
 20
204.0306122448978
 30
0.0
 11
624.25
 21
204.0306122448978
 31
0.0
  0
LINE
  5
16C
330
1F
100
AcDbEntity
  8
1
  6
Continuous
 62
     7
370
     9
100
AcDbLine
 10
613.25
 20
203.0306122448978
 30
0.0
 11
621.25
 21
203.0306122448978
 31
0.0
  0
ARC
  5
16D
330
1F
100
AcDbEntity
  8
1
  6
Continuous
 62
     7
370
     9
100
AcDbCircle
 10
613.25
 20
216.0306122448978
 30
0.0
 40
10.0
100
AcDbArc
 50
89.99999999999991
 51
269.9999999999998
  0
ARC
  5
16E
330
1F
100
AcDbEntity
  8
1
  6
Continuous
 62
     7
370
     9
100
AcDbCircle
 10
613.25
 20
236.2130607393511
 30
0.0
 40
5.68244849445324
100
AcDbArc
 50
89.99999999999991
 51
269.9999999999998
  0
LINE
  5
16F
330
1F
100
AcDbEntity
  8
1
  6
Continuous
 62
     7
370
     9
100
AcDbLine
 10
613.25
 20
243.8955092338043
 30
0.0
 11
613.25
 21
203.0306122448978
 31
0.0
  0
LINE
  5
170
330
1F
100
AcDbEntity
  8
1
  6
Continuous
 62
     7
370
     9
100
AcDbLine
 10
613.25
 20
243.8955092338043
 30
0.0
 11
614.7507676307467
 21
243.8955092338043
 31
0.0
  0
LINE
  5
171
330
1F
100
AcDbEntity
  8
1
  6
Continuous
 62
     7
370
     9
100
AcDbLine
 10
614.75
 20
243.8955092338043
 30
0.0
 11
614.75
 21
268.3611013350076
 31
0.0
  0
LINE
  5
172
330
1F
100
AcDbEntity
  8
1
  6
Continuous
 62
     7
370
     9
100
AcDbLine
 10
621.25
 20
230.5306122448978
 30
0.0
 11
627.25
 21
230.5306122448978
 31
0.0
  0
LINE
  5
173
330
1F
100
AcDbEntity
  8
1
  6
Continuous
 62
     7
370
     9
100
AcDbLine
 10
621.25
 20
243.8955092338043
 30
0.0
 11
627.25
 21
243.8955092338043
 31
0.0
  0
LINE
  5
174
330
1F
100
AcDbEntity
  8
1
  6
Continuous
 62
     7
370
     9
100
AcDbLine
 10
621.25
 20
263.8955092338043
 30
0.0
 11
627.25
 21
263.8955092338043
 31
0.0
  0
LINE
  5
175
330
1F
100
AcDbEntity
  8
1
  6
Continuous
 62
     7
370
     9
100
AcDbLine
 10
595.25
 20
477.5306122448978
 30
0.0
 11
595.25
 21
453.5306122448978
 31
0.0
  0
LINE
  5
176
330
1F
100
AcDbEntity
  8
1
  6
Continuous
 62
     7
370
     9
100
AcDbLine
 10
605.25
 20
450.5306122448978
 30
0.0
 11
668.25
 21
450.5306122448978
 31
0.0
  0
LINE
  5
177
330
1F
100
AcDbEntity
  8
1
  6
Continuous
 62
     7
370
     9
100
AcDbLine
 10
605.25
 20
480.5306122448978
 30
0.0
 11
668.25
 21
480.5306122448978
 31
0.0
  0
LINE
  5
178
330
1F
100
AcDbEntity
  8
1
  6
Continuous
 62
     7
370
     9
100
AcDbLine
 10
715.2500003061617
 20
204.0306122448978
 30
0.0
 11
712.2500003061617
 21
204.0306122448978
 31
0.0
  0
ARC
  5
179
330
1F
100
AcDbEntity
  8
1
  6
Continuous
 62
     7
370
     9
100
AcDbCircle
 10
723.2500003061616
 20
216.0306122448978
 30
0.0
 40
10.0
100
AcDbArc
 50
270.0000000000003
 51
89.99999999999991
  0
ARC
  5
17A
330
1F
100
AcDbEntity
  8
1
  6
Continuous
 62
     7
370
     9
100
AcDbCircle
 10
723.2500003061616
 20
236.2130607393511
 30
0.0
 40
5.68244849445324
100
AcDbArc
 50
269.9999999999998
 51
89.99999999999991
  0
LINE
  5
17B
330
1F
100
AcDbEntity
  8
1
  6
Continuous
 62
     7
370
     9
100
AcDbLine
 10
723.2500003061616
 20
243.8955092338043
 30
0.0
 11
723.2500003061617
 21
203.0306122448978
 31
0.0
  0
LINE
  5
17C
330
1F
100
AcDbEntity
  8
1
  6
Continuous
 62
     7
370
     9
100
AcDbLine
 10
723.2500003061616
 20
243.8955092338043
 30
0.0
 11
721.749232675415
 21
243.8955092338043
 31
0.0
  0
LINE
  5
17D
330
1F
100
AcDbEntity
  8
1
  6
Continuous
 62
     7
370
     9
100
AcDbLine
 10
721.7500003061616
 20
243.8955092338043
 30
0.0
 11
721.7500003061616
 21
268.3611013350076
 31
0.0
  0
LINE
  5
17E
330
1F
100
AcDbEntity
  8
1
  6
Continuous
 62
     7
370
     9
100
AcDbLine
 10
715.2500003061616
 20
230.5306122448978
 30
0.0
 11
709.2500003061616
 21
230.5306122448978
 31
0.0
  0
LINE
  5
17F
330
1F
100
AcDbEntity
  8
1
  6
Continuous
 62
     7
370
     9
100
AcDbLine
 10
715.2500003061616
 20
243.8955092338043
 30
0.0
 11
709.2500003061616
 21
243.8955092338043
 31
0.0
  0
LINE
  5
180
330
1F
100
AcDbEntity
  8
1
  6
Continuous
 62
     7
370
     9
100
AcDbLine
 10
715.2500003061616
 20
263.8955092338043
 30
0.0
 11
709.2500003061616
 21
263.8955092338043
 31
0.0
  0
LINE
  5
181
330
1F
100
AcDbEntity
  8
1
  6
Continuous
 62
     7
370
     9
100
AcDbLine
 10
741.2500003061616
 20
477.5306122448978
 30
0.0
 11
741.2500003061616
 21
453.5306122448978
 31
0.0
  0
LINE
  5
182
330
1F
100
AcDbEntity
  8
1
  6
Continuous
 62
     7
370
     9
100
AcDbLine
 10
731.2500003061616
 20
450.5306122448978
 30
0.0
 11
668.2500003061616
 21
450.5306122448978
 31
0.0
  0
LINE
  5
183
330
1F
100
AcDbEntity
  8
1
  6
Continuous
 62
     7
370
     9
100
AcDbLine
 10
731.2500003061616
 20
480.5306122448978
 30
0.0
 11
668.2500003061616
 21
480.5306122448978
 31
0.0
  0
LINE
  5
184
330
1F
100
AcDbEntity
  8
1
  6
Continuous
 62
     7
370
     9
100
AcDbLine
 10
715.2500003061617
 20
203.0306122448978
 30
0.0
 11
723.2500003061616
 21
203.0306122448978
 31
0.0
  0
LINE
  5
185
330
1F
100
AcDbEntity
  8
1
  6
Continuous
 62
     7
370
     9
100
AcDbLine
 10
595.25
 20
453.5306122448978
 30
0.0
 11
605.25
 21
453.5306122448978
 31
0.0
  0
LINE
  5
186
330
1F
100
AcDbEntity
  8
1
  6
Continuous
 62
     7
370
     9
100
AcDbLine
 10
741.2500003061616
 20
453.5306122448978
 30
0.0
 11
731.2500003061616
 21
453.5306122448978
 31
0.0
  0
LINE
  5
187
330
1F
100
AcDbEntity
  8
1
  6
Continuous
 62
     7
370
     9
100
AcDbLine
 10
741.2500003061616
 20
477.5306122448978
 30
0.0
 11
731.2500003061616
 21
477.5306122448978
 31
0.0
  0
LINE
  5
188
330
1F
100
AcDbEntity
  8
1
  6
Continuous
 62
     7
370
     9
100
AcDbLine
 10
595.25
 20
477.5306122448978
 30
0.0
 11
605.25
 21
477.5306122448978
 31
0.0
  0
LINE
  5
189
330
1F
100
AcDbEntity
  8
1
  6
Continuous
 62
     7
370
     9
100
AcDbLine
 10
679.2500000000003
 20
290.1302723158935
 30
0.0
 11
679.2500000000003
 21
235.5306122448978
 31
0.0
  0
LINE
  5
18A
330
1F
100
AcDbEntity
  8
1
  6
Continuous
 62
     7
370
     9
100
AcDbLine
 10
657.2500000000003
 20
235.5306122448978
 30
0.0
 11
657.2500000000003
 21
290.1302723158935
 31
0.0
  0
ARC
  5
18B
330
1F
100
AcDbEntity
  8
1
  6
Continuous
 62
     7
370
     9
100
AcDbCircle
 10
679.7500003061621
 20
248.065176742168
 30
0.0
 40
0.7107986038943181
100
AcDbArc
 50
269.9999999999998
 51
69.99999999997154
  0
LINE
  5
18C
330
1F
100
AcDbEntity
  8
1
  6
Continuous
 62
     7
370
     9
100
AcDbLine
 10
679.993107746542
 20
248.7331089451123
 30
0.0
 11
656.215813954725
 21
252.925687368841
 31
0.0
  0
LINE
  5
18D
330
1F
100
AcDbEntity
  8
1
  6
Continuous
 62
     7
370
     9
100
AcDbLine
 10
679.7500003066543
 20
247.3543781410651
 30
0.0
 11
655.9727066925315
 21
251.5469565334614
 31
0.0
  0
ARC
  5
18E
330
1F
100
AcDbEntity
  8
1
  6
Continuous
 62
     7
370
     9
100
AcDbCircle
 10
656.215813954725
 20
252.214888782539
 30
0.0
 40
0.710798586302019
100
AcDbArc
 50
89.99999999999991
 51
250.0000147688096
  0
ARC
  5
18F
330
1F
100
AcDbEntity
  8
1
  6
Continuous
 62
     7
370
     9
100
AcDbCircle
 10
679.7500003061621
 20
264.4867739470784
 30
0.0
 40
0.7107986038943181
100
AcDbArc
 50
269.9999999999998
 51
69.99999999997154
  0
LINE
  5
190
330
1F
100
AcDbEntity
  8
1
  6
Continuous
 62
     7
370
     9
100
AcDbLine
 10
679.993107746542
 20
265.1547061500228
 30
0.0
 11
656.215813954725
 21
269.3472845737515
 31
0.0
  0
LINE
  5
191
330
1F
100
AcDbEntity
  8
1
  6
Continuous
 62
     7
370
     9
100
AcDbLine
 10
679.7500003066543
 20
263.7759753459755
 30
0.0
 11
655.9727066925315
 21
267.9685537383718
 31
0.0
  0
ARC
  5
192
330
1F
100
AcDbEntity
  8
1
  6
Continuous
 62
     7
370
     9
100
AcDbCircle
 10
656.215813954725
 20
268.6364859874494
 30
0.0
 40
0.710798586302019
100
AcDbArc
 50
89.99999999999991
 51
250.0000147688096
  0
ARC
  5
193
330
1F
100
AcDbEntity
  8
1
  6
Continuous
 62
     7
370
     9
100
AcDbCircle
 10
679.750000306162
 20
280.9083711519888
 30
0.0
 40
0.7107986038943181
100
AcDbArc
 50
269.9999999999998
 51
69.99999999997154
  0
LINE
  5
194
330
1F
100
AcDbEntity
  8
1
  6
Continuous
 62
     7
370
     9
100
AcDbLine
 10
679.9931077465419
 20
281.5763033549332
 30
0.0
 11
656.215813954725
 21
285.7688817786619
 31
0.0
  0
LINE
  5
195
330
1F
100
AcDbEntity
  8
1
  6
Continuous
 62
     7
370
     9
100
AcDbLine
 10
679.7500003066542
 20
280.1975725508859
 30
0.0
 11
655.9727066925313
 21
284.3901509432823
 31
0.0
  0
ARC
  5
196
330
1F
100
AcDbEntity
  8
1
  6
Continuous
 62
     7
370
     9
100
AcDbCircle
 10
656.2158139547249
 20
285.0580831923598
 30
0.0
 40
0.710798586302019
100
AcDbArc
 50
89.99999999999083
 51
250.0000147688096
  0
LINE
  5
197
330
1F
100
AcDbEntity
  8
1
  6
DOT
 62
     7
370
     9
100
AcDbLine
 10
645.2500000000002
 20
230.5306122448978
 30
0.0
 11
645.2500000000002
 21
190.5306122448978
 31
0.0
  0
LINE
  5
198
330
1F
100
AcDbEntity
  8
1
  6
DOT
 62
     7
370
     9
100
AcDbLine
 10
691.2500003061615
 20
230.5306122448978
 30
0.0
 11
691.2500003061615
 21
190.5306122448978
 31
0.0
  0
LINE
  5
199
330
1F
100
AcDbEntity
  8
1
  6
DOT
 62
     7
370
     9
100
AcDbLine
 10
673.25
 20
193.5306124285949
 30
0.0
 11
673.25
 21
170.5306122448978
 31
0.0
  0
LINE
  5
19A
330
1F
100
AcDbEntity
  8
1
  6
DOT
 62
     7
370
     9
100
AcDbLine
 10
663.25
 20
193.5306122448978
 30
0.0
 11
663.25
 21
170.5306122448978
 31
0.0
  0
LINE
  5
19B
330
1F
100
AcDbEntity
  8
1
  6
DOT
 62
     7
370
     9
100
AcDbLine
 10
668.2500003061617
 20
196.5306122448978
 30
0.0
 11
673.25
 21
193.5306124285949
 31
0.0
  0
LINE
  5
19C
330
1F
100
AcDbEntity
  8
1
  6
DOT
 62
     7
370
     9
100
AcDbLine
 10
668.25
 20
196.5306122448978
 30
0.0
 11
663.25
 21
193.5306122448978
 31
0.0
  0
LINE
  5
19D
330
1F
100
AcDbEntity
  8
1
  6
Continuous
 62
     7
370
     9
100
AcDbLine
 10
600.25
 20
65.53061224489782
 30
0.0
 11
600.25
 21
52.53061224489782
 31
0.0
  0
LINE
  5
19E
330
1F
100
AcDbEntity
  8
1
  6
Continuous
 62
     7
370
     9
100
AcDbLine
 10
600.25
 20
52.53061224489782
 30
0.0
 11
627.25
 21
52.53061224489782
 31
0.0
  0
LINE
  5
19F
330
1F
100
AcDbEntity
  8
1
  6
Continuous
 62
     7
370
     9
100
AcDbLine
 10
627.25
 20
65.53061224489782
 30
0.0
 11
627.25
 21
52.53061224489782
 31
0.0
  0
LINE
  5
1A0
330
1F
100
AcDbEntity
  8
1
  6
Continuous
 62
     7
370
     9
100
AcDbLine
 10
736.2500003061617
 20
65.53061224489782
 30
0.0
 11
736.2500003061617
 21
52.53061224489782
 31
0.0
  0
LINE
  5
1A1
330
1F
100
AcDbEntity
  8
1
  6
Continuous
 62
     7
370
     9
100
AcDbLine
 10
736.2500003061617
 20
52.53061224489782
 30
0.0
 11
709.2500003061617
 21
52.53061224489782
 31
0.0
  0
LINE
  5
1A2
330
1F
100
AcDbEntity
  8
1
  6
Continuous
 62
     7
370
     9
100
AcDbLine
 10
709.2500003061617
 20
65.53061224489782
 30
0.0
 11
709.2500003061617
 21
52.53061224489782
 31
0.0
  0
LINE
  5
1A3
330
1F
100
AcDbEntity
  8
1
  6
Continuous
 62
     7
370
     9
100
AcDbLine
 10
643.2500000000002
 20
65.53061224489782
 30
0.0
 11
643.2500000000002
 21
41.53061224489784
 31
0.0
  0
LINE
  5
1A4
330
1F
100
AcDbEntity
  8
1
  6
Continuous
 62
     7
370
     9
100
AcDbLine
 10
693.2500003061615
 20
65.53061224489782
 30
0.0
 11
693.2500003061615
 21
41.53061224489784
 31
0.0
  0
LINE
  5
1A5
330
1F
100
AcDbEntity
  8
1
  6
Continuous
 62
     7
370
     9
100
AcDbLine
 10
375.5
 20
329.0596413721414
 30
0.0
 11
375.5
 21
189.0596413721414
 31
0.0
  0
LINE
  5
1A6
330
1F
100
AcDbEntity
  8
1
  6
Continuous
 62
     7
370
     9
100
AcDbLine
 10
375.5
 20
189.0596413721414
 30
0.0
 11
515.5
 21
189.0596413721414
 31
0.0
  0
LINE
  5
1A7
330
1F
100
AcDbEntity
  8
1
  6
Continuous
 62
     7
370
     9
100
AcDbLine
 10
375.5
 20
329.0596413721414
 30
0.0
 11
515.5
 21
329.0596413721414
 31
0.0
  0
LINE
  5
1A8
330
1F
100
AcDbEntity
  8
1
  6
Continuous
 62
     7
370
     9
100
AcDbLine
 10
515.5
 20
329.0596413721414
 30
0.0
 11
515.5
 21
189.0596413721414
 31
0.0
  0
CIRCLE
  5
1A9
330
1F
100
AcDbEntity
  8
1
  6
Continuous
 62
     7
370
     9
100
AcDbCircle
 10
390.5
 20
314.0596413721414
 30
0.0
 40
2.5
  0
CIRCLE
  5
1AA
330
1F
100
AcDbEntity
  8
1
  6
Continuous
 62
     7
370
     9
100
AcDbCircle
 10
390.5
 20
204.0596413721414
 30
0.0
 40
2.5
  0
CIRCLE
  5
1AB
330
1F
100
AcDbEntity
  8
1
  6
Continuous
 62
     7
370
     9
100
AcDbCircle
 10
500.5
 20
204.0596413721414
 30
0.0
 40
2.5
  0
CIRCLE
  5
1AC
330
1F
100
AcDbEntity
  8
1
  6
Continuous
 62
     7
370
     9
100
AcDbCircle
 10
500.5
 20
314.0596413721414
 30
0.0
 40
2.5
  0
CIRCLE
  5
1AD
330
1F
100
AcDbEntity
  8
1
  6
Continuous
 62
     7
370
     9
100
AcDbCircle
 10
395.5
 20
299.0596413721414
 30
0.0
 40
2.5
  0
CIRCLE
  5
1AE
330
1F
100
AcDbEntity
  8
1
  6
Continuous
 62
     7
370
     9
100
AcDbCircle
 10
495.5
 20
299.0596413721414
 30
0.0
 40
2.5
  0
CIRCLE
  5
1AF
330
1F
100
AcDbEntity
  8
1
  6
Continuous
 62
     7
370
     9
100
AcDbCircle
 10
445.5
 20
219.0596413721414
 30
0.0
 40
2.5
  0
LINE
  5
1B0
330
1F
100
AcDbEntity
  8
1
  6
DOT
 62
     7
370
     9
100
AcDbLine
 10
445.5
 20
329.0596413721414
 30
0.0
 11
445.5
 21
189.0596413721414
 31
0.0
  0
LINE
  5
1B1
330
1F
100
AcDbEntity
  8
1
  6
DOT
 62
     7
370
     9
100
AcDbLine
 10
375.5
 20
259.0596413721414
 30
0.0
 11
515.5
 21
259.0596413721414
 31
0.0
  0
LINE
  5
1B2
330
1F
100
AcDbEntity
  8
1
  6
Continuous
 62
     7
370
     9
100
AcDbLine
 10
228.4010279590166
 20
460.0028999318115
 30
0.0
 11
258.1476913149796
 21
235.1119201239724
 31
0.0
  0
ARC
  5
1B3
330
1F
100
AcDbEntity
  8
1
  6
Continuous
 62
     7
370
     9
100
AcDbCircle
 10
217.75
 20
465.5306122448978
 30
0.0
 40
15.0
100
AcDbArc
 50
319.7727910491374
 51
215.205630132539
  0
LINE
  5
1B4
330
1F
100
AcDbEntity
  8
1
  6
Continuous
 62
     7
370
     9
100
AcDbLine
 10
590.25
 20
41.53061224489784
 30
0.0
 11
746.25
 21
41.53061224489784
 31
0.0
  0
LINE
  5
1B5
330
1F
100
AcDbEntity
  8
1
  6
Continuous
 62
     7
370
     9
100
AcDbLine
 10
625.25
 20
309.8302723158935
 30
0.0
 11
625.25
 21
300.8302723158935
 31
0.0
  0
LINE
  5
1B6
330
1F
100
AcDbEntity
  8
1
  6
Continuous
 62
     7
370
     9
100
AcDbLine
 10
627.25
 20
300.8302723158935
 30
0.0
 11
625.25
 21
300.8302723158935
 31
0.0
  0
LINE
  5
1B7
330
1F
100
AcDbEntity
  8
1
  6
Continuous
 62
     7
370
     9
100
AcDbLine
 10
627.25
 20
309.8302723158935
 30
0.0
 11
625.25
 21
309.8302723158935
 31
0.0
  0
LINE
  5
1B8
330
1F
100
AcDbEntity
  8
1
  6
Continuous
 62
     7
370
     9
100
AcDbLine
 10
711.2500003061616
 20
300.8302723158935
 30
0.0
 11
709.2500003061616
 21
300.8302723158935
 31
0.0
  0
LINE
  5
1B9
330
1F
100
AcDbEntity
  8
1
  6
Continuous
 62
     7
370
     9
100
AcDbLine
 10
711.2500003061616
 20
309.8302723158935
 30
0.0
 11
711.2500003061616
 21
300.8302723158935
 31
0.0
  0
LINE
  5
1BA
330
1F
100
AcDbEntity
  8
1
  6
Continuous
 62
     7
370
     9
100
AcDbLine
 10
711.2500003061616
 20
309.8302723158935
 30
0.0
 11
709.2500003061616
 21
309.8302723158935
 31
0.0
  0
LINE
  5
1BB
330
1F
100
AcDbEntity
  8
1
  6
Continuous
 62
     7
370
     9
100
AcDbLine
 10
598.25
 20
453.5306122448978
 30
0.0
 11
598.25
 21
315.1804422803957
 31
0.0
  0
LINE
  5
1BC
330
1F
100
AcDbEntity
  8
1
  6
Continuous
 62
     7
370
     9
100
AcDbLine
 10
598.25
 20
315.1804422803957
 30
0.0
 11
614.75
 21
268.3611013350076
 31
0.0
  0
LINE
  5
1BD
330
1F
100
AcDbEntity
  8
1
  6
Continuous
 62
     7
370
     9
100
AcDbLine
 10
738.2500003061616
 20
315.1804422803957
 30
0.0
 11
721.7500003061616
 21
268.3611013350076
 31
0.0
  0
LINE
  5
1BE
330
1F
100
AcDbEntity
  8
1
  6
Continuous
 62
     7
370
     9
100
AcDbLine
 10
738.2500003061616
 20
453.5306122448978
 30
0.0
 11
738.2500003061616
 21
315.1804422803957
 31
0.0
  0
LINE
  5
1BF
330
1F
100
AcDbEntity
  8
1
  6
Continuous
 62
     7
370
     9
100
AcDbLine
 10
605.25
 20
480.5306122448978
 30
0.0
 11
605.25
 21
313.3692273011137
 31
0.0
  0
LINE
  5
1C0
330
1F
100
AcDbEntity
  8
1
  6
Continuous
 62
     7
370
     9
100
AcDbLine
 10
605.25
 20
313.3692273011137
 30
0.0
 11
621.25
 21
267.9686542631563
 31
0.0
  0
LINE
  5
1C1
330
1F
100
AcDbEntity
  8
1
  6
Continuous
 62
     7
370
     9
100
AcDbLine
 10
621.25
 20
203.0306122448978
 30
0.0
 11
621.25
 21
267.9686542631563
 31
0.0
  0
LINE
  5
1C2
330
1F
100
AcDbEntity
  8
1
  6
Continuous
 62
     7
370
     9
100
AcDbLine
 10
731.2500003061616
 20
480.5306122448978
 30
0.0
 11
731.2500003061616
 21
313.3692273011118
 31
0.0
  0
LINE
  5
1C3
330
1F
100
AcDbEntity
  8
1
  6
Continuous
 62
     7
370
     9
100
AcDbLine
 10
715.2500003061617
 20
203.0306122448978
 30
0.0
 11
715.2500003061616
 21
267.9686542631543
 31
0.0
  0
LINE
  5
1C4
330
1F
100
AcDbEntity
  8
1
  6
Continuous
 62
     7
370
     9
100
AcDbLine
 10
731.2500003061616
 20
313.3692273011118
 30
0.0
 11
715.2500003061616
 21
267.9686542631543
 31
0.0
  0
LINE
  5
1C5
330
1F
100
AcDbEntity
  8
1
  6
Continuous
 62
     7
370
     9
100
AcDbLine
 10
620.25
 20
299.3302723158935
 30
0.0
 11
627.25
 21
299.3302723158935
 31
0.0
  0
LINE
  5
1C6
330
1F
100
AcDbEntity
  8
1
  6
Continuous
 62
     7
370
     9
100
AcDbLine
 10
621.25
 20
299.3302723158935
 30
0.0
 11
621.25
 21
290.3302723158935
 31
0.0
  0
LINE
  5
1C7
330
1F
100
AcDbEntity
  8
1
  6
Continuous
 62
     7
370
     9
100
AcDbLine
 10
620.25
 20
290.3302723158935
 30
0.0
 11
627.25
 21
290.3302723158935
 31
0.0
  0
LINE
  5
1C8
330
1F
100
AcDbEntity
  8
1
  6
Continuous
 62
     7
370
     9
100
AcDbLine
 10
627.25
 20
288.8302723158935
 30
0.0
 11
620.25
 21
288.8302723158935
 31
0.0
  0
LINE
  5
1C9
330
1F
100
AcDbEntity
  8
1
  6
Continuous
 62
     7
370
     9
100
AcDbLine
 10
620.25
 20
290.3302723158935
 30
0.0
 11
620.25
 21
288.8302723158935
 31
0.0
  0
LINE
  5
1CA
330
1F
100
AcDbEntity
  8
1
  6
Continuous
 62
     7
370
     9
100
AcDbLine
 10
620.25
 20
300.8302723158935
 30
0.0
 11
620.25
 21
299.3302723158935
 31
0.0
  0
LINE
  5
1CB
330
1F
100
AcDbEntity
  8
1
  6
Continuous
 62
     7
370
     9
100
AcDbLine
 10
620.25
 20
300.8302723158935
 30
0.0
 11
626.3975441787951
 21
300.8302723158935
 31
0.0
  0
LINE
  5
1CC
330
1F
100
AcDbEntity
  8
1
  6
Continuous
 62
     7
370
     9
100
AcDbLine
 10
89.8409563409561
 20
230.5306122448978
 30
0.0
 11
23.15488565488539
 21
230.5306122448978
 31
0.0
  0
LINE
  5
1CD
330
1F
100
AcDbEntity
  8
1
  6
Continuous
 62
     7
370
     9
100
AcDbLine
 10
77.80041580041558
 20
480.5306122448978
 30
0.0
 11
191.722453222453
 21
480.5306122448978
 31
0.0
  0
LINE
  5
1CE
330
1F
100
AcDbEntity
  8
1
  6
Continuous
 62
     7
370
     9
100
AcDbLine
 10
37.04781704781681
 20
41.53061224489784
 30
0.0
 11
23.15488565488539
 21
41.53061224489784
 31
0.0
  0
LINE
  5
1CF
330
1F
100
AcDbEntity
  8
1
  6
Continuous
 62
     7
370
     9
100
AcDbLine
 10
236.4113825363822
 20
122.5306122448978
 30
0.0
 11
252.8513513513511
 21
122.5306122448978
 31
0.0
  0
LINE
  5
1D0
330
1F
100
AcDbEntity
  8
1
  6
Continuous
 62
     7
370
     9
100
AcDbLine
 10
236.4113825363822
 20
171.5306122448978
 30
0.0
 11
272.7645530145527
 21
171.5306122448978
 31
0.0
  0
LINE
  5
1D1
330
1F
100
AcDbEntity
  8
1
  6
Continuous
 62
     7
370
     9
100
AcDbLine
 10
190.25
 20
193.5306122448978
 30
0.0
 11
167.9429973506497
 21
191.603192116366
 31
0.0
  0
ARC
  5
1D2
330
1F
100
AcDbEntity
  8
1
  6
Continuous
 62
     7
370
     9
100
AcDbCircle
 10
168.803832590652
 20
181.64031287944
 30
0.0
 40
10.0
100
AcDbArc
 50
94.93833461598012
 51
167.2976330170481
  0
LINE
  5
1D3
330
1F
100
AcDbEntity
  8
1
  6
Continuous
 62
     7
370
     9
100
AcDbLine
 10
138.9485703071926
 20
65.53061224489784
 30
0.0
 11
137.4850061727606
 21
66.9941763793298
 31
0.0
  0
LINE
  5
1D4
330
1F
100
AcDbEntity
  8
1
  6
Continuous
 62
     7
370
     9
100
AcDbLine
 10
134.8008193755773
 20
76.2641092422235
 30
0.0
 11
159.0485779816032
 21
183.8391779304682
 31
0.0
  0
ARC
  5
1D5
330
1F
100
AcDbEntity
  8
1
  6
Continuous
 62
     7
370
     9
100
AcDbCircle
 10
144.556073984626
 20
74.06524419119532
 30
0.0
 40
10.0
100
AcDbArc
 50
167.2976330170481
 51
224.9999999999999
  0
LINE
  5
1D6
330
1F
100
AcDbEntity
  8
1
  6
Continuous
 62
     7
370
     9
100
AcDbLine
 10
47.75000000000003
 20
109.0310989443769
 30
0.0
 11
47.75000000000001
 21
48.53061224489784
 31
0.0
  0
ARC
  5
1D7
330
1F
100
AcDbEntity
  8
1
  6
Continuous
 62
     7
370
     9
100
AcDbCircle
 10
57.75000000000003
 20
109.0310989443769
 30
0.0
 40
10.0
100
AcDbArc
 50
151.9327622209218
 51
179.9999999999999
  0
LINE
  5
1D8
330
1F
100
AcDbEntity
  8
1
  6
Continuous
 62
     7
370
     9
100
AcDbLine
 10
108.379326584481
 20
225.2356862098381
 30
0.0
 11
48.92603949553035
 21
113.7361729093172
 31
0.0
  0
LINE
  5
1D9
330
1F
100
AcDbEntity
  8
1
  6
Continuous
 62
     7
370
     9
100
AcDbLine
 10
117.2032870889507
 20
230.5306122448978
 30
0.0
 11
237.25
 21
230.5306122448978
 31
0.0
  0
ARC
  5
1DA
330
1F
100
AcDbEntity
  8
1
  6
Continuous
 62
     7
370
     9
100
AcDbCircle
 10
117.2032870889507
 20
220.5306122448978
 30
0.0
 40
10.0
100
AcDbArc
 50
90.00000000000009
 51
151.9327622209219
  0
LINE
  5
1DB
330
1F
100
AcDbEntity
  8
1
  6
Continuous
 62
     7
370
     9
100
AcDbLine
 10
193.3432952182951
 20
111.5306122448978
 30
0.0
 11
194.1197523536027
 21
108.6328347660306
 31
0.0
  0
LINE
  5
1DC
330
1F
100
AcDbEntity
  8
1
  6
Continuous
 62
     7
370
     9
100
AcDbLine
 10
193.3432952182951
 20
111.5306122448978
 30
0.0
 11
192.5668380829875
 21
108.6328347660306
 31
0.0
  0
LINE
  5
1DD
330
1F
100
AcDbEntity
  8
1
  6
Continuous
 62
     7
370
     9
100
AcDbLine
 10
194.1197523536027
 20
108.6328347660306
 30
0.0
 11
192.5668380829875
 21
108.6328347660306
 31
0.0
  0
LINE
  5
1DE
330
1F
100
AcDbEntity
  8
1
  6
Continuous
 62
     7
370
     9
100
AcDbLine
 10
193.3432952182951
 20
110.806167875181
 30
0.0
 11
193.7315237859489
 21
109.3572791357474
 31
0.0
  0
LINE
  5
1DF
330
1F
100
AcDbEntity
  8
1
  6
Continuous
 62
     7
370
     9
100
AcDbLine
 10
193.3432952182951
 20
110.806167875181
 30
0.0
 11
192.9550666506413
 21
109.3572791357474
 31
0.0
  0
LINE
  5
1E0
330
1F
100
AcDbEntity
  8
1
  6
Continuous
 62
     7
370
     9
100
AcDbLine
 10
193.7315237859489
 20
109.3572791357474
 30
0.0
 11
192.9550666506413
 21
109.3572791357474
 31
0.0
  0
POLYLINE
  5
1E1
330
1F
100
AcDbEntity
  8
1
  6
Continuous
 62
     7
370
     9
100
AcDb2dPolyline
 66
     1
 10
0.0
 20
0.0
 30
0.0
  0
VERTEX
  5
1E3
330
1E1
100
AcDbEntity
  8
1
  6
Continuous
 62
     7
370
     9
100
AcDbVertex
100
AcDb2dVertex
 10
193.3432952182951
 20
111.5306122448978
 30
0.0
  0
VERTEX
  5
1E4
330
1E1
100
AcDbEntity
  8
1
  6
Continuous
 62
     7
370
     9
100
AcDbVertex
100
AcDb2dVertex
 10
193.3432952182951
 20
108.7411317567566
 30
0.0
  0
SEQEND
  5
1E2
330
1E1
100
AcDbEntity
  8
1
  6
Continuous
370
     9
  0
LINE
  5
1E5
330
1F
100
AcDbEntity
  8
1
  6
Continuous
 62
     7
370
     9
100
AcDbLine
 10
193.3432952182951
 20
71.53061224489784
 30
0.0
 11
192.5668380829875
 21
74.42838972376505
 31
0.0
  0
LINE
  5
1E6
330
1F
100
AcDbEntity
  8
1
  6
Continuous
 62
     7
370
     9
100
AcDbLine
 10
193.3432952182951
 20
71.53061224489784
 30
0.0
 11
194.1197523536027
 21
74.42838972376504
 31
0.0
  0
LINE
  5
1E7
330
1F
100
AcDbEntity
  8
1
  6
Continuous
 62
     7
370
     9
100
AcDbLine
 10
192.5668380829875
 20
74.42838972376505
 30
0.0
 11
194.1197523536027
 21
74.42838972376504
 31
0.0
  0
LINE
  5
1E8
330
1F
100
AcDbEntity
  8
1
  6
Continuous
 62
     7
370
     9
100
AcDbLine
 10
193.3432952182951
 20
72.25505661461465
 30
0.0
 11
192.9550666506413
 21
73.70394535404824
 31
0.0
  0
LINE
  5
1E9
330
1F
100
AcDbEntity
  8
1
  6
Continuous
 62
     7
370
     9
100
AcDbLine
 10
193.3432952182951
 20
72.25505661461465
 30
0.0
 11
193.7315237859489
 21
73.70394535404824
 31
0.0
  0
LINE
  5
1EA
330
1F
100
AcDbEntity
  8
1
  6
Continuous
 62
     7
370
     9
100
AcDbLine
 10
192.9550666506413
 20
73.70394535404824
 30
0.0
 11
193.7315237859489
 21
73.70394535404824
 31
0.0
  0
POLYLINE
  5
1EB
330
1F
100
AcDbEntity
  8
1
  6
Continuous
 62
     7
370
     9
100
AcDb2dPolyline
 66
     1
 10
0.0
 20
0.0
 30
0.0
  0
VERTEX
  5
1ED
330
1EB
100
AcDbEntity
  8
1
  6
Continuous
 62
     7
370
     9
100
AcDbVertex
100
AcDb2dVertex
 10
193.3432952182951
 20
71.53061224489784
 30
0.0
  0
VERTEX
  5
1EE
330
1EB
100
AcDbEntity
  8
1
  6
Continuous
 62
     7
370
     9
100
AcDbVertex
100
AcDb2dVertex
 10
193.3432952182951
 20
74.7034498440747
 30
0.0
  0
SEQEND
  5
1EC
330
1EB
100
AcDbEntity
  8
1
  6
Continuous
370
     9
  0
LINE
  5
1EF
330
1F
100
AcDbEntity
  8
1
  6
Continuous
 62
     7
370
     9
100
AcDbLine
 10
23.15488565488539
 20
230.5306122448978
 30
0.0
 11
23.93134279019296
 21
227.6328347660306
 31
0.0
  0
LINE
  5
1F0
330
1F
100
AcDbEntity
  8
1
  6
Continuous
 62
     7
370
     9
100
AcDbLine
 10
23.15488565488539
 20
230.5306122448978
 30
0.0
 11
22.37842851957783
 21
227.6328347660306
 31
0.0
  0
LINE
  5
1F1
330
1F
100
AcDbEntity
  8
1
  6
Continuous
 62
     7
370
     9
100
AcDbLine
 10
23.93134279019296
 20
227.6328347660306
 30
0.0
 11
22.37842851957783
 21
227.6328347660306
 31
0.0
  0
LINE
  5
1F2
330
1F
100
AcDbEntity
  8
1
  6
Continuous
 62
     7
370
     9
100
AcDbLine
 10
23.15488565488539
 20
229.806167875181
 30
0.0
 11
23.54311422253917
 21
228.3572791357474
 31
0.0
  0
LINE
  5
1F3
330
1F
100
AcDbEntity
  8
1
  6
Continuous
 62
     7
370
     9
100
AcDbLine
 10
23.15488565488539
 20
229.806167875181
 30
0.0
 11
22.76665708723161
 21
228.3572791357474
 31
0.0
  0
LINE
  5
1F4
330
1F
100
AcDbEntity
  8
1
  6
Continuous
 62
     7
370
     9
100
AcDbLine
 10
23.54311422253917
 20
228.3572791357474
 30
0.0
 11
22.76665708723161
 21
228.3572791357474
 31
0.0
  0
POLYLINE
  5
1F5
330
1F
100
AcDbEntity
  8
1
  6
Continuous
 62
     7
370
     9
100
AcDb2dPolyline
 66
     1
 10
0.0
 20
0.0
 30
0.0
  0
VERTEX
  5
1F7
330
1F5
100
AcDbEntity
  8
1
  6
Continuous
 62
     7
370
     9
100
AcDbVertex
100
AcDb2dVertex
 10
23.15488565488539
 20
230.5306122448978
 30
0.0
  0
VERTEX
  5
1F8
330
1F5
100
AcDbEntity
  8
1
  6
Continuous
 62
     7
370
     9
100
AcDbVertex
100
AcDb2dVertex
 10
23.15488565488539
 20
226.3679508835757
 30
0.0
  0
SEQEND
  5
1F6
330
1F5
100
AcDbEntity
  8
1
  6
Continuous
370
     9
  0
LINE
  5
1F9
330
1F
100
AcDbEntity
  8
1
  6
Continuous
 62
     7
370
     9
100
AcDbLine
 10
23.15488565488539
 20
41.53061224489784
 30
0.0
 11
22.37842851957783
 21
44.42838972376504
 31
0.0
  0
LINE
  5
1FA
330
1F
100
AcDbEntity
  8
1
  6
Continuous
 62
     7
370
     9
100
AcDbLine
 10
23.15488565488539
 20
41.53061224489784
 30
0.0
 11
23.93134279019296
 21
44.42838972376504
 31
0.0
  0
LINE
  5
1FB
330
1F
100
AcDbEntity
  8
1
  6
Continuous
 62
     7
370
     9
100
AcDbLine
 10
22.37842851957783
 20
44.42838972376504
 30
0.0
 11
23.93134279019296
 21
44.42838972376504
 31
0.0
  0
LINE
  5
1FC
330
1F
100
AcDbEntity
  8
1
  6
Continuous
 62
     7
370
     9
100
AcDbLine
 10
23.15488565488539
 20
42.25505661461464
 30
0.0
 11
22.76665708723161
 21
43.70394535404824
 31
0.0
  0
LINE
  5
1FD
330
1F
100
AcDbEntity
  8
1
  6
Continuous
 62
     7
370
     9
100
AcDbLine
 10
23.15488565488539
 20
42.25505661461464
 30
0.0
 11
23.54311422253917
 21
43.70394535404824
 31
0.0
  0
LINE
  5
1FE
330
1F
100
AcDbEntity
  8
1
  6
Continuous
 62
     7
370
     9
100
AcDbLine
 10
22.76665708723161
 20
43.70394535404824
 30
0.0
 11
23.54311422253917
 21
43.70394535404824
 31
0.0
  0
POLYLINE
  5
1FF
330
1F
100
AcDbEntity
  8
1
  6
Continuous
 62
     7
370
     9
100
AcDb2dPolyline
 66
     1
 10
0.0
 20
0.0
 30
0.0
  0
VERTEX
  5
201
330
1FF
100
AcDbEntity
  8
1
  6
Continuous
 62
     7
370
     9
100
AcDbVertex
100
AcDb2dVertex
 10
23.15488565488539
 20
41.53061224489784
 30
0.0
  0
VERTEX
  5
202
330
1FF
100
AcDbEntity
  8
1
  6
Continuous
 62
     7
370
     9
100
AcDbVertex
100
AcDb2dVertex
 10
23.15488565488539
 20
46.22294048856527
 30
0.0
  0
SEQEND
  5
200
330
1FF
100
AcDbEntity
  8
1
  6
Continuous
370
     9
  0
LINE
  5
203
330
1F
100
AcDbEntity
  8
1
  6
Continuous
 62
     7
370
     9
100
AcDbLine
 10
77.80041580041558
 20
230.5306122448978
 30
0.0
 11
77.02395866510803
 21
233.428389723765
 31
0.0
  0
LINE
  5
204
330
1F
100
AcDbEntity
  8
1
  6
Continuous
 62
     7
370
     9
100
AcDbLine
 10
77.80041580041558
 20
230.5306122448978
 30
0.0
 11
78.57687293572315
 21
233.428389723765
 31
0.0
  0
LINE
  5
205
330
1F
100
AcDbEntity
  8
1
  6
Continuous
 62
     7
370
     9
100
AcDbLine
 10
77.02395866510803
 20
233.428389723765
 30
0.0
 11
78.57687293572315
 21
233.428389723765
 31
0.0
  0
LINE
  5
206
330
1F
100
AcDbEntity
  8
1
  6
Continuous
 62
     7
370
     9
100
AcDbLine
 10
77.80041580041558
 20
231.2550566146146
 30
0.0
 11
77.4121872327618
 21
232.7039453540482
 31
0.0
  0
LINE
  5
207
330
1F
100
AcDbEntity
  8
1
  6
Continuous
 62
     7
370
     9
100
AcDbLine
 10
77.80041580041558
 20
231.2550566146146
 30
0.0
 11
78.18864436806936
 21
232.7039453540482
 31
0.0
  0
LINE
  5
208
330
1F
100
AcDbEntity
  8
1
  6
Continuous
 62
     7
370
     9
100
AcDbLine
 10
77.4121872327618
 20
232.7039453540482
 30
0.0
 11
78.18864436806936
 21
232.7039453540482
 31
0.0
  0
POLYLINE
  5
209
330
1F
100
AcDbEntity
  8
1
  6
Continuous
 62
     7
370
     9
100
AcDb2dPolyline
 66
     1
 10
0.0
 20
0.0
 30
0.0
  0
VERTEX
  5
20B
330
209
100
AcDbEntity
  8
1
  6
Continuous
 62
     7
370
     9
100
AcDbVertex
100
AcDb2dVertex
 10
77.80041580041558
 20
230.5306122448978
 30
0.0
  0
VERTEX
  5
20C
330
209
100
AcDbEntity
  8
1
  6
Continuous
 62
     7
370
     9
100
AcDbVertex
100
AcDb2dVertex
 10
77.80041580041558
 20
232.6197700103949
 30
0.0
  0
SEQEND
  5
20A
330
209
100
AcDbEntity
  8
1
  6
Continuous
370
     9
  0
LINE
  5
20D
330
1F
100
AcDbEntity
  8
1
  6
Continuous
 62
     7
370
     9
100
AcDbLine
 10
77.80041580041558
 20
480.5306122448978
 30
0.0
 11
78.57687293572315
 21
477.6328347660306
 31
0.0
  0
LINE
  5
20E
330
1F
100
AcDbEntity
  8
1
  6
Continuous
 62
     7
370
     9
100
AcDbLine
 10
77.80041580041558
 20
480.5306122448978
 30
0.0
 11
77.02395866510803
 21
477.6328347660306
 31
0.0
  0
LINE
  5
20F
330
1F
100
AcDbEntity
  8
1
  6
Continuous
 62
     7
370
     9
100
AcDbLine
 10
78.57687293572315
 20
477.6328347660306
 30
0.0
 11
77.02395866510803
 21
477.6328347660306
 31
0.0
  0
LINE
  5
210
330
1F
100
AcDbEntity
  8
1
  6
Continuous
 62
     7
370
     9
100
AcDbLine
 10
77.80041580041558
 20
479.806167875181
 30
0.0
 11
78.18864436806936
 21
478.3572791357474
 31
0.0
  0
LINE
  5
211
330
1F
100
AcDbEntity
  8
1
  6
Continuous
 62
     7
370
     9
100
AcDbLine
 10
77.80041580041558
 20
479.806167875181
 30
0.0
 11
77.4121872327618
 21
478.3572791357474
 31
0.0
  0
LINE
  5
212
330
1F
100
AcDbEntity
  8
1
  6
Continuous
 62
     7
370
     9
100
AcDbLine
 10
78.18864436806936
 20
478.3572791357474
 30
0.0
 11
77.4121872327618
 21
478.3572791357474
 31
0.0
  0
POLYLINE
  5
213
330
1F
100
AcDbEntity
  8
1
  6
Continuous
 62
     7
370
     9
100
AcDb2dPolyline
 66
     1
 10
0.0
 20
0.0
 30
0.0
  0
VERTEX
  5
215
330
213
100
AcDbEntity
  8
1
  6
Continuous
 62
     7
370
     9
100
AcDbVertex
100
AcDb2dVertex
 10
77.80041580041558
 20
480.5306122448978
 30
0.0
  0
VERTEX
  5
216
330
213
100
AcDbEntity
  8
1
  6
Continuous
 62
     7
370
     9
100
AcDbVertex
100
AcDb2dVertex
 10
77.80041580041558
 20
476.7880392411643
 30
0.0
  0
SEQEND
  5
214
330
213
100
AcDbEntity
  8
1
  6
Continuous
370
     9
  0
LINE
  5
217
330
1F
100
AcDbEntity
  8
1
  6
Continuous
 62
     7
370
     9
100
AcDbLine
 10
285.239247661124
 20
71.53061224489784
 30
0.0
 11
296.5851416320179
 21
71.53061224489784
 31
0.0
  0
LINE
  5
218
330
1F
100
AcDbEntity
  8
1
  6
Continuous
 62
     7
370
     9
100
AcDbLine
 10
285.1486611197473
 20
65.53061224489784
 30
0.0
 11
297.1640137733901
 21
65.53061224489784
 31
0.0
  0
LINE
  5
219
330
1F
100
AcDbEntity
  8
1
  6
Continuous
 62
     7
370
     9
100
AcDbLine
 10
272.7645530145527
 20
171.5306122448978
 30
0.0
 11
273.5410101498603
 21
168.6328347660306
 31
0.0
  0
LINE
  5
21A
330
1F
100
AcDbEntity
  8
1
  6
Continuous
 62
     7
370
     9
100
AcDbLine
 10
272.7645530145527
 20
171.5306122448978
 30
0.0
 11
271.9880958792451
 21
168.6328347660306
 31
0.0
  0
LINE
  5
21B
330
1F
100
AcDbEntity
  8
1
  6
Continuous
 62
     7
370
     9
100
AcDbLine
 10
273.5410101498603
 20
168.6328347660306
 30
0.0
 11
271.9880958792451
 21
168.6328347660306
 31
0.0
  0
LINE
  5
21C
330
1F
100
AcDbEntity
  8
1
  6
Continuous
 62
     7
370
     9
100
AcDbLine
 10
272.7645530145527
 20
170.806167875181
 30
0.0
 11
273.1527815822064
 21
169.3572791357474
 31
0.0
  0
LINE
  5
21D
330
1F
100
AcDbEntity
  8
1
  6
Continuous
 62
     7
370
     9
100
AcDbLine
 10
272.7645530145527
 20
170.806167875181
 30
0.0
 11
272.3763244468989
 21
169.3572791357474
 31
0.0
  0
LINE
  5
21E
330
1F
100
AcDbEntity
  8
1
  6
Continuous
 62
     7
370
     9
100
AcDbLine
 10
273.1527815822064
 20
169.3572791357474
 30
0.0
 11
272.3763244468989
 21
169.3572791357474
 31
0.0
  0
POLYLINE
  5
21F
330
1F
100
AcDbEntity
  8
1
  6
Continuous
 62
     7
370
     9
100
AcDb2dPolyline
 66
     1
 10
0.0
 20
0.0
 30
0.0
  0
VERTEX
  5
221
330
21F
100
AcDbEntity
  8
1
  6
Continuous
 62
     7
370
     9
100
AcDbVertex
100
AcDb2dVertex
 10
272.7645530145527
 20
171.5306122448978
 30
0.0
  0
VERTEX
  5
222
330
21F
100
AcDbEntity
  8
1
  6
Continuous
 62
     7
370
     9
100
AcDbVertex
100
AcDb2dVertex
 10
272.7645530145527
 20
168.4807367463617
 30
0.0
  0
SEQEND
  5
220
330
21F
100
AcDbEntity
  8
1
  6
Continuous
370
     9
  0
LINE
  5
223
330
1F
100
AcDbEntity
  8
1
  6
Continuous
 62
     7
370
     9
100
AcDbLine
 10
272.7645530145527
 20
71.53061224489784
 30
0.0
 11
271.9880958792451
 21
74.42838972376505
 31
0.0
  0
LINE
  5
224
330
1F
100
AcDbEntity
  8
1
  6
Continuous
 62
     7
370
     9
100
AcDbLine
 10
272.7645530145527
 20
71.53061224489784
 30
0.0
 11
273.5410101498603
 21
74.42838972376504
 31
0.0
  0
LINE
  5
225
330
1F
100
AcDbEntity
  8
1
  6
Continuous
 62
     7
370
     9
100
AcDbLine
 10
271.9880958792451
 20
74.42838972376505
 30
0.0
 11
273.5410101498603
 21
74.42838972376504
 31
0.0
  0
LINE
  5
226
330
1F
100
AcDbEntity
  8
1
  6
Continuous
 62
     7
370
     9
100
AcDbLine
 10
272.7645530145527
 20
72.25505661461465
 30
0.0
 11
272.3763244468989
 21
73.70394535404824
 31
0.0
  0
LINE
  5
227
330
1F
100
AcDbEntity
  8
1
  6
Continuous
 62
     7
370
     9
100
AcDbLine
 10
272.7645530145527
 20
72.25505661461465
 30
0.0
 11
273.1527815822064
 21
73.70394535404824
 31
0.0
  0
LINE
  5
228
330
1F
100
AcDbEntity
  8
1
  6
Continuous
 62
     7
370
     9
100
AcDbLine
 10
272.3763244468989
 20
73.70394535404824
 30
0.0
 11
273.1527815822064
 21
73.70394535404824
 31
0.0
  0
POLYLINE
  5
229
330
1F
100
AcDbEntity
  8
1
  6
Continuous
 62
     7
370
     9
100
AcDb2dPolyline
 66
     1
 10
0.0
 20
0.0
 30
0.0
  0
VERTEX
  5
22B
330
229
100
AcDbEntity
  8
1
  6
Continuous
 62
     7
370
     9
100
AcDbVertex
100
AcDb2dVertex
 10
272.7645530145527
 20
71.53061224489784
 30
0.0
  0
VERTEX
  5
22C
330
229
100
AcDbEntity
  8
1
  6
Continuous
 62
     7
370
     9
100
AcDbVertex
100
AcDb2dVertex
 10
272.7645530145527
 20
74.70344984407475
 30
0.0
  0
SEQEND
  5
22A
330
229
100
AcDbEntity
  8
1
  6
Continuous
370
     9
  0
LINE
  5
22D
330
1F
100
AcDbEntity
  8
1
  6
Continuous
 62
     7
370
     9
100
AcDbLine
 10
252.8513513513511
 20
171.5306122448978
 30
0.0
 11
253.6278084866586
 21
168.6328347660306
 31
0.0
  0
LINE
  5
22E
330
1F
100
AcDbEntity
  8
1
  6
Continuous
 62
     7
370
     9
100
AcDbLine
 10
252.8513513513511
 20
171.5306122448978
 30
0.0
 11
252.0748942160435
 21
168.6328347660306
 31
0.0
  0
LINE
  5
22F
330
1F
100
AcDbEntity
  8
1
  6
Continuous
 62
     7
370
     9
100
AcDbLine
 10
253.6278084866586
 20
168.6328347660306
 30
0.0
 11
252.0748942160435
 21
168.6328347660306
 31
0.0
  0
LINE
  5
230
330
1F
100
AcDbEntity
  8
1
  6
Continuous
 62
     7
370
     9
100
AcDbLine
 10
252.8513513513511
 20
170.806167875181
 30
0.0
 11
253.2395799190049
 21
169.3572791357474
 31
0.0
  0
LINE
  5
231
330
1F
100
AcDbEntity
  8
1
  6
Continuous
 62
     7
370
     9
100
AcDbLine
 10
252.8513513513511
 20
170.806167875181
 30
0.0
 11
252.4631227836973
 21
169.3572791357474
 31
0.0
  0
LINE
  5
232
330
1F
100
AcDbEntity
  8
1
  6
Continuous
 62
     7
370
     9
100
AcDbLine
 10
253.2395799190049
 20
169.3572791357474
 30
0.0
 11
252.4631227836973
 21
169.3572791357474
 31
0.0
  0
POLYLINE
  5
233
330
1F
100
AcDbEntity
  8
1
  6
Continuous
 62
     7
370
     9
100
AcDb2dPolyline
 66
     1
 10
0.0
 20
0.0
 30
0.0
  0
VERTEX
  5
235
330
233
100
AcDbEntity
  8
1
  6
Continuous
 62
     7
370
     9
100
AcDbVertex
100
AcDb2dVertex
 10
252.8513513513511
 20
171.5306122448978
 30
0.0
  0
VERTEX
  5
236
330
233
100
AcDbEntity
  8
1
  6
Continuous
 62
     7
370
     9
100
AcDbVertex
100
AcDb2dVertex
 10
252.8513513513511
 20
168.7122856029106
 30
0.0
  0
SEQEND
  5
234
330
233
100
AcDbEntity
  8
1
  6
Continuous
370
     9
  0
LINE
  5
237
330
1F
100
AcDbEntity
  8
1
  6
Continuous
 62
     7
370
     9
100
AcDbLine
 10
252.8513513513511
 20
122.5306122448978
 30
0.0
 11
252.0748942160435
 21
125.4283897237651
 31
0.0
  0
LINE
  5
238
330
1F
100
AcDbEntity
  8
1
  6
Continuous
 62
     7
370
     9
100
AcDbLine
 10
252.8513513513511
 20
122.5306122448978
 30
0.0
 11
253.6278084866586
 21
125.428389723765
 31
0.0
  0
LINE
  5
239
330
1F
100
AcDbEntity
  8
1
  6
Continuous
 62
     7
370
     9
100
AcDbLine
 10
252.0748942160435
 20
125.4283897237651
 30
0.0
 11
253.6278084866586
 21
125.428389723765
 31
0.0
  0
LINE
  5
23A
330
1F
100
AcDbEntity
  8
1
  6
Continuous
 62
     7
370
     9
100
AcDbLine
 10
252.8513513513511
 20
123.2550566146146
 30
0.0
 11
252.4631227836973
 21
124.7039453540482
 31
0.0
  0
LINE
  5
23B
330
1F
100
AcDbEntity
  8
1
  6
Continuous
 62
     7
370
     9
100
AcDbLine
 10
252.8513513513511
 20
123.2550566146146
 30
0.0
 11
253.2395799190049
 21
124.7039453540482
 31
0.0
  0
LINE
  5
23C
330
1F
100
AcDbEntity
  8
1
  6
Continuous
 62
     7
370
     9
100
AcDbLine
 10
252.4631227836973
 20
124.7039453540482
 30
0.0
 11
253.2395799190049
 21
124.7039453540482
 31
0.0
  0
POLYLINE
  5
23D
330
1F
100
AcDbEntity
  8
1
  6
Continuous
 62
     7
370
     9
100
AcDb2dPolyline
 66
     1
 10
0.0
 20
0.0
 30
0.0
  0
VERTEX
  5
23F
330
23D
100
AcDbEntity
  8
1
  6
Continuous
 62
     7
370
     9
100
AcDbVertex
100
AcDb2dVertex
 10
252.8513513513511
 20
122.5306122448978
 30
0.0
  0
VERTEX
  5
240
330
23D
100
AcDbEntity
  8
1
  6
Continuous
 62
     7
370
     9
100
AcDbVertex
100
AcDb2dVertex
 10
252.8513513513511
 20
126.5703937110187
 30
0.0
  0
SEQEND
  5
23E
330
23D
100
AcDbEntity
  8
1
  6
Continuous
370
     9
  0
LINE
  5
241
330
1F
100
AcDbEntity
  8
1
  6
Continuous
 62
     7
370
     9
100
AcDbLine
 10
256.5667546929278
 20
230.5306122448978
 30
0.0
 11
267.0626624220386
 21
230.5306122448978
 31
0.0
  0
LINE
  5
242
330
1F
100
AcDbEntity
  8
1
  6
Continuous
 62
     7
370
     9
100
AcDbLine
 10
244.1393256237017
 20
190.5306122448978
 30
0.0
 11
267.0626624220386
 21
190.5306122448978
 31
0.0
  0
LINE
  5
243
330
1F
100
AcDbEntity
  8
1
  6
Continuous
 62
     7
370
     9
100
AcDbLine
 10
267.0626624220386
 20
230.5306122448978
 30
0.0
 11
267.8391195573461
 21
227.6328347660306
 31
0.0
  0
LINE
  5
244
330
1F
100
AcDbEntity
  8
1
  6
Continuous
 62
     7
370
     9
100
AcDbLine
 10
267.0626624220386
 20
230.5306122448978
 30
0.0
 11
266.286205286731
 21
227.6328347660306
 31
0.0
  0
LINE
  5
245
330
1F
100
AcDbEntity
  8
1
  6
Continuous
 62
     7
370
     9
100
AcDbLine
 10
267.8391195573461
 20
227.6328347660306
 30
0.0
 11
266.286205286731
 21
227.6328347660306
 31
0.0
  0
LINE
  5
246
330
1F
100
AcDbEntity
  8
1
  6
Continuous
 62
     7
370
     9
100
AcDbLine
 10
267.0626624220386
 20
229.806167875181
 30
0.0
 11
267.4508909896923
 21
228.3572791357474
 31
0.0
  0
LINE
  5
247
330
1F
100
AcDbEntity
  8
1
  6
Continuous
 62
     7
370
     9
100
AcDbLine
 10
267.0626624220386
 20
229.806167875181
 30
0.0
 11
266.6744338543848
 21
228.3572791357474
 31
0.0
  0
LINE
  5
248
330
1F
100
AcDbEntity
  8
1
  6
Continuous
 62
     7
370
     9
100
AcDbLine
 10
267.4508909896923
 20
228.3572791357474
 30
0.0
 11
266.6744338543848
 21
228.3572791357474
 31
0.0
  0
POLYLINE
  5
249
330
1F
100
AcDbEntity
  8
1
  6
Continuous
 62
     7
370
     9
100
AcDb2dPolyline
 66
     1
 10
0.0
 20
0.0
 30
0.0
  0
VERTEX
  5
24B
330
249
100
AcDbEntity
  8
1
  6
Continuous
 62
     7
370
     9
100
AcDbVertex
100
AcDb2dVertex
 10
267.0626624220386
 20
230.5306122448978
 30
0.0
  0
VERTEX
  5
24C
330
249
100
AcDbEntity
  8
1
  6
Continuous
 62
     7
370
     9
100
AcDbVertex
100
AcDb2dVertex
 10
267.0626624220386
 20
227.5256951663202
 30
0.0
  0
SEQEND
  5
24A
330
249
100
AcDbEntity
  8
1
  6
Continuous
370
     9
  0
LINE
  5
24D
330
1F
100
AcDbEntity
  8
1
  6
Continuous
 62
     7
370
     9
100
AcDbLine
 10
267.0626624220386
 20
190.5306122448978
 30
0.0
 11
266.286205286731
 21
193.428389723765
 31
0.0
  0
LINE
  5
24E
330
1F
100
AcDbEntity
  8
1
  6
Continuous
 62
     7
370
     9
100
AcDbLine
 10
267.0626624220386
 20
190.5306122448978
 30
0.0
 11
267.8391195573461
 21
193.428389723765
 31
0.0
  0
LINE
  5
24F
330
1F
100
AcDbEntity
  8
1
  6
Continuous
 62
     7
370
     9
100
AcDbLine
 10
266.286205286731
 20
193.428389723765
 30
0.0
 11
267.8391195573461
 21
193.428389723765
 31
0.0
  0
LINE
  5
250
330
1F
100
AcDbEntity
  8
1
  6
Continuous
 62
     7
370
     9
100
AcDbLine
 10
267.0626624220386
 20
191.2550566146146
 30
0.0
 11
266.6744338543848
 21
192.7039453540482
 31
0.0
  0
LINE
  5
251
330
1F
100
AcDbEntity
  8
1
  6
Continuous
 62
     7
370
     9
100
AcDbLine
 10
267.0626624220386
 20
191.2550566146146
 30
0.0
 11
267.4508909896923
 21
192.7039453540482
 31
0.0
  0
LINE
  5
252
330
1F
100
AcDbEntity
  8
1
  6
Continuous
 62
     7
370
     9
100
AcDbLine
 10
266.6744338543848
 20
192.7039453540482
 30
0.0
 11
267.4508909896923
 21
192.7039453540482
 31
0.0
  0
POLYLINE
  5
253
330
1F
100
AcDbEntity
  8
1
  6
Continuous
 62
     7
370
     9
100
AcDb2dPolyline
 66
     1
 10
0.0
 20
0.0
 30
0.0
  0
VERTEX
  5
255
330
253
100
AcDbEntity
  8
1
  6
Continuous
 62
     7
370
     9
100
AcDbVertex
100
AcDb2dVertex
 10
267.0626624220386
 20
190.5306122448978
 30
0.0
  0
VERTEX
  5
256
330
253
100
AcDbEntity
  8
1
  6
Continuous
 62
     7
370
     9
100
AcDbVertex
100
AcDb2dVertex
 10
267.0626624220386
 20
193.4880132536383
 30
0.0
  0
SEQEND
  5
254
330
253
100
AcDbEntity
  8
1
  6
Continuous
370
     9
  0
LINE
  5
257
330
1F
100
AcDbEntity
  8
1
  6
Continuous
 62
     7
370
     9
100
AcDbLine
 10
206.1653131496892
 20
216.0306122448978
 30
0.0
 11
219.8266956860718
 21
216.0306122448978
 31
0.0
  0
LINE
  5
258
330
1F
100
AcDbEntity
  8
1
  6
Continuous
 62
     7
370
     9
100
AcDbLine
 10
367.4390917359682
 20
329.0596413721414
 30
0.0
 11
351.4622206340971
 21
329.0596413721414
 31
0.0
  0
LINE
  5
259
330
1F
100
AcDbEntity
  8
1
  6
Continuous
 62
     7
370
     9
100
AcDbLine
 10
367.4390917359682
 20
189.0596413721414
 30
0.0
 11
351.4622206340971
 21
189.0596413721414
 31
0.0
  0
LINE
  5
25A
330
1F
100
AcDbEntity
  8
1
  6
Continuous
 62
     7
370
     9
100
AcDbLine
 10
386.1945491164255
 20
204.0596413721414
 30
0.0
 11
382.3739929833695
 21
204.0596413721414
 31
0.0
  0
LINE
  5
25B
330
1F
100
AcDbEntity
  8
1
  6
Continuous
 62
     7
370
     9
100
AcDbLine
 10
386.1945491164255
 20
259.0596413721414
 30
0.0
 11
382.3739929833695
 21
259.0596413721414
 31
0.0
  0
LINE
  5
25C
330
1F
100
AcDbEntity
  8
1
  6
Continuous
 62
     7
370
     9
100
AcDbLine
 10
386.1945491164255
 20
314.0596413721414
 30
0.0
 11
382.3739929833695
 21
314.0596413721414
 31
0.0
  0
LINE
  5
25D
330
1F
100
AcDbEntity
  8
1
  6
Continuous
 62
     7
370
     9
100
AcDbLine
 10
399.6243827962597
 20
259.0596413721414
 30
0.0
 11
403.7922622141391
 21
259.0596413721414
 31
0.0
  0
LINE
  5
25E
330
1F
100
AcDbEntity
  8
1
  6
Continuous
 62
     7
370
     9
100
AcDbLine
 10
399.6243827962597
 20
299.0596413721414
 30
0.0
 11
403.7922622141391
 21
299.0596413721414
 31
0.0
  0
LINE
  5
25F
330
1F
100
AcDbEntity
  8
1
  6
Continuous
 62
     7
370
     9
100
AcDbLine
 10
445.5
 20
219.0596413721414
 30
0.0
 11
458.2062435031204
 21
219.0596413721414
 31
0.0
  0
LINE
  5
260
330
1F
100
AcDbEntity
  8
1
  6
Continuous
 62
     7
370
     9
100
AcDbLine
 10
445.5
 20
259.0596413721414
 30
0.0
 11
458.2062435031204
 21
259.0596413721414
 31
0.0
  0
LINE
  5
261
330
1F
100
AcDbEntity
  8
1
  6
Continuous
 62
     7
370
     9
100
AcDbLine
 10
458.2062435031204
 20
219.0596413721414
 30
0.0
 11
457.4297863678128
 21
221.9574188510086
 31
0.0
  0
LINE
  5
262
330
1F
100
AcDbEntity
  8
1
  6
Continuous
 62
     7
370
     9
100
AcDbLine
 10
458.2062435031204
 20
219.0596413721414
 30
0.0
 11
458.982700638428
 21
221.9574188510086
 31
0.0
  0
LINE
  5
263
330
1F
100
AcDbEntity
  8
1
  6
Continuous
 62
     7
370
     9
100
AcDbLine
 10
457.4297863678128
 20
221.9574188510086
 30
0.0
 11
458.982700638428
 21
221.9574188510086
 31
0.0
  0
LINE
  5
264
330
1F
100
AcDbEntity
  8
1
  6
Continuous
 62
     7
370
     9
100
AcDbLine
 10
458.2062435031204
 20
219.7840857418582
 30
0.0
 11
457.8180149354666
 21
221.2329744812918
 31
0.0
  0
LINE
  5
265
330
1F
100
AcDbEntity
  8
1
  6
Continuous
 62
     7
370
     9
100
AcDbLine
 10
458.2062435031204
 20
219.7840857418582
 30
0.0
 11
458.5944720707741
 21
221.2329744812918
 31
0.0
  0
LINE
  5
266
330
1F
100
AcDbEntity
  8
1
  6
Continuous
 62
     7
370
     9
100
AcDbLine
 10
457.8180149354666
 20
221.2329744812918
 30
0.0
 11
458.5944720707741
 21
221.2329744812918
 31
0.0
  0
POLYLINE
  5
267
330
1F
100
AcDbEntity
  8
1
  6
Continuous
 62
     7
370
     9
100
AcDb2dPolyline
 66
     1
 10
0.0
 20
0.0
 30
0.0
  0
VERTEX
  5
269
330
267
100
AcDbEntity
  8
1
  6
Continuous
 62
     7
370
     9
100
AcDbVertex
100
AcDb2dVertex
 10
458.2062435031204
 20
219.0596413721414
 30
0.0
  0
VERTEX
  5
26A
330
267
100
AcDbEntity
  8
1
  6
Continuous
 62
     7
370
     9
100
AcDbVertex
100
AcDb2dVertex
 10
458.2062435031204
 20
225.5864734927234
 30
0.0
  0
SEQEND
  5
268
330
267
100
AcDbEntity
  8
1
  6
Continuous
370
     9
  0
LINE
  5
26B
330
1F
100
AcDbEntity
  8
1
  6
Continuous
 62
     7
370
     9
100
AcDbLine
 10
458.2062435031204
 20
259.0596413721414
 30
0.0
 11
458.982700638428
 21
256.1618638932742
 31
0.0
  0
LINE
  5
26C
330
1F
100
AcDbEntity
  8
1
  6
Continuous
 62
     7
370
     9
100
AcDbLine
 10
458.2062435031204
 20
259.0596413721414
 30
0.0
 11
457.4297863678128
 21
256.1618638932742
 31
0.0
  0
LINE
  5
26D
330
1F
100
AcDbEntity
  8
1
  6
Continuous
 62
     7
370
     9
100
AcDbLine
 10
458.982700638428
 20
256.1618638932742
 30
0.0
 11
457.4297863678128
 21
256.1618638932742
 31
0.0
  0
LINE
  5
26E
330
1F
100
AcDbEntity
  8
1
  6
Continuous
 62
     7
370
     9
100
AcDbLine
 10
458.2062435031204
 20
258.3351970024246
 30
0.0
 11
458.5944720707741
 21
256.886308262991
 31
0.0
  0
LINE
  5
26F
330
1F
100
AcDbEntity
  8
1
  6
Continuous
 62
     7
370
     9
100
AcDbLine
 10
458.2062435031204
 20
258.3351970024246
 30
0.0
 11
457.8180149354666
 21
256.886308262991
 31
0.0
  0
LINE
  5
270
330
1F
100
AcDbEntity
  8
1
  6
Continuous
 62
     7
370
     9
100
AcDbLine
 10
458.5944720707741
 20
256.886308262991
 30
0.0
 11
457.8180149354666
 21
256.886308262991
 31
0.0
  0
POLYLINE
  5
271
330
1F
100
AcDbEntity
  8
1
  6
Continuous
 62
     7
370
     9
100
AcDb2dPolyline
 66
     1
 10
0.0
 20
0.0
 30
0.0
  0
VERTEX
  5
273
330
271
100
AcDbEntity
  8
1
  6
Continuous
 62
     7
370
     9
100
AcDbVertex
100
AcDb2dVertex
 10
458.2062435031204
 20
259.0596413721414
 30
0.0
  0
VERTEX
  5
274
330
271
100
AcDbEntity
  8
1
  6
Continuous
 62
     7
370
     9
100
AcDbVertex
100
AcDb2dVertex
 10
458.2062435031204
 20
256.266696985447
 30
0.0
  0
SEQEND
  5
272
330
271
100
AcDbEntity
  8
1
  6
Continuous
370
     9
  0
LINE
  5
275
330
1F
100
AcDbEntity
  8
1
  6
Continuous
 62
     7
370
     9
100
AcDbLine
 10
403.7922622141391
 20
259.0596413721414
 30
0.0
 11
403.0158050788315
 21
261.9574188510086
 31
0.0
  0
LINE
  5
276
330
1F
100
AcDbEntity
  8
1
  6
Continuous
 62
     7
370
     9
100
AcDbLine
 10
403.7922622141391
 20
259.0596413721414
 30
0.0
 11
404.5687193494467
 21
261.9574188510086
 31
0.0
  0
LINE
  5
277
330
1F
100
AcDbEntity
  8
1
  6
Continuous
 62
     7
370
     9
100
AcDbLine
 10
403.0158050788315
 20
261.9574188510086
 30
0.0
 11
404.5687193494467
 21
261.9574188510086
 31
0.0
  0
LINE
  5
278
330
1F
100
AcDbEntity
  8
1
  6
Continuous
 62
     7
370
     9
100
AcDbLine
 10
403.7922622141391
 20
259.7840857418582
 30
0.0
 11
403.4040336464853
 21
261.2329744812918
 31
0.0
  0
LINE
  5
279
330
1F
100
AcDbEntity
  8
1
  6
Continuous
 62
     7
370
     9
100
AcDbLine
 10
403.7922622141391
 20
259.7840857418582
 30
0.0
 11
404.1804907817929
 21
261.2329744812918
 31
0.0
  0
LINE
  5
27A
330
1F
100
AcDbEntity
  8
1
  6
Continuous
 62
     7
370
     9
100
AcDbLine
 10
403.4040336464853
 20
261.2329744812918
 30
0.0
 11
404.1804907817929
 21
261.2329744812918
 31
0.0
  0
POLYLINE
  5
27B
330
1F
100
AcDbEntity
  8
1
  6
Continuous
 62
     7
370
     9
100
AcDb2dPolyline
 66
     1
 10
0.0
 20
0.0
 30
0.0
  0
VERTEX
  5
27D
330
27B
100
AcDbEntity
  8
1
  6
Continuous
 62
     7
370
     9
100
AcDbVertex
100
AcDb2dVertex
 10
403.7922622141391
 20
259.0596413721414
 30
0.0
  0
VERTEX
  5
27E
330
27B
100
AcDbEntity
  8
1
  6
Continuous
 62
     7
370
     9
100
AcDbVertex
100
AcDb2dVertex
 10
403.7922622141391
 20
261.708095114345
 30
0.0
  0
SEQEND
  5
27C
330
27B
100
AcDbEntity
  8
1
  6
Continuous
370
     9
  0
LINE
  5
27F
330
1F
100
AcDbEntity
  8
1
  6
Continuous
 62
     7
370
     9
100
AcDbLine
 10
403.7922622141391
 20
299.0596413721414
 30
0.0
 11
404.5687193494467
 21
296.1618638932742
 31
0.0
  0
LINE
  5
280
330
1F
100
AcDbEntity
  8
1
  6
Continuous
 62
     7
370
     9
100
AcDbLine
 10
403.7922622141391
 20
299.0596413721414
 30
0.0
 11
403.0158050788315
 21
296.1618638932742
 31
0.0
  0
LINE
  5
281
330
1F
100
AcDbEntity
  8
1
  6
Continuous
 62
     7
370
     9
100
AcDbLine
 10
404.5687193494467
 20
296.1618638932742
 30
0.0
 11
403.0158050788315
 21
296.1618638932742
 31
0.0
  0
LINE
  5
282
330
1F
100
AcDbEntity
  8
1
  6
Continuous
 62
     7
370
     9
100
AcDbLine
 10
403.7922622141391
 20
298.3351970024246
 30
0.0
 11
404.1804907817929
 21
296.886308262991
 31
0.0
  0
LINE
  5
283
330
1F
100
AcDbEntity
  8
1
  6
Continuous
 62
     7
370
     9
100
AcDbLine
 10
403.7922622141391
 20
298.3351970024246
 30
0.0
 11
403.4040336464853
 21
296.886308262991
 31
0.0
  0
LINE
  5
284
330
1F
100
AcDbEntity
  8
1
  6
Continuous
 62
     7
370
     9
100
AcDbLine
 10
404.1804907817929
 20
296.886308262991
 30
0.0
 11
403.4040336464853
 21
296.886308262991
 31
0.0
  0
POLYLINE
  5
285
330
1F
100
AcDbEntity
  8
1
  6
Continuous
 62
     7
370
     9
100
AcDb2dPolyline
 66
     1
 10
0.0
 20
0.0
 30
0.0
  0
VERTEX
  5
287
330
285
100
AcDbEntity
  8
1
  6
Continuous
 62
     7
370
     9
100
AcDbVertex
100
AcDb2dVertex
 10
403.7922622141391
 20
299.0596413721414
 30
0.0
  0
VERTEX
  5
288
330
285
100
AcDbEntity
  8
1
  6
Continuous
 62
     7
370
     9
100
AcDbVertex
100
AcDb2dVertex
 10
403.7922622141391
 20
296.2088747401247
 30
0.0
  0
SEQEND
  5
286
330
285
100
AcDbEntity
  8
1
  6
Continuous
370
     9
  0
LINE
  5
289
330
1F
100
AcDbEntity
  8
1
  6
Continuous
 62
     7
370
     9
100
AcDbLine
 10
382.3739929833695
 20
314.0596413721414
 30
0.0
 11
383.1504501186771
 21
311.1618638932742
 31
0.0
  0
LINE
  5
28A
330
1F
100
AcDbEntity
  8
1
  6
Continuous
 62
     7
370
     9
100
AcDbLine
 10
382.3739929833695
 20
314.0596413721414
 30
0.0
 11
381.597535848062
 21
311.1618638932742
 31
0.0
  0
LINE
  5
28B
330
1F
100
AcDbEntity
  8
1
  6
Continuous
 62
     7
370
     9
100
AcDbLine
 10
383.1504501186771
 20
311.1618638932742
 30
0.0
 11
381.597535848062
 21
311.1618638932742
 31
0.0
  0
LINE
  5
28C
330
1F
100
AcDbEntity
  8
1
  6
Continuous
 62
     7
370
     9
100
AcDbLine
 10
382.3739929833695
 20
313.3351970024246
 30
0.0
 11
382.7622215510233
 21
311.886308262991
 31
0.0
  0
LINE
  5
28D
330
1F
100
AcDbEntity
  8
1
  6
Continuous
 62
     7
370
     9
100
AcDbLine
 10
382.3739929833695
 20
313.3351970024246
 30
0.0
 11
381.9857644157158
 21
311.886308262991
 31
0.0
  0
LINE
  5
28E
330
1F
100
AcDbEntity
  8
1
  6
Continuous
 62
     7
370
     9
100
AcDbLine
 10
382.7622215510233
 20
311.886308262991
 30
0.0
 11
381.9857644157158
 21
311.886308262991
 31
0.0
  0
POLYLINE
  5
28F
330
1F
100
AcDbEntity
  8
1
  6
Continuous
 62
     7
370
     9
100
AcDb2dPolyline
 66
     1
 10
0.0
 20
0.0
 30
0.0
  0
VERTEX
  5
291
330
28F
100
AcDbEntity
  8
1
  6
Continuous
 62
     7
370
     9
100
AcDbVertex
100
AcDb2dVertex
 10
382.3739929833695
 20
314.0596413721414
 30
0.0
  0
VERTEX
  5
292
330
28F
100
AcDbEntity
  8
1
  6
Continuous
 62
     7
370
     9
100
AcDbVertex
100
AcDb2dVertex
 10
382.3739929833695
 20
311.7226481288981
 30
0.0
  0
SEQEND
  5
290
330
28F
100
AcDbEntity
  8
1
  6
Continuous
370
     9
  0
LINE
  5
293
330
1F
100
AcDbEntity
  8
1
  6
Continuous
 62
     7
370
     9
100
AcDbLine
 10
382.3739929833695
 20
259.0596413721414
 30
0.0
 11
381.597535848062
 21
261.9574188510086
 31
0.0
  0
LINE
  5
294
330
1F
100
AcDbEntity
  8
1
  6
Continuous
 62
     7
370
     9
100
AcDbLine
 10
382.3739929833695
 20
259.0596413721414
 30
0.0
 11
383.1504501186771
 21
261.9574188510086
 31
0.0
  0
LINE
  5
295
330
1F
100
AcDbEntity
  8
1
  6
Continuous
 62
     7
370
     9
100
AcDbLine
 10
381.597535848062
 20
261.9574188510086
 30
0.0
 11
383.1504501186771
 21
261.9574188510086
 31
0.0
  0
LINE
  5
296
330
1F
100
AcDbEntity
  8
1
  6
Continuous
 62
     7
370
     9
100
AcDbLine
 10
382.3739929833695
 20
259.7840857418582
 30
0.0
 11
381.9857644157158
 21
261.2329744812918
 31
0.0
  0
LINE
  5
297
330
1F
100
AcDbEntity
  8
1
  6
Continuous
 62
     7
370
     9
100
AcDbLine
 10
382.3739929833695
 20
259.7840857418582
 30
0.0
 11
382.7622215510233
 21
261.2329744812918
 31
0.0
  0
LINE
  5
298
330
1F
100
AcDbEntity
  8
1
  6
Continuous
 62
     7
370
     9
100
AcDbLine
 10
381.9857644157158
 20
261.2329744812918
 30
0.0
 11
382.7622215510233
 21
261.2329744812918
 31
0.0
  0
POLYLINE
  5
299
330
1F
100
AcDbEntity
  8
1
  6
Continuous
 62
     7
370
     9
100
AcDb2dPolyline
 66
     1
 10
0.0
 20
0.0
 30
0.0
  0
VERTEX
  5
29B
330
299
100
AcDbEntity
  8
1
  6
Continuous
 62
     7
370
     9
100
AcDbVertex
100
AcDb2dVertex
 10
382.3739929833695
 20
259.0596413721414
 30
0.0
  0
VERTEX
  5
29C
330
299
100
AcDbEntity
  8
1
  6
Continuous
 62
     7
370
     9
100
AcDbVertex
100
AcDb2dVertex
 10
382.3739929833695
 20
261.9396439708939
 30
0.0
  0
SEQEND
  5
29A
330
299
100
AcDbEntity
  8
1
  6
Continuous
370
     9
  0
LINE
  5
29D
330
1F
100
AcDbEntity
  8
1
  6
Continuous
 62
     7
370
     9
100
AcDbLine
 10
382.3739929833695
 20
259.0596413721414
 30
0.0
 11
383.1504501186771
 21
256.1618638932742
 31
0.0
  0
LINE
  5
29E
330
1F
100
AcDbEntity
  8
1
  6
Continuous
 62
     7
370
     9
100
AcDbLine
 10
382.3739929833695
 20
259.0596413721414
 30
0.0
 11
381.597535848062
 21
256.1618638932742
 31
0.0
  0
LINE
  5
29F
330
1F
100
AcDbEntity
  8
1
  6
Continuous
 62
     7
370
     9
100
AcDbLine
 10
383.1504501186771
 20
256.1618638932742
 30
0.0
 11
381.597535848062
 21
256.1618638932742
 31
0.0
  0
LINE
  5
2A0
330
1F
100
AcDbEntity
  8
1
  6
Continuous
 62
     7
370
     9
100
AcDbLine
 10
382.3739929833695
 20
258.3351970024246
 30
0.0
 11
382.7622215510233
 21
256.886308262991
 31
0.0
  0
LINE
  5
2A1
330
1F
100
AcDbEntity
  8
1
  6
Continuous
 62
     7
370
     9
100
AcDbLine
 10
382.3739929833695
 20
258.3351970024246
 30
0.0
 11
381.9857644157158
 21
256.886308262991
 31
0.0
  0
LINE
  5
2A2
330
1F
100
AcDbEntity
  8
1
  6
Continuous
 62
     7
370
     9
100
AcDbLine
 10
382.7622215510233
 20
256.886308262991
 30
0.0
 11
381.9857644157158
 21
256.886308262991
 31
0.0
  0
POLYLINE
  5
2A3
330
1F
100
AcDbEntity
  8
1
  6
Continuous
 62
     7
370
     9
100
AcDb2dPolyline
 66
     1
 10
0.0
 20
0.0
 30
0.0
  0
VERTEX
  5
2A5
330
2A3
100
AcDbEntity
  8
1
  6
Continuous
 62
     7
370
     9
100
AcDbVertex
100
AcDb2dVertex
 10
382.3739929833695
 20
259.0596413721414
 30
0.0
  0
VERTEX
  5
2A6
330
2A3
100
AcDbEntity
  8
1
  6
Continuous
 62
     7
370
     9
100
AcDbVertex
100
AcDb2dVertex
 10
382.3739929833695
 20
257.0771179833679
 30
0.0
  0
SEQEND
  5
2A4
330
2A3
100
AcDbEntity
  8
1
  6
Continuous
370
     9
  0
LINE
  5
2A7
330
1F
100
AcDbEntity
  8
1
  6
Continuous
 62
     7
370
     9
100
AcDbLine
 10
382.3739929833695
 20
204.0596413721414
 30
0.0
 11
381.597535848062
 21
206.9574188510086
 31
0.0
  0
LINE
  5
2A8
330
1F
100
AcDbEntity
  8
1
  6
Continuous
 62
     7
370
     9
100
AcDbLine
 10
382.3739929833695
 20
204.0596413721414
 30
0.0
 11
383.1504501186771
 21
206.9574188510086
 31
0.0
  0
LINE
  5
2A9
330
1F
100
AcDbEntity
  8
1
  6
Continuous
 62
     7
370
     9
100
AcDbLine
 10
381.597535848062
 20
206.9574188510086
 30
0.0
 11
383.1504501186771
 21
206.9574188510086
 31
0.0
  0
LINE
  5
2AA
330
1F
100
AcDbEntity
  8
1
  6
Continuous
 62
     7
370
     9
100
AcDbLine
 10
382.3739929833695
 20
204.7840857418582
 30
0.0
 11
381.9857644157158
 21
206.2329744812918
 31
0.0
  0
LINE
  5
2AB
330
1F
100
AcDbEntity
  8
1
  6
Continuous
 62
     7
370
     9
100
AcDbLine
 10
382.3739929833695
 20
204.7840857418582
 30
0.0
 11
382.7622215510233
 21
206.2329744812918
 31
0.0
  0
LINE
  5
2AC
330
1F
100
AcDbEntity
  8
1
  6
Continuous
 62
     7
370
     9
100
AcDbLine
 10
381.9857644157158
 20
206.2329744812918
 30
0.0
 11
382.7622215510233
 21
206.2329744812918
 31
0.0
  0
POLYLINE
  5
2AD
330
1F
100
AcDbEntity
  8
1
  6
Continuous
 62
     7
370
     9
100
AcDb2dPolyline
 66
     1
 10
0.0
 20
0.0
 30
0.0
  0
VERTEX
  5
2AF
330
2AD
100
AcDbEntity
  8
1
  6
Continuous
 62
     7
370
     9
100
AcDbVertex
100
AcDb2dVertex
 10
382.3739929833695
 20
204.0596413721414
 30
0.0
  0
VERTEX
  5
2B0
330
2AD
100
AcDbEntity
  8
1
  6
Continuous
 62
     7
370
     9
100
AcDbVertex
100
AcDb2dVertex
 10
382.3739929833695
 20
207.0625649688149
 30
0.0
  0
SEQEND
  5
2AE
330
2AD
100
AcDbEntity
  8
1
  6
Continuous
370
     9
  0
LINE
  5
2B1
330
1F
100
AcDbEntity
  8
1
  6
Continuous
 62
     7
370
     9
100
AcDbLine
 10
351.4622206340971
 20
329.0596413721414
 30
0.0
 11
352.2386777694047
 21
326.1618638932742
 31
0.0
  0
LINE
  5
2B2
330
1F
100
AcDbEntity
  8
1
  6
Continuous
 62
     7
370
     9
100
AcDbLine
 10
351.4622206340971
 20
329.0596413721414
 30
0.0
 11
350.6857634987895
 21
326.1618638932742
 31
0.0
  0
LINE
  5
2B3
330
1F
100
AcDbEntity
  8
1
  6
Continuous
 62
     7
370
     9
100
AcDbLine
 10
352.2386777694047
 20
326.1618638932742
 30
0.0
 11
350.6857634987895
 21
326.1618638932742
 31
0.0
  0
LINE
  5
2B4
330
1F
100
AcDbEntity
  8
1
  6
Continuous
 62
     7
370
     9
100
AcDbLine
 10
351.4622206340971
 20
328.3351970024246
 30
0.0
 11
351.8504492017508
 21
326.886308262991
 31
0.0
  0
LINE
  5
2B5
330
1F
100
AcDbEntity
  8
1
  6
Continuous
 62
     7
370
     9
100
AcDbLine
 10
351.4622206340971
 20
328.3351970024246
 30
0.0
 11
351.0739920664433
 21
326.886308262991
 31
0.0
  0
LINE
  5
2B6
330
1F
100
AcDbEntity
  8
1
  6
Continuous
 62
     7
370
     9
100
AcDbLine
 10
351.8504492017508
 20
326.886308262991
 30
0.0
 11
351.0739920664433
 21
326.886308262991
 31
0.0
  0
POLYLINE
  5
2B7
330
1F
100
AcDbEntity
  8
1
  6
Continuous
 62
     7
370
     9
100
AcDb2dPolyline
 66
     1
 10
0.0
 20
0.0
 30
0.0
  0
VERTEX
  5
2B9
330
2B7
100
AcDbEntity
  8
1
  6
Continuous
 62
     7
370
     9
100
AcDbVertex
100
AcDb2dVertex
 10
351.4622206340971
 20
329.0596413721414
 30
0.0
  0
VERTEX
  5
2BA
330
2B7
100
AcDbEntity
  8
1
  6
Continuous
 62
     7
370
     9
100
AcDbVertex
100
AcDb2dVertex
 10
351.4622206340971
 20
324.6893840956342
 30
0.0
  0
SEQEND
  5
2B8
330
2B7
100
AcDbEntity
  8
1
  6
Continuous
370
     9
  0
LINE
  5
2BB
330
1F
100
AcDbEntity
  8
1
  6
Continuous
 62
     7
370
     9
100
AcDbLine
 10
351.4622206340971
 20
189.0596413721414
 30
0.0
 11
350.6857634987895
 21
191.9574188510086
 31
0.0
  0
LINE
  5
2BC
330
1F
100
AcDbEntity
  8
1
  6
Continuous
 62
     7
370
     9
100
AcDbLine
 10
351.4622206340971
 20
189.0596413721414
 30
0.0
 11
352.2386777694047
 21
191.9574188510086
 31
0.0
  0
LINE
  5
2BD
330
1F
100
AcDbEntity
  8
1
  6
Continuous
 62
     7
370
     9
100
AcDbLine
 10
350.6857634987895
 20
191.9574188510086
 30
0.0
 11
352.2386777694047
 21
191.9574188510086
 31
0.0
  0
LINE
  5
2BE
330
1F
100
AcDbEntity
  8
1
  6
Continuous
 62
     7
370
     9
100
AcDbLine
 10
351.4622206340971
 20
189.7840857418582
 30
0.0
 11
351.0739920664433
 21
191.2329744812918
 31
0.0
  0
LINE
  5
2BF
330
1F
100
AcDbEntity
  8
1
  6
Continuous
 62
     7
370
     9
100
AcDbLine
 10
351.4622206340971
 20
189.7840857418582
 30
0.0
 11
351.8504492017508
 21
191.2329744812918
 31
0.0
  0
LINE
  5
2C0
330
1F
100
AcDbEntity
  8
1
  6
Continuous
 62
     7
370
     9
100
AcDbLine
 10
351.0739920664433
 20
191.2329744812918
 30
0.0
 11
351.8504492017508
 21
191.2329744812918
 31
0.0
  0
POLYLINE
  5
2C1
330
1F
100
AcDbEntity
  8
1
  6
Continuous
 62
     7
370
     9
100
AcDb2dPolyline
 66
     1
 10
0.0
 20
0.0
 30
0.0
  0
VERTEX
  5
2C3
330
2C1
100
AcDbEntity
  8
1
  6
Continuous
 62
     7
370
     9
100
AcDbVertex
100
AcDb2dVertex
 10
351.4622206340971
 20
189.0596413721414
 30
0.0
  0
VERTEX
  5
2C4
330
2C1
100
AcDbEntity
  8
1
  6
Continuous
 62
     7
370
     9
100
AcDbVertex
100
AcDb2dVertex
 10
351.4622206340971
 20
192.0118892931393
 30
0.0
  0
SEQEND
  5
2C2
330
2C1
100
AcDbEntity
  8
1
  6
Continuous
370
     9
  0
LINE
  5
2C5
330
1F
100
AcDbEntity
  8
1
  6
Continuous
 62
     7
370
     9
100
AcDbLine
 10
629.5523973492753
 20
480.5306122448978
 30
0.0
 11
630.3288544845828
 21
477.6328347660306
 31
0.0
  0
LINE
  5
2C6
330
1F
100
AcDbEntity
  8
1
  6
Continuous
 62
     7
370
     9
100
AcDbLine
 10
629.5523973492753
 20
480.5306122448978
 30
0.0
 11
628.7759402139678
 21
477.6328347660306
 31
0.0
  0
LINE
  5
2C7
330
1F
100
AcDbEntity
  8
1
  6
Continuous
 62
     7
370
     9
100
AcDbLine
 10
630.3288544845828
 20
477.6328347660306
 30
0.0
 11
628.7759402139678
 21
477.6328347660306
 31
0.0
  0
LINE
  5
2C8
330
1F
100
AcDbEntity
  8
1
  6
Continuous
 62
     7
370
     9
100
AcDbLine
 10
629.5523973492753
 20
479.806167875181
 30
0.0
 11
629.9406259169291
 21
478.3572791357474
 31
0.0
  0
LINE
  5
2C9
330
1F
100
AcDbEntity
  8
1
  6
Continuous
 62
     7
370
     9
100
AcDbLine
 10
629.5523973492753
 20
479.806167875181
 30
0.0
 11
629.1641687816216
 21
478.3572791357474
 31
0.0
  0
LINE
  5
2CA
330
1F
100
AcDbEntity
  8
1
  6
Continuous
 62
     7
370
     9
100
AcDbLine
 10
629.9406259169291
 20
478.3572791357474
 30
0.0
 11
629.1641687816216
 21
478.3572791357474
 31
0.0
  0
POLYLINE
  5
2CB
330
1F
100
AcDbEntity
  8
1
  6
Continuous
 62
     7
370
     9
100
AcDb2dPolyline
 66
     1
 10
0.0
 20
0.0
 30
0.0
  0
VERTEX
  5
2CD
330
2CB
100
AcDbEntity
  8
1
  6
Continuous
 62
     7
370
     9
100
AcDbVertex
100
AcDb2dVertex
 10
629.5523973492753
 20
480.5306122448978
 30
0.0
  0
VERTEX
  5
2CE
330
2CB
100
AcDbEntity
  8
1
  6
Continuous
 62
     7
370
     9
100
AcDbVertex
100
AcDb2dVertex
 10
629.5523973492753
 20
477.2800805613307
 30
0.0
  0
SEQEND
  5
2CC
330
2CB
100
AcDbEntity
  8
1
  6
Continuous
370
     9
  0
LINE
  5
2CF
330
1F
100
AcDbEntity
  8
1
  6
Continuous
 62
     7
370
     9
100
AcDbLine
 10
629.5523973492753
 20
450.5306122448978
 30
0.0
 11
628.7759402139678
 21
453.4283897237651
 31
0.0
  0
LINE
  5
2D0
330
1F
100
AcDbEntity
  8
1
  6
Continuous
 62
     7
370
     9
100
AcDbLine
 10
629.5523973492753
 20
450.5306122448978
 30
0.0
 11
630.3288544845828
 21
453.4283897237651
 31
0.0
  0
LINE
  5
2D1
330
1F
100
AcDbEntity
  8
1
  6
Continuous
 62
     7
370
     9
100
AcDbLine
 10
628.7759402139678
 20
453.4283897237651
 30
0.0
 11
630.3288544845828
 21
453.4283897237651
 31
0.0
  0
LINE
  5
2D2
330
1F
100
AcDbEntity
  8
1
  6
Continuous
 62
     7
370
     9
100
AcDbLine
 10
629.5523973492753
 20
451.2550566146147
 30
0.0
 11
629.1641687816216
 21
452.7039453540482
 31
0.0
  0
LINE
  5
2D3
330
1F
100
AcDbEntity
  8
1
  6
Continuous
 62
     7
370
     9
100
AcDbLine
 10
629.5523973492753
 20
451.2550566146147
 30
0.0
 11
629.9406259169291
 21
452.7039453540482
 31
0.0
  0
LINE
  5
2D4
330
1F
100
AcDbEntity
  8
1
  6
Continuous
 62
     7
370
     9
100
AcDbLine
 10
629.1641687816216
 20
452.7039453540482
 30
0.0
 11
629.9406259169291
 21
452.7039453540482
 31
0.0
  0
POLYLINE
  5
2D5
330
1F
100
AcDbEntity
  8
1
  6
Continuous
 62
     7
370
     9
100
AcDb2dPolyline
 66
     1
 10
0.0
 20
0.0
 30
0.0
  0
VERTEX
  5
2D7
330
2D5
100
AcDbEntity
  8
1
  6
Continuous
 62
     7
370
     9
100
AcDbVertex
100
AcDb2dVertex
 10
629.5523973492753
 20
450.5306122448978
 30
0.0
  0
VERTEX
  5
2D8
330
2D5
100
AcDbEntity
  8
1
  6
Continuous
 62
     7
370
     9
100
AcDbVertex
100
AcDb2dVertex
 10
629.5523973492753
 20
453.4305483367984
 30
0.0
  0
SEQEND
  5
2D6
330
2D5
100
AcDbEntity
  8
1
  6
Continuous
370
     9
  0
LINE
  5
2D9
330
1F
100
AcDbEntity
  8
1
  6
Continuous
 62
     7
370
     9
100
AcDbLine
 10
657.2500000000003
 20
275.1379287941787
 30
0.0
 11
679.2500000000003
 21
275.1379287941787
 31
0.0
  0
LINE
  5
2DA
330
1F
100
AcDbEntity
  8
1
  6
Continuous
 62
     7
370
     9
100
AcDbLine
 10
657.2500000000003
 20
275.1379287941787
 30
0.0
 11
660.1477774788675
 21
275.9143859294863
 31
0.0
  0
LINE
  5
2DB
330
1F
100
AcDbEntity
  8
1
  6
Continuous
 62
     7
370
     9
100
AcDbLine
 10
657.2500000000003
 20
275.1379287941787
 30
0.0
 11
660.1477774788675
 21
274.3614716588712
 31
0.0
  0
LINE
  5
2DC
330
1F
100
AcDbEntity
  8
1
  6
Continuous
 62
     7
370
     9
100
AcDbLine
 10
660.1477774788675
 20
275.9143859294863
 30
0.0
 11
660.1477774788675
 21
274.3614716588712
 31
0.0
  0
LINE
  5
2DD
330
1F
100
AcDbEntity
  8
1
  6
Continuous
 62
     7
370
     9
100
AcDbLine
 10
657.9744443697172
 20
275.1379287941787
 30
0.0
 11
659.4233331091508
 21
275.5261573618325
 31
0.0
  0
LINE
  5
2DE
330
1F
100
AcDbEntity
  8
1
  6
Continuous
 62
     7
370
     9
100
AcDbLine
 10
657.9744443697172
 20
275.1379287941787
 30
0.0
 11
659.4233331091508
 21
274.749700226525
 31
0.0
  0
LINE
  5
2DF
330
1F
100
AcDbEntity
  8
1
  6
Continuous
 62
     7
370
     9
100
AcDbLine
 10
659.4233331091508
 20
275.5261573618325
 30
0.0
 11
659.4233331091508
 21
274.749700226525
 31
0.0
  0
POLYLINE
  5
2E0
330
1F
100
AcDbEntity
  8
1
  6
Continuous
 62
     7
370
     9
100
AcDb2dPolyline
 66
     1
 10
0.0
 20
0.0
 30
0.0
  0
VERTEX
  5
2E2
330
2E0
100
AcDbEntity
  8
1
  6
Continuous
 62
     7
370
     9
100
AcDbVertex
100
AcDb2dVertex
 10
657.2500000000003
 20
275.1379287941787
 30
0.0
  0
VERTEX
  5
2E3
330
2E0
100
AcDbEntity
  8
1
  6
Continuous
 62
     7
370
     9
100
AcDbVertex
100
AcDb2dVertex
 10
658.9591021309802
 20
275.1379287941787
 30
0.0
  0
SEQEND
  5
2E1
330
2E0
100
AcDbEntity
  8
1
  6
Continuous
370
     9
  0
LINE
  5
2E4
330
1F
100
AcDbEntity
  8
1
  6
Continuous
 62
     7
370
     9
100
AcDbLine
 10
679.2500000000003
 20
275.1379287941787
 30
0.0
 11
676.3522225211332
 21
274.3614716588712
 31
0.0
  0
LINE
  5
2E5
330
1F
100
AcDbEntity
  8
1
  6
Continuous
 62
     7
370
     9
100
AcDbLine
 10
679.2500000000003
 20
275.1379287941787
 30
0.0
 11
676.3522225211332
 21
275.9143859294863
 31
0.0
  0
LINE
  5
2E6
330
1F
100
AcDbEntity
  8
1
  6
Continuous
 62
     7
370
     9
100
AcDbLine
 10
676.3522225211332
 20
274.3614716588712
 30
0.0
 11
676.3522225211332
 21
275.9143859294863
 31
0.0
  0
LINE
  5
2E7
330
1F
100
AcDbEntity
  8
1
  6
Continuous
 62
     7
370
     9
100
AcDbLine
 10
678.5255556302835
 20
275.1379287941787
 30
0.0
 11
677.0766668908499
 21
274.749700226525
 31
0.0
  0
LINE
  5
2E8
330
1F
100
AcDbEntity
  8
1
  6
Continuous
 62
     7
370
     9
100
AcDbLine
 10
678.5255556302835
 20
275.1379287941787
 30
0.0
 11
677.0766668908499
 21
275.5261573618325
 31
0.0
  0
LINE
  5
2E9
330
1F
100
AcDbEntity
  8
1
  6
Continuous
 62
     7
370
     9
100
AcDbLine
 10
677.0766668908499
 20
274.749700226525
 30
0.0
 11
677.0766668908499
 21
275.5261573618325
 31
0.0
  0
POLYLINE
  5
2EA
330
1F
100
AcDbEntity
  8
1
  6
Continuous
 62
     7
370
     9
100
AcDb2dPolyline
 66
     1
 10
0.0
 20
0.0
 30
0.0
  0
VERTEX
  5
2EC
330
2EA
100
AcDbEntity
  8
1
  6
Continuous
 62
     7
370
     9
100
AcDbVertex
100
AcDb2dVertex
 10
679.2500000000003
 20
275.1379287941787
 30
0.0
  0
VERTEX
  5
2ED
330
2EA
100
AcDbEntity
  8
1
  6
Continuous
 62
     7
370
     9
100
AcDbVertex
100
AcDb2dVertex
 10
676.6725896569678
 20
275.1379287941787
 30
0.0
  0
SEQEND
  5
2EB
330
2EA
100
AcDbEntity
  8
1
  6
Continuous
370
     9
  0
LINE
  5
2EE
330
1F
100
AcDbEntity
  8
1
  6
Continuous
 62
     7
370
     9
100
AcDbLine
 10
668.2500000000003
 20
275.1379287941787
 30
0.0
 11
681.5351156444938
 21
268.4230119542619
 31
0.0
  0
LINE
  5
2EF
330
1F
100
AcDbEntity
  8
1
  6
Continuous
 62
     7
370
     9
100
AcDbLine
 10
500.4999999999999
 20
204.0596413721414
 30
0.0
 11
521.5348557692338
 21
191.8961148648647
 31
0.0
  0
LINE
  5
2F0
330
1F
100
AcDbEntity
  8
1
  6
Continuous
 62
     7
370
     9
100
AcDbLine
 10
643.6768775987555
 20
188.5306122448978
 30
0.0
 11
635.4568931912711
 21
188.5306122448978
 31
0.0
  0
LINE
  5
2F1
330
1F
100
AcDbEntity
  8
1
  6
Continuous
 62
     7
370
     9
100
AcDbLine
 10
643.6768775987555
 20
172.5306122448978
 30
0.0
 11
635.4568931912711
 21
172.5306122448978
 31
0.0
  0
LINE
  5
2F2
330
1F
100
AcDbEntity
  8
1
  6
Continuous
 62
     7
370
     9
100
AcDbLine
 10
640.6667424636204
 20
188.5306122448978
 30
0.0
 11
641.4431995989279
 21
185.6328347660306
 31
0.0
  0
LINE
  5
2F3
330
1F
100
AcDbEntity
  8
1
  6
Continuous
 62
     7
370
     9
100
AcDbLine
 10
640.6667424636204
 20
188.5306122448978
 30
0.0
 11
639.8902853283129
 21
185.6328347660306
 31
0.0
  0
LINE
  5
2F4
330
1F
100
AcDbEntity
  8
1
  6
Continuous
 62
     7
370
     9
100
AcDbLine
 10
641.4431995989279
 20
185.6328347660306
 30
0.0
 11
639.8902853283129
 21
185.6328347660306
 31
0.0
  0
LINE
  5
2F5
330
1F
100
AcDbEntity
  8
1
  6
Continuous
 62
     7
370
     9
100
AcDbLine
 10
640.6667424636204
 20
187.806167875181
 30
0.0
 11
641.0549710312741
 21
186.3572791357474
 31
0.0
  0
LINE
  5
2F6
330
1F
100
AcDbEntity
  8
1
  6
Continuous
 62
     7
370
     9
100
AcDbLine
 10
640.6667424636204
 20
187.806167875181
 30
0.0
 11
640.2785138959666
 21
186.3572791357474
 31
0.0
  0
LINE
  5
2F7
330
1F
100
AcDbEntity
  8
1
  6
Continuous
 62
     7
370
     9
100
AcDbLine
 10
641.0549710312741
 20
186.3572791357474
 30
0.0
 11
640.2785138959666
 21
186.3572791357474
 31
0.0
  0
POLYLINE
  5
2F8
330
1F
100
AcDbEntity
  8
1
  6
Continuous
 62
     7
370
     9
100
AcDb2dPolyline
 66
     1
 10
0.0
 20
0.0
 30
0.0
  0
VERTEX
  5
2FA
330
2F8
100
AcDbEntity
  8
1
  6
Continuous
 62
     7
370
     9
100
AcDbVertex
100
AcDb2dVertex
 10
640.6667424636204
 20
188.5306122448978
 30
0.0
  0
VERTEX
  5
2FB
330
2F8
100
AcDbEntity
  8
1
  6
Continuous
 62
     7
370
     9
100
AcDbVertex
100
AcDb2dVertex
 10
640.6667424636204
 20
187.4387993762993
 30
0.0
  0
SEQEND
  5
2F9
330
2F8
100
AcDbEntity
  8
1
  6
Continuous
370
     9
  0
LINE
  5
2FC
330
1F
100
AcDbEntity
  8
1
  6
Continuous
 62
     7
370
     9
100
AcDbLine
 10
640.6667424636204
 20
172.5306122448978
 30
0.0
 11
639.8902853283129
 21
175.428389723765
 31
0.0
  0
LINE
  5
2FD
330
1F
100
AcDbEntity
  8
1
  6
Continuous
 62
     7
370
     9
100
AcDbLine
 10
640.6667424636204
 20
172.5306122448978
 30
0.0
 11
641.4431995989279
 21
175.428389723765
 31
0.0
  0
LINE
  5
2FE
330
1F
100
AcDbEntity
  8
1
  6
Continuous
 62
     7
370
     9
100
AcDbLine
 10
639.8902853283129
 20
175.428389723765
 30
0.0
 11
641.4431995989279
 21
175.428389723765
 31
0.0
  0
LINE
  5
2FF
330
1F
100
AcDbEntity
  8
1
  6
Continuous
 62
     7
370
     9
100
AcDbLine
 10
640.6667424636204
 20
173.2550566146146
 30
0.0
 11
640.2785138959666
 21
174.7039453540482
 31
0.0
  0
LINE
  5
300
330
1F
100
AcDbEntity
  8
1
  6
Continuous
 62
     7
370
     9
100
AcDbLine
 10
640.6667424636204
 20
173.2550566146146
 30
0.0
 11
641.0549710312741
 21
174.7039453540482
 31
0.0
  0
LINE
  5
301
330
1F
100
AcDbEntity
  8
1
  6
Continuous
 62
     7
370
     9
100
AcDbLine
 10
640.2785138959666
 20
174.7039453540482
 30
0.0
 11
641.0549710312741
 21
174.7039453540482
 31
0.0
  0
POLYLINE
  5
302
330
1F
100
AcDbEntity
  8
1
  6
Continuous
 62
     7
370
     9
100
AcDb2dPolyline
 66
     1
 10
0.0
 20
0.0
 30
0.0
  0
VERTEX
  5
304
330
302
100
AcDbEntity
  8
1
  6
Continuous
 62
     7
370
     9
100
AcDbVertex
100
AcDb2dVertex
 10
640.6667424636204
 20
172.5306122448978
 30
0.0
  0
VERTEX
  5
305
330
302
100
AcDbEntity
  8
1
  6
Continuous
 62
     7
370
     9
100
AcDbVertex
100
AcDb2dVertex
 10
640.6667424636204
 20
174.2405145530145
 30
0.0
  0
SEQEND
  5
303
330
302
100
AcDbEntity
  8
1
  6
Continuous
370
     9
  0
LINE
  5
306
330
1F
100
AcDbEntity
  8
1
  6
Continuous
 62
     7
370
     9
100
AcDbLine
 10
648.3500000000004
 20
188.5306122448978
 30
0.0
 11
648.3500000000004
 21
172.5306122448978
 31
0.0
  0
LINE
  5
307
330
1F
100
AcDbEntity
  8
1
  6
Continuous
 62
     7
370
     9
100
AcDbLine
 10
648.3500000000004
 20
170.5306122448978
 30
0.0
 11
648.3500000000004
 21
154.5306122448978
 31
0.0
  0
LINE
  5
308
330
1F
100
AcDbEntity
  8
1
  6
Continuous
 62
     7
370
     9
100
AcDbLine
 10
648.3500000000004
 20
170.5306122448978
 30
0.0
 11
688.1500000000003
 21
170.5306122448978
 31
0.0
  0
LINE
  5
309
330
1F
100
AcDbEntity
  8
1
  6
Continuous
 62
     7
370
     9
100
AcDbLine
 10
648.3500000000004
 20
154.5306122448978
 30
0.0
 11
688.1500000000003
 21
154.5306122448978
 31
0.0
  0
LINE
  5
30A
330
1F
100
AcDbEntity
  8
1
  6
Continuous
 62
     7
370
     9
100
AcDbLine
 10
688.1500000000003
 20
170.5306122448978
 30
0.0
 11
688.1500000000003
 21
154.5306122448978
 31
0.0
  0
LINE
  5
30B
330
1F
100
AcDbEntity
  8
1
  6
Continuous
 62
     7
370
     9
100
AcDbLine
 10
648.3500000000004
 20
172.5306122448978
 30
0.0
 11
688.1500000000003
 21
172.5306122448978
 31
0.0
  0
LINE
  5
30C
330
1F
100
AcDbEntity
  8
1
  6
Continuous
 62
     7
370
     9
100
AcDbLine
 10
688.1500000000003
 20
188.5306122448978
 30
0.0
 11
688.1500000000003
 21
172.5306122448978
 31
0.0
  0
LINE
  5
30D
330
1F
100
AcDbEntity
  8
1
  6
Continuous
 62
     7
370
     9
100
AcDbLine
 10
648.3500000000004
 20
188.5306122448978
 30
0.0
 11
688.1500000000003
 21
188.5306122448978
 31
0.0
  0
LINE
  5
30E
330
1F
100
AcDbEntity
  8
1
  6
Continuous
 62
     7
370
     9
100
AcDbLine
 10
232.65
 20
138.5306122448978
 30
0.0
 11
232.65
 21
122.5306122448978
 31
0.0
  0
LINE
  5
30F
330
1F
100
AcDbEntity
  8
1
  6
Continuous
 62
     7
370
     9
100
AcDbLine
 10
192.85
 20
138.5306122448978
 30
0.0
 11
232.65
 21
138.5306122448978
 31
0.0
  0
LINE
  5
310
330
1F
100
AcDbEntity
  8
1
  6
Continuous
 62
     7
370
     9
100
AcDbLine
 10
192.85
 20
138.5306122448978
 30
0.0
 11
192.85
 21
122.5306122448978
 31
0.0
  0
LINE
  5
311
330
1F
100
AcDbEntity
  8
1
  6
Continuous
 62
     7
370
     9
100
AcDbLine
 10
192.85
 20
122.5306122448978
 30
0.0
 11
232.65
 21
122.5306122448978
 31
0.0
  0
LINE
  5
312
330
1F
100
AcDbEntity
  8
1
  6
Continuous
 62
     7
370
     9
100
AcDbLine
 10
192.85
 20
188.5306122448978
 30
0.0
 11
192.85
 21
171.5306122448978
 31
0.0
  0
LINE
  5
313
330
1F
100
AcDbEntity
  8
1
  6
Continuous
 62
     7
370
     9
100
AcDbLine
 10
192.85
 20
188.5306122448978
 30
0.0
 11
232.65
 21
188.5306122448978
 31
0.0
  0
LINE
  5
314
330
1F
100
AcDbEntity
  8
1
  6
Continuous
 62
     7
370
     9
100
AcDbLine
 10
232.65
 20
188.5306122448978
 30
0.0
 11
232.65
 21
171.5306122448978
 31
0.0
  0
LINE
  5
315
330
1F
100
AcDbEntity
  8
1
  6
Continuous
 62
     7
370
     9
100
AcDbLine
 10
192.85
 20
171.5306122448978
 30
0.0
 11
232.65
 21
171.5306122448978
 31
0.0
  0
CIRCLE
  5
316
330
1F
100
AcDbEntity
  8
1
  6
Continuous
 62
     7
370
     9
100
AcDbCircle
 10
668.2500000000003
 20
180.5306122448978
 30
0.0
 40
2.5
  0
LINE
  5
317
330
1F
100
AcDbEntity
  8
1
  6
Continuous
 62
     7
370
     9
100
AcDbLine
 10
591.2889488045766
 20
71.53061224489782
 30
0.0
 11
575.0805288461567
 21
71.53061224489782
 31
0.0
  0
LINE
  5
318
330
1F
100
AcDbEntity
  8
1
  6
Continuous
 62
     7
370
     9
100
AcDbLine
 10
575.0805288461567
 20
41.53061224489784
 30
0.0
 11
585.731776247404
 21
41.53061224489784
 31
0.0
  0
LINE
  5
319
330
1F
100
AcDbEntity
  8
1
  6
Continuous
 62
     7
370
     9
100
AcDbLine
 10
575.0805288461567
 20
71.53061224489782
 30
0.0
 11
575.8569859814642
 21
68.63283476603063
 31
0.0
  0
LINE
  5
31A
330
1F
100
AcDbEntity
  8
1
  6
Continuous
 62
     7
370
     9
100
AcDbLine
 10
575.0805288461567
 20
71.53061224489782
 30
0.0
 11
574.3040717108491
 21
68.63283476603061
 31
0.0
  0
LINE
  5
31B
330
1F
100
AcDbEntity
  8
1
  6
Continuous
 62
     7
370
     9
100
AcDbLine
 10
575.8569859814642
 20
68.63283476603063
 30
0.0
 11
574.3040717108491
 21
68.63283476603061
 31
0.0
  0
LINE
  5
31C
330
1F
100
AcDbEntity
  8
1
  6
Continuous
 62
     7
370
     9
100
AcDbLine
 10
575.0805288461567
 20
70.80616787518102
 30
0.0
 11
575.4687574138104
 21
69.35727913574742
 31
0.0
  0
LINE
  5
31D
330
1F
100
AcDbEntity
  8
1
  6
Continuous
 62
     7
370
     9
100
AcDbLine
 10
575.0805288461567
 20
70.80616787518102
 30
0.0
 11
574.6923002785029
 21
69.35727913574742
 31
0.0
  0
LINE
  5
31E
330
1F
100
AcDbEntity
  8
1
  6
Continuous
 62
     7
370
     9
100
AcDbLine
 10
575.4687574138104
 20
69.35727913574742
 30
0.0
 11
574.6923002785029
 21
69.35727913574742
 31
0.0
  0
POLYLINE
  5
31F
330
1F
100
AcDbEntity
  8
1
  6
Continuous
 62
     7
370
     9
100
AcDb2dPolyline
 66
     1
 10
0.0
 20
0.0
 30
0.0
  0
VERTEX
  5
321
330
31F
100
AcDbEntity
  8
1
  6
Continuous
 62
     7
370
     9
100
AcDbVertex
100
AcDb2dVertex
 10
575.0805288461567
 20
71.53061224489782
 30
0.0
  0
VERTEX
  5
322
330
31F
100
AcDbEntity
  8
1
  6
Continuous
 62
     7
370
     9
100
AcDbVertex
100
AcDb2dVertex
 10
575.0805288461567
 20
69.05944646569654
 30
0.0
  0
SEQEND
  5
320
330
31F
100
AcDbEntity
  8
1
  6
Continuous
370
     9
  0
LINE
  5
323
330
1F
100
AcDbEntity
  8
1
  6
Continuous
 62
     7
370
     9
100
AcDbLine
 10
575.0805288461567
 20
41.53061224489784
 30
0.0
 11
574.3040717108491
 21
44.42838972376504
 31
0.0
  0
LINE
  5
324
330
1F
100
AcDbEntity
  8
1
  6
Continuous
 62
     7
370
     9
100
AcDbLine
 10
575.0805288461567
 20
41.53061224489784
 30
0.0
 11
575.8569859814642
 21
44.42838972376504
 31
0.0
  0
LINE
  5
325
330
1F
100
AcDbEntity
  8
1
  6
Continuous
 62
     7
370
     9
100
AcDbLine
 10
574.3040717108491
 20
44.42838972376504
 30
0.0
 11
575.8569859814642
 21
44.42838972376504
 31
0.0
  0
LINE
  5
326
330
1F
100
AcDbEntity
  8
1
  6
Continuous
 62
     7
370
     9
100
AcDbLine
 10
575.0805288461567
 20
42.25505661461464
 30
0.0
 11
574.6923002785029
 21
43.70394535404824
 31
0.0
  0
LINE
  5
327
330
1F
100
AcDbEntity
  8
1
  6
Continuous
 62
     7
370
     9
100
AcDbLine
 10
575.0805288461567
 20
42.25505661461464
 30
0.0
 11
575.4687574138104
 21
43.70394535404824
 31
0.0
  0
LINE
  5
328
330
1F
100
AcDbEntity
  8
1
  6
Continuous
 62
     7
370
     9
100
AcDbLine
 10
574.6923002785029
 20
43.70394535404824
 30
0.0
 11
575.4687574138104
 21
43.70394535404824
 31
0.0
  0
POLYLINE
  5
329
330
1F
100
AcDbEntity
  8
1
  6
Continuous
 62
     7
370
     9
100
AcDb2dPolyline
 66
     1
 10
0.0
 20
0.0
 30
0.0
  0
VERTEX
  5
32B
330
329
100
AcDbEntity
  8
1
  6
Continuous
 62
     7
370
     9
100
AcDbVertex
100
AcDb2dVertex
 10
575.0805288461567
 20
41.53061224489784
 30
0.0
  0
VERTEX
  5
32C
330
329
100
AcDbEntity
  8
1
  6
Continuous
 62
     7
370
     9
100
AcDbVertex
100
AcDb2dVertex
 10
575.0805288461567
 20
43.24174896049903
 30
0.0
  0
SEQEND
  5
32A
330
329
100
AcDbEntity
  8
1
  6
Continuous
370
     9
  0
TEXT
  5
32D
330
1F
100
AcDbEntity
  8
1
  6
Continuous
 62
     7
370
     9
100
AcDbText
 10
68.83538597125502
 20
341.7465768294579
 30
0.0
 40
10.5
  1
250
 41
0.5
100
AcDbText
  0
TEXT
  5
32E
330
1F
100
AcDbEntity
  8
1
  6
Continuous
 62
     7
370
     9
100
AcDbText
 10
14.18985582572483
 20
118.5334791163602
 30
0.0
 40
10.5
  1
189
 41
0.5
100
AcDbText
  0
TEXT
  5
32F
330
1F
100
AcDbEntity
  8
1
  6
Continuous
 62
     7
370
     9
100
AcDbText
 10
186.8384719899688
 20
84.0326994905806
 30
0.0
 40
10.5
  1
40
 41
0.5
100
AcDbText
  0
TEXT
  5
330
330
1F
100
AcDbEntity
  8
1
  6
Continuous
 62
     7
370
     9
100
AcDbText
 10
263.7995231853921
 20
116.6810882639694
 30
0.0
 40
10.5
  1
100
 41
0.5
100
AcDbText
  0
TEXT
  5
331
330
1F
100
AcDbEntity
  8
1
  6
Continuous
 62
     7
370
     9
100
AcDbText
 10
237.5476715741684
 20
141.2252670581482
 30
0.0
 40
10.5
  1
50～60
 41
0.6
100
AcDbText
  0
TEXT
  5
332
330
1F
100
AcDbEntity
  8
1
  6
Continuous
 62
     7
370
     9
100
AcDbText
 10
295.7243217820685
 20
65.03555811843923
 30
0.0
 40
7.5
  1
6
 41
0.5
100
AcDbText
  0
LINE
  5
333
330
1F
100
AcDbEntity
  8
1
  6
Continuous
 62
     7
370
     9
100
AcDbLine
 10
23.15488565488539
 20
230.5306122448978
 30
0.0
 11
23.15488565488539
 21
129.3200363825367
 31
0.0
  0
LINE
  5
334
330
1F
100
AcDbEntity
  8
1
  6
Continuous
 62
     7
370
     9
100
AcDbLine
 10
23.15488565488539
 20
118.2056912681916
 30
0.0
 11
23.15488565488539
 21
41.53061224489784
 31
0.0
  0
LINE
  5
335
330
1F
100
AcDbEntity
  8
1
  6
Continuous
 62
     7
370
     9
100
AcDbLine
 10
193.3432952182951
 20
111.5306122448978
 30
0.0
 11
193.3432952182951
 21
93.89306133056164
 31
0.0
  0
LINE
  5
336
330
1F
100
AcDbEntity
  8
1
  6
Continuous
 62
     7
370
     9
100
AcDbLine
 10
193.3432952182951
 20
83.9364604989608
 30
0.0
 11
193.3432952182951
 21
71.53061224489784
 31
0.0
  0
LINE
  5
337
330
1F
100
AcDbEntity
  8
1
  6
Continuous
 62
     7
370
     9
100
AcDbLine
 10
272.7645530145527
 20
71.53061224489784
 30
0.0
 11
272.7645530145527
 21
116.1217515592519
 31
0.0
  0
LINE
  5
338
330
1F
100
AcDbEntity
  8
1
  6
Continuous
 62
     7
370
     9
100
AcDbLine
 10
272.7645530145527
 20
126.5414501039504
 30
0.0
 11
272.7645530145527
 21
171.5306122448978
 31
0.0
  0
LINE
  5
339
330
1F
100
AcDbEntity
  8
1
  6
Continuous
 62
     7
370
     9
100
AcDbLine
 10
252.8513513513511
 20
171.5306122448978
 30
0.0
 11
252.8513513513511
 21
153.1695686070689
 31
0.0
  0
LINE
  5
33A
330
1F
100
AcDbEntity
  8
1
  6
Continuous
 62
     7
370
     9
100
AcDbLine
 10
252.8513513513511
 20
140.6659303534307
 30
0.0
 11
252.8513513513511
 21
122.5306122448978
 31
0.0
  0
TEXT
  5
33B
330
1F
100
AcDbEntity
  8
1
  6
Continuous
 62
     7
370
     9
100
AcDbText
 10
262.0339631542066
 20
202.9330373284185
 30
0.0
 40
10.5
  1
40
 41
0.5
100
AcDbText
  0
LINE
  5
33C
330
1F
100
AcDbEntity
  8
1
  6
Continuous
 62
     7
370
     9
100
AcDbLine
 10
267.0626624220386
 20
190.5306122448978
 30
0.0
 11
267.0626624220386
 21
202.9330373284185
 31
0.0
  0
LINE
  5
33D
330
1F
100
AcDbEntity
  8
1
  6
Continuous
 62
     7
370
     9
100
AcDbLine
 10
267.0626624220386
 20
213.4330373284185
 30
0.0
 11
267.0626624220386
 21
230.5306122448978
 31
0.0
  0
LINE
  5
33E
330
1F
100
AcDbEntity
  8
1
  6
Continuous
 62
     7
370
     9
100
AcDbLine
 10
77.80041580041558
 20
480.5306122448978
 30
0.0
 11
77.80041580041558
 21
354.7328482328486
 31
0.0
  0
LINE
  5
33F
330
1F
100
AcDbEntity
  8
1
  6
Continuous
 62
     7
370
     9
100
AcDbLine
 10
77.80041580041558
 20
342.6923076923081
 30
0.0
 11
77.80041580041558
 21
230.5306122448978
 31
0.0
  0
TEXT
  5
340
330
1F
100
AcDbEntity
  8
1
  6
Continuous
 62
     7
370
     9
100
AcDbText
 10
452.9459953787369
 20
234.6552306756119
 30
0.0
 40
10.5
  1
40
 41
0.5
100
AcDbText
  0
TEXT
  5
341
330
1F
100
AcDbEntity
  8
1
  6
Continuous
 62
     7
370
     9
100
AcDbText
 10
398.5320140897556
 20
272.8607920061733
 30
0.0
 40
10.5
  1
40
 41
0.5
100
AcDbText
  0
TEXT
  5
342
330
1F
100
AcDbEntity
  8
1
  6
Continuous
 62
     7
370
     9
100
AcDbText
 10
346.2019725097136
 20
245.3064780768593
 30
0.0
 40
10.5
  1
140
 41
0.5
100
AcDbText
  0
TEXT
  5
343
330
1F
100
AcDbEntity
  8
1
  6
Continuous
 62
     7
370
     9
100
AcDbText
 10
377.113744858986
 20
279.8072577026389
 30
0.0
 40
10.5
  1
55
 41
0.5
100
AcDbText
  0
TEXT
  5
344
330
1F
100
AcDbEntity
  8
1
  6
Continuous
 62
     7
370
     9
100
AcDbText
 10
377.113744858986
 20
224.0039832743645
 30
0.0
 40
10.5
  1
55
 41
0.5
100
AcDbText
  0
TEXT
  5
345
330
1F
100
AcDbEntity
  8
1
  6
Continuous
 62
     7
370
     9
100
AcDbText
 10
524.6103664806101
 20
188.3454593658406
 30
0.0
 40
10.5
  1
M5Х4
 41
0.625
100
AcDbText
  0
LINE
  5
346
330
1F
100
AcDbEntity
  8
1
  6
Continuous
 62
     7
370
     9
100
AcDbLine
 10
445.5
 20
219.0596413721414
 30
0.0
 11
471.9834004677794
 21
235.0220893970898
 31
0.0
  0
TEXT
  5
347
330
1F
100
AcDbEntity
  8
1
  6
Continuous
 62
     7
370
     9
100
AcDbText
 10
475.7535577488014
 20
245.1856360810174
 30
0.0
 40
9.0
  1
締め付け
100
AcDbText
  0
TEXT
  5
348
330
1F
100
AcDbEntity
  8
1
  6
Continuous
 62
     7
370
     9
100
AcDbText
 10
481.2093464702111
 20
234.3028398232211
 30
0.0
 40
9.0
  1
ボルトM5-3
 41
0.7142857142857143
100
AcDbText
  0
TEXT
  5
349
330
1F
100
AcDbEntity
  8
1
  6
Continuous
 62
     7
370
     9
100
AcDbText
 10
685.3052729255169
 20
262.5518003221816
 30
0.0
 40
9.0
  1
22φ
 41
0.6666666666666666
100
AcDbText
  0
TEXT
  5
34A
330
1F
100
AcDbEntity
  8
1
  6
Continuous
 62
     7
370
     9
100
AcDbText
 10
636.7957874785312
 20
177.1817618182135
 30
0.0
 40
7.5
  1
14
 41
0.5
100
AcDbText
  0
TEXT
  5
34B
330
1F
100
AcDbEntity
  8
1
  6
Continuous
 62
     7
370
     9
100
AcDbText
 10
569.8202807217731
 20
50.80543857581976
 30
0.0
 40
10.5
  1
30
 41
0.5
100
AcDbText
  0
LINE
  5
34C
330
1F
100
AcDbEntity
  8
1
  6
Continuous
 62
     7
370
     9
100
AcDbLine
 10
403.7922622141391
 20
299.0596413721414
 30
0.0
 11
403.7922622141391
 21
283.3607920061733
 31
0.0
  0
LINE
  5
34D
330
1F
100
AcDbEntity
  8
1
  6
Continuous
 62
     7
370
     9
100
AcDbLine
 10
403.7922622141391
 20
273.5749740124743
 30
0.0
 11
403.7922622141391
 21
259.0596413721414
 31
0.0
  0
LINE
  5
34E
330
1F
100
AcDbEntity
  8
1
  6
Continuous
 62
     7
370
     9
100
AcDbLine
 10
458.2062435031204
 20
259.0596413721414
 30
0.0
 11
458.2062435031204
 21
243.9367203742206
 31
0.0
  0
LINE
  5
34F
330
1F
100
AcDbEntity
  8
1
  6
Continuous
 62
     7
370
     9
100
AcDbLine
 10
458.2062435031204
 20
236.2956081081084
 30
0.0
 11
458.2062435031204
 21
219.0596413721414
 31
0.0
  0
LINE
  5
350
330
1F
100
AcDbEntity
  8
1
  6
Continuous
 62
     7
370
     9
100
AcDbLine
 10
382.3739929833695
 20
224.0235187110189
 30
0.0
 11
382.3739929833695
 21
204.0596413721414
 31
0.0
  0
LINE
  5
351
330
1F
100
AcDbEntity
  8
1
  6
Continuous
 62
     7
370
     9
100
AcDbLine
 10
382.3739929833695
 20
314.0596413721414
 30
0.0
 11
382.3739929833695
 21
290.4780405405408
 31
0.0
  0
LINE
  5
352
330
1F
100
AcDbEntity
  8
1
  6
Continuous
 62
     7
370
     9
100
AcDbLine
 10
382.3739929833695
 20
279.5952442827445
 30
0.0
 11
382.3739929833695
 21
235.3694126819129
 31
0.0
  0
LINE
  5
353
330
1F
100
AcDbEntity
  8
1
  6
Continuous
 62
     7
370
     9
100
AcDbLine
 10
640.6667424636204
 20
188.5306122448978
 30
0.0
 11
640.6667424636204
 21
184.3707770270273
 31
0.0
  0
LINE
  5
354
330
1F
100
AcDbEntity
  8
1
  6
Continuous
 62
     7
370
     9
100
AcDbLine
 10
640.6667424636204
 20
177.25064968815
 30
0.0
 11
640.6667424636204
 21
172.5306122448978
 31
0.0
  0
LINE
  5
355
330
1F
100
AcDbEntity
  8
1
  6
Continuous
 62
     7
370
     9
100
AcDbLine
 10
575.0805288461567
 20
71.53061224489782
 30
0.0
 11
575.0805288461567
 21
60.9552364864867
 31
0.0
  0
LINE
  5
356
330
1F
100
AcDbEntity
  8
1
  6
Continuous
 62
     7
370
     9
100
AcDbLine
 10
575.0805288461567
 20
51.57750779625801
 30
0.0
 11
575.0805288461567
 21
41.53061224489784
 31
0.0
  0
LINE
  5
357
330
1F
100
AcDbEntity
  8
1
  6
Continuous
 62
     7
370
     9
100
AcDbLine
 10
469.4363630457427
 20
209.0307302494805
 30
0.0
 11
472.0707941384093
 21
207.5955393848248
 31
0.0
  0
LINE
  5
358
330
1F
100
AcDbEntity
  8
1
  6
Continuous
 62
     7
370
     9
100
AcDbLine
 10
469.4363630457427
 20
209.0307302494805
 30
0.0
 11
471.0002518641837
 21
206.470602955076
 31
0.0
  0
LINE
  5
359
330
1F
100
AcDbEntity
  8
1
  6
Continuous
 62
     7
370
     9
100
AcDbLine
 10
472.0707941384093
 20
207.5955393848248
 30
0.0
 11
471.0002518641837
 21
206.470602955076
 31
0.0
  0
LINE
  5
35A
330
1F
100
AcDbEntity
  8
1
  6
Continuous
 62
     7
370
     9
100
AcDbLine
 10
469.9611530346311
 20
208.531315479598
 30
0.0
 11
471.2783685809645
 21
207.8137200472701
 31
0.0
  0
LINE
  5
35B
330
1F
100
AcDbEntity
  8
1
  6
Continuous
 62
     7
370
     9
100
AcDbLine
 10
469.9611530346311
 20
208.531315479598
 30
0.0
 11
470.7430974438516
 21
207.2512518323957
 31
0.0
  0
LINE
  5
35C
330
1F
100
AcDbEntity
  8
1
  6
Continuous
 62
     7
370
     9
100
AcDbLine
 10
471.2783685809645
 20
207.8137200472701
 30
0.0
 11
470.7430974438516
 21
207.2512518323957
 31
0.0
  0
POLYLINE
  5
35D
330
1F
100
AcDbEntity
  8
1
  6
Continuous
 62
     7
370
     9
100
AcDb2dPolyline
 66
     1
 10
0.0
 20
0.0
 30
0.0
  0
VERTEX
  5
35F
330
35D
100
AcDbEntity
  8
1
  6
Continuous
 62
     7
370
     9
100
AcDbVertex
100
AcDb2dVertex
 10
469.4363630457427
 20
209.0307302494805
 30
0.0
  0
VERTEX
  5
360
330
35D
100
AcDbEntity
  8
1
  6
Continuous
 62
     7
370
     9
100
AcDbVertex
100
AcDb2dVertex
 10
613.9228495322293
 20
71.53061224489782
 30
0.0
  0
SEQEND
  5
35E
330
35D
100
AcDbEntity
  8
1
  6
Continuous
370
     9
  0
DIMENSION
  5
36A
330
1F
100
AcDbEntity
  8
1
  6
Continuous
 62
     7
370
     9
100
AcDbDimension
  2
Dim1
 10
47.74999999999981
 20
18.43707770270255
 30
0.0
 11
222.7499999999998
 21
23.68707770270255
 31
0.0
 70
   160
  1
<>
 71
     5
 42
-1.0
 73
     0
 74
     0
 75
     0
  3
Standard
100
AcDbAlignedDimension
 13
47.75
 23
41.53061224489784
 33
0.0
 14
397.75
 24
41.53061224489784
 34
0.0
100
AcDbRotatedDimension
1001
ACAD
1000
DSTYLE
1002
{
1070
   344
1005
3E
1070
   343
1005
3E
1070
   173
1070
     1
1070
   289
1070
     2
1070
   279
1070
     2
1070
   288
1070
     1
1070
    77
1070
     3
1070
   172
1070
     1
1070
   174
1070
     0
1070
    74
1070
     0
1070
    73
1070
     0
1070
   284
1070
     8
1070
    78
1070
     8
1070
   140
1040
4.0
1070
    40
1040
3.0
1070
    42
1040
2.0
1070
    44
1040
0.0
1070
    43
1040
10.0
1070
   271
1070
     2
1070
    41
1040
4.0
1002
}
  0
DIMENSION
  5
372
330
1F
100
AcDbEntity
  8
1
  6
Continuous
 62
     7
370
     9
100
AcDbDimension
  2
Dim2
 10
212.75
 20
111.5306122448978
 30
0.0
 11
177.75
 21
116.7806122448978
 31
0.0
 70
   160
  1
<>
 71
     5
 42
-1.0
 73
     0
 74
     0
 75
     0
  3
Standard
100
AcDbAlignedDimension
 13
212.75
 23
111.5306122448978
 33
0.0
 14
142.75
 24
111.5306122448978
 34
0.0
100
AcDbRotatedDimension
1001
ACAD
1000
DSTYLE
1002
{
1070
   344
1005
3E
1070
   343
1005
3E
1070
   173
1070
     1
1070
   289
1070
     2
1070
   279
1070
     2
1070
   288
1070
     1
1070
    77
1070
     3
1070
   172
1070
     1
1070
   174
1070
     0
1070
    74
1070
     0
1070
    73
1070
     0
1070
   284
1070
     8
1070
    78
1070
     8
1070
   140
1040
4.0
1070
    40
1040
3.0
1070
    42
1040
2.0
1070
    44
1040
0.0
1070
    43
1040
10.0
1070
   271
1070
     2
1070
    41
1040
4.0
1002
}
  0
DIMENSION
  5
37A
330
1F
100
AcDbEntity
  8
1
  6
Continuous
 62
     7
370
     9
100
AcDbDimension
  2
Dim3
 10
47.75000000000001
 20
111.5306122448978
 30
0.0
 11
95.25
 21
116.7806122448978
 31
0.0
 70
   160
  1
<>
 71
     5
 42
-1.0
 73
     0
 74
     0
 75
     0
  3
Standard
100
AcDbAlignedDimension
 13
47.75000000000001
 23
111.5306122448978
 33
0.0
 14
142.75
 24
111.5306122448978
 34
0.0
100
AcDbRotatedDimension
1001
ACAD
1000
DSTYLE
1002
{
1070
   344
1005
3E
1070
   343
1005
3E
1070
   173
1070
     1
1070
   289
1070
     2
1070
   279
1070
     2
1070
   288
1070
     1
1070
    77
1070
     3
1070
   172
1070
     1
1070
   174
1070
     0
1070
    74
1070
     0
1070
    73
1070
     0
1070
   284
1070
     8
1070
    78
1070
     8
1070
   140
1040
4.0
1070
    40
1040
3.0
1070
    42
1040
2.0
1070
    44
1040
0.0
1070
    43
1040
10.0
1070
   271
1070
     2
1070
    41
1040
4.0
1002
}
  0
DIMENSION
  5
384
330
1F
100
AcDbEntity
  8
1
  6
Continuous
 62
     7
370
     9
100
AcDbDimension
  2
Dim4
 10
390.5
 20
320.1741813929312
 30
0.0
 11
418.0
 21
325.4241813929312
 31
0.0
 70
   160
  1
<>
 71
     5
 42
-1.0
 73
     0
 74
     0
 75
     0
  3
Standard
100
AcDbAlignedDimension
 13
390.5
 23
314.0596413721414
 33
0.0
 14
445.5
 24
314.0596413721414
 34
0.0
100
AcDbRotatedDimension
1001
ACAD
1000
DSTYLE
1002
{
1070
   344
1005
3E
1070
   343
1005
3E
1070
   173
1070
     1
1070
   289
1070
     2
1070
   279
1070
     2
1070
   288
1070
     1
1070
    77
1070
     3
1070
   172
1070
     1
1070
   174
1070
     0
1070
    74
1070
     0
1070
    73
1070
     0
1070
   284
1070
     8
1070
    78
1070
     8
1070
   140
1040
4.0
1070
    40
1040
3.0
1070
    42
1040
2.0
1070
    44
1040
0.0
1070
    43
1040
10.0
1070
   271
1070
     2
1070
    41
1040
4.0
1002
}
  0
DIMENSION
  5
38E
330
1F
100
AcDbEntity
  8
1
  6
Continuous
 62
     7
370
     9
100
AcDbDimension
  2
Dim5
 10
445.5
 20
320.1741813929312
 30
0.0
 11
473.0
 21
325.4241813929312
 31
0.0
 70
   160
  1
<>
 71
     5
 42
-1.0
 73
     0
 74
     0
 75
     0
  3
Standard
100
AcDbAlignedDimension
 13
445.5
 23
314.0596413721414
 33
0.0
 14
500.4999999999999
 24
314.0596413721414
 34
0.0
100
AcDbRotatedDimension
1001
ACAD
1000
DSTYLE
1002
{
1070
   344
1005
3E
1070
   343
1005
3E
1070
   173
1070
     1
1070
   289
1070
     2
1070
   279
1070
     2
1070
   288
1070
     1
1070
    77
1070
     3
1070
   172
1070
     1
1070
   174
1070
     0
1070
    74
1070
     0
1070
    73
1070
     0
1070
   284
1070
     8
1070
    78
1070
     8
1070
   140
1040
4.0
1070
    40
1040
3.0
1070
    42
1040
2.0
1070
    44
1040
0.0
1070
    43
1040
10.0
1070
   271
1070
     2
1070
    41
1040
4.0
1002
}
  0
DIMENSION
  5
398
330
1F
100
AcDbEntity
  8
1
  6
Continuous
 62
     7
370
     9
100
AcDbDimension
  2
Dim6
 10
395.4999999999999
 20
289.3781834719334
 30
0.0
 11
420.5
 21
294.6281834719334
 31
0.0
 70
   160
  1
<>
 71
     5
 42
-1.0
 73
     0
 74
     0
 75
     0
  3
Standard
100
AcDbAlignedDimension
 13
395.5
 23
299.0596413721415
 33
0.0
 14
445.5
 24
299.0596413721414
 34
0.0
100
AcDbRotatedDimension
1001
ACAD
1000
DSTYLE
1002
{
1070
   344
1005
3E
1070
   343
1005
3E
1070
   173
1070
     1
1070
   289
1070
     2
1070
   279
1070
     2
1070
   288
1070
     1
1070
    77
1070
     3
1070
   172
1070
     1
1070
   174
1070
     0
1070
    74
1070
     0
1070
    73
1070
     0
1070
   284
1070
     8
1070
    78
1070
     8
1070
   140
1040
4.0
1070
    40
1040
3.0
1070
    42
1040
2.0
1070
    44
1040
0.0
1070
    43
1040
10.0
1070
   271
1070
     2
1070
    41
1040
4.0
1002
}
  0
DIMENSION
  5
3A2
330
1F
100
AcDbEntity
  8
1
  6
Continuous
 62
     7
370
     9
100
AcDbDimension
  2
Dim7
 10
445.4999999999999
 20
289.3781834719334
 30
0.0
 11
470.5
 21
294.6281834719334
 31
0.0
 70
   160
  1
<>
 71
     5
 42
-1.0
 73
     0
 74
     0
 75
     0
  3
Standard
100
AcDbAlignedDimension
 13
445.5
 23
299.0596413721414
 33
0.0
 14
495.5
 24
299.0596413721414
 34
0.0
100
AcDbRotatedDimension
1001
ACAD
1000
DSTYLE
1002
{
1070
   344
1005
3E
1070
   343
1005
3E
1070
   173
1070
     1
1070
   289
1070
     2
1070
   279
1070
     2
1070
   288
1070
     1
1070
    77
1070
     3
1070
   172
1070
     1
1070
   174
1070
     0
1070
    74
1070
     0
1070
    73
1070
     0
1070
   284
1070
     8
1070
    78
1070
     8
1070
   140
1040
4.0
1070
    40
1040
3.0
1070
    42
1040
2.0
1070
    44
1040
0.0
1070
    43
1040
10.0
1070
   271
1070
     2
1070
    41
1040
4.0
1002
}
  0
DIMENSION
  5
3AC
330
1F
100
AcDbEntity
  8
1
  6
Continuous
 62
     7
370
     9
100
AcDbDimension
  2
Dim8
 10
648.3500000000003
 20
141.4184641372141
 30
0.0
 11
668.2500000000002
 21
146.6684641372141
 31
0.0
 70
   160
  1
<>
 71
     5
 42
-1.0
 73
     0
 74
     0
 75
     0
  3
Standard
100
AcDbAlignedDimension
 13
648.3500000000004
 23
154.5306122448978
 33
0.0
 14
688.1500000000003
 24
154.5306122448978
 34
0.0
100
AcDbRotatedDimension
1001
ACAD
1000
DSTYLE
1002
{
1070
   344
1005
3E
1070
   343
1005
3E
1070
   173
1070
     1
1070
   289
1070
     2
1070
   279
1070
     2
1070
   288
1070
     1
1070
    77
1070
     3
1070
   172
1070
     1
1070
   174
1070
     0
1070
    74
1070
     0
1070
    73
1070
     0
1070
   284
1070
     8
1070
    78
1070
     8
1070
   140
1040
4.0
1070
    40
1040
3.0
1070
    42
1040
2.0
1070
    44
1040
0.0
1070
    43
1040
10.0
1070
   271
1070
     2
1070
    41
1040
4.0
1002
}
  0
DIMENSION
  5
3B6
330
1F
100
AcDbEntity
  8
1
  6
Continuous
 62
     7
370
     9
100
AcDbDimension
  2
Dim9
 10
627.2499999999999
 20
108.0754287941789
 30
0.0
 11
668.25
 21
113.3254287941789
 31
0.0
 70
   160
  1
<>
 71
     5
 42
-1.0
 73
     0
 74
     0
 75
     0
  3
Standard
100
AcDbAlignedDimension
 13
627.25
 23
120.5790670478172
 33
0.0
 14
709.25
 24
116.6427364864866
 34
0.0
100
AcDbRotatedDimension
1001
ACAD
1000
DSTYLE
1002
{
1070
   344
1005
3E
1070
   343
1005
3E
1070
   173
1070
     1
1070
   289
1070
     2
1070
   279
1070
     2
1070
   288
1070
     1
1070
    77
1070
     3
1070
   172
1070
     1
1070
   174
1070
     0
1070
    74
1070
     0
1070
    73
1070
     0
1070
   284
1070
     8
1070
    78
1070
     8
1070
   140
1040
4.0
1070
    40
1040
3.0
1070
    42
1040
2.0
1070
    44
1040
0.0
1070
    43
1040
10.0
1070
   271
1070
     2
1070
    41
1040
4.0
1002
}
  0
DIMENSION
  5
3C0
330
1F
100
AcDbEntity
  8
1
  6
Continuous
 62
     7
370
     9
100
AcDbDimension
  2
Dim10
 10
590.2499999999999
 20
17.77137474012481
 30
0.0
 11
668.2499999999999
 21
23.02137474012481
 31
0.0
 70
   160
  1
<>
 71
     5
 42
-1.0
 73
     0
 74
     0
 75
     0
  3
Standard
100
AcDbAlignedDimension
 13
590.25
 23
41.53061224489784
 33
0.0
 14
746.25
 24
41.53061224489784
 34
0.0
100
AcDbRotatedDimension
1001
ACAD
1000
DSTYLE
1002
{
1070
   344
1005
3E
1070
   343
1005
3E
1070
   173
1070
     1
1070
   289
1070
     2
1070
   279
1070
     2
1070
   288
1070
     1
1070
    77
1070
     3
1070
   172
1070
     1
1070
   174
1070
     0
1070
    74
1070
     0
1070
    73
1070
     0
1070
   284
1070
     8
1070
    78
1070
     8
1070
   140
1040
4.0
1070
    40
1040
3.0
1070
    42
1040
2.0
1070
    44
1040
0.0
1070
    43
1040
10.0
1070
   271
1070
     2
1070
    41
1040
4.0
1002
}
  0
DIMENSION
  5
3CA
330
1F
100
AcDbEntity
  8
1
  6
Continuous
 62
     7
370
     9
100
AcDbDimension
  2
Dim11
 10
657.2500000000003
 20
336.7299246361749
 30
0.0
 11
668.2500000000002
 21
341.9799246361749
 31
0.0
 70
   160
  1
<>
 71
     5
 42
-1.0
 73
     0
 74
     0
 75
     0
  3
Standard
100
AcDbAlignedDimension
 13
657.2500000000003
 23
325.5306122448978
 33
0.0
 14
679.2500000000003
 24
325.5306122448978
 34
0.0
100
AcDbRotatedDimension
1001
ACAD
1000
DSTYLE
1002
{
1070
   344
1005
3E
1070
   343
1005
3E
1070
   173
1070
     1
1070
   289
1070
     2
1070
   279
1070
     2
1070
   288
1070
     1
1070
    77
1070
     3
1070
   172
1070
     1
1070
   174
1070
     0
1070
    74
1070
     0
1070
    73
1070
     0
1070
   284
1070
     8
1070
    78
1070
     8
1070
   140
1040
4.0
1070
    40
1040
3.0
1070
    42
1040
2.0
1070
    44
1040
0.0
1070
    43
1040
10.0
1070
   271
1070
     2
1070
    41
1040
4.0
1002
}
  0
DIMENSION
  5
3D4
330
1F
100
AcDbEntity
  8
1
  6
Continuous
 62
     7
370
     9
100
AcDbDimension
  2
Dim12
 10
375.4999999999998
 20
160.0002598752602
 30
0.0
 11
445.4999999999998
 21
165.2502598752602
 31
0.0
 70
   160
  1
<>
 71
     5
 42
-1.0
 73
     0
 74
     0
 75
     0
  3
Standard
100
AcDbAlignedDimension
 13
375.5
 23
189.0596413721414
 33
0.0
 14
515.5
 24
189.0596413721414
 34
0.0
100
AcDbRotatedDimension
1001
ACAD
1000
DSTYLE
1002
{
1070
   344
1005
3E
1070
   343
1005
3E
1070
   173
1070
     1
1070
   289
1070
     2
1070
   279
1070
     2
1070
   288
1070
     1
1070
    77
1070
     3
1070
   172
1070
     1
1070
   174
1070
     0
1070
    74
1070
     0
1070
    73
1070
     0
1070
   284
1070
     8
1070
    78
1070
     8
1070
   140
1040
4.0
1070
    40
1040
3.0
1070
    42
1040
2.0
1070
    44
1040
0.0
1070
    43
1040
10.0
1070
   271
1070
     2
1070
    41
1040
4.0
1002
}
  0
TEXT
  5
3D5
330
1F
100
AcDbEntity
  8
1
  6
Continuous
 62
     7
370
     9
100
AcDbText
 10
624.6394725097118
 20
461.3415612369427
 30
0.0
 40
10.5
  1
30φ
 41
0.6666666666666666
100
AcDbText
  0
LINE
  5
3D6
330
1F
100
AcDbEntity
  8
1
  6
Continuous
 62
     7
370
     9
100
AcDbLine
 10
629.5523973492753
 20
480.5306122448978
 30
0.0
 11
629.5523973492753
 21
471.8386824324327
 31
0.0
  0
LINE
  5
3D7
330
1F
100
AcDbEntity
  8
1
  6
Continuous
 62
     7
370
     9
100
AcDbLine
 10
629.5523973492753
 20
461.3032094594597
 30
0.0
 11
629.5523973492753
 21
450.5306122448978
 31
0.0
  0
LINE
  5
3D8
330
1F
100
AcDbEntity
  8
1
  6
Continuous
 62
     7
370
     9
100
AcDbLine
 10
351.4622206340971
 20
189.0596413721414
 30
0.0
 11
351.4622206340971
 21
243.0684121621622
 31
0.0
  0
LINE
  5
3D9
330
1F
100
AcDbEntity
  8
1
  6
Continuous
 62
     7
370
     9
100
AcDbLine
 10
351.4622206340971
 20
257.4244412681913
 30
0.0
 11
351.4622206340971
 21
329.0596413721414
 31
0.0
  0
LINE
  5
3DA
330
1F
100
AcDbEntity
  8
1
  6
Continuous
 62
     7
370
     9
100
AcDbLine
 10
663.25
 20
169.4358757796258
 30
0.0
 11
663.25
 21
167.4098232848233
 31
0.0
  0
LINE
  5
3DB
330
1F
100
AcDbEntity
  8
1
  6
Continuous
 62
     7
370
     9
100
AcDbLine
 10
673.25
 20
169.4358757796258
 30
0.0
 11
673.25
 21
167.4098232848233
 31
0.0
  0
LINE
  5
3DC
330
1F
100
AcDbEntity
  8
1
  6
Continuous
 62
     7
370
     9
100
AcDbLine
 10
663.25
 20
168.2202442827443
 30
0.0
 11
673.25
 21
168.2202442827443
 31
0.0
  0
LINE
  5
3DD
330
1F
100
AcDbEntity
  8
1
  6
Continuous
 62
     7
370
     9
100
AcDbLine
 10
663.25
 20
168.2202442827443
 30
0.0
 11
666.1477774788672
 21
168.9967014180518
 31
0.0
  0
LINE
  5
3DE
330
1F
100
AcDbEntity
  8
1
  6
Continuous
 62
     7
370
     9
100
AcDbLine
 10
663.25
 20
168.2202442827443
 30
0.0
 11
666.1477774788672
 21
167.4437871474367
 31
0.0
  0
LINE
  5
3DF
330
1F
100
AcDbEntity
  8
1
  6
Continuous
 62
     7
370
     9
100
AcDbLine
 10
666.1477774788672
 20
168.9967014180518
 30
0.0
 11
666.1477774788672
 21
167.4437871474367
 31
0.0
  0
LINE
  5
3E0
330
1F
100
AcDbEntity
  8
1
  6
Continuous
 62
     7
370
     9
100
AcDbLine
 10
663.9744443697168
 20
168.2202442827443
 30
0.0
 11
665.4233331091505
 21
168.608472850398
 31
0.0
  0
LINE
  5
3E1
330
1F
100
AcDbEntity
  8
1
  6
Continuous
 62
     7
370
     9
100
AcDbLine
 10
663.9744443697168
 20
168.2202442827443
 30
0.0
 11
665.4233331091505
 21
167.8320157150905
 31
0.0
  0
LINE
  5
3E2
330
1F
100
AcDbEntity
  8
1
  6
Continuous
 62
     7
370
     9
100
AcDbLine
 10
665.4233331091505
 20
168.608472850398
 30
0.0
 11
665.4233331091505
 21
167.8320157150905
 31
0.0
  0
POLYLINE
  5
3E3
330
1F
100
AcDbEntity
  8
1
  6
Continuous
 62
     7
370
     9
100
AcDb2dPolyline
 66
     1
 10
0.0
 20
0.0
 30
0.0
  0
VERTEX
  5
3E5
330
3E3
100
AcDbEntity
  8
1
  6
Continuous
 62
     7
370
     9
100
AcDbVertex
100
AcDb2dVertex
 10
663.25
 20
168.2202442827443
 30
0.0
  0
VERTEX
  5
3E6
330
3E3
100
AcDbEntity
  8
1
  6
Continuous
 62
     7
370
     9
100
AcDbVertex
100
AcDb2dVertex
 10
665.5871881496934
 20
168.2202442827443
 30
0.0
  0
SEQEND
  5
3E4
330
3E3
100
AcDbEntity
  8
1
  6
Continuous
370
     9
  0
LINE
  5
3E7
330
1F
100
AcDbEntity
  8
1
  6
Continuous
 62
     7
370
     9
100
AcDbLine
 10
673.25
 20
168.2202442827443
 30
0.0
 11
670.3522225211328
 21
167.4437871474367
 31
0.0
  0
LINE
  5
3E8
330
1F
100
AcDbEntity
  8
1
  6
Continuous
 62
     7
370
     9
100
AcDbLine
 10
673.25
 20
168.2202442827443
 30
0.0
 11
670.3522225211328
 21
168.9967014180518
 31
0.0
  0
LINE
  5
3E9
330
1F
100
AcDbEntity
  8
1
  6
Continuous
 62
     7
370
     9
100
AcDbLine
 10
670.3522225211328
 20
167.4437871474367
 30
0.0
 11
670.3522225211328
 21
168.9967014180518
 31
0.0
  0
LINE
  5
3EA
330
1F
100
AcDbEntity
  8
1
  6
Continuous
 62
     7
370
     9
100
AcDbLine
 10
672.5255556302832
 20
168.2202442827443
 30
0.0
 11
671.0766668908495
 21
167.8320157150905
 31
0.0
  0
LINE
  5
3EB
330
1F
100
AcDbEntity
  8
1
  6
Continuous
 62
     7
370
     9
100
AcDbLine
 10
672.5255556302832
 20
168.2202442827443
 30
0.0
 11
671.0766668908495
 21
168.608472850398
 31
0.0
  0
LINE
  5
3EC
330
1F
100
AcDbEntity
  8
1
  6
Continuous
 62
     7
370
     9
100
AcDbLine
 10
671.0766668908495
 20
167.8320157150905
 30
0.0
 11
671.0766668908495
 21
168.608472850398
 31
0.0
  0
POLYLINE
  5
3ED
330
1F
100
AcDbEntity
  8
1
  6
Continuous
 62
     7
370
     9
100
AcDb2dPolyline
 66
     1
 10
0.0
 20
0.0
 30
0.0
  0
VERTEX
  5
3EF
330
3ED
100
AcDbEntity
  8
1
  6
Continuous
 62
     7
370
     9
100
AcDbVertex
100
AcDb2dVertex
 10
673.25
 20
168.2202442827443
 30
0.0
  0
VERTEX
  5
3F0
330
3ED
100
AcDbEntity
  8
1
  6
Continuous
 62
     7
370
     9
100
AcDbVertex
100
AcDb2dVertex
 10
671.7811200623752
 20
168.2202442827443
 30
0.0
  0
SEQEND
  5
3EE
330
3ED
100
AcDbEntity
  8
1
  6
Continuous
370
     9
  0
LINE
  5
3F1
330
1F
100
AcDbEntity
  8
1
  6
Continuous
 62
     7
370
     9
100
AcDbLine
 10
668.2500000000003
 20
168.2202442827443
 30
0.0
 11
710.7949876004475
 21
157.3913107235684
 31
0.0
  0
TEXT
  5
3F2
330
1F
100
AcDbEntity
  8
1
  6
Continuous
 62
     7
370
     9
100
AcDbText
 10
712.4158295962894
 20
137.860905318163
 30
0.0
 40
10.5
  1
　　-0
 41
0.75
100
AcDbText
  0
TEXT
  5
3F3
330
1F
100
AcDbEntity
  8
1
  6
Continuous
 62
     7
370
     9
100
AcDbText
 10
712.3250602777521
 20
147.4943517213709
 30
0.0
 40
10.5
  1
10φ+0.025
 41
0.5555555555555556
100
AcDbText
  0
TEXT
  5
3F4
330
1F
100
AcDbEntity
  8
1
  6
Continuous
 62
     7
370
     9
100
AcDbText
 10
769.608397163857
 20
143.8811755884333
 30
0.0
 40
10.5
  1
-25
 41
0.5
100
AcDbText
  0
VIEWPORT
  5
3B
330
1B
100
AcDbEntity
 67
     1
  8
0
100
AcDbViewport
 10
445.5
 20
315.0
 30
0.0
 40
891.0
 41
630.0
 68
     1
 69
     1
 12
445.5
 22
315.0
 13
0.0
 23
0.0
 14
0.5
 24
0.5
 15
0.5
 25
0.5
 16
0.0
 26
0.0
 36
1.0
 17
0.0
 27
0.0
 37
0.0
 42
50.0
 43
0.0
 44
0.0
 45
9.0
 50
0.0
 51
0.0
 72
   100
 90
   557152
  1

281
     0
 71
     1
 74
     0
110
0.0
120
0.0
130
0.0
111
1.0
121
0.0
131
0.0
112
0.0
122
1.0
132
0.0
 79
     0
146
0.0
170
     0
 61
     5
292
     1
282
     1
141
0.0
142
0.0
 63
   256
  0
ENDSEC
  0
SECTION
  2
OBJECTS
  0
DICTIONARY
  5
C
330
0
100
AcDbDictionary
281
     1
  3
ACAD_GROUP
350
D
  3
ACAD_LAYOUT
350
1A
  3
ACAD_MLINESTYLE
350
17
  3
ACAD_PLOTSETTINGS
350
19
  3
ACAD_PLOTSTYLENAME
350
E
  3
ACAD_TABLESTYLE
350
3F5
  3
ACAD_VISUALSTYLE
350
2A
  0
DICTIONARY
  5
D
102
{ACAD_REACTORS
330
C
102
}
330
C
100
AcDbDictionary
281
     1
  0
DICTIONARY
  5
1A
102
{ACAD_REACTORS
330
C
102
}
330
C
100
AcDbDictionary
281
     1
  3
Layout1
350
1E
  3
Layout2
350
26
  3
Model
350
22
  0
DICTIONARY
  5
17
102
{ACAD_REACTORS
330
C
102
}
330
C
100
AcDbDictionary
281
     1
  3
Standard
350
18
  0
DICTIONARY
  5
19
102
{ACAD_REACTORS
330
C
102
}
330
C
100
AcDbDictionary
281
     1
  0
ACDBDICTIONARYWDFLT
  5
E
102
{ACAD_REACTORS
330
C
102
}
330
C
100
AcDbDictionary
281
     1
  3
Normal
350
F
100
AcDbDictionaryWithDefault
340
F
  0
DICTIONARY
  5
3F5
102
{ACAD_REACTORS
330
C
102
}
330
C
100
AcDbDictionary
281
     1
  0
DICTIONARY
  5
2A
102
{ACAD_REACTORS
330
C
102
}
330
C
100
AcDbDictionary
281
     1
  3
2dWireframe
350
2F
  3
3D Hidden
350
31
  3
3dWireframe
350
30
  3
Basic
350
32
  3
Brighten
350
36
  3
ColorChange
350
3A
  3
Conceptual
350
34
  3
Dim
350
35
  3
Facepattern
350
39
  3
Flat
350
2B
  3
FlatWithEdges
350
2C
  3
Gouraud
350
2D
  3
GouraudWithEdges
350
2E
  3
Linepattern
350
38
  3
Realistic
350
33
  3
Thicken
350
37
  0
LAYOUT
  5
1E
102
{ACAD_REACTORS
330
1A
102
}
330
1A
100
AcDbPlotSettings
  1

  2
none_device
  4

  6

 40
0.0
 41
0.0
 42
0.0
 43
0.0
 44
0.0
 45
0.0
 46
0.0
 47
0.0
 48
0.0
 49
0.0
140
0.0
141
0.0
142
1.0
143
1.0
 70
   688
 72
     0
 73
     0
 74
     5
  7

 75
    16
 76
     0
 77
     2
 78
   300
147
1.0
148
0.0
149
0.0
100
AcDbLayout
  1
Layout1
 70
     1
 71
     1
 10
0.0
 20
0.0
 11
297.0
 21
210.0
 12
0.0
 22
0.0
 32
0.0
 14
0.0
 24
0.0
 34
0.0
 15
297.0
 25
210.0
 35
0.0
146
0.0
 13
0.0
 23
0.0
 33
0.0
 16
1.0
 26
0.0
 36
0.0
 17
0.0
 27
1.0
 37
0.0
 76
     0
330
1B
331
3B
  0
LAYOUT
  5
26
102
{ACAD_REACTORS
330
1A
102
}
330
1A
100
AcDbPlotSettings
  1

  2
none_device
  4

  6

 40
0.0
 41
0.0
 42
0.0
 43
0.0
 44
0.0
 45
0.0
 46
0.0
 47
0.0
 48
0.0
 49
0.0
140
0.0
141
0.0
142
1.0
143
1.0
 70
   688
 72
     0
 73
     0
 74
     5
  7

 75
    16
 76
     0
 77
     2
 78
   300
147
1.0
148
0.0
149
0.0
100
AcDbLayout
  1
Layout2
 70
     1
 71
     2
 10
0.0
 20
0.0
 11
0.0
 21
0.0
 12
0.0
 22
0.0
 32
0.0
 14
0.0
 24
0.0
 34
0.0
 15
0.0
 25
0.0
 35
0.0
146
0.0
 13
0.0
 23
0.0
 33
0.0
 16
1.0
 26
0.0
 36
0.0
 17
0.0
 27
1.0
 37
0.0
 76
     0
330
23
  0
LAYOUT
  5
22
102
{ACAD_REACTORS
330
1A
102
}
330
1A
100
AcDbPlotSettings
  1

  2
none_device
  4

  6

 40
0.0
 41
0.0
 42
0.0
 43
0.0
 44
0.0
 45
0.0
 46
0.0
 47
0.0
 48
0.0
 49
0.0
140
0.0
141
0.0
142
1.0
143
1.0
 70
  1712
 72
     0
 73
     0
 74
     0
  7

 75
     0
 76
     0
 77
     2
 78
   300
147
1.0
148
0.0
149
0.0
100
AcDbLayout
  1
Model
 70
     1
 71
     0
 10
0.0
 20
0.0
 11
891.0
 21
630.0
 12
0.0
 22
0.0
 32
0.0
 14
0.0
 24
0.0
 34
0.0
 15
891.0
 25
630.0
 35
0.0
146
0.0
 13
0.0
 23
0.0
 33
0.0
 16
1.0
 26
0.0
 36
0.0
 17
0.0
 27
1.0
 37
0.0
 76
     0
330
1F
331
29
  0
MLINESTYLE
  5
18
102
{ACAD_REACTORS
330
17
102
}
330
17
100
AcDbMlineStyle
  2
Standard
 70
     0
  3

 62
   256
 51
90.0
 52
90.0
 71
     2
 49
0.5
 62
   256
  6
BYLAYER
 49
-0.5
 62
   256
  6
BYLAYER
  0
ACDBPLACEHOLDER
  5
F
102
{ACAD_REACTORS
330
E
102
}
330
E
  0
VISUALSTYLE
  5
2F
102
{ACAD_REACTORS
330
2A
102
}
330
2A
100
AcDbVisualStyle
  2
2dWireframe
 70
     4
 71
     0
 72
     2
 73
     0
 90
        0
 40
-0.6
 41
-30.0
 62
     5
 63
     7
421
 16777215
 74
     1
 91
        4
 64
     7
 65
   257
 75
     1
175
     1
 42
1.0
 92
        0
 66
   257
 43
1.0
 76
     1
 77
     6
 78
     2
 67
     7
 79
     5
170
     0
171
     0
290
     0
174
     0
 93
        1
 44
0.0
173
     0
291
     0
 45
0.0
  0
VISUALSTYLE
  5
31
102
{ACAD_REACTORS
330
2A
102
}
330
2A
100
AcDbVisualStyle
  2
3D Hidden
 70
     6
 71
     1
 72
     2
 73
     2
 90
        0
 40
-0.6
 41
-30.0
 62
     5
 63
     7
421
 16777215
 74
     2
 91
        2
 64
     7
 65
   257
 75
     2
175
     1
 42
40.0
 92
        0
 66
   257
 43
1.0
 76
     1
 77
     6
 78
     2
 67
     7
 79
     3
170
     0
171
     0
290
     0
174
     0
 93
        1
 44
0.0
173
     0
291
     0
 45
0.0
  0
VISUALSTYLE
  5
30
102
{ACAD_REACTORS
330
2A
102
}
330
2A
100
AcDbVisualStyle
  2
3dWireframe
 70
     5
 71
     0
 72
     2
 73
     0
 90
        0
 40
-0.6
 41
-30.0
 62
     5
 63
     7
421
 16777215
 74
     1
 91
        4
 64
     7
 65
   257
 75
     1
175
     1
 42
1.0
 92
        0
 66
   257
 43
1.0
 76
     1
 77
     6
 78
     2
 67
     7
 79
     5
170
     0
171
     0
290
     0
174
     0
 93
        1
 44
0.0
173
     0
291
     0
 45
0.0
  0
VISUALSTYLE
  5
32
102
{ACAD_REACTORS
330
2A
102
}
330
2A
100
AcDbVisualStyle
  2
Basic
 70
     7
 71
     1
 72
     0
 73
     1
 90
        0
 40
-0.6
 41
-30.0
 62
     5
 63
     7
421
 16777215
 74
     0
 91
        4
 64
     7
 65
   257
 75
     1
175
     1
 42
1.0
 92
        8
 66
     7
 43
1.0
 76
     1
 77
     6
 78
     2
 67
     7
 79
     5
170
     0
171
     0
290
     0
174
     0
 93
        1
 44
0.0
173
     0
291
     1
 45
0.0
  0
VISUALSTYLE
  5
36
102
{ACAD_REACTORS
330
2A
102
}
330
2A
100
AcDbVisualStyle
  2
Brighten
 70
    12
 71
     2
 72
     2
 73
     0
 90
        0
 40
-0.6
 41
-30.0
 62
     5
 63
     7
421
 16777215
 74
     1
 91
        4
 64
     7
 65
   257
 75
     1
175
     1
 42
1.0
 92
        8
 66
     7
 43
1.0
 76
     1
 77
     6
 78
     2
 67
     7
 79
     5
170
     0
171
     0
290
     0
174
     0
 93
        1
 44
50.0
173
     0
291
     1
 45
0.0
  0
VISUALSTYLE
  5
3A
102
{ACAD_REACTORS
330
2A
102
}
330
2A
100
AcDbVisualStyle
  2
ColorChange
 70
    16
 71
     2
 72
     2
 73
     3
 90
        0
 40
-0.6
 41
-30.0
 62
     5
 63
     8
421
  8421504
 74
     1
 91
        4
 64
     7
 65
   257
 75
     1
175
     1
 42
1.0
 92
        8
 66
     8
424
  8421504
 43
1.0
 76
     1
 77
     6
 78
     2
 67
     7
 79
     5
170
     0
171
     0
290
     0
174
     0
 93
        1
 44
0.0
173
     0
291
     1
 45
0.0
  0
VISUALSTYLE
  5
34
102
{ACAD_REACTORS
330
2A
102
}
330
2A
100
AcDbVisualStyle
  2
Conceptual
 70
     9
 71
     3
 72
     2
 73
     0
 90
        0
 40
-0.6
 41
-30.0
 62
     5
 63
     7
421
 16777215
 74
     2
 91
        2
 64
     7
 65
   257
 75
     1
175
     1
 42
40.0
 92
        8
 66
     7
 43
1.0
 76
     1
 77
     6
 78
     2
 67
     7
 79
     3
170
     0
171
     0
290
     0
174
     0
 93
        1
 44
0.0
173
     0
291
     0
 45
0.0
  0
VISUALSTYLE
  5
35
102
{ACAD_REACTORS
330
2A
102
}
330
2A
100
AcDbVisualStyle
  2
Dim
 70
    11
 71
     2
 72
     2
 73
     0
 90
        0
 40
-0.6
 41
-30.0
 62
     5
 63
     7
421
 16777215
 74
     1
 91
        4
 64
     7
 65
   257
 75
     1
175
     1
 42
1.0
 92
        8
 66
     7
 43
1.0
 76
     1
 77
     6
 78
     2
 67
     7
 79
     5
170
     0
171
     0
290
     0
174
     0
 93
        1
 44
-50.0
173
     0
291
     1
 45
0.0
  0
VISUALSTYLE
  5
39
102
{ACAD_REACTORS
330
2A
102
}
330
2A
100
AcDbVisualStyle
  2
Facepattern
 70
    15
 71
     2
 72
     2
 73
     0
 90
        0
 40
-0.6
 41
-30.0
 62
     5
 63
     7
421
 16777215
 74
     1
 91
        4
 64
     7
 65
   257
 75
     1
175
     1
 42
1.0
 92
        8
 66
     7
 43
1.0
 76
     1
 77
     6
 78
     2
 67
     7
 79
     5
170
     0
171
     0
290
     0
174
     0
 93
        1
 44
0.0
173
     0
291
     1
 45
0.0
  0
VISUALSTYLE
  5
2B
102
{ACAD_REACTORS
330
2A
102
}
330
2A
100
AcDbVisualStyle
  2
Flat
 70
     0
 71
     2
 72
     1
 73
     1
 90
        2
 40
-0.6
 41
30.0
 62
     5
 63
     7
421
 16777215
 74
     0
 91
        4
 64
     7
 65
   257
 75
     1
175
     1
 42
1.0
 92
        8
 66
     7
 43
1.0
 76
     1
 77
     6
 78
     2
 67
     7
 79
     5
170
     0
171
     0
290
     0
174
     0
 93
       13
 44
0.0
173
     0
291
     1
 45
0.0
  0
VISUALSTYLE
  5
2C
102
{ACAD_REACTORS
330
2A
102
}
330
2A
100
AcDbVisualStyle
  2
FlatWithEdges
 70
     1
 71
     2
 72
     1
 73
     1
 90
        2
 40
-0.6
 41
30.0
 62
     5
 63
     7
421
 16777215
 74
     1
 91
        4
 64
     7
 65
   257
 75
     1
175
     1
 42
1.0
 92
        0
 66
   257
 43
1.0
 76
     1
 77
     6
 78
     2
 67
     7
 79
     5
170
     0
171
     0
290
     0
174
     0
 93
       13
 44
0.0
173
     0
291
     1
 45
0.0
  0
VISUALSTYLE
  5
2D
102
{ACAD_REACTORS
330
2A
102
}
330
2A
100
AcDbVisualStyle
  2
Gouraud
 70
     2
 71
     2
 72
     2
 73
     1
 90
        2
 40
-0.6
 41
30.0
 62
     5
 63
     7
421
 16777215
 74
     0
 91
        4
 64
     7
 65
   257
 75
     1
175
     1
 42
1.0
 92
        0
 66
     7
 43
1.0
 76
     1
 77
     6
 78
     2
 67
     7
 79
     5
170
     0
171
     0
290
     0
174
     0
 93
       13
 44
0.0
173
     0
291
     1
 45
0.0
  0
VISUALSTYLE
  5
2E
102
{ACAD_REACTORS
330
2A
102
}
330
2A
100
AcDbVisualStyle
  2
GouraudWithEdges
 70
     3
 71
     2
 72
     2
 73
     1
 90
        2
 40
-0.6
 41
30.0
 62
     5
 63
     7
421
 16777215
 74
     1
 91
        4
 64
     7
 65
   257
 75
     1
175
     1
 42
1.0
 92
        0
 66
   257
 43
1.0
 76
     1
 77
     6
 78
     2
 67
     7
 79
     5
170
     0
171
     0
290
     0
174
     0
 93
       13
 44
0.0
173
     0
291
     1
 45
0.0
  0
VISUALSTYLE
  5
38
102
{ACAD_REACTORS
330
2A
102
}
330
2A
100
AcDbVisualStyle
  2
Linepattern
 70
    14
 71
     2
 72
     2
 73
     0
 90
        0
 40
-0.6
 41
-30.0
 62
     5
 63
     7
421
 16777215
 74
     1
 91
        4
 64
     7
 65
   257
 75
     7
175
     7
 42
1.0
 92
        8
 66
     7
 43
1.0
 76
     1
 77
     6
 78
     2
 67
     7
 79
     5
170
     0
171
     0
290
     0
174
     0
 93
        1
 44
0.0
173
     0
291
     1
 45
0.0
  0
VISUALSTYLE
  5
33
102
{ACAD_REACTORS
330
2A
102
}
330
2A
100
AcDbVisualStyle
  2
Realistic
 70
     8
 71
     2
 72
     2
 73
     0
 90
        0
 40
-0.6
 41
-30.0
 62
     5
 63
     7
421
 16777215
 74
     1
 91
        0
 64
     7
 65
   257
 75
     1
175
     1
 42
1.0
 92
        8
 66
     8
424
  7895160
 43
1.0
 76
     1
 77
     6
 78
     2
 67
     7
 79
     5
170
     0
171
     0
290
     0
174
     0
 93
       13
 44
0.0
173
     0
291
     0
 45
0.0
  0
VISUALSTYLE
  5
37
102
{ACAD_REACTORS
330
2A
102
}
330
2A
100
AcDbVisualStyle
  2
Thicken
 70
    13
 71
     2
 72
     2
 73
     0
 90
        0
 40
-0.6
 41
-30.0
 62
     5
 63
     7
421
 16777215
 74
     1
 91
        4
 64
     7
 65
   257
 75
     1
175
     1
 42
1.0
 92
       12
 66
     7
 43
1.0
 76
     1
 77
     6
 78
     2
 67
     7
 79
     5
170
     0
171
     0
290
     0
174
     0
 93
        1
 44
0.0
173
     0
291
     1
 45
0.0
  0
ENDSEC
  0
EOF
