  0
SECTION
  2
HEADER
  9
$ACADVER
  1
AC1021
  9
$ACADMAINTVER
 70
     1
  9
$DWGCODEPAGE
  3
ANSI_932
  9
$INSBASE
 10
0.0
 20
0.0
 30
0.0
  9
$EXTMIN
 10
0.0
 20
0.0
 30
0.0
  9
$EXTMAX
 10
891.0
 20
630.0
 30
0.0
  9
$LIMMIN
 10
0.0
 20
0.0
  9
$LIMMAX
 10
891.0
 20
630.0
  9
$ORTHOMODE
 70
     0
  9
$REGENMODE
 70
     1
  9
$FILLMODE
 70
     1
  9
$QTEXTMODE
 70
     0
  9
$MIRRTEXT
 70
     1
  9
$LTSCALE
 40
0.75
  9
$ATTMODE
 70
     1
  9
$TEXTSIZE
 40
15.0
  9
$TRACEWID
 40
0.05
  9
$TEXTSTYLE
  7
Standard
  9
$CLAYER
  8
0
  9
$CELTYPE
  6
ByLayer
  9
$CECOLOR
 62
   256
  9
$CELTSCALE
 40
1.0
  9
$DISPSILH
 70
     0
  9
$DIMSCALE
 40
3.0
  9
$DIMASZ
 40
4.0
  9
$DIMEXO
 40
2.0
  9
$DIMDLI
 40
10.0
  9
$DIMRND
 40
0.0
  9
$DIMDLE
 40
0.0
  9
$DIMEXE
 40
2.0
  9
$DIMTP
 40
0.0
  9
$DIMTM
 40
0.0
  9
$DIMTXT
 40
4.0
  9
$DIMCEN
 40
0.09
  9
$DIMTSZ
 40
0.0
  9
$DIMTOL
 70
     0
  9
$DIMLIM
 70
     0
  9
$DIMTIH
 70
     0
  9
$DIMTOH
 70
     0
  9
$DIMSE1
 70
     0
  9
$DIMSE2
 70
     0
  9
$DIMTAD
 70
     3
  9
$DIMZIN
 70
     8
  9
$DIMBLK
  1

  9
$DIMASO
 70
     1
  9
$DIMSHO
 70
     1
  9
$DIMPOST
  1

  9
$DIMAPOST
  1

  9
$DIMALT
 70
     0
  9
$DIMALTD
 70
     2
  9
$DIMALTF
 40
25.4
  9
$DIMLFAC
 40
1.0
  9
$DIMTOFL
 70
     1
  9
$DIMTVP
 40
0.7
  9
$DIMTIX
 70
     0
  9
$DIMSOXD
 70
     0
  9
$DIMSAH
 70
     0
  9
$DIMBLK1
  1

  9
$DIMBLK2
  1

  9
$DIMSTYLE
  2
Standard
  9
$DIMCLRD
 70
     0
  9
$DIMCLRE
 70
     0
  9
$DIMCLRT
 70
     0
  9
$DIMTFAC
 40
0.5
  9
$DIMGAP
 40
0.09
  9
$DIMJUST
 70
     0
  9
$DIMSD1
 70
     0
  9
$DIMSD2
 70
     0
  9
$DIMTOLJ
 70
     1
  9
$DIMTZIN
 70
     8
  9
$DIMALTZ
 70
     0
  9
$DIMALTTZ
 70
     0
  9
$DIMUPT
 70
     1
  9
$DIMDEC
 70
     2
  9
$DIMTDEC
 70
     4
  9
$DIMALTU
 70
     2
  9
$DIMALTTD
 70
     2
  9
$DIMTXSTY
  7
Standard
  9
$DIMAUNIT
 70
     0
  9
$DIMADEC
 70
     0
  9
$DIMALTRND
 40
0.0
  9
$DIMAZIN
 70
     0
  9
$DIMDSEP
 70
    46
  9
$DIMATFIT
 70
     2
  9
$DIMFRAC
 70
     0
  9
$DIMLDRBLK
  1

  9
$DIMLUNIT
 70
     2
  9
$DIMLWD
 70
    -2
  9
$DIMLWE
 70
    -2
  9
$DIMTMOVE
 70
     2
  9
$DIMFXL
 40
1.0
  9
$DIMFXLON
 70
     0
  9
$DIMJOGANG
 40
0.7853981633974483
  9
$DIMTFILL
 70
     0
  9
$DIMTFILLCLR
 70
     0
  9
$DIMARCSYM
 70
     0
  9
$DIMLTYPE
  6

  9
$DIMLTEX1
  6

  9
$DIMLTEX2
  6

  9
$LUNITS
 70
     2
  9
$LUPREC
 70
     4
  9
$SKETCHINC
 40
0.1
  9
$FILLETRAD
 40
0.5
  9
$AUNITS
 70
     0
  9
$AUPREC
 70
     0
  9
$MENU
  1
.
  9
$ELEVATION
 40
0.0
  9
$PELEVATION
 40
0.0
  9
$THICKNESS
 40
0.0
  9
$LIMCHECK
 70
     0
  9
$CHAMFERA
 40
0.5
  9
$CHAMFERB
 40
0.5
  9
$CHAMFERC
 40
1.0
  9
$CHAMFERD
 40
0.0
  9
$SKPOLY
 70
     0
  9
$TDCREATE
 40
2454850.073206019
  9
$TDUCREATE
 40
2454849.698206019
  9
$TDUPDATE
 40
2454850.073206019
  9
$TDUUPDATE
 40
2454849.698206019
  9
$TDINDWG
 40
0.0000000116
  9
$TDUSRTIMER
 40
0.0000000116
  9
$USRTIMER
 70
     1
  9
$ANGBASE
 50
0.0
  9
$ANGDIR
 70
     0
  9
$PDMODE
 70
     0
  9
$PDSIZE
 40
0.0
  9
$PLINEWID
 40
0.0
  9
$SPLFRAME
 70
     0
  9
$SPLINETYPE
 70
     6
  9
$SPLINESEGS
 70
     8
  9
$HANDSEED
  5
4C3
  9
$SURFTAB1
 70
     6
  9
$SURFTAB2
 70
     6
  9
$SURFTYPE
 70
     6
  9
$SURFU
 70
     6
  9
$SURFV
 70
     6
  9
$UCSBASE
  2

  9
$UCSNAME
  2

  9
$UCSORG
 10
0.0
 20
0.0
 30
0.0
  9
$UCSXDIR
 10
1.0
 20
0.0
 30
0.0
  9
$UCSYDIR
 10
0.0
 20
1.0
 30
0.0
  9
$UCSORTHOREF
  2

  9
$UCSORTHOVIEW
 70
     0
  9
$UCSORGTOP
 10
0.0
 20
0.0
 30
0.0
  9
$UCSORGBOTTOM
 10
0.0
 20
0.0
 30
0.0
  9
$UCSORGLEFT
 10
0.0
 20
0.0
 30
0.0
  9
$UCSORGRIGHT
 10
0.0
 20
0.0
 30
0.0
  9
$UCSORGFRONT
 10
0.0
 20
0.0
 30
0.0
  9
$UCSORGBACK
 10
0.0
 20
0.0
 30
0.0
  9
$PUCSBASE
  2

  9
$PUCSNAME
  2

  9
$PUCSORG
 10
0.0
 20
0.0
 30
0.0
  9
$PUCSXDIR
 10
1.0
 20
0.0
 30
0.0
  9
$PUCSYDIR
 10
0.0
 20
1.0
 30
0.0
  9
$PUCSORTHOREF
  2

  9
$PUCSORTHOVIEW
 70
     0
  9
$PUCSORGTOP
 10
0.0
 20
0.0
 30
0.0
  9
$PUCSORGBOTTOM
 10
0.0
 20
0.0
 30
0.0
  9
$PUCSORGLEFT
 10
0.0
 20
0.0
 30
0.0
  9
$PUCSORGRIGHT
 10
0.0
 20
0.0
 30
0.0
  9
$PUCSORGFRONT
 10
0.0
 20
0.0
 30
0.0
  9
$PUCSORGBACK
 10
0.0
 20
0.0
 30
0.0
  9
$USERI1
 70
     0
  9
$USERI2
 70
     0
  9
$USERI3
 70
     0
  9
$USERI4
 70
     0
  9
$USERI5
 70
     0
  9
$USERR1
 40
0.0
  9
$USERR2
 40
0.0
  9
$USERR3
 40
0.0
  9
$USERR4
 40
0.0
  9
$USERR5
 40
0.0
  9
$WORLDVIEW
 70
     1
  9
$SHADEDGE
 70
     3
  9
$SHADEDIF
 70
    70
  9
$TILEMODE
 70
     1
  9
$MAXACTVP
 70
    64
  9
$PINSBASE
 10
0.0
 20
0.0
 30
0.0
  9
$PLIMCHECK
 70
     0
  9
$PEXTMIN
 10
0.0
 20
0.0
 30
0.0
  9
$PEXTMAX
 10
297.0
 20
210.0
 30
0.0
  9
$PLIMMIN
 10
0.0
 20
0.0
  9
$PLIMMAX
 10
297.0
 20
210.0
  9
$UNITMODE
 70
     0
  9
$VISRETAIN
 70
     1
  9
$PLINEGEN
 70
     0
  9
$PSLTSCALE
 70
     1
  9
$TREEDEPTH
 70
  3020
  9
$CMLSTYLE
  2
Standard
  9
$CMLJUST
 70
     0
  9
$CMLSCALE
 40
1.0
  9
$PROXYGRAPHICS
 70
     1
  9
$MEASUREMENT
 70
     1
  9
$CELWEIGHT
370
    -1
  9
$ENDCAPS
280
     0
  9
$JOINSTYLE
280
     0
  9
$LWDISPLAY
290
     0
  9
$INSUNITS
 70
     4
  9
$HYPERLINKBASE
  1

  9
$STYLESHEET
  1

  9
$XEDIT
290
     1
  9
$CEPSNTYPE
380
     0
  9
$PSTYLEMODE
290
     1
  9
$FINGERPRINTGUID
  2
{C1192EE6-8DBB-4042-BA79-822795C368C8}
  9
$VERSIONGUID
  2
{FAEB1C32-E019-11D5-929B-00C0DF256EC4}
  9
$EXTNAMES
290
     1
  9
$PSVPSCALE
 40
0.0
  9
$OLESTARTUP
290
     0
  9
$SORTENTS
280
   127
  9
$INDEXCTL
280
     0
  9
$HIDETEXT
280
     1
  9
$XCLIPFRAME
290
     0
  9
$HALOGAP
280
     0
  9
$OBSCOLOR
 70
   257
  9
$OBSLTYPE
280
     0
  9
$INTERSECTIONDISPLAY
280
     0
  9
$INTERSECTIONCOLOR
 70
   257
  9
$DIMASSOC
280
     1
  9
$PROJECTNAME
  1

  9
$CAMERADISPLAY
290
     0
  9
$LENSLENGTH
 40
50.0
  9
$CAMERAHEIGHT
 40
0.0
  9
$STEPSPERSEC
 40
2.0
  9
$STEPSIZE
 40
6.0
  9
$3DDWFPREC
 40
2.0
  9
$PSOLWIDTH
 40
0.25
  9
$PSOLHEIGHT
 40
4.0
  9
$LOFTANG1
 40
1.570796326794897
  9
$LOFTANG2
 40
1.570796326794897
  9
$LOFTMAG1
 40
0.0
  9
$LOFTMAG2
 40
0.0
  9
$LOFTPARAM
 70
     7
  9
$LOFTNORMALS
280
     1
  9
$LATITUDE
 40
37.795
  9
$LONGITUDE
 40
-122.394
  9
$NORTHDIRECTION
 40
0.0
  9
$TIMEZONE
 70
 -8000
  9
$LIGHTGLYPHDISPLAY
280
     1
  9
$TILEMODELIGHTSYNCH
280
     1
  9
$SOLIDHIST
280
     1
  9
$SHOWHIST
280
     1
  9
$DWFFRAME
280
     2
  9
$DGNFRAME
280
     2
  9
$REALWORLDSCALE
290
     1
  9
$INTERFERECOLOR
 62
   256
  9
$CSHADOW
280
     0
  9
$SHADOWPLANELOCATION
 40
0.0
  0
ENDSEC
  0
SECTION
  2
CLASSES
  0
CLASS
  1
ACDBDICTIONARYWDFLT
  2
AcDbDictionaryWithDefault
  3
ObjectDBX Classes
 90
        0
 91
        3
280
     0
281
     0
  0
CLASS
  1
VISUALSTYLE
  2
AcDbVisualStyle
  3
ObjectDBX Classes
 90
     4095
 91
        3
280
     0
281
     0
  0
ENDSEC
  0
SECTION
  2
TABLES
  0
TABLE
  2
VPORT
  5
8
330
0
100
AcDbSymbolTable
 70
     1
  0
VPORT
  5
29
330
8
100
AcDbSymbolTableRecord
100
AcDbViewportTableRecord
  2
*Active
 70
     0
 10
0.0
 20
0.0
 11
1.0
 21
1.0
 12
10.42990654205607
 22
4.5
 13
0.0
 23
0.0
 14
0.5
 24
0.5
 15
0.5
 25
0.5
 16
0.0
 26
0.0
 36
1.0
 17
0.0
 27
0.0
 37
0.0
 40
9.0
 41
1.972972972850329
 42
50.0
 43
0.0
 44
0.0
 50
0.0
 51
0.0
 71
     0
 72
   100
 73
     1
 74
     3
 75
     0
 76
     0
 77
     0
 78
     0
281
     0
 65
     1
110
0.0
120
0.0
130
0.0
111
1.0
121
0.0
131
0.0
112
0.0
122
1.0
132
0.0
 79
     0
146
0.0
 60
     3
 61
     5
292
     1
282
     1
141
0.0
142
0.0
 63
   256
  0
ENDTAB
  0
TABLE
  2
LTYPE
  5
5
330
0
100
AcDbSymbolTable
 70
     9
  0
LTYPE
  5
14
330
5
100
AcDbSymbolTableRecord
100
AcDbLinetypeTableRecord
  2
ByBlock
 70
     0
  3

 72
    65
 73
     0
 40
0.0
  0
LTYPE
  5
15
330
5
100
AcDbSymbolTableRecord
100
AcDbLinetypeTableRecord
  2
ByLayer
 70
     0
  3

 72
    65
 73
     0
 40
0.0
  0
LTYPE
  5
16
330
5
100
AcDbSymbolTableRecord
100
AcDbLinetypeTableRecord
  2
Continuous
 70
     0
  3
Solid line
 72
    65
 73
     0
 40
0.0
  0
LTYPE
  5
79
330
5
100
AcDbSymbolTableRecord
100
AcDbLinetypeTableRecord
  2
DOT
 70
     0
  3
DOT
 72
    65
 73
     2
 40
4.0
 49
6.0
 74
     0
 49
-2.0
 74
     0
  0
LTYPE
  5
7A
330
5
100
AcDbSymbolTableRecord
100
AcDbLinetypeTableRecord
  2
HIDDEN
 70
     0
  3
HIDDEN
 72
    65
 73
     2
 40
4.2
 49
8.4
 74
     0
 49
-4.2
 74
     0
  0
LTYPE
  5
7B
330
5
100
AcDbSymbolTableRecord
100
AcDbLinetypeTableRecord
  2
DASHDOT
 70
     0
  3
DASHDOT
 72
    65
 73
     4
 40
14.5
 49
30.0
 74
     0
 49
-9.0
 74
     0
 49
2.5
 74
     0
 49
-9.0
 74
     0
  0
LTYPE
  5
7C
330
5
100
AcDbSymbolTableRecord
100
AcDbLinetypeTableRecord
  2
PHANTOM
 70
     0
  3
PHANTOM
 72
    65
 73
     6
 40
12.0
 49
30.0
 74
     0
 49
-9.0
 74
     0
 49
2.5
 74
     0
 49
-5.0
 74
     0
 49
2.5
 74
     0
 49
-9.0
 74
     0
  0
LTYPE
  5
7D
330
5
100
AcDbSymbolTableRecord
100
AcDbLinetypeTableRecord
  2
ACAD_ISO14W100
 70
     0
  3
ACAD_ISO14W100
 72
    65
 73
     8
 40
1.5
 49
12.0
 74
     0
 49
-3.0
 74
     0
 49
0.5
 74
     0
 49
-3.0
 74
     0
 49
0.5
 74
     0
 49
-3.0
 74
     0
 49
0.5
 74
     0
 49
-3.0
 74
     0
  0
LTYPE
  5
7E
330
5
100
AcDbSymbolTableRecord
100
AcDbLinetypeTableRecord
  2
ACAD_ISO06W100
 70
     0
  3
ACAD_ISO06W100
 72
    65
 73
     8
 40
13.5
 49
24.0
 74
     0
 49
-3.0
 74
     0
 49
0.5
 74
     0
 49
-3.0
 74
     0
 49
0.5
 74
     0
 49
-3.0
 74
     0
 49
0.5
 74
     0
 49
-3.0
 74
     0
  0
LTYPE
  5
7F
330
5
100
AcDbSymbolTableRecord
100
AcDbLinetypeTableRecord
  2
ACAD_ISO11W100
 70
     0
  3
ACAD_ISO11W100
 72
    65
 73
     6
 40
15.5
 49
12.0
 74
     0
 49
-3.0
 74
     0
 49
12.0
 74
     0
 49
-3.0
 74
     0
 49
0.5
 74
     0
 49
-3.0
 74
     0
  0
LTYPE
  5
80
330
5
100
AcDbSymbolTableRecord
100
AcDbLinetypeTableRecord
  2
ACAD_ISO13W100
 70
     0
  3
ACAD_ISO13W100
 72
    65
 73
     8
 40
13.0
 49
12.0
 74
     0
 49
-3.0
 74
     0
 49
12.0
 74
     0
 49
-3.0
 74
     0
 49
0.5
 74
     0
 49
-3.0
 74
     0
 49
0.5
 74
     0
 49
-3.0
 74
     0
  0
ENDTAB
  0
TABLE
  2
LAYER
  5
2
330
0
100
AcDbSymbolTable
 70
    22
  0
LAYER
  5
10
330
2
100
AcDbSymbolTableRecord
100
AcDbLayerTableRecord
  2
0
 70
     0
 62
     7
  6
Continuous
370
    -3
390
F
347
0
  0
LAYER
  5
81
330
2
100
AcDbSymbolTableRecord
100
AcDbLayerTableRecord
  2
1
 70
     0
 62
     7
  6
Continuous
370
    -3
390
F
347
0
  0
LAYER
  5
82
330
2
100
AcDbSymbolTableRecord
100
AcDbLayerTableRecord
  2
2
 70
     0
 62
   134
  6
Continuous
370
    -3
390
F
347
0
  0
LAYER
  5
83
330
2
100
AcDbSymbolTableRecord
100
AcDbLayerTableRecord
  2
3
 70
     0
 62
   214
  6
Continuous
370
    -3
390
F
347
0
  0
LAYER
  5
84
330
2
100
AcDbSymbolTableRecord
100
AcDbLayerTableRecord
  2
4
 70
     0
 62
    54
  6
Continuous
370
    -3
390
F
347
0
  0
LAYER
  5
85
330
2
100
AcDbSymbolTableRecord
100
AcDbLayerTableRecord
  2
5
 70
     0
 62
    94
  6
Continuous
370
    -3
390
F
347
0
  0
LAYER
  5
86
330
2
100
AcDbSymbolTableRecord
100
AcDbLayerTableRecord
  2
6
 70
     0
 62
    14
  6
Continuous
370
    -3
390
F
347
0
  0
LAYER
  5
87
330
2
100
AcDbSymbolTableRecord
100
AcDbLayerTableRecord
  2
7
 70
     0
 62
     4
  6
Continuous
370
    -3
390
F
347
0
  0
LAYER
  5
88
330
2
100
AcDbSymbolTableRecord
100
AcDbLayerTableRecord
  2
8
 70
     0
 62
     6
  6
Continuous
370
    -3
390
F
347
0
  0
LAYER
  5
89
330
2
100
AcDbSymbolTableRecord
100
AcDbLayerTableRecord
  2
9
 70
     0
 62
     2
  6
Continuous
370
    -3
390
F
347
0
  0
LAYER
  5
8A
330
2
100
AcDbSymbolTableRecord
100
AcDbLayerTableRecord
  2
10
 70
     0
 62
     3
  6
Continuous
370
    -3
390
F
347
0
  0
LAYER
  5
8B
330
2
100
AcDbSymbolTableRecord
100
AcDbLayerTableRecord
  2
11
 70
     0
 62
   251
  6
Continuous
370
    -3
390
F
347
0
  0
LAYER
  5
8C
330
2
100
AcDbSymbolTableRecord
100
AcDbLayerTableRecord
  2
12
 70
     0
 62
   136
  6
Continuous
370
    -3
390
F
347
0
  0
LAYER
  5
8D
330
2
100
AcDbSymbolTableRecord
100
AcDbLayerTableRecord
  2
13
 70
     0
 62
   216
  6
Continuous
370
    -3
390
F
347
0
  0
LAYER
  5
8E
330
2
100
AcDbSymbolTableRecord
100
AcDbLayerTableRecord
  2
14
 70
     0
 62
    56
  6
Continuous
370
    -3
390
F
347
0
  0
LAYER
  5
8F
330
2
100
AcDbSymbolTableRecord
100
AcDbLayerTableRecord
  2
15
 70
     0
 62
    96
  6
Continuous
370
    -3
390
F
347
0
  0
LAYER
  5
90
330
2
100
AcDbSymbolTableRecord
100
AcDbLayerTableRecord
  2
16
 70
     0
 62
    16
  6
Continuous
370
    -3
390
F
347
0
  0
LAYER
  5
91
330
2
100
AcDbSymbolTableRecord
100
AcDbLayerTableRecord
  2
17
 70
     0
 62
   132
  6
Continuous
370
    -3
390
F
347
0
  0
LAYER
  5
92
330
2
100
AcDbSymbolTableRecord
100
AcDbLayerTableRecord
  2
18
 70
     0
 62
   212
  6
Continuous
370
    -3
390
F
347
0
  0
LAYER
  5
93
330
2
100
AcDbSymbolTableRecord
100
AcDbLayerTableRecord
  2
19
 70
     0
 62
    52
  6
Continuous
370
    -3
390
F
347
0
  0
LAYER
  5
94
330
2
100
AcDbSymbolTableRecord
100
AcDbLayerTableRecord
  2
20
 70
     0
 62
   250
  6
Continuous
370
    -3
390
F
347
0
  0
LAYER
  5
95
330
2
100
AcDbSymbolTableRecord
100
AcDbLayerTableRecord
  2
21
 70
     0
 62
     7
  6
Continuous
370
    -3
390
F
347
0
  0
ENDTAB
  0
TABLE
  2
STYLE
  5
3
330
0
100
AcDbSymbolTable
 70
     2
  0
STYLE
  5
11
330
3
100
AcDbSymbolTableRecord
100
AcDbTextStyleTableRecord
  2
Standard
 70
     0
 40
0.0
 41
1.0
 50
0.0
 71
     0
 42
0.2
  3
txt
  4
bigfont
  0
STYLE
  5
3D
330
3
100
AcDbSymbolTableRecord
100
AcDbTextStyleTableRecord
  2
T_STANDARD
 70
     4
 40
10.0
 41
1.0
 50
0.0
 71
     0
 42
10.0
  3
txt
  4
bigfont
  0
ENDTAB
  0
TABLE
  2
VIEW
  5
6
330
0
100
AcDbSymbolTable
 70
     0
  0
ENDTAB
  0
TABLE
  2
UCS
  5
7
330
0
100
AcDbSymbolTable
 70
     0
  0
ENDTAB
  0
TABLE
  2
APPID
  5
9
330
0
100
AcDbSymbolTable
 70
     2
  0
APPID
  5
12
330
9
100
AcDbSymbolTableRecord
100
AcDbRegAppTableRecord
  2
ACAD
 70
     0
  0
APPID
  5
3C
330
9
100
AcDbSymbolTableRecord
100
AcDbRegAppTableRecord
  2
ODA
 70
     0
  0
ENDTAB
  0
TABLE
  2
DIMSTYLE
  5
A
330
0
100
AcDbSymbolTable
 70
     1
100
AcDbDimStyleTable
  0
DIMSTYLE
105
27
102
{ACAD_REACTORS
330
2E5
330
2F9
330
30D
330
321
330
335
330
349
330
35D
330
371
330
385
330
399
330
3AD
330
3C1
102
}
330
A
100
AcDbSymbolTableRecord
100
AcDbDimStyleTableRecord
  2
Standard
 70
     0
340
11
  0
ENDTAB
  0
TABLE
  2
BLOCK_RECORD
  5
1
330
0
100
AcDbSymbolTable
 70
    26
  0
BLOCK_RECORD
  5
1F
330
1
100
AcDbSymbolTableRecord
100
AcDbBlockTableRecord
  2
*Model_Space
340
22
 70
     0
280
     1
281
     0
  0
BLOCK_RECORD
  5
1B
330
1
100
AcDbSymbolTableRecord
100
AcDbBlockTableRecord
  2
*Paper_Space
340
1E
 70
     0
280
     1
281
     0
  0
BLOCK_RECORD
  5
23
330
1
100
AcDbSymbolTableRecord
100
AcDbBlockTableRecord
  2
*Paper_Space0
340
26
 70
     0
280
     1
281
     0
  0
BLOCK_RECORD
  5
3E
330
1
100
AcDbSymbolTableRecord
100
AcDbBlockTableRecord
  2
_ORIGIN
340
0
 70
     0
280
     1
281
     0
  0
BLOCK_RECORD
  5
43
330
1
100
AcDbSymbolTableRecord
100
AcDbBlockTableRecord
  2
_DOTBLANK
340
0
 70
     0
280
     1
281
     0
  0
BLOCK_RECORD
  5
48
330
1
100
AcDbSymbolTableRecord
100
AcDbBlockTableRecord
  2
_DOT
340
0
 70
     0
280
     1
281
     0
  0
BLOCK_RECORD
  5
4D
330
1
100
AcDbSymbolTableRecord
100
AcDbBlockTableRecord
  2
_OPEN
340
0
 70
     0
280
     1
281
     0
  0
BLOCK_RECORD
  5
53
330
1
100
AcDbSymbolTableRecord
100
AcDbBlockTableRecord
  2
_CLOSED
340
0
 70
     0
280
     1
281
     0
  0
BLOCK_RECORD
  5
5A
330
1
100
AcDbSymbolTableRecord
100
AcDbBlockTableRecord
  2
_CLOSEDBLANK
340
0
 70
     0
280
     1
281
     0
  0
BLOCK_RECORD
  5
60
330
1
100
AcDbSymbolTableRecord
100
AcDbBlockTableRecord
  2
_BOXBLANK
340
0
 70
     0
280
     1
281
     0
  0
BLOCK_RECORD
  5
68
330
1
100
AcDbSymbolTableRecord
100
AcDbBlockTableRecord
  2
_BOXFILLED
340
0
 70
     0
280
     1
281
     0
  0
BLOCK_RECORD
  5
6D
330
1
100
AcDbSymbolTableRecord
100
AcDbBlockTableRecord
  2
_INTEGRAL
340
0
 70
     0
280
     1
281
     0
  0
BLOCK_RECORD
  5
72
330
1
100
AcDbSymbolTableRecord
100
AcDbBlockTableRecord
  2
_OBLIQUE
340
0
 70
     0
280
     1
281
     0
  0
BLOCK_RECORD
  5
76
330
1
100
AcDbSymbolTableRecord
100
AcDbBlockTableRecord
  2
_NONE
340
0
 70
     0
280
     1
281
     0
  0
BLOCK_RECORD
  5
154
330
1
100
AcDbSymbolTableRecord
100
AcDbBlockTableRecord
  2
*G12
340
0
102
{BLKREFS
331
15E
102
}
 70
     0
280
     1
281
     0
  0
BLOCK_RECORD
  5
165
330
1
100
AcDbSymbolTableRecord
100
AcDbBlockTableRecord
  2
*G13
340
0
102
{BLKREFS
331
177
102
}
 70
     0
280
     1
281
     0
  0
BLOCK_RECORD
  5
2D2
330
1
100
AcDbSymbolTableRecord
100
AcDbBlockTableRecord
  2
Dim1
340
0
 70
     0
280
     1
281
     0
  0
BLOCK_RECORD
  5
2E6
330
1
100
AcDbSymbolTableRecord
100
AcDbBlockTableRecord
  2
Dim2
340
0
 70
     0
280
     1
281
     0
  0
BLOCK_RECORD
  5
2FA
330
1
100
AcDbSymbolTableRecord
100
AcDbBlockTableRecord
  2
Dim3
340
0
 70
     0
280
     1
281
     0
  0
BLOCK_RECORD
  5
30E
330
1
100
AcDbSymbolTableRecord
100
AcDbBlockTableRecord
  2
Dim4
340
0
 70
     0
280
     1
281
     0
  0
BLOCK_RECORD
  5
322
330
1
100
AcDbSymbolTableRecord
100
AcDbBlockTableRecord
  2
Dim5
340
0
 70
     0
280
     1
281
     0
  0
BLOCK_RECORD
  5
336
330
1
100
AcDbSymbolTableRecord
100
AcDbBlockTableRecord
  2
Dim6
340
0
 70
     0
280
     1
281
     0
  0
BLOCK_RECORD
  5
34A
330
1
100
AcDbSymbolTableRecord
100
AcDbBlockTableRecord
  2
Dim7
340
0
 70
     0
280
     1
281
     0
  0
BLOCK_RECORD
  5
35E
330
1
100
AcDbSymbolTableRecord
100
AcDbBlockTableRecord
  2
Dim8
340
0
 70
     0
280
     1
281
     0
  0
BLOCK_RECORD
  5
372
330
1
100
AcDbSymbolTableRecord
100
AcDbBlockTableRecord
  2
Dim9
340
0
 70
     0
280
     1
281
     0
  0
BLOCK_RECORD
  5
386
330
1
100
AcDbSymbolTableRecord
100
AcDbBlockTableRecord
  2
Dim10
340
0
 70
     0
280
     1
281
     0
  0
BLOCK_RECORD
  5
39A
330
1
100
AcDbSymbolTableRecord
100
AcDbBlockTableRecord
  2
Dim11
340
0
 70
     0
280
     1
281
     0
  0
BLOCK_RECORD
  5
3AE
330
1
100
AcDbSymbolTableRecord
100
AcDbBlockTableRecord
  2
Dim12
340
0
 70
     0
280
     1
281
     0
  0
ENDTAB
  0
ENDSEC
  0
SECTION
  2
BLOCKS
  0
BLOCK
  5
20
330
1F
100
AcDbEntity
  8
0
100
AcDbBlockBegin
  2
*Model_Space
 70
     0
 71
     0
 10
0.0
 20
0.0
 30
0.0
  3
*Model_Space
  1

  0
ENDBLK
  5
21
330
1F
100
AcDbEntity
  8
0
100
AcDbBlockEnd
  0
BLOCK
  5
1C
330
1B
100
AcDbEntity
 67
     1
  8
0
100
AcDbBlockBegin
  2
*Paper_Space
 70
     0
 71
     0
 10
0.0
 20
0.0
 30
0.0
  3
*Paper_Space
  1

  0
ENDBLK
  5
1D
330
1B
100
AcDbEntity
 67
     1
  8
0
100
AcDbBlockEnd
  0
BLOCK
  5
24
330
23
100
AcDbEntity
  8
0
100
AcDbBlockBegin
  2
*Paper_Space0
 70
     0
 71
     0
 10
0.0
 20
0.0
 30
0.0
  3
*Paper_Space0
  1

  0
ENDBLK
  5
25
330
23
100
AcDbEntity
  8
0
100
AcDbBlockEnd
  0
BLOCK
  5
41
330
3E
100
AcDbEntity
  8
0
100
AcDbBlockBegin
  2
_ORIGIN
 70
     0
 71
     0
 10
0.0
 20
0.0
 30
0.0
  3
_ORIGIN
  1

  0
CIRCLE
  5
3F
330
3E
100
AcDbEntity
  8
0
100
AcDbCircle
 10
0.0
 20
0.0
 30
0.0
 40
0.5
  0
LINE
  5
40
330
3E
100
AcDbEntity
  8
0
100
AcDbLine
 10
0.0
 20
0.0
 30
0.0
 11
-1.0
 21
0.0
 31
0.0
  0
ENDBLK
  5
42
330
3E
100
AcDbEntity
  8
0
100
AcDbBlockEnd
  0
BLOCK
  5
46
330
43
100
AcDbEntity
  8
0
100
AcDbBlockBegin
  2
_DOTBLANK
 70
     0
 71
     0
 10
0.0
 20
0.0
 30
0.0
  3
_DOTBLANK
  1

  0
CIRCLE
  5
44
330
43
100
AcDbEntity
  8
0
100
AcDbCircle
 10
0.0
 20
0.0
 30
0.0
 40
0.5
  0
LINE
  5
45
330
43
100
AcDbEntity
  8
0
100
AcDbLine
 10
-0.5
 20
0.0
 30
0.0
 11
-1.0
 21
0.0
 31
0.0
  0
ENDBLK
  5
47
330
43
100
AcDbEntity
  8
0
100
AcDbBlockEnd
  0
BLOCK
  5
4B
330
48
100
AcDbEntity
  8
0
100
AcDbBlockBegin
  2
_DOT
 70
     0
 71
     0
 10
0.0
 20
0.0
 30
0.0
  3
_DOT
  1

  0
LWPOLYLINE
  5
49
330
48
100
AcDbEntity
  8
0
100
AcDbPolyline
 90
        2
 70
     1
 43
0.5
 10
-0.25
 20
0.0
 42
1.0
 10
0.25
 20
0.0
 42
1.0
  0
LINE
  5
4A
330
48
100
AcDbEntity
  8
0
100
AcDbLine
 10
-0.5
 20
0.0
 30
0.0
 11
-1.0
 21
0.0
 31
0.0
  0
ENDBLK
  5
4C
330
48
100
AcDbEntity
  8
0
100
AcDbBlockEnd
  0
BLOCK
  5
51
330
4D
100
AcDbEntity
  8
0
100
AcDbBlockBegin
  2
_OPEN
 70
     0
 71
     0
 10
0.0
 20
0.0
 30
0.0
  3
_OPEN
  1

  0
LINE
  5
4E
330
4D
100
AcDbEntity
  8
0
100
AcDbLine
 10
-1.0
 20
0.1666666666666667
 30
0.0
 11
0.0
 21
0.0
 31
0.0
  0
LINE
  5
4F
330
4D
100
AcDbEntity
  8
0
100
AcDbLine
 10
-1.0
 20
-0.1666666666666667
 30
0.0
 11
0.0
 21
0.0
 31
0.0
  0
LINE
  5
50
330
4D
100
AcDbEntity
  8
0
100
AcDbLine
 10
0.0
 20
0.0
 30
0.0
 11
-1.0
 21
0.0
 31
0.0
  0
ENDBLK
  5
52
330
4D
100
AcDbEntity
  8
0
100
AcDbBlockEnd
  0
BLOCK
  5
58
330
53
100
AcDbEntity
  8
0
100
AcDbBlockBegin
  2
_CLOSED
 70
     0
 71
     0
 10
0.0
 20
0.0
 30
0.0
  3
_CLOSED
  1

  0
LINE
  5
54
330
53
100
AcDbEntity
  8
0
100
AcDbLine
 10
-1.0
 20
0.1666666666666667
 30
0.0
 11
0.0
 21
0.0
 31
0.0
  0
LINE
  5
55
330
53
100
AcDbEntity
  8
0
100
AcDbLine
 10
0.0
 20
0.0
 30
0.0
 11
-1.0
 21
-0.1666666666666667
 31
0.0
  0
LINE
  5
56
330
53
100
AcDbEntity
  8
0
100
AcDbLine
 10
-1.0
 20
0.1666666666666667
 30
0.0
 11
-1.0
 21
-0.1666666666666667
 31
0.0
  0
LINE
  5
57
330
53
100
AcDbEntity
  8
0
100
AcDbLine
 10
0.0
 20
0.0
 30
0.0
 11
-1.0
 21
0.0
 31
0.0
  0
ENDBLK
  5
59
330
53
100
AcDbEntity
  8
0
100
AcDbBlockEnd
  0
BLOCK
  5
5E
330
5A
100
AcDbEntity
  8
0
100
AcDbBlockBegin
  2
_CLOSEDBLANK
 70
     0
 71
     0
 10
0.0
 20
0.0
 30
0.0
  3
_CLOSEDBLANK
  1

  0
LINE
  5
5B
330
5A
100
AcDbEntity
  8
0
100
AcDbLine
 10
-1.0
 20
0.1666666666666667
 30
0.0
 11
0.0
 21
0.0
 31
0.0
  0
LINE
  5
5C
330
5A
100
AcDbEntity
  8
0
100
AcDbLine
 10
0.0
 20
0.0
 30
0.0
 11
-1.0
 21
-0.1666666666666667
 31
0.0
  0
LINE
  5
5D
330
5A
100
AcDbEntity
  8
0
100
AcDbLine
 10
-1.0
 20
0.1666666666666667
 30
0.0
 11
-1.0
 21
-0.1666666666666667
 31
0.0
  0
ENDBLK
  5
5F
330
5A
100
AcDbEntity
  8
0
100
AcDbBlockEnd
  0
BLOCK
  5
66
330
60
100
AcDbEntity
  8
0
100
AcDbBlockBegin
  2
_BOXBLANK
 70
     0
 71
     0
 10
0.0
 20
0.0
 30
0.0
  3
_BOXBLANK
  1

  0
LINE
  5
61
330
60
100
AcDbEntity
  8
0
100
AcDbLine
 10
-0.5
 20
-0.5
 30
0.0
 11
0.5
 21
-0.5
 31
0.0
  0
LINE
  5
62
330
60
100
AcDbEntity
  8
0
100
AcDbLine
 10
0.5
 20
-0.5
 30
0.0
 11
0.5
 21
0.5
 31
0.0
  0
LINE
  5
63
330
60
100
AcDbEntity
  8
0
100
AcDbLine
 10
0.5
 20
0.5
 30
0.0
 11
-0.5
 21
0.5
 31
0.0
  0
LINE
  5
64
330
60
100
AcDbEntity
  8
0
100
AcDbLine
 10
-0.5
 20
0.5
 30
0.0
 11
-0.5
 21
-0.5
 31
0.0
  0
LINE
  5
65
330
60
100
AcDbEntity
  8
0
100
AcDbLine
 10
-0.5
 20
0.0
 30
0.0
 11
-1.0
 21
0.0
 31
0.0
  0
ENDBLK
  5
67
330
60
100
AcDbEntity
  8
0
100
AcDbBlockEnd
  0
BLOCK
  5
6B
330
68
100
AcDbEntity
  8
0
100
AcDbBlockBegin
  2
_BOXFILLED
 70
     0
 71
     0
 10
0.0
 20
0.0
 30
0.0
  3
_BOXFILLED
  1

  0
SOLID
  5
69
330
68
100
AcDbEntity
  8
0
100
AcDbTrace
 10
-0.5
 20
0.5
 30
0.0
 11
0.5
 21
0.5
 31
0.0
 12
-0.5
 22
-0.5
 32
0.0
 13
0.5
 23
-0.5
 33
0.0
  0
LINE
  5
6A
330
68
100
AcDbEntity
  8
0
100
AcDbLine
 10
-0.5
 20
0.0
 30
0.0
 11
-1.0
 21
0.0
 31
0.0
  0
ENDBLK
  5
6C
330
68
100
AcDbEntity
  8
0
100
AcDbBlockEnd
  0
BLOCK
  5
70
330
6D
100
AcDbEntity
  8
0
100
AcDbBlockBegin
  2
_INTEGRAL
 70
     0
 71
     0
 10
0.0
 20
0.0
 30
0.0
  3
_INTEGRAL
  1

  0
ARC
  5
6E
330
6D
100
AcDbEntity
  8
0
100
AcDbCircle
 10
0.444888
 20
-0.0913346
 30
0.0
 40
0.4541666
100
AcDbArc
 50
84.16951033439696
 51
265.6909581978302
  0
ARC
  5
6F
330
6D
100
AcDbEntity
  8
0
100
AcDbCircle
 10
-0.444888
 20
0.0913346
 30
0.0
 40
0.4541666
100
AcDbArc
 50
317.4098226892151
 51
138.9312705526484
  0
ENDBLK
  5
71
330
6D
100
AcDbEntity
  8
0
100
AcDbBlockEnd
  0
BLOCK
  5
74
330
72
100
AcDbEntity
  8
0
100
AcDbBlockBegin
  2
_OBLIQUE
 70
     0
 71
     0
 10
0.0
 20
0.0
 30
0.0
  3
_OBLIQUE
  1

  0
LINE
  5
73
330
72
100
AcDbEntity
  8
0
100
AcDbLine
 10
-0.5
 20
-0.5
 30
0.0
 11
0.5
 21
0.5
 31
0.0
  0
ENDBLK
  5
75
330
72
100
AcDbEntity
  8
0
100
AcDbBlockEnd
  0
BLOCK
  5
77
330
76
100
AcDbEntity
  8
0
100
AcDbBlockBegin
  2
_NONE
 70
     0
 71
     0
 10
0.0
 20
0.0
 30
0.0
  3
_NONE
  1

  0
ENDBLK
  5
78
330
76
100
AcDbEntity
  8
0
100
AcDbBlockEnd
  0
BLOCK
  5
155
330
154
100
AcDbEntity
  8
0
100
AcDbBlockBegin
  2
*G12
 70
     1
 71
     0
 10
0.0
 20
0.0
 30
0.0
  3
*G12
  1

  0
LINE
  5
157
330
154
100
AcDbEntity
  8
1
  6
Continuous
 62
     7
370
     9
100
AcDbLine
 10
258.4773311184554
 20
450.1553571428566
 30
0.0
 11
259.494993469369
 21
451.1730194937704
 31
0.0
  0
LINE
  5
158
330
154
100
AcDbEntity
  8
1
  6
Continuous
 62
     7
370
     9
100
AcDbLine
 10
255.0832185687599
 20
450.1553571428566
 30
0.0
 11
259.494993469369
 21
454.5671320434658
 31
0.0
  0
LINE
  5
159
330
154
100
AcDbEntity
  8
1
  6
Continuous
 62
     7
370
     9
100
AcDbLine
 10
252.0949934693691
 20
450.5612445931612
 30
0.0
 11
259.494993469369
 21
457.9612445931612
 31
0.0
  0
LINE
  5
15A
330
154
100
AcDbEntity
  8
1
  6
Continuous
 62
     7
370
     9
100
AcDbLine
 10
252.0949934693691
 20
453.9553571428567
 30
0.0
 11
259.494993469369
 21
461.3553571428567
 31
0.0
  0
LINE
  5
15B
330
154
100
AcDbEntity
  8
1
  6
Continuous
 62
     7
370
     9
100
AcDbLine
 10
252.0949934693691
 20
457.3494696925522
 30
0.0
 11
259.494993469369
 21
464.7494696925522
 31
0.0
  0
LINE
  5
15C
330
154
100
AcDbEntity
  8
1
  6
Continuous
 62
     7
370
     9
100
AcDbLine
 10
252.0949934693691
 20
460.7435822422476
 30
0.0
 11
256.5067683699781
 21
465.1553571428566
 31
0.0
  0
LINE
  5
15D
330
154
100
AcDbEntity
  8
1
  6
Continuous
 62
     7
370
     9
100
AcDbLine
 10
252.0949934693691
 20
464.137694791943
 30
0.0
 11
253.1126558202826
 21
465.1553571428566
 31
0.0
  0
ENDBLK
  5
156
330
154
100
AcDbEntity
  8
0
100
AcDbBlockEnd
  0
BLOCK
  5
166
330
165
100
AcDbEntity
  8
0
100
AcDbBlockBegin
  2
*G13
 70
     1
 71
     0
 10
0.0
 20
0.0
 30
0.0
  3
*G13
  1

  0
LINE
  5
168
330
165
100
AcDbEntity
  8
1
  6
Continuous
 62
     7
370
     9
100
AcDbLine
 10
257.4663291488694
 20
380.9804528061213
 30
0.0
 11
259.494993469369
 21
383.0091171266209
 31
0.0
  0
LINE
  5
169
330
165
100
AcDbEntity
  8
1
  6
Continuous
 62
     7
370
     9
100
AcDbLine
 10
254.0722165991739
 20
380.9804528061213
 30
0.0
 11
259.494993469369
 21
386.4032296763164
 31
0.0
  0
LINE
  5
16A
330
165
100
AcDbEntity
  8
1
  6
Continuous
 62
     7
370
     9
100
AcDbLine
 10
252.0949934693691
 20
382.3973422260119
 30
0.0
 11
259.494993469369
 21
389.7973422260118
 31
0.0
  0
LINE
  5
16B
330
165
100
AcDbEntity
  8
1
  6
Continuous
 62
     7
370
     9
100
AcDbLine
 10
252.0949934693691
 20
385.7914547757073
 30
0.0
 11
259.494993469369
 21
393.1914547757073
 31
0.0
  0
LINE
  5
16C
330
165
100
AcDbEntity
  8
1
  6
Continuous
 62
     7
370
     9
100
AcDbLine
 10
252.0949934693691
 20
389.1855673254028
 30
0.0
 11
259.494993469369
 21
396.5855673254027
 31
0.0
  0
LINE
  5
16D
330
165
100
AcDbEntity
  8
1
  6
Continuous
 62
     7
370
     9
100
AcDbLine
 10
252.0949934693691
 20
392.5796798750982
 30
0.0
 11
259.494993469369
 21
399.9796798750982
 31
0.0
  0
LINE
  5
16E
330
165
100
AcDbEntity
  8
1
  6
Continuous
 62
     7
370
     9
100
AcDbLine
 10
252.0949934693691
 20
395.9737924247937
 30
0.0
 11
259.494993469369
 21
403.3737924247936
 31
0.0
  0
LINE
  5
16F
330
165
100
AcDbEntity
  8
1
  6
Continuous
 62
     7
370
     9
100
AcDbLine
 10
252.0949934693691
 20
399.3679049744891
 30
0.0
 11
259.494993469369
 21
406.7679049744891
 31
0.0
  0
LINE
  5
170
330
165
100
AcDbEntity
  8
1
  6
Continuous
 62
     7
370
     9
100
AcDbLine
 10
252.0949934693691
 20
402.7620175241846
 30
0.0
 11
259.494993469369
 21
410.1620175241845
 31
0.0
  0
LINE
  5
171
330
165
100
AcDbEntity
  8
1
  6
Continuous
 62
     7
370
     9
100
AcDbLine
 10
252.0949934693691
 20
406.15613007388
 30
0.0
 11
259.494993469369
 21
413.55613007388
 31
0.0
  0
LINE
  5
172
330
165
100
AcDbEntity
  8
1
  6
Continuous
 62
     7
370
     9
100
AcDbLine
 10
252.0949934693691
 20
409.5502426235755
 30
0.0
 11
259.494993469369
 21
416.9502426235754
 31
0.0
  0
LINE
  5
173
330
165
100
AcDbEntity
  8
1
  6
Continuous
 62
     7
370
     9
100
AcDbLine
 10
252.0949934693691
 20
412.9443551732709
 30
0.0
 11
259.494993469369
 21
420.3443551732709
 31
0.0
  0
LINE
  5
174
330
165
100
AcDbEntity
  8
1
  6
Continuous
 62
     7
370
     9
100
AcDbLine
 10
252.0949934693691
 20
416.3384677229664
 30
0.0
 11
259.494993469369
 21
423.7384677229663
 31
0.0
  0
LINE
  5
175
330
165
100
AcDbEntity
  8
1
  6
Continuous
 62
     7
370
     9
100
AcDbLine
 10
252.0949934693691
 20
419.7325802726618
 30
0.0
 11
257.5177703395639
 21
425.1553571428566
 31
0.0
  0
LINE
  5
176
330
165
100
AcDbEntity
  8
1
  6
Continuous
 62
     7
370
     9
100
AcDbLine
 10
252.0949934693691
 20
423.1266928223573
 30
0.0
 11
254.1236577898685
 21
425.1553571428566
 31
0.0
  0
ENDBLK
  5
167
330
165
100
AcDbEntity
  8
0
100
AcDbBlockEnd
  0
BLOCK
  5
2D3
330
2D2
100
AcDbEntity
  8
0
100
AcDbBlockBegin
  2
Dim1
 70
     0
 71
     0
 10
0.0
 20
0.0
 30
0.0
  3
Dim1
  1

  0
LINE
  5
2D5
330
2D2
100
AcDbEntity
  8
1
  6
Continuous
 62
     7
370
     9
100
AcDbLine
 10
672.6464285714292
 20
472.0767857142862
 30
0.0
 11
750.6464285714295
 21
472.0767857142862
 31
0.0
  0
LINE
  5
2D6
330
2D2
100
AcDbEntity
  8
1
  6
Continuous
 62
     7
370
     9
100
AcDbLine
 10
672.6464285714292
 20
472.0767857142862
 30
0.0
 11
672.646428571429
 21
402.7238895949728
 31
0.0
  0
LINE
  5
2D7
330
2D2
100
AcDbEntity
  8
1
  6
Continuous
 62
     7
370
     9
100
AcDbLine
 10
750.6464285714295
 20
472.0767857142862
 30
0.0
 11
750.6464285714294
 21
399.8196428571433
 31
0.0
  0
LINE
  5
2D8
330
2D2
100
AcDbEntity
  8
1
  6
Continuous
 62
     7
370
     9
100
AcDbLine
 10
672.6464285714292
 20
472.0767857142862
 30
0.0
 11
675.5442060502963
 21
472.8532428495938
 31
0.0
  0
LINE
  5
2D9
330
2D2
100
AcDbEntity
  8
1
  6
Continuous
 62
     7
370
     9
100
AcDbLine
 10
672.6464285714292
 20
472.0767857142862
 30
0.0
 11
675.5442060502963
 21
471.3003285789786
 31
0.0
  0
LINE
  5
2DA
330
2D2
100
AcDbEntity
  8
1
  6
Continuous
 62
     7
370
     9
100
AcDbLine
 10
675.5442060502963
 20
472.8532428495938
 30
0.0
 11
675.5442060502963
 21
471.3003285789786
 31
0.0
  0
LINE
  5
2DB
330
2D2
100
AcDbEntity
  8
1
  6
Continuous
 62
     7
370
     9
100
AcDbLine
 10
673.370872941146
 20
472.0767857142862
 30
0.0
 11
674.8197616805796
 21
472.4650142819399
 31
0.0
  0
LINE
  5
2DC
330
2D2
100
AcDbEntity
  8
1
  6
Continuous
 62
     7
370
     9
100
AcDbLine
 10
673.370872941146
 20
472.0767857142862
 30
0.0
 11
674.8197616805796
 21
471.6885571466324
 31
0.0
  0
LINE
  5
2DD
330
2D2
100
AcDbEntity
  8
1
  6
Continuous
 62
     7
370
     9
100
AcDbLine
 10
674.8197616805796
 20
472.4650142819399
 30
0.0
 11
674.8197616805796
 21
471.6885571466324
 31
0.0
  0
LINE
  5
2DE
330
2D2
100
AcDbEntity
  8
1
  6
Continuous
 62
     7
370
     9
100
AcDbLine
 10
750.6464285714295
 20
472.0767857142862
 30
0.0
 11
747.7486510925623
 21
471.3003285789786
 31
0.0
  0
LINE
  5
2DF
330
2D2
100
AcDbEntity
  8
1
  6
Continuous
 62
     7
370
     9
100
AcDbLine
 10
750.6464285714295
 20
472.0767857142862
 30
0.0
 11
747.7486510925623
 21
472.8532428495938
 31
0.0
  0
LINE
  5
2E0
330
2D2
100
AcDbEntity
  8
1
  6
Continuous
 62
     7
370
     9
100
AcDbLine
 10
747.7486510925623
 20
471.3003285789786
 30
0.0
 11
747.7486510925623
 21
472.8532428495938
 31
0.0
  0
LINE
  5
2E1
330
2D2
100
AcDbEntity
  8
1
  6
Continuous
 62
     7
370
     9
100
AcDbLine
 10
749.9219842017127
 20
472.0767857142862
 30
0.0
 11
748.473095462279
 21
471.6885571466324
 31
0.0
  0
LINE
  5
2E2
330
2D2
100
AcDbEntity
  8
1
  6
Continuous
 62
     7
370
     9
100
AcDbLine
 10
749.9219842017127
 20
472.0767857142862
 30
0.0
 11
748.473095462279
 21
472.46501428194
 31
0.0
  0
LINE
  5
2E3
330
2D2
100
AcDbEntity
  8
1
  6
Continuous
 62
     7
370
     9
100
AcDbLine
 10
748.473095462279
 20
471.6885571466324
 30
0.0
 11
748.473095462279
 21
472.46501428194
 31
0.0
  0
MTEXT
  5
2E4
330
2D2
100
AcDbEntity
  8
1
  6
Continuous
 62
     7
370
     9
100
AcDbMText
 10
711.6464285714294
 20
477.3267857142862
 30
0.0
 40
10.5
 41
0.0
 46
0.0
 71
     8
 72
     1
  1
78
 73
     1
 44
1.0
  0
ENDBLK
  5
2D4
330
2D2
100
AcDbEntity
  8
0
100
AcDbBlockEnd
  0
BLOCK
  5
2E7
330
2E6
100
AcDbEntity
  8
0
100
AcDbBlockBegin
  2
Dim2
 70
     0
 71
     0
 10
0.0
 20
0.0
 30
0.0
  3
Dim2
  1

  0
LINE
  5
2E9
330
2E6
100
AcDbEntity
  8
1
  6
Continuous
 62
     7
370
     9
100
AcDbLine
 10
661.6464285714294
 20
205.0125000000001
 30
0.0
 11
711.6464285714294
 21
205.0125000000001
 31
0.0
  0
LINE
  5
2EA
330
2E6
100
AcDbEntity
  8
1
  6
Continuous
 62
     7
370
     9
100
AcDbLine
 10
661.6464285714294
 20
205.0125000000001
 30
0.0
 11
661.6464285714295
 21
228.3456361784006
 31
0.0
  0
LINE
  5
2EB
330
2E6
100
AcDbEntity
  8
1
  6
Continuous
 62
     7
370
     9
100
AcDbLine
 10
711.6464285714294
 20
205.0125000000001
 30
0.0
 11
711.6464285714295
 21
228.3456361784006
 31
0.0
  0
LINE
  5
2EC
330
2E6
100
AcDbEntity
  8
1
  6
Continuous
 62
     7
370
     9
100
AcDbLine
 10
661.6464285714294
 20
205.0125000000001
 30
0.0
 11
664.5442060502966
 21
205.7889571353077
 31
0.0
  0
LINE
  5
2ED
330
2E6
100
AcDbEntity
  8
1
  6
Continuous
 62
     7
370
     9
100
AcDbLine
 10
661.6464285714294
 20
205.0125000000001
 30
0.0
 11
664.5442060502966
 21
204.2360428646925
 31
0.0
  0
LINE
  5
2EE
330
2E6
100
AcDbEntity
  8
1
  6
Continuous
 62
     7
370
     9
100
AcDbLine
 10
664.5442060502966
 20
205.7889571353077
 30
0.0
 11
664.5442060502966
 21
204.2360428646925
 31
0.0
  0
LINE
  5
2EF
330
2E6
100
AcDbEntity
  8
1
  6
Continuous
 62
     7
370
     9
100
AcDbLine
 10
662.3708729411462
 20
205.0125000000001
 30
0.0
 11
663.8197616805799
 21
205.4007285676539
 31
0.0
  0
LINE
  5
2F0
330
2E6
100
AcDbEntity
  8
1
  6
Continuous
 62
     7
370
     9
100
AcDbLine
 10
662.3708729411462
 20
205.0125000000001
 30
0.0
 11
663.8197616805799
 21
204.6242714323463
 31
0.0
  0
LINE
  5
2F1
330
2E6
100
AcDbEntity
  8
1
  6
Continuous
 62
     7
370
     9
100
AcDbLine
 10
663.8197616805799
 20
205.4007285676539
 30
0.0
 11
663.8197616805799
 21
204.6242714323463
 31
0.0
  0
LINE
  5
2F2
330
2E6
100
AcDbEntity
  8
1
  6
Continuous
 62
     7
370
     9
100
AcDbLine
 10
711.6464285714294
 20
205.0125000000001
 30
0.0
 11
708.7486510925622
 21
204.2360428646926
 31
0.0
  0
LINE
  5
2F3
330
2E6
100
AcDbEntity
  8
1
  6
Continuous
 62
     7
370
     9
100
AcDbLine
 10
711.6464285714294
 20
205.0125000000001
 30
0.0
 11
708.7486510925622
 21
205.7889571353077
 31
0.0
  0
LINE
  5
2F4
330
2E6
100
AcDbEntity
  8
1
  6
Continuous
 62
     7
370
     9
100
AcDbLine
 10
708.7486510925622
 20
204.2360428646926
 30
0.0
 11
708.7486510925622
 21
205.7889571353077
 31
0.0
  0
LINE
  5
2F5
330
2E6
100
AcDbEntity
  8
1
  6
Continuous
 62
     7
370
     9
100
AcDbLine
 10
710.9219842017126
 20
205.0125000000001
 30
0.0
 11
709.4730954622789
 21
204.6242714323463
 31
0.0
  0
LINE
  5
2F6
330
2E6
100
AcDbEntity
  8
1
  6
Continuous
 62
     7
370
     9
100
AcDbLine
 10
710.9219842017126
 20
205.0125000000001
 30
0.0
 11
709.4730954622789
 21
205.4007285676539
 31
0.0
  0
LINE
  5
2F7
330
2E6
100
AcDbEntity
  8
1
  6
Continuous
 62
     7
370
     9
100
AcDbLine
 10
709.4730954622789
 20
204.6242714323463
 30
0.0
 11
709.4730954622789
 21
205.4007285676539
 31
0.0
  0
MTEXT
  5
2F8
330
2E6
100
AcDbEntity
  8
1
  6
Continuous
 62
     7
370
     9
100
AcDbMText
 10
686.6464285714294
 20
210.2625000000001
 30
0.0
 40
10.5
 41
0.0
 46
0.0
 71
     8
 72
     1
  1
50
 73
     1
 44
1.0
  0
ENDBLK
  5
2E8
330
2E6
100
AcDbEntity
  8
0
100
AcDbBlockEnd
  0
BLOCK
  5
2FB
330
2FA
100
AcDbEntity
  8
0
100
AcDbBlockBegin
  2
Dim3
 70
     0
 71
     0
 10
0.0
 20
0.0
 30
0.0
  3
Dim3
  1

  0
LINE
  5
2FD
330
2FA
100
AcDbEntity
  8
1
  6
Continuous
 62
     7
370
     9
100
AcDbLine
 10
711.6464285714294
 20
205.0125000000001
 30
0.0
 11
761.6464285714293
 21
205.0125000000001
 31
0.0
  0
LINE
  5
2FE
330
2FA
100
AcDbEntity
  8
1
  6
Continuous
 62
     7
370
     9
100
AcDbLine
 10
711.6464285714294
 20
205.0125000000001
 30
0.0
 11
711.6464285714295
 21
228.3456361784006
 31
0.0
  0
LINE
  5
2FF
330
2FA
100
AcDbEntity
  8
1
  6
Continuous
 62
     7
370
     9
100
AcDbLine
 10
761.6464285714293
 20
205.0125000000001
 30
0.0
 11
761.6464285714294
 21
228.3456361784006
 31
0.0
  0
LINE
  5
300
330
2FA
100
AcDbEntity
  8
1
  6
Continuous
 62
     7
370
     9
100
AcDbLine
 10
711.6464285714294
 20
205.0125000000001
 30
0.0
 11
714.5442060502966
 21
205.7889571353077
 31
0.0
  0
LINE
  5
301
330
2FA
100
AcDbEntity
  8
1
  6
Continuous
 62
     7
370
     9
100
AcDbLine
 10
711.6464285714294
 20
205.0125000000001
 30
0.0
 11
714.5442060502966
 21
204.2360428646925
 31
0.0
  0
LINE
  5
302
330
2FA
100
AcDbEntity
  8
1
  6
Continuous
 62
     7
370
     9
100
AcDbLine
 10
714.5442060502966
 20
205.7889571353077
 30
0.0
 11
714.5442060502966
 21
204.2360428646925
 31
0.0
  0
LINE
  5
303
330
2FA
100
AcDbEntity
  8
1
  6
Continuous
 62
     7
370
     9
100
AcDbLine
 10
712.3708729411462
 20
205.0125000000001
 30
0.0
 11
713.8197616805799
 21
205.4007285676539
 31
0.0
  0
LINE
  5
304
330
2FA
100
AcDbEntity
  8
1
  6
Continuous
 62
     7
370
     9
100
AcDbLine
 10
712.3708729411462
 20
205.0125000000001
 30
0.0
 11
713.8197616805799
 21
204.6242714323463
 31
0.0
  0
LINE
  5
305
330
2FA
100
AcDbEntity
  8
1
  6
Continuous
 62
     7
370
     9
100
AcDbLine
 10
713.8197616805799
 20
205.4007285676539
 30
0.0
 11
713.8197616805799
 21
204.6242714323463
 31
0.0
  0
LINE
  5
306
330
2FA
100
AcDbEntity
  8
1
  6
Continuous
 62
     7
370
     9
100
AcDbLine
 10
761.6464285714293
 20
205.0125000000001
 30
0.0
 11
758.7486510925621
 21
204.2360428646926
 31
0.0
  0
LINE
  5
307
330
2FA
100
AcDbEntity
  8
1
  6
Continuous
 62
     7
370
     9
100
AcDbLine
 10
761.6464285714293
 20
205.0125000000001
 30
0.0
 11
758.7486510925621
 21
205.7889571353077
 31
0.0
  0
LINE
  5
308
330
2FA
100
AcDbEntity
  8
1
  6
Continuous
 62
     7
370
     9
100
AcDbLine
 10
758.7486510925621
 20
204.2360428646926
 30
0.0
 11
758.7486510925621
 21
205.7889571353077
 31
0.0
  0
LINE
  5
309
330
2FA
100
AcDbEntity
  8
1
  6
Continuous
 62
     7
370
     9
100
AcDbLine
 10
760.9219842017125
 20
205.0125000000001
 30
0.0
 11
759.4730954622788
 21
204.6242714323463
 31
0.0
  0
LINE
  5
30A
330
2FA
100
AcDbEntity
  8
1
  6
Continuous
 62
     7
370
     9
100
AcDbLine
 10
760.9219842017125
 20
205.0125000000001
 30
0.0
 11
759.4730954622788
 21
205.4007285676539
 31
0.0
  0
LINE
  5
30B
330
2FA
100
AcDbEntity
  8
1
  6
Continuous
 62
     7
370
     9
100
AcDbLine
 10
759.4730954622788
 20
204.6242714323463
 30
0.0
 11
759.4730954622788
 21
205.4007285676539
 31
0.0
  0
MTEXT
  5
30C
330
2FA
100
AcDbEntity
  8
1
  6
Continuous
 62
     7
370
     9
100
AcDbMText
 10
736.6464285714294
 20
210.2625000000001
 30
0.0
 40
10.5
 41
0.0
 46
0.0
 71
     8
 72
     1
  1
50
 73
     1
 44
1.0
  0
ENDBLK
  5
2FC
330
2FA
100
AcDbEntity
  8
0
100
AcDbBlockEnd
  0
BLOCK
  5
30F
330
30E
100
AcDbEntity
  8
0
100
AcDbBlockBegin
  2
Dim4
 70
     0
 71
     0
 10
0.0
 20
0.0
 30
0.0
  3
Dim4
  1

  0
LINE
  5
311
330
30E
100
AcDbEntity
  8
1
  6
Continuous
 62
     7
370
     9
100
AcDbLine
 10
624.1464285714295
 20
86.21249999999985
 30
0.0
 11
799.1464285714293
 21
86.21249999999985
 31
0.0
  0
LINE
  5
312
330
30E
100
AcDbEntity
  8
1
  6
Continuous
 62
     7
370
     9
100
AcDbLine
 10
624.1464285714295
 20
86.21249999999985
 30
0.0
 11
624.1464285714296
 21
108.2624999999999
 31
0.0
  0
LINE
  5
313
330
30E
100
AcDbEntity
  8
1
  6
Continuous
 62
     7
370
     9
100
AcDbLine
 10
799.1464285714293
 20
86.21249999999985
 30
0.0
 11
799.1464285714294
 21
108.4982142857142
 31
0.0
  0
LINE
  5
314
330
30E
100
AcDbEntity
  8
1
  6
Continuous
 62
     7
370
     9
100
AcDbLine
 10
624.1464285714295
 20
86.21249999999985
 30
0.0
 11
627.0442060502967
 21
86.98895713530742
 31
0.0
  0
LINE
  5
315
330
30E
100
AcDbEntity
  8
1
  6
Continuous
 62
     7
370
     9
100
AcDbLine
 10
624.1464285714295
 20
86.21249999999985
 30
0.0
 11
627.0442060502967
 21
85.43604286469228
 31
0.0
  0
LINE
  5
316
330
30E
100
AcDbEntity
  8
1
  6
Continuous
 62
     7
370
     9
100
AcDbLine
 10
627.0442060502967
 20
86.98895713530742
 30
0.0
 11
627.0442060502967
 21
85.43604286469228
 31
0.0
  0
LINE
  5
317
330
30E
100
AcDbEntity
  8
1
  6
Continuous
 62
     7
370
     9
100
AcDbLine
 10
624.8708729411463
 20
86.21249999999985
 30
0.0
 11
626.31976168058
 21
86.60072856765363
 31
0.0
  0
LINE
  5
318
330
30E
100
AcDbEntity
  8
1
  6
Continuous
 62
     7
370
     9
100
AcDbLine
 10
624.8708729411463
 20
86.21249999999985
 30
0.0
 11
626.31976168058
 21
85.82427143234607
 31
0.0
  0
LINE
  5
319
330
30E
100
AcDbEntity
  8
1
  6
Continuous
 62
     7
370
     9
100
AcDbLine
 10
626.31976168058
 20
86.60072856765363
 30
0.0
 11
626.31976168058
 21
85.82427143234607
 31
0.0
  0
LINE
  5
31A
330
30E
100
AcDbEntity
  8
1
  6
Continuous
 62
     7
370
     9
100
AcDbLine
 10
799.1464285714293
 20
86.21249999999985
 30
0.0
 11
796.2486510925621
 21
85.4360428646923
 31
0.0
  0
LINE
  5
31B
330
30E
100
AcDbEntity
  8
1
  6
Continuous
 62
     7
370
     9
100
AcDbLine
 10
799.1464285714293
 20
86.21249999999985
 30
0.0
 11
796.2486510925621
 21
86.98895713530742
 31
0.0
  0
LINE
  5
31C
330
30E
100
AcDbEntity
  8
1
  6
Continuous
 62
     7
370
     9
100
AcDbLine
 10
796.2486510925621
 20
85.4360428646923
 30
0.0
 11
796.2486510925621
 21
86.98895713530742
 31
0.0
  0
LINE
  5
31D
330
30E
100
AcDbEntity
  8
1
  6
Continuous
 62
     7
370
     9
100
AcDbLine
 10
798.4219842017125
 20
86.21249999999985
 30
0.0
 11
796.9730954622788
 21
85.82427143234608
 31
0.0
  0
LINE
  5
31E
330
30E
100
AcDbEntity
  8
1
  6
Continuous
 62
     7
370
     9
100
AcDbLine
 10
798.4219842017125
 20
86.21249999999985
 30
0.0
 11
796.9730954622788
 21
86.60072856765363
 31
0.0
  0
LINE
  5
31F
330
30E
100
AcDbEntity
  8
1
  6
Continuous
 62
     7
370
     9
100
AcDbLine
 10
796.9730954622788
 20
85.82427143234608
 30
0.0
 11
796.9730954622788
 21
86.60072856765363
 31
0.0
  0
MTEXT
  5
320
330
30E
100
AcDbEntity
  8
1
  6
Continuous
 62
     7
370
     9
100
AcDbMText
 10
711.6464285714294
 20
91.46249999999985
 30
0.0
 40
10.5
 41
0.0
 46
0.0
 71
     8
 72
     1
  1
175
 73
     1
 44
1.0
  0
ENDBLK
  5
310
330
30E
100
AcDbEntity
  8
0
100
AcDbBlockEnd
  0
BLOCK
  5
323
330
322
100
AcDbEntity
  8
0
100
AcDbBlockBegin
  2
Dim5
 70
     0
 71
     0
 10
0.0
 20
0.0
 30
0.0
  3
Dim5
  1

  0
LINE
  5
325
330
322
100
AcDbEntity
  8
1
  6
Continuous
 62
     7
370
     9
100
AcDbLine
 10
480.3035714285713
 20
203.5982142857149
 30
0.0
 11
539.9035714285714
 21
203.5982142857149
 31
0.0
  0
LINE
  5
326
330
322
100
AcDbEntity
  8
1
  6
Continuous
 62
     7
370
     9
100
AcDbLine
 10
480.3035714285713
 20
203.5982142857149
 30
0.0
 11
480.3035714285718
 21
261.4767857142866
 31
0.0
  0
LINE
  5
327
330
322
100
AcDbEntity
  8
1
  6
Continuous
 62
     7
370
     9
100
AcDbLine
 10
539.9035714285714
 20
203.5982142857149
 30
0.0
 11
539.9035714285719
 21
262.1266991028054
 31
0.0
  0
LINE
  5
328
330
322
100
AcDbEntity
  8
1
  6
Continuous
 62
     7
370
     9
100
AcDbLine
 10
480.3035714285713
 20
203.5982142857149
 30
0.0
 11
483.2013489074386
 21
204.3746714210224
 31
0.0
  0
LINE
  5
329
330
322
100
AcDbEntity
  8
1
  6
Continuous
 62
     7
370
     9
100
AcDbLine
 10
480.3035714285713
 20
203.5982142857149
 30
0.0
 11
483.2013489074386
 21
202.8217571504073
 31
0.0
  0
LINE
  5
32A
330
322
100
AcDbEntity
  8
1
  6
Continuous
 62
     7
370
     9
100
AcDbLine
 10
483.2013489074386
 20
204.3746714210224
 30
0.0
 11
483.2013489074386
 21
202.8217571504073
 31
0.0
  0
LINE
  5
32B
330
322
100
AcDbEntity
  8
1
  6
Continuous
 62
     7
370
     9
100
AcDbLine
 10
481.0280157982882
 20
203.5982142857149
 30
0.0
 11
482.4769045377217
 21
203.9864428533687
 31
0.0
  0
LINE
  5
32C
330
322
100
AcDbEntity
  8
1
  6
Continuous
 62
     7
370
     9
100
AcDbLine
 10
481.0280157982882
 20
203.5982142857149
 30
0.0
 11
482.4769045377217
 21
203.2099857180611
 31
0.0
  0
LINE
  5
32D
330
322
100
AcDbEntity
  8
1
  6
Continuous
 62
     7
370
     9
100
AcDbLine
 10
482.4769045377217
 20
203.9864428533687
 30
0.0
 11
482.4769045377217
 21
203.2099857180611
 31
0.0
  0
LINE
  5
32E
330
322
100
AcDbEntity
  8
1
  6
Continuous
 62
     7
370
     9
100
AcDbLine
 10
539.9035714285714
 20
203.5982142857149
 30
0.0
 11
537.0057939497042
 21
202.8217571504073
 31
0.0
  0
LINE
  5
32F
330
322
100
AcDbEntity
  8
1
  6
Continuous
 62
     7
370
     9
100
AcDbLine
 10
539.9035714285714
 20
203.5982142857149
 30
0.0
 11
537.0057939497042
 21
204.3746714210224
 31
0.0
  0
LINE
  5
330
330
322
100
AcDbEntity
  8
1
  6
Continuous
 62
     7
370
     9
100
AcDbLine
 10
537.0057939497042
 20
202.8217571504073
 30
0.0
 11
537.0057939497042
 21
204.3746714210224
 31
0.0
  0
LINE
  5
331
330
322
100
AcDbEntity
  8
1
  6
Continuous
 62
     7
370
     9
100
AcDbLine
 10
539.1791270588545
 20
203.5982142857149
 30
0.0
 11
537.7302383194209
 21
203.2099857180611
 31
0.0
  0
LINE
  5
332
330
322
100
AcDbEntity
  8
1
  6
Continuous
 62
     7
370
     9
100
AcDbLine
 10
539.1791270588545
 20
203.5982142857149
 30
0.0
 11
537.7302383194209
 21
203.9864428533687
 31
0.0
  0
LINE
  5
333
330
322
100
AcDbEntity
  8
1
  6
Continuous
 62
     7
370
     9
100
AcDbLine
 10
537.7302383194209
 20
203.2099857180611
 30
0.0
 11
537.7302383194209
 21
203.9864428533687
 31
0.0
  0
MTEXT
  5
334
330
322
100
AcDbEntity
  8
1
  6
Continuous
 62
     7
370
     9
100
AcDbMText
 10
510.1035714285719
 20
208.8482142857149
 30
0.0
 40
10.5
 41
0.0
 46
0.0
 71
     8
 72
     1
  1
29.8φ
 73
     1
 44
1.0
  0
ENDBLK
  5
324
330
322
100
AcDbEntity
  8
0
100
AcDbBlockEnd
  0
BLOCK
  5
337
330
336
100
AcDbEntity
  8
0
100
AcDbBlockBegin
  2
Dim6
 70
     0
 71
     0
 10
0.0
 20
0.0
 30
0.0
  3
Dim6
  1

  0
LINE
  5
339
330
336
100
AcDbEntity
  8
1
  6
Continuous
 62
     7
370
     9
100
AcDbLine
 10
71.67500000000013
 20
104.65331632653
 30
0.0
 11
411.6750000000001
 21
104.65331632653
 31
0.0
  0
LINE
  5
33A
330
336
100
AcDbEntity
  8
1
  6
Continuous
 62
     7
370
     9
100
AcDbLine
 10
71.67500000000013
 20
104.65331632653
 30
0.0
 11
71.6750000000003
 21
124.1553571428566
 31
0.0
  0
LINE
  5
33B
330
336
100
AcDbEntity
  8
1
  6
Continuous
 62
     7
370
     9
100
AcDbLine
 10
411.6750000000001
 20
104.65331632653
 30
0.0
 11
411.6750000000002
 21
124.1553571428566
 31
0.0
  0
LINE
  5
33C
330
336
100
AcDbEntity
  8
1
  6
Continuous
 62
     7
370
     9
100
AcDbLine
 10
71.67500000000013
 20
104.65331632653
 30
0.0
 11
74.57277747886732
 21
105.4297734618375
 31
0.0
  0
LINE
  5
33D
330
336
100
AcDbEntity
  8
1
  6
Continuous
 62
     7
370
     9
100
AcDbLine
 10
71.67500000000013
 20
104.65331632653
 30
0.0
 11
74.57277747886732
 21
103.8768591912224
 31
0.0
  0
LINE
  5
33E
330
336
100
AcDbEntity
  8
1
  6
Continuous
 62
     7
370
     9
100
AcDbLine
 10
74.57277747886732
 20
105.4297734618375
 30
0.0
 11
74.57277747886732
 21
103.8768591912224
 31
0.0
  0
LINE
  5
33F
330
336
100
AcDbEntity
  8
1
  6
Continuous
 62
     7
370
     9
100
AcDbLine
 10
72.39944436971693
 20
104.65331632653
 30
0.0
 11
73.84833310915053
 21
105.0415448941837
 31
0.0
  0
LINE
  5
340
330
336
100
AcDbEntity
  8
1
  6
Continuous
 62
     7
370
     9
100
AcDbLine
 10
72.39944436971693
 20
104.65331632653
 30
0.0
 11
73.84833310915053
 21
104.2650877588762
 31
0.0
  0
LINE
  5
341
330
336
100
AcDbEntity
  8
1
  6
Continuous
 62
     7
370
     9
100
AcDbLine
 10
73.84833310915053
 20
105.0415448941837
 30
0.0
 11
73.84833310915053
 21
104.2650877588762
 31
0.0
  0
LINE
  5
342
330
336
100
AcDbEntity
  8
1
  6
Continuous
 62
     7
370
     9
100
AcDbLine
 10
411.6750000000001
 20
104.65331632653
 30
0.0
 11
408.7772225211328
 21
103.8768591912224
 31
0.0
  0
LINE
  5
343
330
336
100
AcDbEntity
  8
1
  6
Continuous
 62
     7
370
     9
100
AcDbLine
 10
411.6750000000001
 20
104.65331632653
 30
0.0
 11
408.7772225211328
 21
105.4297734618375
 31
0.0
  0
LINE
  5
344
330
336
100
AcDbEntity
  8
1
  6
Continuous
 62
     7
370
     9
100
AcDbLine
 10
408.7772225211328
 20
103.8768591912224
 30
0.0
 11
408.7772225211328
 21
105.4297734618375
 31
0.0
  0
LINE
  5
345
330
336
100
AcDbEntity
  8
1
  6
Continuous
 62
     7
370
     9
100
AcDbLine
 10
410.9505556302832
 20
104.65331632653
 30
0.0
 11
409.5016668908497
 21
104.2650877588762
 31
0.0
  0
LINE
  5
346
330
336
100
AcDbEntity
  8
1
  6
Continuous
 62
     7
370
     9
100
AcDbLine
 10
410.9505556302832
 20
104.65331632653
 30
0.0
 11
409.5016668908497
 21
105.0415448941837
 31
0.0
  0
LINE
  5
347
330
336
100
AcDbEntity
  8
1
  6
Continuous
 62
     7
370
     9
100
AcDbLine
 10
409.5016668908497
 20
104.2650877588762
 30
0.0
 11
409.5016668908497
 21
105.0415448941837
 31
0.0
  0
MTEXT
  5
348
330
336
100
AcDbEntity
  8
1
  6
Continuous
 62
     7
370
     9
100
AcDbMText
 10
241.6750000000001
 20
109.90331632653
 30
0.0
 40
10.5
 41
0.0
 46
0.0
 71
     8
 72
     1
  1
340
 73
     1
 44
1.0
  0
ENDBLK
  5
338
330
336
100
AcDbEntity
  8
0
100
AcDbBlockEnd
  0
BLOCK
  5
34B
330
34A
100
AcDbEntity
  8
0
100
AcDbBlockBegin
  2
Dim7
 70
     0
 71
     0
 10
0.0
 20
0.0
 30
0.0
  3
Dim7
  1

  0
LINE
  5
34D
330
34A
100
AcDbEntity
  8
1
  6
Continuous
 62
     7
370
     9
100
AcDbLine
 10
291.6749998469194
 20
247.7318877551015
 30
0.0
 11
191.6749998469195
 21
247.7318877551015
 31
0.0
  0
LINE
  5
34E
330
34A
100
AcDbEntity
  8
1
  6
Continuous
 62
     7
370
     9
100
AcDbLine
 10
291.6749998469194
 20
247.7318877551015
 30
0.0
 11
291.6749998469194
 21
252.8104591836729
 31
0.0
  0
LINE
  5
34F
330
34A
100
AcDbEntity
  8
1
  6
Continuous
 62
     7
370
     9
100
AcDbLine
 10
191.6749998469195
 20
247.7318877551015
 30
0.0
 11
191.6749998469195
 21
256.1104591836729
 31
0.0
  0
LINE
  5
350
330
34A
100
AcDbEntity
  8
1
  6
Continuous
 62
     7
370
     9
100
AcDbLine
 10
291.6749998469194
 20
247.7318877551015
 30
0.0
 11
288.7772223680522
 21
246.9554306197939
 31
0.0
  0
LINE
  5
351
330
34A
100
AcDbEntity
  8
1
  6
Continuous
 62
     7
370
     9
100
AcDbLine
 10
291.6749998469194
 20
247.7318877551015
 30
0.0
 11
288.7772223680522
 21
248.508344890409
 31
0.0
  0
LINE
  5
352
330
34A
100
AcDbEntity
  8
1
  6
Continuous
 62
     7
370
     9
100
AcDbLine
 10
288.7772223680522
 20
246.9554306197939
 30
0.0
 11
288.7772223680522
 21
248.508344890409
 31
0.0
  0
LINE
  5
353
330
34A
100
AcDbEntity
  8
1
  6
Continuous
 62
     7
370
     9
100
AcDbLine
 10
290.9505554772026
 20
247.7318877551015
 30
0.0
 11
289.501666737769
 21
247.3436591874477
 31
0.0
  0
LINE
  5
354
330
34A
100
AcDbEntity
  8
1
  6
Continuous
 62
     7
370
     9
100
AcDbLine
 10
290.9505554772026
 20
247.7318877551015
 30
0.0
 11
289.501666737769
 21
248.1201163227553
 31
0.0
  0
LINE
  5
355
330
34A
100
AcDbEntity
  8
1
  6
Continuous
 62
     7
370
     9
100
AcDbLine
 10
289.501666737769
 20
247.3436591874477
 30
0.0
 11
289.501666737769
 21
248.1201163227553
 31
0.0
  0
LINE
  5
356
330
34A
100
AcDbEntity
  8
1
  6
Continuous
 62
     7
370
     9
100
AcDbLine
 10
191.6749998469195
 20
247.7318877551015
 30
0.0
 11
194.5727773257867
 21
248.508344890409
 31
0.0
  0
LINE
  5
357
330
34A
100
AcDbEntity
  8
1
  6
Continuous
 62
     7
370
     9
100
AcDbLine
 10
191.6749998469195
 20
247.7318877551015
 30
0.0
 11
194.5727773257867
 21
246.9554306197939
 31
0.0
  0
LINE
  5
358
330
34A
100
AcDbEntity
  8
1
  6
Continuous
 62
     7
370
     9
100
AcDbLine
 10
194.5727773257867
 20
248.508344890409
 30
0.0
 11
194.5727773257867
 21
246.9554306197939
 31
0.0
  0
LINE
  5
359
330
34A
100
AcDbEntity
  8
1
  6
Continuous
 62
     7
370
     9
100
AcDbLine
 10
192.3994442166363
 20
247.7318877551015
 30
0.0
 11
193.8483329560699
 21
248.1201163227553
 31
0.0
  0
LINE
  5
35A
330
34A
100
AcDbEntity
  8
1
  6
Continuous
 62
     7
370
     9
100
AcDbLine
 10
192.3994442166363
 20
247.7318877551015
 30
0.0
 11
193.8483329560699
 21
247.3436591874477
 31
0.0
  0
LINE
  5
35B
330
34A
100
AcDbEntity
  8
1
  6
Continuous
 62
     7
370
     9
100
AcDbLine
 10
193.8483329560699
 20
248.1201163227553
 30
0.0
 11
193.8483329560699
 21
247.3436591874477
 31
0.0
  0
MTEXT
  5
35C
330
34A
100
AcDbEntity
  8
1
  6
Continuous
 62
     7
370
     9
100
AcDbMText
 10
241.6749998469194
 20
252.9818877551015
 30
0.0
 40
10.5
 41
0.0
 46
0.0
 71
     8
 72
     1
  1
100
 73
     1
 44
1.0
  0
ENDBLK
  5
34C
330
34A
100
AcDbEntity
  8
0
100
AcDbBlockEnd
  0
BLOCK
  5
35F
330
35E
100
AcDbEntity
  8
0
100
AcDbBlockBegin
  2
Dim8
 70
     0
 71
     0
 10
0.0
 20
0.0
 30
0.0
  3
Dim8
  1

  0
LINE
  5
361
330
35E
100
AcDbEntity
  8
1
  6
Continuous
 62
     7
370
     9
100
AcDbLine
 10
74.67499984691955
 20
209.2515306122454
 30
0.0
 11
159.6749998469195
 21
209.2515306122454
 31
0.0
  0
LINE
  5
362
330
35E
100
AcDbEntity
  8
1
  6
Continuous
 62
     7
370
     9
100
AcDbLine
 10
74.67499984691955
 20
209.2515306122454
 30
0.0
 11
74.67499984691956
 21
205.3729591836739
 31
0.0
  0
LINE
  5
363
330
35E
100
AcDbEntity
  8
1
  6
Continuous
 62
     7
370
     9
100
AcDbLine
 10
159.6749998469195
 20
209.2515306122454
 30
0.0
 11
159.6749998469195
 21
205.3729591836739
 31
0.0
  0
LINE
  5
364
330
35E
100
AcDbEntity
  8
1
  6
Continuous
 62
     7
370
     9
100
AcDbLine
 10
74.67499984691955
 20
209.2515306122454
 30
0.0
 11
77.57277732578675
 21
210.027987747553
 31
0.0
  0
LINE
  5
365
330
35E
100
AcDbEntity
  8
1
  6
Continuous
 62
     7
370
     9
100
AcDbLine
 10
74.67499984691955
 20
209.2515306122454
 30
0.0
 11
77.57277732578675
 21
208.4750734769379
 31
0.0
  0
LINE
  5
366
330
35E
100
AcDbEntity
  8
1
  6
Continuous
 62
     7
370
     9
100
AcDbLine
 10
77.57277732578675
 20
210.027987747553
 30
0.0
 11
77.57277732578675
 21
208.4750734769379
 31
0.0
  0
LINE
  5
367
330
35E
100
AcDbEntity
  8
1
  6
Continuous
 62
     7
370
     9
100
AcDbLine
 10
75.39944421663635
 20
209.2515306122454
 30
0.0
 11
76.84833295606995
 21
209.6397591798992
 31
0.0
  0
LINE
  5
368
330
35E
100
AcDbEntity
  8
1
  6
Continuous
 62
     7
370
     9
100
AcDbLine
 10
75.39944421663635
 20
209.2515306122454
 30
0.0
 11
76.84833295606995
 21
208.8633020445916
 31
0.0
  0
LINE
  5
369
330
35E
100
AcDbEntity
  8
1
  6
Continuous
 62
     7
370
     9
100
AcDbLine
 10
76.84833295606995
 20
209.6397591798992
 30
0.0
 11
76.84833295606995
 21
208.8633020445916
 31
0.0
  0
LINE
  5
36A
330
35E
100
AcDbEntity
  8
1
  6
Continuous
 62
     7
370
     9
100
AcDbLine
 10
159.6749998469195
 20
209.2515306122454
 30
0.0
 11
156.7772223680523
 21
208.4750734769379
 31
0.0
  0
LINE
  5
36B
330
35E
100
AcDbEntity
  8
1
  6
Continuous
 62
     7
370
     9
100
AcDbLine
 10
159.6749998469195
 20
209.2515306122454
 30
0.0
 11
156.7772223680523
 21
210.027987747553
 31
0.0
  0
LINE
  5
36C
330
35E
100
AcDbEntity
  8
1
  6
Continuous
 62
     7
370
     9
100
AcDbLine
 10
156.7772223680523
 20
208.4750734769379
 30
0.0
 11
156.7772223680523
 21
210.027987747553
 31
0.0
  0
LINE
  5
36D
330
35E
100
AcDbEntity
  8
1
  6
Continuous
 62
     7
370
     9
100
AcDbLine
 10
158.9505554772028
 20
209.2515306122454
 30
0.0
 11
157.5016667377691
 21
208.8633020445916
 31
0.0
  0
LINE
  5
36E
330
35E
100
AcDbEntity
  8
1
  6
Continuous
 62
     7
370
     9
100
AcDbLine
 10
158.9505554772028
 20
209.2515306122454
 30
0.0
 11
157.5016667377691
 21
209.6397591798992
 31
0.0
  0
LINE
  5
36F
330
35E
100
AcDbEntity
  8
1
  6
Continuous
 62
     7
370
     9
100
AcDbLine
 10
157.5016667377691
 20
208.8633020445916
 30
0.0
 11
157.5016667377691
 21
209.6397591798992
 31
0.0
  0
MTEXT
  5
370
330
35E
100
AcDbEntity
  8
1
  6
Continuous
 62
     7
370
     9
100
AcDbMText
 10
117.1749998469195
 20
214.5015306122454
 30
0.0
 40
10.5
 41
0.0
 46
0.0
 71
     8
 72
     1
  1
85
 73
     1
 44
1.0
  0
ENDBLK
  5
360
330
35E
100
AcDbEntity
  8
0
100
AcDbBlockEnd
  0
BLOCK
  5
373
330
372
100
AcDbEntity
  8
0
100
AcDbBlockBegin
  2
Dim9
 70
     0
 71
     0
 10
0.0
 20
0.0
 30
0.0
  3
Dim9
  1

  0
LINE
  5
375
330
372
100
AcDbEntity
  8
1
  6
Continuous
 62
     7
370
     9
100
AcDbLine
 10
159.6749998469195
 20
209.2515306122454
 30
0.0
 11
179.6749998469195
 21
209.2515306122454
 31
0.0
  0
LINE
  5
376
330
372
100
AcDbEntity
  8
1
  6
Continuous
 62
     7
370
     9
100
AcDbLine
 10
159.6749998469195
 20
209.2515306122454
 30
0.0
 11
159.6749998469195
 21
209.6158163265312
 31
0.0
  0
LINE
  5
377
330
372
100
AcDbEntity
  8
1
  6
Continuous
 62
     7
370
     9
100
AcDbLine
 10
179.6749998469195
 20
209.2515306122454
 30
0.0
 11
179.6749998469195
 21
208.4372448979598
 31
0.0
  0
LINE
  5
378
330
372
100
AcDbEntity
  8
1
  6
Continuous
 62
     7
370
     9
100
AcDbLine
 10
159.6749998469195
 20
209.2515306122454
 30
0.0
 11
162.5727773257867
 21
210.027987747553
 31
0.0
  0
LINE
  5
379
330
372
100
AcDbEntity
  8
1
  6
Continuous
 62
     7
370
     9
100
AcDbLine
 10
159.6749998469195
 20
209.2515306122454
 30
0.0
 11
162.5727773257867
 21
208.4750734769379
 31
0.0
  0
LINE
  5
37A
330
372
100
AcDbEntity
  8
1
  6
Continuous
 62
     7
370
     9
100
AcDbLine
 10
162.5727773257867
 20
210.027987747553
 30
0.0
 11
162.5727773257867
 21
208.4750734769379
 31
0.0
  0
LINE
  5
37B
330
372
100
AcDbEntity
  8
1
  6
Continuous
 62
     7
370
     9
100
AcDbLine
 10
160.3994442166363
 20
209.2515306122454
 30
0.0
 11
161.8483329560699
 21
209.6397591798992
 31
0.0
  0
LINE
  5
37C
330
372
100
AcDbEntity
  8
1
  6
Continuous
 62
     7
370
     9
100
AcDbLine
 10
160.3994442166363
 20
209.2515306122454
 30
0.0
 11
161.8483329560699
 21
208.8633020445916
 31
0.0
  0
LINE
  5
37D
330
372
100
AcDbEntity
  8
1
  6
Continuous
 62
     7
370
     9
100
AcDbLine
 10
161.8483329560699
 20
209.6397591798992
 30
0.0
 11
161.8483329560699
 21
208.8633020445916
 31
0.0
  0
LINE
  5
37E
330
372
100
AcDbEntity
  8
1
  6
Continuous
 62
     7
370
     9
100
AcDbLine
 10
179.6749998469195
 20
209.2515306122454
 30
0.0
 11
176.7772223680523
 21
208.4750734769379
 31
0.0
  0
LINE
  5
37F
330
372
100
AcDbEntity
  8
1
  6
Continuous
 62
     7
370
     9
100
AcDbLine
 10
179.6749998469195
 20
209.2515306122454
 30
0.0
 11
176.7772223680523
 21
210.027987747553
 31
0.0
  0
LINE
  5
380
330
372
100
AcDbEntity
  8
1
  6
Continuous
 62
     7
370
     9
100
AcDbLine
 10
176.7772223680523
 20
208.4750734769379
 30
0.0
 11
176.7772223680523
 21
210.027987747553
 31
0.0
  0
LINE
  5
381
330
372
100
AcDbEntity
  8
1
  6
Continuous
 62
     7
370
     9
100
AcDbLine
 10
178.9505554772027
 20
209.2515306122454
 30
0.0
 11
177.5016667377691
 21
208.8633020445916
 31
0.0
  0
LINE
  5
382
330
372
100
AcDbEntity
  8
1
  6
Continuous
 62
     7
370
     9
100
AcDbLine
 10
178.9505554772027
 20
209.2515306122454
 30
0.0
 11
177.5016667377691
 21
209.6397591798992
 31
0.0
  0
LINE
  5
383
330
372
100
AcDbEntity
  8
1
  6
Continuous
 62
     7
370
     9
100
AcDbLine
 10
177.5016667377691
 20
208.8633020445916
 30
0.0
 11
177.5016667377691
 21
209.6397591798992
 31
0.0
  0
MTEXT
  5
384
330
372
100
AcDbEntity
  8
1
  6
Continuous
 62
     7
370
     9
100
AcDbMText
 10
169.6749998469195
 20
214.5015306122454
 30
0.0
 40
10.5
 41
0.0
 46
0.0
 71
     8
 72
     1
  1
20
 73
     1
 44
1.0
  0
ENDBLK
  5
374
330
372
100
AcDbEntity
  8
0
100
AcDbBlockEnd
  0
BLOCK
  5
387
330
386
100
AcDbEntity
  8
0
100
AcDbBlockBegin
  2
Dim10
 70
     0
 71
     0
 10
0.0
 20
0.0
 30
0.0
  3
Dim10
  1

  0
LINE
  5
389
330
386
100
AcDbEntity
  8
1
  6
Continuous
 62
     7
370
     9
100
AcDbLine
 10
179.6749998469194
 20
209.2515306122454
 30
0.0
 11
191.6749998469194
 21
209.2515306122454
 31
0.0
  0
LINE
  5
38A
330
386
100
AcDbEntity
  8
1
  6
Continuous
 62
     7
370
     9
100
AcDbLine
 10
179.6749998469194
 20
209.2515306122454
 30
0.0
 11
179.6749998469195
 21
214.5658163265312
 31
0.0
  0
LINE
  5
38B
330
386
100
AcDbEntity
  8
1
  6
Continuous
 62
     7
370
     9
100
AcDbLine
 10
191.6749998469194
 20
209.2515306122454
 30
0.0
 11
191.6749998469195
 21
214.3301020408169
 31
0.0
  0
LINE
  5
38C
330
386
100
AcDbEntity
  8
1
  6
Continuous
 62
     7
370
     9
100
AcDbLine
 10
179.6749998469194
 20
209.2515306122454
 30
0.0
 11
176.7772223680522
 21
208.4750734769379
 31
0.0
  0
LINE
  5
38D
330
386
100
AcDbEntity
  8
1
  6
Continuous
 62
     7
370
     9
100
AcDbLine
 10
179.6749998469194
 20
209.2515306122454
 30
0.0
 11
176.7772223680522
 21
210.027987747553
 31
0.0
  0
LINE
  5
38E
330
386
100
AcDbEntity
  8
1
  6
Continuous
 62
     7
370
     9
100
AcDbLine
 10
176.7772223680522
 20
208.4750734769379
 30
0.0
 11
176.7772223680522
 21
210.027987747553
 31
0.0
  0
LINE
  5
38F
330
386
100
AcDbEntity
  8
1
  6
Continuous
 62
     7
370
     9
100
AcDbLine
 10
178.9505554772026
 20
209.2515306122454
 30
0.0
 11
177.501666737769
 21
208.8633020445916
 31
0.0
  0
LINE
  5
390
330
386
100
AcDbEntity
  8
1
  6
Continuous
 62
     7
370
     9
100
AcDbLine
 10
178.9505554772026
 20
209.2515306122454
 30
0.0
 11
177.501666737769
 21
209.6397591798992
 31
0.0
  0
LINE
  5
391
330
386
100
AcDbEntity
  8
1
  6
Continuous
 62
     7
370
     9
100
AcDbLine
 10
177.501666737769
 20
208.8633020445916
 30
0.0
 11
177.501666737769
 21
209.6397591798992
 31
0.0
  0
LINE
  5
392
330
386
100
AcDbEntity
  8
1
  6
Continuous
 62
     7
370
     9
100
AcDbLine
 10
191.6749998469194
 20
209.2515306122454
 30
0.0
 11
194.5727773257866
 21
210.027987747553
 31
0.0
  0
LINE
  5
393
330
386
100
AcDbEntity
  8
1
  6
Continuous
 62
     7
370
     9
100
AcDbLine
 10
191.6749998469194
 20
209.2515306122454
 30
0.0
 11
194.5727773257866
 21
208.4750734769379
 31
0.0
  0
LINE
  5
394
330
386
100
AcDbEntity
  8
1
  6
Continuous
 62
     7
370
     9
100
AcDbLine
 10
194.5727773257866
 20
210.027987747553
 30
0.0
 11
194.5727773257866
 21
208.4750734769379
 31
0.0
  0
LINE
  5
395
330
386
100
AcDbEntity
  8
1
  6
Continuous
 62
     7
370
     9
100
AcDbLine
 10
192.3994442166362
 20
209.2515306122454
 30
0.0
 11
193.8483329560698
 21
209.6397591798992
 31
0.0
  0
LINE
  5
396
330
386
100
AcDbEntity
  8
1
  6
Continuous
 62
     7
370
     9
100
AcDbLine
 10
192.3994442166362
 20
209.2515306122454
 30
0.0
 11
193.8483329560698
 21
208.8633020445916
 31
0.0
  0
LINE
  5
397
330
386
100
AcDbEntity
  8
1
  6
Continuous
 62
     7
370
     9
100
AcDbLine
 10
193.8483329560698
 20
209.6397591798992
 30
0.0
 11
193.8483329560698
 21
208.8633020445916
 31
0.0
  0
MTEXT
  5
398
330
386
100
AcDbEntity
  8
1
  6
Continuous
 62
     7
370
     9
100
AcDbMText
 10
185.6749998469194
 20
214.5015306122454
 30
0.0
 40
10.5
 41
0.0
 46
0.0
 71
     8
 72
     1
  1
12
 73
     1
 44
1.0
  0
ENDBLK
  5
388
330
386
100
AcDbEntity
  8
0
100
AcDbBlockEnd
  0
BLOCK
  5
39B
330
39A
100
AcDbEntity
  8
0
100
AcDbBlockBegin
  2
Dim11
 70
     0
 71
     0
 10
0.0
 20
0.0
 30
0.0
  3
Dim11
  1

  0
LINE
  5
39D
330
39A
100
AcDbEntity
  8
1
  6
Continuous
 62
     7
370
     9
100
AcDbLine
 10
247.2949937755307
 20
495.2908163265313
 30
0.0
 11
259.2949937755307
 21
495.2908163265313
 31
0.0
  0
LINE
  5
39E
330
39A
100
AcDbEntity
  8
1
  6
Continuous
 62
     7
370
     9
100
AcDbLine
 10
247.2949937755307
 20
495.2908163265313
 30
0.0
 11
247.2949937755307
 21
494.7122448979599
 31
0.0
  0
LINE
  5
39F
330
39A
100
AcDbEntity
  8
1
  6
Continuous
 62
     7
370
     9
100
AcDbLine
 10
259.2949937755307
 20
495.2908163265313
 30
0.0
 11
259.2949937755307
 21
494.4765306122457
 31
0.0
  0
LINE
  5
3A0
330
39A
100
AcDbEntity
  8
1
  6
Continuous
 62
     7
370
     9
100
AcDbLine
 10
247.2949937755307
 20
495.2908163265313
 30
0.0
 11
244.3972162966635
 21
494.5143591912237
 31
0.0
  0
LINE
  5
3A1
330
39A
100
AcDbEntity
  8
1
  6
Continuous
 62
     7
370
     9
100
AcDbLine
 10
247.2949937755307
 20
495.2908163265313
 30
0.0
 11
244.3972162966635
 21
496.0672734618389
 31
0.0
  0
LINE
  5
3A2
330
39A
100
AcDbEntity
  8
1
  6
Continuous
 62
     7
370
     9
100
AcDbLine
 10
244.3972162966635
 20
494.5143591912237
 30
0.0
 11
244.3972162966635
 21
496.0672734618389
 31
0.0
  0
LINE
  5
3A3
330
39A
100
AcDbEntity
  8
1
  6
Continuous
 62
     7
370
     9
100
AcDbLine
 10
246.5705494058139
 20
495.2908163265313
 30
0.0
 11
245.1216606663803
 21
494.9025877588775
 31
0.0
  0
LINE
  5
3A4
330
39A
100
AcDbEntity
  8
1
  6
Continuous
 62
     7
370
     9
100
AcDbLine
 10
246.5705494058139
 20
495.2908163265313
 30
0.0
 11
245.1216606663803
 21
495.6790448941851
 31
0.0
  0
LINE
  5
3A5
330
39A
100
AcDbEntity
  8
1
  6
Continuous
 62
     7
370
     9
100
AcDbLine
 10
245.1216606663803
 20
494.9025877588775
 30
0.0
 11
245.1216606663803
 21
495.6790448941851
 31
0.0
  0
LINE
  5
3A6
330
39A
100
AcDbEntity
  8
1
  6
Continuous
 62
     7
370
     9
100
AcDbLine
 10
259.2949937755307
 20
495.2908163265313
 30
0.0
 11
262.1927712543979
 21
496.0672734618389
 31
0.0
  0
LINE
  5
3A7
330
39A
100
AcDbEntity
  8
1
  6
Continuous
 62
     7
370
     9
100
AcDbLine
 10
259.2949937755307
 20
495.2908163265313
 30
0.0
 11
262.1927712543979
 21
494.5143591912237
 31
0.0
  0
LINE
  5
3A8
330
39A
100
AcDbEntity
  8
1
  6
Continuous
 62
     7
370
     9
100
AcDbLine
 10
262.1927712543979
 20
496.0672734618389
 30
0.0
 11
262.1927712543979
 21
494.5143591912237
 31
0.0
  0
LINE
  5
3A9
330
39A
100
AcDbEntity
  8
1
  6
Continuous
 62
     7
370
     9
100
AcDbLine
 10
260.0194381452475
 20
495.2908163265313
 30
0.0
 11
261.4683268846811
 21
495.679044894185
 31
0.0
  0
LINE
  5
3AA
330
39A
100
AcDbEntity
  8
1
  6
Continuous
 62
     7
370
     9
100
AcDbLine
 10
260.0194381452475
 20
495.2908163265313
 30
0.0
 11
261.4683268846811
 21
494.9025877588775
 31
0.0
  0
LINE
  5
3AB
330
39A
100
AcDbEntity
  8
1
  6
Continuous
 62
     7
370
     9
100
AcDbLine
 10
261.4683268846811
 20
495.679044894185
 30
0.0
 11
261.4683268846811
 21
494.9025877588775
 31
0.0
  0
MTEXT
  5
3AC
330
39A
100
AcDbEntity
  8
1
  6
Continuous
 62
     7
370
     9
100
AcDbMText
 10
253.2949937755307
 20
500.5408163265313
 30
0.0
 40
10.5
 41
0.0
 46
0.0
 71
     8
 72
     1
  1
12φ
 73
     1
 44
1.0
  0
ENDBLK
  5
39C
330
39A
100
AcDbEntity
  8
0
100
AcDbBlockEnd
  0
BLOCK
  5
3AF
330
3AE
100
AcDbEntity
  8
0
100
AcDbBlockBegin
  2
Dim12
 70
     0
 71
     0
 10
0.0
 20
0.0
 30
0.0
  3
Dim12
  1

  0
LINE
  5
3B1
330
3AE
100
AcDbEntity
  8
1
  6
Continuous
 62
     7
370
     9
100
AcDbLine
 10
291.6749998469195
 20
206.4818877551014
 30
0.0
 11
411.6750000000004
 21
206.4818877551014
 31
0.0
  0
LINE
  5
3B2
330
3AE
100
AcDbEntity
  8
1
  6
Continuous
 62
     7
370
     9
100
AcDbLine
 10
291.6749998469195
 20
206.4818877551014
 30
0.0
 11
291.6749998469195
 21
171.1553571428566
 31
0.0
  0
LINE
  5
3B3
330
3AE
100
AcDbEntity
  8
1
  6
Continuous
 62
     7
370
     9
100
AcDbLine
 10
411.6750000000004
 20
206.4818877551014
 30
0.0
 11
411.6750000000003
 21
178.5390306122442
 31
0.0
  0
LINE
  5
3B4
330
3AE
100
AcDbEntity
  8
1
  6
Continuous
 62
     7
370
     9
100
AcDbLine
 10
291.6749998469195
 20
206.4818877551014
 30
0.0
 11
294.5727773257868
 21
207.2583448904089
 31
0.0
  0
LINE
  5
3B5
330
3AE
100
AcDbEntity
  8
1
  6
Continuous
 62
     7
370
     9
100
AcDbLine
 10
291.6749998469195
 20
206.4818877551014
 30
0.0
 11
294.5727773257868
 21
205.7054306197938
 31
0.0
  0
LINE
  5
3B6
330
3AE
100
AcDbEntity
  8
1
  6
Continuous
 62
     7
370
     9
100
AcDbLine
 10
294.5727773257868
 20
207.2583448904089
 30
0.0
 11
294.5727773257868
 21
205.7054306197938
 31
0.0
  0
LINE
  5
3B7
330
3AE
100
AcDbEntity
  8
1
  6
Continuous
 62
     7
370
     9
100
AcDbLine
 10
292.3994442166364
 20
206.4818877551014
 30
0.0
 11
293.84833295607
 21
206.8701163227552
 31
0.0
  0
LINE
  5
3B8
330
3AE
100
AcDbEntity
  8
1
  6
Continuous
 62
     7
370
     9
100
AcDbLine
 10
292.3994442166364
 20
206.4818877551014
 30
0.0
 11
293.84833295607
 21
206.0936591874476
 31
0.0
  0
LINE
  5
3B9
330
3AE
100
AcDbEntity
  8
1
  6
Continuous
 62
     7
370
     9
100
AcDbLine
 10
293.84833295607
 20
206.8701163227552
 30
0.0
 11
293.84833295607
 21
206.0936591874476
 31
0.0
  0
LINE
  5
3BA
330
3AE
100
AcDbEntity
  8
1
  6
Continuous
 62
     7
370
     9
100
AcDbLine
 10
411.6750000000004
 20
206.4818877551014
 30
0.0
 11
408.7772225211331
 21
205.7054306197938
 31
0.0
  0
LINE
  5
3BB
330
3AE
100
AcDbEntity
  8
1
  6
Continuous
 62
     7
370
     9
100
AcDbLine
 10
411.6750000000004
 20
206.4818877551014
 30
0.0
 11
408.7772225211331
 21
207.2583448904089
 31
0.0
  0
LINE
  5
3BC
330
3AE
100
AcDbEntity
  8
1
  6
Continuous
 62
     7
370
     9
100
AcDbLine
 10
408.7772225211331
 20
205.7054306197938
 30
0.0
 11
408.7772225211331
 21
207.2583448904089
 31
0.0
  0
LINE
  5
3BD
330
3AE
100
AcDbEntity
  8
1
  6
Continuous
 62
     7
370
     9
100
AcDbLine
 10
410.9505556302835
 20
206.4818877551014
 30
0.0
 11
409.5016668908499
 21
206.0936591874476
 31
0.0
  0
LINE
  5
3BE
330
3AE
100
AcDbEntity
  8
1
  6
Continuous
 62
     7
370
     9
100
AcDbLine
 10
410.9505556302835
 20
206.4818877551014
 30
0.0
 11
409.5016668908499
 21
206.8701163227552
 31
0.0
  0
LINE
  5
3BF
330
3AE
100
AcDbEntity
  8
1
  6
Continuous
 62
     7
370
     9
100
AcDbLine
 10
409.5016668908499
 20
206.0936591874476
 30
0.0
 11
409.5016668908499
 21
206.8701163227552
 31
0.0
  0
MTEXT
  5
3C0
330
3AE
100
AcDbEntity
  8
1
  6
Continuous
 62
     7
370
     9
100
AcDbMText
 10
367.9589284183488
 20
211.7318877551014
 30
0.0
 40
10.5
 41
0.0
 46
0.0
 71
     8
 72
     1
  1
120
 73
     1
 44
1.0
  0
ENDBLK
  5
3B0
330
3AE
100
AcDbEntity
  8
0
100
AcDbBlockEnd
  0
ENDSEC
  0
SECTION
  2
ENTITIES
  0
ARC
  5
96
330
1F
100
AcDbEntity
  8
1
  6
Continuous
 62
     7
370
     9
100
AcDbCircle
 10
630.1464285714296
 20
373.4618870934812
 30
0.0
 40
6.0
100
AcDbArc
 50
128.6598082540897
 51
179.9999999999995
  0
ARC
  5
97
330
1F
100
AcDbEntity
  8
1
  6
Continuous
 62
     7
370
     9
100
AcDbCircle
 10
793.1464285714294
 20
373.4618870934812
 30
0.0
 40
6.0
100
AcDbArc
 50
0.0
 51
51.34019174590991
  0
ARC
  5
98
330
1F
100
AcDbEntity
  8
1
  6
Continuous
 62
     7
370
     9
100
AcDbCircle
 10
711.6464285714303
 20
426.3456361784006
 30
0.0
 40
20.0
100
AcDbArc
 50
51.34019174591022
 51
128.6598082540902
  0
LINE
  5
99
330
1F
100
AcDbEntity
  8
1
  6
Continuous
 62
     7
370
     9
100
AcDbLine
 10
626.3982582861031
 20
378.1470999501394
 30
0.0
 11
699.1525325089688
 21
441.9630162781617
 31
0.0
  0
LINE
  5
9A
330
1F
100
AcDbEntity
  8
1
  6
Continuous
 62
     7
370
     9
100
AcDbLine
 10
796.8945991629175
 20
378.1470999501394
 30
0.0
 11
724.1403249400519
 21
441.9630162781617
 31
0.0
  0
ARC
  5
9B
330
1F
100
AcDbEntity
  8
1
  6
Continuous
 62
     7
370
     9
100
AcDbCircle
 10
630.1464285714296
 20
373.4618870934812
 30
0.0
 40
-2.0
100
AcDbArc
 50
0.0
 51
308.6598082540877
  0
ARC
  5
9C
330
1F
100
AcDbEntity
  8
1
  6
Continuous
 62
     7
370
     9
100
AcDbCircle
 10
711.6464285714303
 20
426.3456361784006
 30
0.0
 40
12.0
100
AcDbArc
 50
45.39350902488522
 51
134.6065075010764
  0
ARC
  5
9D
330
1F
100
AcDbEntity
  8
1
  6
Continuous
 62
     7
370
     9
100
AcDbCircle
 10
793.1464285714294
 20
373.4618870934812
 30
0.0
 40
-2.0
100
AcDbArc
 50
231.3401917459116
 51
179.9999999999998
  0
ARC
  5
9E
330
1F
100
AcDbEntity
  8
1
  6
Continuous
 62
     7
370
     9
100
AcDbCircle
 10
793.1464285714294
 20
171.3456361784006
 30
0.0
 40
-2.0
100
AcDbArc
 50
179.9999999999998
 51
89.99999999999991
  0
ARC
  5
9F
330
1F
100
AcDbEntity
  8
1
  6
Continuous
 62
     7
370
     9
100
AcDbCircle
 10
630.1464285714296
 20
171.3456361784006
 30
0.0
 40
-2.0
100
AcDbArc
 50
89.99999999999991
 51
0.0
  0
LINE
  5
A0
330
1F
100
AcDbEntity
  8
1
  6
Continuous
 62
     7
370
     9
100
AcDbLine
 10
634.1899285871136
 20
374.3400664589425
 30
0.0
 11
703.2196215497165
 21
434.888991691242
 31
0.0
  0
ARC
  5
A1
330
1F
100
AcDbEntity
  8
1
  6
Continuous
 62
     7
370
     9
100
AcDbCircle
 10
638.1464285714296
 20
369.829400446688
 30
0.0
 40
6.0
100
AcDbArc
 50
131.2553994397217
 51
179.9999999999998
  0
LINE
  5
A2
330
1F
100
AcDbEntity
  8
1
  6
Continuous
 62
     7
370
     9
100
AcDbLine
 10
720.0732331289628
 20
434.8889941218061
 30
0.0
 11
789.1029285653347
 21
374.3400664599966
 31
0.0
  0
ARC
  5
A3
330
1F
100
AcDbEntity
  8
1
  6
Continuous
 62
     7
370
     9
100
AcDbCircle
 10
785.1464285714294
 20
369.8294004561533
 30
0.0
 40
6.0
100
AcDbArc
 50
359.9999999999991
 51
48.74460043847228
  0
CIRCLE
  5
A4
330
1F
100
AcDbEntity
  8
1
  6
Continuous
 62
     7
370
     9
100
AcDbCircle
 10
711.6464285714292
 20
234.3456361784006
 30
0.0
 40
10.0
  0
CIRCLE
  5
A5
330
1F
100
AcDbEntity
  8
1
  6
Continuous
 62
     7
370
     9
100
AcDbCircle
 10
661.6464285714294
 20
234.3456361784006
 30
0.0
 40
4.0
  0
CIRCLE
  5
A6
330
1F
100
AcDbEntity
  8
1
  6
Continuous
 62
     7
370
     9
100
AcDbCircle
 10
761.6464285714294
 20
234.3456361784007
 30
0.0
 40
4.0
  0
LINE
  5
A7
330
1F
100
AcDbEntity
  8
1
  6
Continuous
 62
     7
370
     9
100
AcDbLine
 10
630.1464285714296
 20
106.3456361784006
 30
0.0
 11
793.1464285714294
 21
106.3456361784006
 31
0.0
  0
LINE
  5
A8
330
1F
100
AcDbEntity
  8
1
  6
Continuous
 62
     7
370
     9
100
AcDbLine
 10
785.1464285714294
 20
114.3456361784006
 30
0.0
 11
638.1464285714296
 21
114.3456361784006
 31
0.0
  0
LINE
  5
A9
330
1F
100
AcDbEntity
  8
1
  6
Continuous
 62
     7
370
     9
100
AcDbLine
 10
701.6464285714294
 20
346.3456361784006
 30
0.0
 11
672.6464285714294
 21
346.3456361784006
 31
0.0
  0
LINE
  5
AA
330
1F
100
AcDbEntity
  8
1
  6
Continuous
 62
     7
370
     9
100
AcDbLine
 10
701.6464285714294
 20
346.3456361784006
 30
0.0
 11
688.6464285714294
 21
334.3456361784006
 31
0.0
  0
LINE
  5
AB
330
1F
100
AcDbEntity
  8
1
  6
Continuous
 62
     7
370
     9
100
AcDbLine
 10
688.6464285714294
 20
334.3456361784006
 30
0.0
 11
734.6464285714294
 21
334.3456361784006
 31
0.0
  0
LINE
  5
AC
330
1F
100
AcDbEntity
  8
1
  6
Continuous
 62
     7
370
     9
100
AcDbLine
 10
721.6464285714294
 20
346.3456361784006
 30
0.0
 11
734.6464285714294
 21
334.3456361784006
 31
0.0
  0
LINE
  5
AD
330
1F
100
AcDbEntity
  8
1
  6
Continuous
 62
     7
370
     9
100
AcDbLine
 10
721.6464285714294
 20
346.3456361784006
 30
0.0
 11
750.6464285714294
 21
346.3456361784006
 31
0.0
  0
ELLIPSE
  5
AE
330
1F
100
AcDbEntity
  8
1
  6
Continuous
 62
     7
370
     9
100
AcDbEllipse
 10
672.6464285714294
 20
408.0719236107299
 30
0.0
 11
13.62413955790225
 21
11.95032126092104
 31
0.0
210
0.0
220
0.0
230
0.9999999999999999
 40
0.5168707112958035
 41
-1.996448900009189
 42
-0.0000000198009156
  0
ELLIPSE
  5
AF
330
1F
100
AcDbEntity
  8
1
  6
Continuous
 62
     7
370
     9
100
AcDbEllipse
 10
750.646428877591
 20
408.0719236107299
 30
0.0
 11
-13.62413955790225
 21
11.95032126092104
 31
0.0
210
0.0
220
0.0
230
0.9999999999999999
 40
0.5168707112958035
 41
0.0000000198009156
 42
1.996448900009189
  0
LINE
  5
B0
330
1F
100
AcDbEntity
  8
1
  6
Continuous
 62
     7
370
     9
100
AcDbLine
 10
672.6464285714294
 20
396.7238895949728
 30
0.0
 11
672.6464285714294
 21
346.3456361784006
 31
0.0
  0
LINE
  5
B1
330
1F
100
AcDbEntity
  8
1
  6
Continuous
 62
     7
370
     9
100
AcDbLine
 10
750.6464285714294
 20
396.7238895949729
 30
0.0
 11
750.6464285714294
 21
346.3456361784006
 31
0.0
  0
LINE
  5
B2
330
1F
100
AcDbEntity
  8
1
  6
Continuous
 62
     7
370
     9
100
AcDbLine
 10
639.9629831616239
 20
379.4038619763785
 30
0.0
 11
639.9629831761929
 21
379.4038619618095
 31
0.0
  0
LINE
  5
B3
330
1F
100
AcDbEntity
  8
1
  6
Continuous
 62
     7
370
     9
100
AcDbLine
 10
672.6464285714294
 20
346.7204165665727
 30
0.0
 11
673.0212089596016
 21
346.3456361784006
 31
0.0
  0
LINE
  5
B4
330
1F
100
AcDbEntity
  8
1
  6
Continuous
 62
     7
370
     9
100
AcDbLine
 10
644.4832996777636
 20
383.3688268344773
 30
0.0
 11
644.4832997037402
 21
383.3688268085008
 31
0.0
  0
LINE
  5
B5
330
1F
100
AcDbEntity
  8
1
  6
Continuous
 62
     7
370
     9
100
AcDbLine
 10
672.6464285714294
 20
355.2056979408114
 30
0.0
 11
681.50649033384
 21
346.3456361784006
 31
0.0
  0
LINE
  5
B6
330
1F
100
AcDbEntity
  8
1
  6
Continuous
 62
     7
370
     9
100
AcDbLine
 10
691.1736606878828
 20
336.6784658243577
 30
0.0
 11
693.50649033384
 21
334.3456361784006
 31
0.0
  0
LINE
  5
B7
330
1F
100
AcDbEntity
  8
1
  6
Continuous
 62
     7
370
     9
100
AcDbLine
 10
649.0036161939036
 20
387.3337916925762
 30
0.0
 11
649.0036162312874
 21
387.3337916551921
 31
0.0
  0
LINE
  5
B8
330
1F
100
AcDbEntity
  8
1
  6
Continuous
 62
     7
370
     9
100
AcDbLine
 10
672.6464285714294
 20
363.69097931505
 30
0.0
 11
689.9917717080787
 21
346.3456361784006
 31
0.0
  0
LINE
  5
B9
330
1F
100
AcDbEntity
  8
1
  6
Continuous
 62
     7
370
     9
100
AcDbLine
 10
695.5860070024869
 20
340.7514008839922
 30
0.0
 11
701.9917717080784
 21
334.3456361784006
 31
0.0
  0
LINE
  5
BA
330
1F
100
AcDbEntity
  8
1
  6
Continuous
 62
     7
370
     9
100
AcDbLine
 10
653.5239327100433
 20
391.298756550675
 30
0.0
 11
653.5239327588349
 21
391.2987565018834
 31
0.0
  0
LINE
  5
BB
330
1F
100
AcDbEntity
  8
1
  6
Continuous
 62
     7
370
     9
100
AcDbLine
 10
672.6464285714294
 20
372.1762606892887
 30
0.0
 11
698.4770530823171
 21
346.3456361784006
 31
0.0
  0
LINE
  5
BC
330
1F
100
AcDbEntity
  8
1
  6
Continuous
 62
     7
370
     9
100
AcDbLine
 10
699.998353317091
 20
344.8243359436267
 30
0.0
 11
710.4770530823171
 21
334.3456361784006
 31
0.0
  0
LINE
  5
BD
330
1F
100
AcDbEntity
  8
1
  6
Continuous
 62
     7
370
     9
100
AcDbLine
 10
658.044249226183
 20
395.2637214087738
 30
0.0
 11
658.0442492863822
 21
395.2637213485747
 31
0.0
  0
LINE
  5
BE
330
1F
100
AcDbEntity
  8
1
  6
Continuous
 62
     7
370
     9
100
AcDbLine
 10
672.6464285714294
 20
380.6615420635272
 30
0.0
 11
718.9623344565555
 21
334.3456361784006
 31
0.0
  0
LINE
  5
BF
330
1F
100
AcDbEntity
  8
1
  6
Continuous
 62
     7
370
     9
100
AcDbLine
 10
662.5645657423227
 20
399.2286862668727
 30
0.0
 11
662.5645658139294
 21
399.228686195266
 31
0.0
  0
LINE
  5
C0
330
1F
100
AcDbEntity
  8
1
  6
Continuous
 62
     7
370
     9
100
AcDbLine
 10
672.6464285714294
 20
389.1468234377659
 30
0.0
 11
727.4476158307941
 21
334.3456361784006
 31
0.0
  0
LINE
  5
C1
330
1F
100
AcDbEntity
  8
1
  6
Continuous
 62
     7
370
     9
100
AcDbLine
 10
667.0848822584624
 20
403.1936511249716
 30
0.0
 11
667.0848823414767
 21
403.1936510419573
 31
0.0
  0
LINE
  5
C2
330
1F
100
AcDbEntity
  8
1
  6
Continuous
 62
     7
370
     9
100
AcDbLine
 10
673.2327421350476
 20
397.0457912483864
 30
0.0
 11
723.9328972050328
 21
346.3456361784006
 31
0.0
  0
LINE
  5
C3
330
1F
100
AcDbEntity
  8
1
  6
Continuous
 62
     7
370
     9
100
AcDbLine
 10
671.6051987746021
 20
407.1586159830704
 30
0.0
 11
671.605198869024
 21
407.1586158886486
 31
0.0
  0
LINE
  5
C4
330
1F
100
AcDbEntity
  8
1
  6
Continuous
 62
     7
370
     9
100
AcDbLine
 10
678.2367529689154
 20
400.527061788757
 30
0.0
 11
732.4181785792712
 21
346.3456361784006
 31
0.0
  0
LINE
  5
C5
330
1F
100
AcDbEntity
  8
1
  6
Continuous
 62
     7
370
     9
100
AcDbLine
 10
676.1255152907418
 20
411.1235808411693
 30
0.0
 11
676.1255153965712
 21
411.1235807353399
 31
0.0
  0
LINE
  5
C6
330
1F
100
AcDbEntity
  8
1
  6
Continuous
 62
     7
370
     9
100
AcDbLine
 10
682.4820317811395
 20
404.7670643507714
 30
0.0
 11
740.9034599535098
 21
346.3456361784006
 31
0.0
  0
LINE
  5
C7
330
1F
100
AcDbEntity
  8
1
  6
Continuous
 62
     7
370
     9
100
AcDbLine
 10
680.6458318068817
 20
415.0885456992681
 30
0.0
 11
680.6458319241185
 21
415.0885455820311
 31
0.0
  0
LINE
  5
C8
330
1F
100
AcDbEntity
  8
1
  6
Continuous
 62
     7
370
     9
100
AcDbLine
 10
685.885319924902
 20
409.8490575812476
 30
0.0
 11
749.3887413277484
 21
346.3456361784006
 31
0.0
  0
LINE
  5
C9
330
1F
100
AcDbEntity
  8
1
  6
Continuous
 62
     7
370
     9
100
AcDbLine
 10
685.1661483230214
 20
419.053510557367
 30
0.0
 11
685.1661484516658
 21
419.0535104287225
 31
0.0
  0
LINE
  5
CA
330
1F
100
AcDbEntity
  8
1
  6
Continuous
 62
     7
370
     9
100
AcDbLine
 10
687.5844287618379
 20
416.6352301185505
 30
0.0
 11
750.6464285714294
 21
353.5732303089582
 31
0.0
  0
LINE
  5
CB
330
1F
100
AcDbEntity
  8
1
  6
Continuous
 62
     7
370
     9
100
AcDbLine
 10
689.6864648391611
 20
423.0184754154658
 30
0.0
 11
750.6464285714294
 21
362.0585116831969
 31
0.0
  0
LINE
  5
CC
330
1F
100
AcDbEntity
  8
1
  6
Continuous
 62
     7
370
     9
100
AcDbLine
 10
694.2067813553008
 20
426.9834402735646
 30
0.0
 11
750.6464285714294
 21
370.5437930574354
 31
0.0
  0
LINE
  5
CD
330
1F
100
AcDbEntity
  8
1
  6
Continuous
 62
     7
370
     9
100
AcDbLine
 10
698.7270978714405
 20
430.9484051316635
 30
0.0
 11
750.6464285714294
 21
379.0290744316741
 31
0.0
  0
LINE
  5
CE
330
1F
100
AcDbEntity
  8
1
  6
Continuous
 62
     7
370
     9
100
AcDbLine
 10
703.245926369701
 20
434.9148580076417
 30
0.0
 11
703.2717926785767
 21
434.8889916987659
 31
0.0
  0
LINE
  5
CF
330
1F
100
AcDbEntity
  8
1
  6
Continuous
 62
     7
370
     9
100
AcDbLine
 10
703.2717926785767
 20
434.8889916987659
 30
0.0
 11
750.6464285714294
 21
387.5143558059127
 31
0.0
  0
LINE
  5
D0
330
1F
100
AcDbEntity
  8
1
  6
Continuous
 62
     7
370
     9
100
AcDbLine
 10
708.6743149708936
 20
437.9717507806874
 30
0.0
 11
711.7570728291003
 21
434.888992922481
 31
0.0
  0
LINE
  5
D1
330
1F
100
AcDbEntity
  8
1
  6
Continuous
 62
     7
370
     9
100
AcDbLine
 10
711.7570728291003
 20
434.888992922481
 30
0.0
 11
738.1532364776153
 21
408.4928292739656
 31
0.0
  0
LINE
  5
D2
330
1F
100
AcDbEntity
  8
1
  6
Continuous
 62
     7
370
     9
100
AcDbLine
 10
748.8958121472319
 20
397.7502536043488
 30
0.0
 11
748.9266589968759
 21
397.7194067547049
 31
0.0
  0
LINE
  5
D3
330
1F
100
AcDbEntity
  8
1
  6
Continuous
 62
     7
370
     9
100
AcDbLine
 10
748.9339398655941
 20
397.7121258859866
 30
0.0
 11
750.6464285714294
 21
395.9996371801513
 31
0.0
  0
LINE
  5
D4
330
1F
100
AcDbEntity
  8
1
  6
Continuous
 62
     7
370
     9
100
AcDbLine
 10
721.4497940462425
 20
433.6815530795771
 30
0.0
 11
736.2662796064612
 21
418.8650675193582
 31
0.0
  0
LINE
  5
D5
330
1F
100
AcDbEntity
  8
1
  6
Continuous
 62
     7
370
     9
100
AcDbLine
 10
632.1464285714296
 20
120.3456361784006
 30
0.0
 11
632.1464285714296
 21
369.829400446688
 31
0.0
  0
ARC
  5
D6
330
1F
100
AcDbEntity
  8
1
  6
Continuous
 62
     7
370
     9
100
AcDbCircle
 10
638.1464285714296
 20
120.3456361784006
 30
0.0
 40
6.0
100
AcDbArc
 50
179.9999999999998
 51
269.9999999999998
  0
LINE
  5
D7
330
1F
100
AcDbEntity
  8
1
  6
Continuous
 62
     7
370
     9
100
AcDbLine
 10
624.1464285714296
 20
373.4618870934813
 30
0.0
 11
624.1464285714296
 21
112.3456361784006
 31
0.0
  0
ARC
  5
D8
330
1F
100
AcDbEntity
  8
1
  6
Continuous
 62
     7
370
     9
100
AcDbCircle
 10
630.1464285714296
 20
112.3456361784006
 30
0.0
 40
6.0
100
AcDbArc
 50
179.9999999999998
 51
269.9999999999998
  0
LINE
  5
D9
330
1F
100
AcDbEntity
  8
1
  6
Continuous
 62
     7
370
     9
100
AcDbLine
 10
791.1464285714294
 20
369.8294004561533
 30
0.0
 11
791.1464285714294
 21
120.3456361784006
 31
0.0
  0
ARC
  5
DA
330
1F
100
AcDbEntity
  8
1
  6
Continuous
 62
     7
370
     9
100
AcDbCircle
 10
785.1464285714294
 20
120.3456361784006
 30
0.0
 40
6.0
100
AcDbArc
 50
269.9999999999998
 51
359.9999999999991
  0
LINE
  5
DB
330
1F
100
AcDbEntity
  8
1
  6
Continuous
 62
     7
370
     9
100
AcDbLine
 10
799.1464285714294
 20
112.3456361784006
 30
0.0
 11
799.1464285714294
 21
373.4618870934812
 31
0.0
  0
ARC
  5
DC
330
1F
100
AcDbEntity
  8
1
  6
Continuous
 62
     7
370
     9
100
AcDbCircle
 10
793.1464285714294
 20
112.3456361784006
 30
0.0
 40
6.0
100
AcDbArc
 50
269.9999999999998
 51
359.9999999999991
  0
TEXT
  5
DD
330
1F
100
AcDbEntity
  8
1
  6
Continuous
 62
     7
370
     9
100
AcDbText
 10
750.850569173233
 20
174.319767690081
 30
0.0
 40
10.5
  1
M8～2
 41
0.625
100
AcDbText
  0
LINE
  5
DE
330
1F
100
AcDbEntity
  8
1
  6
Continuous
 62
     7
370
     9
100
AcDbLine
 10
761.6464285714295
 20
234.3456361784006
 30
0.0
 11
775.9964285714309
 21
215.1482142857143
 31
0.0
  0
LINE
  5
DF
330
1F
100
AcDbEntity
  8
1
  6
Continuous
 62
     7
370
     9
100
AcDbLine
 10
775.9964285714309
 20
215.1482142857143
 30
0.0
 11
765.6250000000023
 21
186.1553571428571
 31
0.0
  0
TEXT
  5
E0
330
1F
100
AcDbEntity
  8
1
  6
Continuous
 62
     7
370
     9
100
AcDbText
 10
657.2434263160887
 20
160.6483391186524
 30
0.0
 40
10.5
  1
A面
 41
0.75
100
AcDbText
  0
ARC
  5
E1
330
1F
100
AcDbEntity
  8
1
  6
Continuous
 62
     7
370
     9
100
AcDbCircle
 10
483.3035714285718
 20
265.1266991028054
 30
0.0
 40
3.0
100
AcDbArc
 50
180.0000000000007
 51
269.9999999999998
  0
LINE
  5
E2
330
1F
100
AcDbEntity
  8
1
  6
Continuous
 62
     7
370
     9
100
AcDbLine
 10
483.3035714285718
 20
262.1266991028054
 30
0.0
 11
536.9035714285719
 21
262.1266991028054
 31
0.0
  0
ARC
  5
E3
330
1F
100
AcDbEntity
  8
1
  6
Continuous
 62
     7
370
     9
100
AcDbCircle
 10
536.9035714285719
 20
265.1266991028054
 30
0.0
 40
3.0
100
AcDbArc
 50
269.9999999999998
 51
359.9999999999986
  0
POLYLINE
  5
E4
330
1F
100
AcDbEntity
  8
1
  6
Continuous
 62
     7
370
     9
100
AcDb2dPolyline
 66
     1
 10
0.0
 20
0.0
 30
0.0
 70
     2
  0
VERTEX
  5
E6
330
E4
100
AcDbEntity
  8
1
  6
Continuous
 62
     7
370
     9
100
AcDbVertex
100
AcDb2dVertex
 10
480.3035714285718
 20
348.4446428571439
 30
0.0
  0
VERTEX
  5
E7
330
E4
100
AcDbEntity
  8
1
  6
Continuous
 62
     7
370
     9
100
AcDbVertex
100
AcDb2dVertex
 10
480.4322560730499
 20
348.5374427462326
 30
0.0
  0
VERTEX
  5
E8
330
E4
100
AcDbEntity
  8
1
  6
Continuous
 62
     7
370
     9
100
AcDbVertex
100
AcDb2dVertex
 10
480.8148171359915
 20
348.8132112781209
 30
0.0
  0
VERTEX
  5
E9
330
E4
100
AcDbEntity
  8
1
  6
Continuous
 62
     7
370
     9
100
AcDbVertex
100
AcDb2dVertex
 10
481.4409687128764
 20
349.2635651440148
 30
0.0
  0
VERTEX
  5
EA
330
E4
100
AcDbEntity
  8
1
  6
Continuous
 62
     7
370
     9
100
AcDbVertex
100
AcDb2dVertex
 10
482.2941702332955
 20
349.8731113825709
 30
0.0
  0
VERTEX
  5
EB
330
E4
100
AcDbEntity
  8
1
  6
Continuous
 62
     7
370
     9
100
AcDbVertex
100
AcDb2dVertex
 10
483.352401824953
 20
350.6179984064773
 30
0.0
  0
VERTEX
  5
EC
330
E4
100
AcDbEntity
  8
1
  6
Continuous
 62
     7
370
     9
100
AcDbVertex
100
AcDb2dVertex
 10
484.5890281639837
 20
351.4650492690434
 30
0.0
  0
VERTEX
  5
ED
330
E4
100
AcDbEntity
  8
1
  6
Continuous
 62
     7
370
     9
100
AcDbVertex
100
AcDb2dVertex
 10
485.9736025423326
 20
352.372219723286
 30
0.0
  0
VERTEX
  5
EE
330
E4
100
AcDbEntity
  8
1
  6
Continuous
 62
     7
370
     9
100
AcDbVertex
100
AcDb2dVertex
 10
487.4725038666604
 20
353.2908606247962
 30
0.0
  0
VERTEX
  5
EF
330
E4
100
AcDbEntity
  8
1
  6
Continuous
 62
     7
370
     9
100
AcDbVertex
100
AcDb2dVertex
 10
489.0493710120834
 20
354.1698278922157
 30
0.0
  0
VERTEX
  5
F0
330
E4
100
AcDbEntity
  8
1
  6
Continuous
 62
     7
370
     9
100
AcDbVertex
100
AcDb2dVertex
 10
490.6653830478743
 20
354.9609799197849
 30
0.0
  0
VERTEX
  5
F1
330
E4
100
AcDbEntity
  8
1
  6
Continuous
 62
     7
370
     9
100
AcDbVertex
100
AcDb2dVertex
 10
492.2795081400628
 20
355.6251604684786
 30
0.0
  0
VERTEX
  5
F2
330
E4
100
AcDbEntity
  8
1
  6
Continuous
 62
     7
370
     9
100
AcDbVertex
100
AcDb2dVertex
 10
493.8488878812732
 20
356.1375034062706
 30
0.0
  0
VERTEX
  5
F3
330
E4
100
AcDbEntity
  8
1
  6
Continuous
 62
     7
370
     9
100
AcDbVertex
100
AcDb2dVertex
 10
495.3295237165668
 20
356.4908933405338
 30
0.0
  0
VERTEX
  5
F4
330
E4
100
AcDbEntity
  8
1
  6
Continuous
 62
     7
370
     9
100
AcDbVertex
100
AcDb2dVertex
 10
496.6773848031976
 20
356.6966918389892
 30
0.0
  0
VERTEX
  5
F5
330
E4
100
AcDbEntity
  8
1
  6
Continuous
 62
     7
370
     9
100
AcDbVertex
100
AcDb2dVertex
 10
497.8499704222232
 20
356.7823442983607
 30
0.0
  0
VERTEX
  5
F6
330
E4
100
AcDbEntity
  8
1
  6
Continuous
 62
     7
370
     9
100
AcDbVertex
100
AcDb2dVertex
 10
498.8082532165271
 20
356.7861120661032
 30
0.0
  0
VERTEX
  5
F7
330
E4
100
AcDbEntity
  8
1
  6
Continuous
 62
     7
370
     9
100
AcDbVertex
100
AcDb2dVertex
 10
499.5188261272848
 20
356.7497890518389
 30
0.0
  0
VERTEX
  5
F8
330
E4
100
AcDbEntity
  8
1
  6
Continuous
 62
     7
370
     9
100
AcDbVertex
100
AcDb2dVertex
 10
499.9560002226296
 20
356.7107212857594
 30
0.0
  0
VERTEX
  5
F9
330
E4
100
AcDbEntity
  8
1
  6
Continuous
 62
     7
370
     9
100
AcDbVertex
100
AcDb2dVertex
 10
500.103571428572
 20
356.694642857144
 30
0.0
  0
VERTEX
  5
FA
330
E4
100
AcDbEntity
  8
1
  6
Continuous
 62
     7
370
     9
100
AcDbVertex
100
AcDb2dVertex
 10
500.2514009701017
 20
356.6770743123979
 30
0.0
  0
VERTEX
  5
FB
330
E4
100
AcDbEntity
  8
1
  6
Continuous
 62
     7
370
     9
100
AcDbVertex
100
AcDb2dVertex
 10
500.6923460088938
 20
356.6162152445359
 30
0.0
  0
VERTEX
  5
FC
330
E4
100
AcDbEntity
  8
1
  6
Continuous
 62
     7
370
     9
100
AcDbVertex
100
AcDb2dVertex
 10
501.4184391283139
 20
356.4898880686316
 30
0.0
  0
VERTEX
  5
FD
330
E4
100
AcDbEntity
  8
1
  6
Continuous
 62
     7
370
     9
100
AcDbVertex
100
AcDb2dVertex
 10
502.4153912740139
 20
356.2681825201596
 30
0.0
  0
VERTEX
  5
FE
330
E4
100
AcDbEntity
  8
1
  6
Continuous
 62
     7
370
     9
100
AcDbVertex
100
AcDb2dVertex
 10
503.6614408730413
 20
355.9222199753527
 30
0.0
  0
VERTEX
  5
FF
330
E4
100
AcDbEntity
  8
1
  6
Continuous
 62
     7
370
     9
100
AcDbVertex
100
AcDb2dVertex
 10
505.1263754919573
 20
355.4332455437884
 30
0.0
  0
VERTEX
  5
100
330
E4
100
AcDbEntity
  8
1
  6
Continuous
 62
     7
370
     9
100
AcDbVertex
100
AcDb2dVertex
 10
506.7711600736993
 20
354.7998105657423
 30
0.0
  0
VERTEX
  5
101
330
E4
100
AcDbEntity
  8
1
  6
Continuous
 62
     7
370
     9
100
AcDbVertex
100
AcDb2dVertex
 10
508.5485011055409
 20
354.0412550785647
 30
0.0
  0
VERTEX
  5
102
330
E4
100
AcDbEntity
  8
1
  6
Continuous
 62
     7
370
     9
100
AcDbVertex
100
AcDb2dVertex
 10
510.4044820994528
 20
353.1965784829587
 30
0.0
  0
VERTEX
  5
103
330
E4
100
AcDbEntity
  8
1
  6
Continuous
 62
     7
370
     9
100
AcDbVertex
100
AcDb2dVertex
 10
512.2811684971346
 20
352.3188856377841
 30
0.0
  0
VERTEX
  5
104
330
E4
100
AcDbEntity
  8
1
  6
Continuous
 62
     7
370
     9
100
AcDbVertex
100
AcDb2dVertex
 10
514.1198566120661
 20
351.4666505652729
 30
0.0
  0
VERTEX
  5
105
330
E4
100
AcDbEntity
  8
1
  6
Continuous
 62
     7
370
     9
100
AcDbVertex
100
AcDb2dVertex
 10
515.8644858377113
 20
350.6937972025391
 30
0.0
  0
VERTEX
  5
106
330
E4
100
AcDbEntity
  8
1
  6
Continuous
 62
     7
370
     9
100
AcDbVertex
100
AcDb2dVertex
 10
517.4646845178181
 20
350.0408743469572
 30
0.0
  0
VERTEX
  5
107
330
E4
100
AcDbEntity
  8
1
  6
Continuous
 62
     7
370
     9
100
AcDbVertex
100
AcDb2dVertex
 10
518.8779907139237
 20
349.5293338497937
 30
0.0
  0
VERTEX
  5
108
330
E4
100
AcDbEntity
  8
1
  6
Continuous
 62
     7
370
     9
100
AcDbVertex
100
AcDb2dVertex
 10
520.0709641096747
 20
349.1601724346806
 30
0.0
  0
VERTEX
  5
109
330
E4
100
AcDbEntity
  8
1
  6
Continuous
 62
     7
370
     9
100
AcDbVertex
100
AcDb2dVertex
 10
521.0191439018195
 20
348.9171491687606
 30
0.0
  0
VERTEX
  5
10A
330
E4
100
AcDbEntity
  8
1
  6
Continuous
 62
     7
370
     9
100
AcDbVertex
100
AcDb2dVertex
 10
521.7060537586942
 20
348.7736955337305
 30
0.0
  0
VERTEX
  5
10B
330
E4
100
AcDbEntity
  8
1
  6
Continuous
 62
     7
370
     9
100
AcDbVertex
100
AcDb2dVertex
 10
522.1216507404386
 20
348.7017571826556
 30
0.0
  0
VERTEX
  5
10C
330
E4
100
AcDbEntity
  8
1
  6
Continuous
 62
     7
370
     9
100
AcDbVertex
100
AcDb2dVertex
 10
522.2607142857148
 20
348.6803571428583
 30
0.0
  0
VERTEX
  5
10D
330
E4
100
AcDbEntity
  8
1
  6
Continuous
 62
     7
370
     9
100
AcDbVertex
100
AcDb2dVertex
 10
522.3993992545594
 20
348.6603946635909
 30
0.0
  0
VERTEX
  5
10E
330
E4
100
AcDbEntity
  8
1
  6
Continuous
 62
     7
370
     9
100
AcDbVertex
100
AcDb2dVertex
 10
522.8094542485958
 20
348.6094735154825
 30
0.0
  0
VERTEX
  5
10F
330
E4
100
AcDbEntity
  8
1
  6
Continuous
 62
     7
370
     9
100
AcDbVertex
100
AcDb2dVertex
 10
523.4734288315615
 20
348.5527830201966
 30
0.0
  0
VERTEX
  5
110
330
E4
100
AcDbEntity
  8
1
  6
Continuous
 62
     7
370
     9
100
AcDbVertex
100
AcDb2dVertex
 10
524.3639781249386
 20
348.526945416673
 30
0.0
  0
VERTEX
  5
111
330
E4
100
AcDbEntity
  8
1
  6
Continuous
 62
     7
370
     9
100
AcDbVertex
100
AcDb2dVertex
 10
525.4461694830954
 20
348.5730878017575
 30
0.0
  0
VERTEX
  5
112
330
E4
100
AcDbEntity
  8
1
  6
Continuous
 62
     7
370
     9
100
AcDbVertex
100
AcDb2dVertex
 10
526.6801726703579
 20
348.7291205958532
 30
0.0
  0
VERTEX
  5
113
330
E4
100
AcDbEntity
  8
1
  6
Continuous
 62
     7
370
     9
100
AcDbVertex
100
AcDb2dVertex
 10
528.0239310692922
 20
349.0226833062773
 30
0.0
  0
VERTEX
  5
114
330
E4
100
AcDbEntity
  8
1
  6
Continuous
 62
     7
370
     9
100
AcDbVertex
100
AcDb2dVertex
 10
529.4354566571817
 20
349.4660303889754
 30
0.0
  0
VERTEX
  5
115
330
E4
100
AcDbEntity
  8
1
  6
Continuous
 62
     7
370
     9
100
AcDbVertex
100
AcDb2dVertex
 10
530.8745044185475
 20
350.0536870712168
 30
0.0
  0
VERTEX
  5
116
330
E4
100
AcDbEntity
  8
1
  6
Continuous
 62
     7
370
     9
100
AcDbVertex
100
AcDb2dVertex
 10
532.3035349752258
 20
350.7631120946706
 30
0.0
  0
VERTEX
  5
117
330
E4
100
AcDbEntity
  8
1
  6
Continuous
 62
     7
370
     9
100
AcDbVertex
100
AcDb2dVertex
 10
533.6880319108458
 20
351.5579970187325
 30
0.0
  0
VERTEX
  5
118
330
E4
100
AcDbEntity
  8
1
  6
Continuous
 62
     7
370
     9
100
AcDbVertex
100
AcDb2dVertex
 10
534.9963672756563
 20
352.3933441895927
 30
0.0
  0
VERTEX
  5
119
330
E4
100
AcDbEntity
  8
1
  6
Continuous
 62
     7
370
     9
100
AcDbVertex
100
AcDb2dVertex
 10
536.1994783160106
 20
353.2211995424603
 30
0.0
  0
VERTEX
  5
11A
330
E4
100
AcDbEntity
  8
1
  6
Continuous
 62
     7
370
     9
100
AcDbVertex
100
AcDb2dVertex
 10
537.2706183328627
 20
353.9959186350674
 30
0.0
  0
VERTEX
  5
11B
330
E4
100
AcDbEntity
  8
1
  6
Continuous
 62
     7
370
     9
100
AcDbVertex
100
AcDb2dVertex
 10
538.1853794603751
 20
354.6780967143807
 30
0.0
  0
VERTEX
  5
11C
330
E4
100
AcDbEntity
  8
1
  6
Continuous
 62
     7
370
     9
100
AcDbVertex
100
AcDb2dVertex
 10
538.922075126312
 20
355.2367198642226
 30
0.0
  0
VERTEX
  5
11D
330
E4
100
AcDbEntity
  8
1
  6
Continuous
 62
     7
370
     9
100
AcDbVertex
100
AcDb2dVertex
 10
539.4624451128597
 20
355.6495797899692
 30
0.0
  0
VERTEX
  5
11E
330
E4
100
AcDbEntity
  8
1
  6
Continuous
 62
     7
370
     9
100
AcDbVertex
100
AcDb2dVertex
 10
539.7925390174452
 20
355.9024156566156
 30
0.0
  0
VERTEX
  5
11F
330
E4
100
AcDbEntity
  8
1
  6
Continuous
 62
     7
370
     9
100
AcDbVertex
100
AcDb2dVertex
 10
539.9035714285719
 20
355.9875000000011
 30
0.0
  0
SEQEND
  5
E5
330
E4
100
AcDbEntity
  8
1
  6
Continuous
370
     9
  0
LINE
  5
120
330
1F
100
AcDbEntity
  8
1
  6
Continuous
 62
     7
370
     9
100
AcDbLine
 10
480.3035714285718
 20
348.4446428571439
 30
0.0
 11
480.3035714285718
 21
265.1266991028054
 31
0.0
  0
LINE
  5
121
330
1F
100
AcDbEntity
  8
1
  6
Continuous
 62
     7
370
     9
100
AcDbLine
 10
539.9035714285719
 20
355.9875000000011
 30
0.0
 11
539.9035714285719
 21
265.1266991028054
 31
0.0
  0
LINE
  5
122
330
1F
100
AcDbEntity
  8
1
  6
DOT
 62
     7
370
     9
100
AcDbLine
 10
520.1035714285719
 20
268.1266991028054
 30
0.0
 11
520.1035714285719
 21
262.1266991028054
 31
0.0
  0
LINE
  5
123
330
1F
100
AcDbEntity
  8
1
  6
DOT
 62
     7
370
     9
100
AcDbLine
 10
520.1035714285719
 20
268.1266991028054
 30
0.0
 11
539.9035714285719
 21
268.1266991028054
 31
0.0
  0
LINE
  5
124
330
1F
100
AcDbEntity
  8
1
  6
DOT
 62
     7
370
     9
100
AcDbLine
 10
520.1035714285719
 20
280.1266991028054
 30
0.0
 11
539.9035714285719
 21
280.1266991028054
 31
0.0
  0
LINE
  5
125
330
1F
100
AcDbEntity
  8
1
  6
DOT
 62
     7
370
     9
100
AcDbLine
 10
520.1035714285719
 20
308.1266991028054
 30
0.0
 11
520.1035714285719
 21
280.1266991028054
 31
0.0
  0
LINE
  5
126
330
1F
100
AcDbEntity
  8
1
  6
DOT
 62
     7
370
     9
100
AcDbLine
 10
510.1035714285719
 20
312.1266991028054
 30
0.0
 11
520.1035714285719
 21
308.1266991028054
 31
0.0
  0
LINE
  5
127
330
1F
100
AcDbEntity
  8
1
  6
DOT
 62
     7
370
     9
100
AcDbLine
 10
500.1035714285719
 20
308.1266991028054
 30
0.0
 11
510.1035714285719
 21
312.1266991028054
 31
0.0
  0
LINE
  5
128
330
1F
100
AcDbEntity
  8
1
  6
DOT
 62
     7
370
     9
100
AcDbLine
 10
500.1035714285719
 20
308.1266991028054
 30
0.0
 11
500.1035714285719
 21
262.1266991028054
 31
0.0
  0
LINE
  5
129
330
1F
100
AcDbEntity
  8
1
  6
Continuous
 62
     7
370
     9
100
AcDbLine
 10
500.1035714285719
 20
260.0517857142865
 30
0.0
 11
500.1035714285719
 21
251.6839285714293
 31
0.0
  0
LINE
  5
12A
330
1F
100
AcDbEntity
  8
1
  6
Continuous
 62
     7
370
     9
100
AcDbLine
 10
520.1035714285719
 20
260.0517857142865
 30
0.0
 11
520.1035714285717
 21
251.6839285714293
 31
0.0
  0
LINE
  5
12B
330
1F
100
AcDbEntity
  8
1
  6
Continuous
 62
     7
370
     9
100
AcDbLine
 10
520.1035714285719
 20
253.8053571428579
 30
0.0
 11
500.1035714285719
 21
253.8053571428579
 31
0.0
  0
CIRCLE
  5
12C
330
1F
100
AcDbEntity
  8
1
  6
Continuous
 62
     7
370
     9
100
AcDbCircle
 10
500.1035714285719
 20
253.8053571428579
 30
0.0
 40
1.0
  0
CIRCLE
  5
12D
330
1F
100
AcDbEntity
  8
1
  6
Continuous
 62
     7
370
     9
100
AcDbCircle
 10
520.1035714285717
 20
253.8053571428579
 30
0.0
 40
1.0
  0
POLYLINE
  5
12E
330
1F
100
AcDbEntity
  8
1
  6
Continuous
 62
     7
370
     9
100
AcDb2dPolyline
 66
     1
 10
0.0
 20
0.0
 30
0.0
  0
VERTEX
  5
130
330
12E
100
AcDbEntity
  8
1
  6
Continuous
 62
     7
370
     9
100
AcDbVertex
100
AcDb2dVertex
 10
535.6964285714294
 20
275.0196428571438
 30
0.0
  0
VERTEX
  5
131
330
12E
100
AcDbEntity
  8
1
  6
Continuous
 62
     7
370
     9
100
AcDbVertex
100
AcDb2dVertex
 10
545.8321428571437
 20
290.5767857142868
 30
0.0
  0
VERTEX
  5
132
330
12E
100
AcDbEntity
  8
1
  6
Continuous
 62
     7
370
     9
100
AcDbVertex
100
AcDb2dVertex
 10
560.7464285714295
 20
290.5767857142868
 30
0.0
  0
SEQEND
  5
12F
330
12E
100
AcDbEntity
  8
1
  6
Continuous
370
     9
  0
TEXT
  5
133
330
1F
100
AcDbEntity
  8
1
  6
Continuous
 62
     7
370
     9
100
AcDbText
 10
550.2464285714295
 20
290.5767857142868
 30
0.0
 40
10.5
  1
M5
 41
0.5
100
AcDbText
  0
TEXT
  5
134
330
1F
100
AcDbEntity
  8
1
  6
Continuous
 62
     7
370
     9
100
AcDbText
 10
487.803099244511
 20
236.9434910528665
 30
0.0
 40
10.5
  1
10φ+0.02
 41
0.5625
100
AcDbText
  0
LINE
  5
135
330
1F
100
AcDbEntity
  8
1
  6
Continuous
 62
     7
370
     9
100
AcDbLine
 10
74.67499984691955
 20
177.1553571428566
 30
0.0
 11
74.67499984691955
 21
165.1553571428566
 31
0.0
  0
ARC
  5
136
330
1F
100
AcDbEntity
  8
1
  6
Continuous
 62
     7
370
     9
100
AcDbCircle
 10
84.67499984691955
 20
177.1553571428566
 30
0.0
 40
10.0
100
AcDbArc
 50
89.99999999999991
 51
179.9999999999998
  0
LINE
  5
137
330
1F
100
AcDbEntity
  8
1
  6
Continuous
 62
     7
370
     9
100
AcDbLine
 10
84.67499984691955
 20
187.1553571428566
 30
0.0
 11
149.6749998469195
 21
187.1553571428566
 31
0.0
  0
ARC
  5
138
330
1F
100
AcDbEntity
  8
1
  6
Continuous
 62
     7
370
     9
100
AcDbCircle
 10
149.6749998469195
 20
197.1553571428566
 30
0.0
 40
10.0
100
AcDbArc
 50
269.9999999999998
 51
0.0
  0
LINE
  5
139
330
1F
100
AcDbEntity
  8
1
  6
Continuous
 62
     7
370
     9
100
AcDbLine
 10
179.6749998469195
 20
495.1553571428566
 30
0.0
 11
179.6749998469195
 21
165.1553571428566
 31
0.0
  0
LINE
  5
13A
330
1F
100
AcDbEntity
  8
1
  6
Continuous
 62
     7
370
     9
100
AcDbLine
 10
159.6749998469195
 20
495.1553571428566
 30
0.0
 11
159.6749998469195
 21
197.1553571428567
 31
0.0
  0
LINE
  5
13B
330
1F
100
AcDbEntity
  8
1
  6
Continuous
 62
     7
370
     9
100
AcDbLine
 10
159.6749998469195
 20
495.1553571428566
 30
0.0
 11
191.6749998469195
 21
495.1553571428566
 31
0.0
  0
LINE
  5
13C
330
1F
100
AcDbEntity
  8
1
  6
Continuous
 62
     7
370
     9
100
AcDbLine
 10
74.67499984691955
 20
410.1553571428566
 30
0.0
 11
74.67499984691955
 21
177.1553571428566
 31
0.0
  0
LINE
  5
13D
330
1F
100
AcDbEntity
  8
1
  6
Continuous
 62
     7
370
     9
100
AcDbLine
 10
74.67499984691955
 20
410.1553571428566
 30
0.0
 11
159.6749998469195
 21
495.1553571428566
 31
0.0
  0
LINE
  5
13E
330
1F
100
AcDbEntity
  8
1
  6
Continuous
 62
     7
370
     9
100
AcDbLine
 10
306.5749998469195
 20
287.1553571428566
 30
0.0
 11
306.5749998469195
 21
275.1553571428566
 31
0.0
  0
LINE
  5
13F
330
1F
100
AcDbEntity
  8
1
  6
Continuous
 62
     7
370
     9
100
AcDbLine
 10
276.7749998469195
 20
275.1553571428566
 30
0.0
 11
306.5749998469195
 21
275.1553571428566
 31
0.0
  0
LINE
  5
140
330
1F
100
AcDbEntity
  8
1
  6
Continuous
 62
     7
370
     9
100
AcDbLine
 10
276.7749998469195
 20
287.1553571428566
 30
0.0
 11
276.7749998469195
 21
275.1553571428566
 31
0.0
  0
CIRCLE
  5
141
330
1F
100
AcDbEntity
  8
1
  6
Continuous
 62
     7
370
     9
100
AcDbCircle
 10
307.8715694493228
 20
325.6107443556418
 30
0.0
 40
5.719397362525598
  0
ARC
  5
142
330
1F
100
AcDbEntity
  8
1
  6
Continuous
 62
     7
370
     9
100
AcDbCircle
 10
310.9155881387639
 20
428.1553571428566
 30
0.0
 40
3.0
100
AcDbArc
 50
270.0000000000007
 51
11.30993247402106
  0
LINE
  5
143
330
1F
100
AcDbEntity
  8
1
  6
Continuous
 62
     7
370
     9
100
AcDbLine
 10
313.8573301658366
 20
428.7437055482712
 30
0.0
 11
311.0573301658366
 21
442.7437055482712
 31
0.0
  0
ARC
  5
144
330
1F
100
AcDbEntity
  8
1
  6
Continuous
 62
     7
370
     9
100
AcDbCircle
 10
308.1155881387639
 20
442.1553571428566
 30
0.0
 40
3.0
100
AcDbArc
 50
11.30993247402106
 51
89.99999999999991
  0
LINE
  5
145
330
1F
100
AcDbEntity
  8
1
  6
Continuous
 62
     7
370
     9
100
AcDbLine
 10
261.294993469369
 20
450.1553571428566
 30
0.0
 11
261.294993469369
 21
445.1553571428566
 31
0.0
  0
LINE
  5
146
330
1F
100
AcDbEntity
  8
1
  6
Continuous
 62
     7
370
     9
100
AcDbLine
 10
252.294993469369
 20
450.1553571428566
 30
0.0
 11
252.294993469369
 21
445.1553571428566
 31
0.0
  0
LINE
  5
147
330
1F
100
AcDbEntity
  8
1
  6
Continuous
 62
     7
370
     9
100
AcDbLine
 10
252.294993469369
 20
380.9804528061213
 30
0.0
 11
252.294993469369
 21
375.9804528061213
 31
0.0
  0
LINE
  5
148
330
1F
100
AcDbEntity
  8
1
  6
Continuous
 62
     7
370
     9
100
AcDbLine
 10
261.294993469369
 20
380.9804528061213
 30
0.0
 11
261.294993469369
 21
376.1804528061213
 31
0.0
  0
LINE
  5
149
330
1F
100
AcDbEntity
  8
1
  6
Continuous
 62
     7
370
     9
100
AcDbLine
 10
243.259219272902
 20
428.7437055482712
 30
0.0
 11
246.0592192729019
 21
442.7437055482712
 31
0.0
  0
LINE
  5
14A
330
1F
100
AcDbEntity
  8
1
  6
Continuous
 62
     7
370
     9
100
AcDbLine
 10
249.0009612999747
 20
445.1553571428566
 30
0.0
 11
308.1155881387639
 21
445.1553571428566
 31
0.0
  0
ARC
  5
14B
330
1F
100
AcDbEntity
  8
1
  6
Continuous
 62
     7
370
     9
100
AcDbCircle
 10
249.0009612999747
 20
442.1553571428566
 30
0.0
 40
3.0
100
AcDbArc
 50
89.99999999999991
 51
168.6900675259802
  0
LINE
  5
14C
330
1F
100
AcDbEntity
  8
1
  6
Continuous
 62
     7
370
     9
100
AcDbLine
 10
246.2009612999748
 20
425.1553571428566
 30
0.0
 11
310.915588138764
 21
425.1553571428566
 31
0.0
  0
ARC
  5
14D
330
1F
100
AcDbEntity
  8
1
  6
Continuous
 62
     7
370
     9
100
AcDbCircle
 10
246.2009612999747
 20
428.1553571428566
 30
0.0
 40
3.0
100
AcDbArc
 50
168.69006752598
 51
270.0000000000007
  0
LINE
  5
14E
330
1F
100
AcDbEntity
  8
1
  6
Continuous
 62
     7
370
     9
100
AcDbLine
 10
259.2949937755307
 20
450.1553571428566
 30
0.0
 11
259.2949937755307
 21
445.1553571428566
 31
0.0
  0
LINE
  5
14F
330
1F
100
AcDbEntity
  8
1
  6
Continuous
 62
     7
370
     9
100
AcDbLine
 10
250.294993469369
 20
450.1553571428566
 30
0.0
 11
250.294993469369
 21
445.1553571428566
 31
0.0
  0
LINE
  5
150
330
1F
100
AcDbEntity
  8
1
  6
Continuous
 62
     7
370
     9
100
AcDbLine
 10
250.294993469369
 20
450.1553571428566
 30
0.0
 11
261.294993469369
 21
450.1553571428566
 31
0.0
  0
LINE
  5
151
330
1F
100
AcDbEntity
  8
1
  6
Continuous
 62
     7
370
     9
100
AcDbLine
 10
252.0949934693691
 20
450.1553571428566
 30
0.0
 11
252.0949934693691
 21
465.1553571428566
 31
0.0
  0
LINE
  5
152
330
1F
100
AcDbEntity
  8
1
  6
Continuous
 62
     7
370
     9
100
AcDbLine
 10
252.0949934693691
 20
465.1553571428566
 30
0.0
 11
259.494993469369
 21
465.1553571428566
 31
0.0
  0
LINE
  5
153
330
1F
100
AcDbEntity
  8
1
  6
Continuous
 62
     7
370
     9
100
AcDbLine
 10
259.494993469369
 20
450.1553571428566
 30
0.0
 11
259.494993469369
 21
465.1553571428566
 31
0.0
  0
INSERT
  5
15E
330
1F
100
AcDbEntity
  8
0
100
AcDbBlockReference
  2
*G12
 10
0.0
 20
0.0
 30
0.0
  0
LINE
  5
15F
330
1F
100
AcDbEntity
  8
1
  6
Continuous
 62
     7
370
     9
100
AcDbLine
 10
259.2949937755307
 20
380.9804528061213
 30
0.0
 11
259.2949937755307
 21
375.9804528061213
 31
0.0
  0
LINE
  5
160
330
1F
100
AcDbEntity
  8
1
  6
Continuous
 62
     7
370
     9
100
AcDbLine
 10
250.294993469369
 20
380.9804528061213
 30
0.0
 11
261.294993469369
 21
380.9804528061213
 31
0.0
  0
LINE
  5
161
330
1F
100
AcDbEntity
  8
1
  6
Continuous
 62
     7
370
     9
100
AcDbLine
 10
250.294993469369
 20
380.9804528061213
 30
0.0
 11
250.294993469369
 21
376.1804528061213
 31
0.0
  0
LINE
  5
162
330
1F
100
AcDbEntity
  8
1
  6
Continuous
 62
     7
370
     9
100
AcDbLine
 10
250.4949934693691
 20
375.9804528061213
 30
0.0
 11
261.094993469369
 21
375.9804528061213
 31
0.0
  0
LINE
  5
163
330
1F
100
AcDbEntity
  8
1
  6
Continuous
 62
     7
370
     9
100
AcDbLine
 10
252.0949934693691
 20
425.1553571428566
 30
0.0
 11
252.0949934693691
 21
380.9804528061213
 31
0.0
  0
LINE
  5
164
330
1F
100
AcDbEntity
  8
1
  6
Continuous
 62
     7
370
     9
100
AcDbLine
 10
259.494993469369
 20
425.1553571428566
 30
0.0
 11
259.494993469369
 21
380.9804528061213
 31
0.0
  0
INSERT
  5
177
330
1F
100
AcDbEntity
  8
0
100
AcDbBlockReference
  2
*G13
 10
0.0
 20
0.0
 30
0.0
  0
LINE
  5
178
330
1F
100
AcDbEntity
  8
1
  6
Continuous
 62
     7
370
     9
100
AcDbLine
 10
277.7749998469195
 20
446.1553571428566
 30
0.0
 11
277.7749998469195
 21
451.7553571428567
 31
0.0
  0
ARC
  5
179
330
1F
100
AcDbEntity
  8
1
  6
Continuous
 62
     7
370
     9
100
AcDbCircle
 10
278.1749998469195
 20
451.7553571428567
 30
0.0
 40
0.4
100
AcDbArc
 50
89.99999999999991
 51
179.9999999999998
  0
LINE
  5
17A
330
1F
100
AcDbEntity
  8
1
  6
Continuous
 62
     7
370
     9
100
AcDbLine
 10
278.1749998469195
 20
452.1553571428566
 30
0.0
 11
305.1749998469195
 21
452.1553571428566
 31
0.0
  0
LINE
  5
17B
330
1F
100
AcDbEntity
  8
1
  6
Continuous
 62
     7
370
     9
100
AcDbLine
 10
305.5749998469195
 20
451.7553571428566
 30
0.0
 11
305.5749998469195
 21
446.1553571428566
 31
0.0
  0
ARC
  5
17C
330
1F
100
AcDbEntity
  8
1
  6
Continuous
 62
     7
370
     9
100
AcDbCircle
 10
305.1749998469195
 20
451.7553571428567
 30
0.0
 40
0.4
100
AcDbArc
 50
359.9999999999915
 51
90.00000000000813
  0
LINE
  5
17D
330
1F
100
AcDbEntity
  8
1
  6
Continuous
 62
     7
370
     9
100
AcDbLine
 10
276.7749998469195
 20
445.1553571428566
 30
0.0
 11
276.7749998469195
 21
446.1553571428566
 31
0.0
  0
LINE
  5
17E
330
1F
100
AcDbEntity
  8
1
  6
Continuous
 62
     7
370
     9
100
AcDbLine
 10
276.7749998469195
 20
446.1553571428566
 30
0.0
 11
306.5749998469195
 21
446.1553571428566
 31
0.0
  0
LINE
  5
17F
330
1F
100
AcDbEntity
  8
1
  6
Continuous
 62
     7
370
     9
100
AcDbLine
 10
306.5749998469195
 20
445.1553571428566
 30
0.0
 11
306.5749998469195
 21
446.1553571428566
 31
0.0
  0
LINE
  5
180
330
1F
100
AcDbEntity
  8
1
  6
Continuous
 62
     7
370
     9
100
AcDbLine
 10
281.7749998469195
 20
452.1553571428566
 30
0.0
 11
281.7749998469195
 21
446.1553571428566
 31
0.0
  0
LINE
  5
181
330
1F
100
AcDbEntity
  8
1
  6
Continuous
 62
     7
370
     9
100
AcDbLine
 10
301.5749998469195
 20
452.1553571428566
 30
0.0
 11
301.5749998469195
 21
446.1553571428566
 31
0.0
  0
LINE
  5
182
330
1F
100
AcDbEntity
  8
1
  6
Continuous
 62
     7
370
     9
100
AcDbLine
 10
281.2749998469195
 20
452.1553571428566
 30
0.0
 11
281.2749998469195
 21
455.1553571428566
 31
0.0
  0
LINE
  5
183
330
1F
100
AcDbEntity
  8
1
  6
Continuous
 62
     7
370
     9
100
AcDbLine
 10
281.2749998469195
 20
455.1553571428566
 30
0.0
 11
302.0749998469195
 21
455.1553571428566
 31
0.0
  0
LINE
  5
184
330
1F
100
AcDbEntity
  8
1
  6
Continuous
 62
     7
370
     9
100
AcDbLine
 10
302.0749998469195
 20
452.1553571428566
 30
0.0
 11
302.0749998469195
 21
455.1553571428566
 31
0.0
  0
LINE
  5
185
330
1F
100
AcDbEntity
  8
1
  6
Continuous
 62
     7
370
     9
100
AcDbLine
 10
275.7749998469195
 20
363.1553571428566
 30
0.0
 11
275.7749998469195
 21
364.1553571428566
 31
0.0
  0
LINE
  5
186
330
1F
100
AcDbEntity
  8
1
  6
Continuous
 62
     7
370
     9
100
AcDbLine
 10
275.7749998469195
 20
364.1553571428566
 30
0.0
 11
307.5749998469195
 21
364.1553571428566
 31
0.0
  0
LINE
  5
187
330
1F
100
AcDbEntity
  8
1
  6
Continuous
 62
     7
370
     9
100
AcDbLine
 10
307.5749998469195
 20
363.1553571428566
 30
0.0
 11
307.5749998469195
 21
364.1553571428566
 31
0.0
  0
ARC
  5
188
330
1F
100
AcDbEntity
  8
1
  6
Continuous
 62
     7
370
     9
100
AcDbCircle
 10
276.2749998469195
 20
409.8171935888475
 30
0.0
 40
0.7107986038943181
100
AcDbArc
 50
110.0000000000285
 51
269.9999999999998
  0
LINE
  5
189
330
1F
100
AcDbEntity
  8
1
  6
Continuous
 62
     7
370
     9
100
AcDbLine
 10
276.0318924065396
 20
410.4851257917919
 30
0.0
 11
307.0749998469195
 21
415.9588631985618
 31
0.0
  0
LINE
  5
18A
330
1F
100
AcDbEntity
  8
1
  6
Continuous
 62
     7
370
     9
100
AcDbLine
 10
276.2749998464273
 20
409.1063949877446
 30
0.0
 11
307.318107109113
 21
414.5801323631822
 31
0.0
  0
ARC
  5
18B
330
1F
100
AcDbEntity
  8
1
  6
Continuous
 62
     7
370
     9
100
AcDbCircle
 10
307.0749998469195
 20
415.2480646122598
 30
0.0
 40
0.710798586302019
100
AcDbArc
 50
289.9999852311838
 51
90.00000000000458
  0
ARC
  5
18C
330
1F
100
AcDbEntity
  8
1
  6
Continuous
 62
     7
370
     9
100
AcDbCircle
 10
276.2749998469195
 20
391.9399216401267
 30
0.0
 40
0.7107986038943181
100
AcDbArc
 50
110.0000000000285
 51
269.9999999999998
  0
LINE
  5
18D
330
1F
100
AcDbEntity
  8
1
  6
Continuous
 62
     7
370
     9
100
AcDbLine
 10
276.0318924065396
 20
392.6078538430711
 30
0.0
 11
307.0749998469195
 21
398.081591249841
 31
0.0
  0
LINE
  5
18E
330
1F
100
AcDbEntity
  8
1
  6
Continuous
 62
     7
370
     9
100
AcDbLine
 10
276.2749998464273
 20
391.2291230390238
 30
0.0
 11
307.318107109113
 21
396.7028604144614
 31
0.0
  0
ARC
  5
18F
330
1F
100
AcDbEntity
  8
1
  6
Continuous
 62
     7
370
     9
100
AcDbCircle
 10
307.0749998469195
 20
397.370792663539
 30
0.0
 40
0.710798586302019
100
AcDbArc
 50
289.9999852311838
 51
90.00000000000458
  0
ARC
  5
190
330
1F
100
AcDbEntity
  8
1
  6
Continuous
 62
     7
370
     9
100
AcDbCircle
 10
276.2749998469195
 20
376.6899216401268
 30
0.0
 40
0.7107986038943181
100
AcDbArc
 50
110.0000000000285
 51
269.9999999999998
  0
LINE
  5
191
330
1F
100
AcDbEntity
  8
1
  6
Continuous
 62
     7
370
     9
100
AcDbLine
 10
276.0318924065396
 20
377.3578538430712
 30
0.0
 11
307.0749998469195
 21
382.8315912498411
 31
0.0
  0
LINE
  5
192
330
1F
100
AcDbEntity
  8
1
  6
Continuous
 62
     7
370
     9
100
AcDbLine
 10
276.2749998464273
 20
375.9791230390239
 30
0.0
 11
307.318107109113
 21
381.4528604144615
 31
0.0
  0
ARC
  5
193
330
1F
100
AcDbEntity
  8
1
  6
Continuous
 62
     7
370
     9
100
AcDbCircle
 10
307.0749998469195
 20
382.1207926635391
 30
0.0
 40
0.710798586302019
100
AcDbArc
 50
289.9999852311838
 51
90.00000000000458
  0
LINE
  5
194
330
1F
100
AcDbEntity
  8
1
  6
Continuous
 62
     7
370
     9
100
AcDbLine
 10
276.7749998469195
 20
410.6161556830961
 30
0.0
 11
276.7749998469195
 21
425.1553571428566
 31
0.0
  0
LINE
  5
195
330
1F
100
AcDbEntity
  8
1
  6
Continuous
 62
     7
370
     9
100
AcDbLine
 10
306.5749998469195
 20
415.8706997082076
 30
0.0
 11
306.5749998469195
 21
425.1553571428566
 31
0.0
  0
LINE
  5
196
330
1F
100
AcDbEntity
  8
1
  6
Continuous
 62
     7
370
     9
100
AcDbLine
 10
306.5749998469195
 20
397.9934277594868
 30
0.0
 11
306.5749998469195
 21
414.4491025032971
 31
0.0
  0
LINE
  5
197
330
1F
100
AcDbEntity
  8
1
  6
Continuous
 62
     7
370
     9
100
AcDbLine
 10
276.7749998469195
 20
392.7388837343753
 30
0.0
 11
276.7749998469195
 21
409.1945584781856
 31
0.0
  0
LINE
  5
198
330
1F
100
AcDbEntity
  8
1
  6
Continuous
 62
     7
370
     9
100
AcDbLine
 10
276.7749998469195
 20
364.1553571428566
 30
0.0
 11
276.7749998469195
 21
376.0672865294649
 31
0.0
  0
LINE
  5
199
330
1F
100
AcDbEntity
  8
1
  6
Continuous
 62
     7
370
     9
100
AcDbLine
 10
276.7749998469195
 20
377.4888837343753
 30
0.0
 11
276.7749998469195
 21
391.3172865294648
 31
0.0
  0
LINE
  5
19A
330
1F
100
AcDbEntity
  8
1
  6
Continuous
 62
     7
370
     9
100
AcDbLine
 10
306.5749998469195
 20
364.1553571428566
 30
0.0
 11
306.5749998469195
 21
381.3218305545764
 31
0.0
  0
LINE
  5
19B
330
1F
100
AcDbEntity
  8
1
  6
Continuous
 62
     7
370
     9
100
AcDbLine
 10
306.5749998469195
 20
382.7434277594869
 30
0.0
 11
306.5749998469195
 21
396.5718305545764
 31
0.0
  0
LINE
  5
19C
330
1F
100
AcDbEntity
  8
1
  6
Continuous
 62
     7
370
     9
100
AcDbLine
 10
305.5749998469195
 20
414.2727755225887
 30
0.0
 11
305.5749998469195
 21
397.8171007787784
 31
0.0
  0
LINE
  5
19D
330
1F
100
AcDbEntity
  8
1
  6
Continuous
 62
     7
370
     9
100
AcDbLine
 10
305.5749998469195
 20
415.6943727274992
 30
0.0
 11
305.5749998469195
 21
425.1553571428566
 31
0.0
  0
LINE
  5
19E
330
1F
100
AcDbEntity
  8
1
  6
Continuous
 62
     7
370
     9
100
AcDbLine
 10
305.5749998469195
 20
396.3955035738679
 30
0.0
 11
305.5749998469195
 21
382.5671007787785
 31
0.0
  0
LINE
  5
19F
330
1F
100
AcDbEntity
  8
1
  6
Continuous
 62
     7
370
     9
100
AcDbLine
 10
305.5749998469195
 20
381.145503573868
 30
0.0
 11
305.5749998469195
 21
364.1553571428566
 31
0.0
  0
LINE
  5
1A0
330
1F
100
AcDbEntity
  8
1
  6
DOT
 62
     7
370
     9
100
AcDbLine
 10
276.7749998469195
 20
275.1553571428566
 30
0.0
 11
276.7749998469195
 21
235.1553571428566
 31
0.0
  0
LINE
  5
1A1
330
1F
100
AcDbEntity
  8
1
  6
DOT
 62
     7
370
     9
100
AcDbLine
 10
277.0504781632465
 20
235.1553571428566
 30
0.0
 11
306.5749998469195
 21
235.1553571428566
 31
0.0
  0
LINE
  5
1A2
330
1F
100
AcDbEntity
  8
1
  6
DOT
 62
     7
370
     9
100
AcDbLine
 10
306.5749998469195
 20
275.1553571428566
 30
0.0
 11
306.5749998469195
 21
235.1553571428566
 31
0.0
  0
ARC
  5
1A3
330
1F
100
AcDbEntity
  8
1
  6
Continuous
 62
     7
370
     9
100
AcDbCircle
 10
212.6749998469195
 20
376.1553571428566
 30
0.0
 40
13.0
100
AcDbArc
 50
179.9999999999998
 51
269.9999999999998
  0
LINE
  5
1A4
330
1F
100
AcDbEntity
  8
1
  6
Continuous
 62
     7
370
     9
100
AcDbLine
 10
191.6749998469195
 20
165.1553571428566
 30
0.0
 11
191.6749998469195
 21
287.1553571428566
 31
0.0
  0
LINE
  5
1A5
330
1F
100
AcDbEntity
  8
1
  6
Continuous
 62
     7
370
     9
100
AcDbLine
 10
191.6749998469195
 20
400.1553571428566
 30
0.0
 11
191.6749998469195
 21
495.1553571428566
 31
0.0
  0
LINE
  5
1A6
330
1F
100
AcDbEntity
  8
1
  6
Continuous
 62
     7
370
     9
100
AcDbLine
 10
179.6749998469195
 20
400.1553571428566
 30
0.0
 11
199.6749998469195
 21
400.1553571428566
 31
0.0
  0
LINE
  5
1A7
330
1F
100
AcDbEntity
  8
1
  6
Continuous
 62
     7
370
     9
100
AcDbLine
 10
199.6749998469195
 20
400.1553571428566
 30
0.0
 11
199.6749998469195
 21
376.1553571428566
 31
0.0
  0
LINE
  5
1A8
330
1F
100
AcDbEntity
  8
1
  6
Continuous
 62
     7
370
     9
100
AcDbLine
 10
259.2949937755307
 20
363.1553571428566
 30
0.0
 11
259.2949937755307
 21
375.9804528061213
 31
0.0
  0
CIRCLE
  5
1A9
330
1F
100
AcDbEntity
  8
1
  6
Continuous
 62
     7
370
     9
100
AcDbCircle
 10
253.2949937755314
 20
537.876923978783
 30
0.0
 40
17.5
  0
LINE
  5
1AA
330
1F
100
AcDbEntity
  8
1
  6
Continuous
 62
     7
370
     9
100
AcDbLine
 10
247.2949937755314
 20
511.3040604583737
 30
0.0
 11
247.2949937755314
 21
521.4376417560094
 31
0.0
  0
LINE
  5
1AB
330
1F
100
AcDbEntity
  8
1
  6
Continuous
 62
     7
370
     9
100
AcDbLine
 10
259.2949937755314
 20
510.6206439598654
 30
0.0
 11
259.2949937755314
 21
521.4376417560094
 31
0.0
  0
POLYLINE
  5
1AC
330
1F
100
AcDbEntity
  8
1
  6
Continuous
 62
     7
370
     9
100
AcDb2dPolyline
 66
     1
 10
0.0
 20
0.0
 30
0.0
 70
     2
  0
VERTEX
  5
1AE
330
1AC
100
AcDbEntity
  8
1
  6
Continuous
 62
     7
370
     9
100
AcDbVertex
100
AcDb2dVertex
 10
247.2949937755314
 20
511.3040604583737
 30
0.0
  0
VERTEX
  5
1AF
330
1AC
100
AcDbEntity
  8
1
  6
Continuous
 62
     7
370
     9
100
AcDbVertex
100
AcDb2dVertex
 10
247.3253907552969
 20
511.3169395230494
 30
0.0
  0
VERTEX
  5
1B0
330
1AC
100
AcDbEntity
  8
1
  6
Continuous
 62
     7
370
     9
100
AcDbVertex
100
AcDb2dVertex
 10
247.4157528308593
 20
511.3552104460854
 30
0.0
  0
VERTEX
  5
1B1
330
1AC
100
AcDbEntity
  8
1
  6
Continuous
 62
     7
370
     9
100
AcDbVertex
100
AcDb2dVertex
 10
247.5636176334965
 20
511.4177001869076
 30
0.0
  0
VERTEX
  5
1B2
330
1AC
100
AcDbEntity
  8
1
  6
Continuous
 62
     7
370
     9
100
AcDbVertex
100
AcDb2dVertex
 10
247.7649607250293
 20
511.5022380956384
 30
0.0
  0
VERTEX
  5
1B3
330
1AC
100
AcDbEntity
  8
1
  6
Continuous
 62
     7
370
     9
100
AcDbVertex
100
AcDb2dVertex
 10
248.0143107417252
 20
511.6054349027737
 30
0.0
  0
VERTEX
  5
1B4
330
1AC
100
AcDbEntity
  8
1
  6
Continuous
 62
     7
370
     9
100
AcDbVertex
100
AcDb2dVertex
 10
248.3049029969491
 20
511.7225476559232
 30
0.0
  0
VERTEX
  5
1B5
330
1AC
100
AcDbEntity
  8
1
  6
Continuous
 62
     7
370
     9
100
AcDbVertex
100
AcDb2dVertex
 10
248.6288652878291
 20
511.847542082785
 30
0.0
  0
VERTEX
  5
1B6
330
1AC
100
AcDbEntity
  8
1
  6
Continuous
 62
     7
370
     9
100
AcDbVertex
100
AcDb2dVertex
 10
248.9774294243599
 20
511.9734244577097
 30
0.0
  0
VERTEX
  5
1B7
330
1AC
100
AcDbEntity
  8
1
  6
Continuous
 62
     7
370
     9
100
AcDbVertex
100
AcDb2dVertex
 10
249.3411624096116
 20
512.0928496522788
 30
0.0
  0
VERTEX
  5
1B8
330
1AC
100
AcDbEntity
  8
1
  6
Continuous
 62
     7
370
     9
100
AcDbVertex
100
AcDb2dVertex
 10
249.7102119645689
 20
512.1989366044942
 30
0.0
  0
VERTEX
  5
1B9
330
1AC
100
AcDbEntity
  8
1
  6
Continuous
 62
     7
370
     9
100
AcDbVertex
100
AcDb2dVertex
 10
250.0745618602667
 20
512.2861562034009
 30
0.0
  0
VERTEX
  5
1BA
330
1AC
100
AcDbEntity
  8
1
  6
Continuous
 62
     7
370
     9
100
AcDbVertex
100
AcDb2dVertex
 10
250.4242929658703
 20
512.351117363012
 30
0.0
  0
VERTEX
  5
1BB
330
1AC
100
AcDbEntity
  8
1
  6
Continuous
 62
     7
370
     9
100
AcDbVertex
100
AcDb2dVertex
 10
250.7498458252437
 20
512.3930767138784
 30
0.0
  0
VERTEX
  5
1BC
330
1AC
100
AcDbEntity
  8
1
  6
Continuous
 62
     7
370
     9
100
AcDbVertex
100
AcDb2dVertex
 10
251.0422798856048
 20
512.4140386692567
 30
0.0
  0
VERTEX
  5
1BD
330
1AC
100
AcDbEntity
  8
1
  6
Continuous
 62
     7
370
     9
100
AcDbVertex
100
AcDb2dVertex
 10
251.2935233559167
 20
512.4183883877168
 30
0.0
  0
VERTEX
  5
1BE
330
1AC
100
AcDbEntity
  8
1
  6
Continuous
 62
     7
370
     9
100
AcDbVertex
100
AcDb2dVertex
 10
251.4966063644651
 20
512.4120945326972
 30
0.0
  0
VERTEX
  5
1BF
330
1AC
100
AcDbEntity
  8
1
  6
Continuous
 62
     7
370
     9
100
AcDbVertex
100
AcDb2dVertex
 10
251.6458690005112
 20
512.4016108656958
 30
0.0
  0
VERTEX
  5
1C0
330
1AC
100
AcDbEntity
  8
1
  6
Continuous
 62
     7
370
     9
100
AcDbVertex
100
AcDb2dVertex
 10
251.7371353489363
 20
512.3926745378722
 30
0.0
  0
VERTEX
  5
1C1
330
1AC
100
AcDbEntity
  8
1
  6
Continuous
 62
     7
370
     9
100
AcDbVertex
100
AcDb2dVertex
 10
251.7678450490224
 20
512.3892281467787
 30
0.0
  0
VERTEX
  5
1C2
330
1AC
100
AcDbEntity
  8
1
  6
Continuous
 62
     7
370
     9
100
AcDbVertex
100
AcDb2dVertex
 10
251.7985588742074
 20
512.3855582309895
 30
0.0
  0
VERTEX
  5
1C3
330
1AC
100
AcDbEntity
  8
1
  6
Continuous
 62
     7
370
     9
100
AcDbVertex
100
AcDb2dVertex
 10
251.8898782597217
 20
512.3733487052266
 30
0.0
  0
VERTEX
  5
1C4
330
1AC
100
AcDbEntity
  8
1
  6
Continuous
 62
     7
370
     9
100
AcDbVertex
100
AcDb2dVertex
 10
252.0393022725622
 20
512.3493110218676
 30
0.0
  0
VERTEX
  5
1C5
330
1AC
100
AcDbEntity
  8
1
  6
Continuous
 62
     7
370
     9
100
AcDbVertex
100
AcDb2dVertex
 10
252.2425676307917
 20
512.3089285451368
 30
0.0
  0
VERTEX
  5
1C6
330
1AC
100
AcDbEntity
  8
1
  6
Continuous
 62
     7
370
     9
100
AcDbVertex
100
AcDb2dVertex
 10
252.4935719083654
 20
512.2476688573413
 30
0.0
  0
VERTEX
  5
1C7
330
1AC
100
AcDbEntity
  8
1
  6
Continuous
 62
     7
370
     9
100
AcDbVertex
100
AcDb2dVertex
 10
252.7843779082047
 20
512.1622691793191
 30
0.0
  0
VERTEX
  5
1C8
330
1AC
100
AcDbEntity
  8
1
  6
Continuous
 62
     7
370
     9
100
AcDbVertex
100
AcDb2dVertex
 10
253.1053702924592
 20
512.0518010612576
 30
0.0
  0
VERTEX
  5
1C9
330
1AC
100
AcDbEntity
  8
1
  6
Continuous
 62
     7
370
     9
100
AcDbVertex
100
AcDb2dVertex
 10
253.4456096037846
 20
511.9182732571867
 30
0.0
  0
VERTEX
  5
1CA
330
1AC
100
AcDbEntity
  8
1
  6
Continuous
 62
     7
370
     9
100
AcDbVertex
100
AcDb2dVertex
 10
253.7933859258341
 20
511.7666396352837
 30
0.0
  0
VERTEX
  5
1CB
330
1AC
100
AcDbEntity
  8
1
  6
Continuous
 62
     7
370
     9
100
AcDbVertex
100
AcDb2dVertex
 10
254.1369249279763
 20
511.6042162384161
 30
0.0
  0
VERTEX
  5
1CC
330
1AC
100
AcDbEntity
  8
1
  6
Continuous
 62
     7
370
     9
100
AcDbVertex
100
AcDb2dVertex
 10
254.4651553918964
 20
511.4396456084272
 30
0.0
  0
VERTEX
  5
1CD
330
1AC
100
AcDbEntity
  8
1
  6
Continuous
 62
     7
370
     9
100
AcDbVertex
100
AcDb2dVertex
 10
254.7684210839766
 20
511.2816457137491
 30
0.0
  0
VERTEX
  5
1CE
330
1AC
100
AcDbEntity
  8
1
  6
Continuous
 62
     7
370
     9
100
AcDbVertex
100
AcDb2dVertex
 10
255.0390187532199
 20
511.1378223532998
 30
0.0
  0
VERTEX
  5
1CF
330
1AC
100
AcDbEntity
  8
1
  6
Continuous
 62
     7
370
     9
100
AcDbVertex
100
AcDb2dVertex
 10
255.2714699916083
 20
511.0137988391819
 30
0.0
  0
VERTEX
  5
1D0
330
1AC
100
AcDbEntity
  8
1
  6
Continuous
 62
     7
370
     9
100
AcDbVertex
100
AcDb2dVertex
 10
255.4624831051619
 20
510.9128322135343
 30
0.0
  0
VERTEX
  5
1D1
330
1AC
100
AcDbEntity
  8
1
  6
Continuous
 62
     7
370
     9
100
AcDbVertex
100
AcDb2dVertex
 10
255.6106218702825
 20
510.8359625600281
 30
0.0
  0
VERTEX
  5
1D2
330
1AC
100
AcDbEntity
  8
1
  6
Continuous
 62
     7
370
     9
100
AcDbVertex
100
AcDb2dVertex
 10
255.7157576826659
 20
510.7826114127307
 30
0.0
  0
VERTEX
  5
1D3
330
1AC
100
AcDbEntity
  8
1
  6
Continuous
 62
     7
370
     9
100
AcDbVertex
100
AcDb2dVertex
 10
255.7784265740967
 20
510.7514387045293
 30
0.0
  0
VERTEX
  5
1D4
330
1AC
100
AcDbEntity
  8
1
  6
Continuous
 62
     7
370
     9
100
AcDbVertex
100
AcDb2dVertex
 10
255.7992323371639
 20
510.7412108428632
 30
0.0
  0
VERTEX
  5
1D5
330
1AC
100
AcDbEntity
  8
1
  6
Continuous
 62
     7
370
     9
100
AcDbVertex
100
AcDb2dVertex
 10
255.8198980651448
 20
510.7311165763879
 30
0.0
  0
VERTEX
  5
1D6
330
1AC
100
AcDbEntity
  8
1
  6
Continuous
 62
     7
370
     9
100
AcDbVertex
100
AcDb2dVertex
 10
255.8805119070815
 20
510.7018936137598
 30
0.0
  0
VERTEX
  5
1D7
330
1AC
100
AcDbEntity
  8
1
  6
Continuous
 62
     7
370
     9
100
AcDbVertex
100
AcDb2dVertex
 10
255.9771028762981
 20
510.656564304481
 30
0.0
  0
VERTEX
  5
1D8
330
1AC
100
AcDbEntity
  8
1
  6
Continuous
 62
     7
370
     9
100
AcDbVertex
100
AcDb2dVertex
 10
256.1036166114227
 20
510.5996706360302
 30
0.0
  0
VERTEX
  5
1D9
330
1AC
100
AcDbEntity
  8
1
  6
Continuous
 62
     7
370
     9
100
AcDbVertex
100
AcDb2dVertex
 10
256.2526533089393
 20
510.5366255407267
 30
0.0
  0
VERTEX
  5
1DA
330
1AC
100
AcDbEntity
  8
1
  6
Continuous
 62
     7
370
     9
100
AcDbVertex
100
AcDb2dVertex
 10
256.4163083742513
 20
510.4729731071501
 30
0.0
  0
VERTEX
  5
1DB
330
1AC
100
AcDbEntity
  8
1
  6
Continuous
 62
     7
370
     9
100
AcDbVertex
100
AcDb2dVertex
 10
256.5869728016514
 20
510.4136839225221
 30
0.0
  0
VERTEX
  5
1DC
330
1AC
100
AcDbEntity
  8
1
  6
Continuous
 62
     7
370
     9
100
AcDbVertex
100
AcDb2dVertex
 10
256.7579674124621
 20
510.3625982457748
 30
0.0
  0
VERTEX
  5
1DD
330
1AC
100
AcDbEntity
  8
1
  6
Continuous
 62
     7
370
     9
100
AcDbVertex
100
AcDb2dVertex
 10
256.9239267107599
 20
510.3220949036754
 30
0.0
  0
VERTEX
  5
1DE
330
1AC
100
AcDbEntity
  8
1
  6
Continuous
 62
     7
370
     9
100
AcDbVertex
100
AcDb2dVertex
 10
257.0809042884838
 20
510.2930159641617
 30
0.0
  0
VERTEX
  5
1DF
330
1AC
100
AcDbEntity
  8
1
  6
Continuous
 62
     7
370
     9
100
AcDbVertex
100
AcDb2dVertex
 10
257.2262295308065
 20
510.2748271500897
 30
0.0
  0
VERTEX
  5
1E0
330
1AC
100
AcDbEntity
  8
1
  6
Continuous
 62
     7
370
     9
100
AcDbVertex
100
AcDb2dVertex
 10
257.3581920498023
 20
510.26595240404
 30
0.0
  0
VERTEX
  5
1E1
330
1AC
100
AcDbEntity
  8
1
  6
Continuous
 62
     7
370
     9
100
AcDbVertex
100
AcDb2dVertex
 10
257.4756560823411
 20
510.2641963434685
 30
0.0
  0
VERTEX
  5
1E2
330
1AC
100
AcDbEntity
  8
1
  6
Continuous
 62
     7
370
     9
100
AcDbVertex
100
AcDb2dVertex
 10
257.5777075380177
 20
510.2671646205976
 30
0.0
  0
VERTEX
  5
1E3
330
1AC
100
AcDbEntity
  8
1
  6
Continuous
 62
     7
370
     9
100
AcDbVertex
100
AcDb2dVertex
 10
257.6634131181075
 20
510.2726084349168
 30
0.0
  0
VERTEX
  5
1E4
330
1AC
100
AcDbEntity
  8
1
  6
Continuous
 62
     7
370
     9
100
AcDbVertex
100
AcDb2dVertex
 10
257.7317311372707
 20
510.2786500389335
 30
0.0
  0
VERTEX
  5
1E5
330
1AC
100
AcDbEntity
  8
1
  6
Continuous
 62
     7
370
     9
100
AcDbVertex
100
AcDb2dVertex
 10
257.7815682008149
 20
510.2838823516538
 30
0.0
  0
VERTEX
  5
1E6
330
1AC
100
AcDbEntity
  8
1
  6
Continuous
 62
     7
370
     9
100
AcDbVertex
100
AcDb2dVertex
 10
257.8119364585097
 20
510.2873682242681
 30
0.0
  0
VERTEX
  5
1E7
330
1AC
100
AcDbEntity
  8
1
  6
Continuous
 62
     7
370
     9
100
AcDbVertex
100
AcDb2dVertex
 10
257.8221425020403
 20
510.2885854964504
 30
0.0
  0
VERTEX
  5
1E8
330
1AC
100
AcDbEntity
  8
1
  6
Continuous
 62
     7
370
     9
100
AcDbVertex
100
AcDb2dVertex
 10
257.8323451128223
 20
510.2898240760144
 30
0.0
  0
VERTEX
  5
1E9
330
1AC
100
AcDbEntity
  8
1
  6
Continuous
 62
     7
370
     9
100
AcDbVertex
100
AcDb2dVertex
 10
257.8626554914006
 20
510.2936298166448
 30
0.0
  0
VERTEX
  5
1EA
330
1AC
100
AcDbEntity
  8
1
  6
Continuous
 62
     7
370
     9
100
AcDbVertex
100
AcDb2dVertex
 10
257.9121927219347
 20
510.3002487362988
 30
0.0
  0
VERTEX
  5
1EB
330
1AC
100
AcDbEntity
  8
1
  6
Continuous
 62
     7
370
     9
100
AcDbVertex
100
AcDb2dVertex
 10
257.9795257868543
 20
510.3100158501241
 30
0.0
  0
VERTEX
  5
1EC
330
1AC
100
AcDbEntity
  8
1
  6
Continuous
 62
     7
370
     9
100
AcDbVertex
100
AcDb2dVertex
 10
258.0627260855027
 20
510.3232588833512
 30
0.0
  0
VERTEX
  5
1ED
330
1AC
100
AcDbEntity
  8
1
  6
Continuous
 62
     7
370
     9
100
AcDbVertex
100
AcDb2dVertex
 10
258.1594350506455
 20
510.3401923263186
 30
0.0
  0
VERTEX
  5
1EE
330
1AC
100
AcDbEntity
  8
1
  6
Continuous
 62
     7
370
     9
100
AcDbVertex
100
AcDb2dVertex
 10
258.2669421752956
 20
510.3608230968317
 30
0.0
  0
VERTEX
  5
1EF
330
1AC
100
AcDbEntity
  8
1
  6
Continuous
 62
     7
370
     9
100
AcDbVertex
100
AcDb2dVertex
 10
258.3822688644439
 20
510.3848862630778
 30
0.0
  0
VERTEX
  5
1F0
330
1AC
100
AcDbEntity
  8
1
  6
Continuous
 62
     7
370
     9
100
AcDbVertex
100
AcDb2dVertex
 10
258.5022542543845
 20
510.411822727684
 30
0.0
  0
VERTEX
  5
1F1
330
1AC
100
AcDbEntity
  8
1
  6
Continuous
 62
     7
370
     9
100
AcDbVertex
100
AcDb2dVertex
 10
258.6236402652291
 20
510.440802024718
 30
0.0
  0
VERTEX
  5
1F2
330
1AC
100
AcDbEntity
  8
1
  6
Continuous
 62
     7
370
     9
100
AcDbVertex
100
AcDb2dVertex
 10
258.7431543677703
 20
510.470784429775
 30
0.0
  0
VERTEX
  5
1F3
330
1AC
100
AcDbEntity
  8
1
  6
Continuous
 62
     7
370
     9
100
AcDbVertex
100
AcDb2dVertex
 10
258.8575895534218
 20
510.5006094020124
 30
0.0
  0
VERTEX
  5
1F4
330
1AC
100
AcDbEntity
  8
1
  6
Continuous
 62
     7
370
     9
100
AcDbVertex
100
AcDb2dVertex
 10
258.963881566715
 20
510.5290934629746
 30
0.0
  0
VERTEX
  5
1F5
330
1AC
100
AcDbEntity
  8
1
  6
Continuous
 62
     7
370
     9
100
AcDbVertex
100
AcDb2dVertex
 10
259.0591834888107
 20
510.555120654972
 30
0.0
  0
VERTEX
  5
1F6
330
1AC
100
AcDbEntity
  8
1
  6
Continuous
 62
     7
370
     9
100
AcDbVertex
100
AcDb2dVertex
 10
259.1409372876685
 20
510.5777124469988
 30
0.0
  0
VERTEX
  5
1F7
330
1AC
100
AcDbEntity
  8
1
  6
Continuous
 62
     7
370
     9
100
AcDbVertex
100
AcDb2dVertex
 10
259.206941146751
 20
510.5960702463166
 30
0.0
  0
VERTEX
  5
1F8
330
1AC
100
AcDbEntity
  8
1
  6
Continuous
 62
     7
370
     9
100
AcDbVertex
100
AcDb2dVertex
 10
259.2554105054787
 20
510.6095908440845
 30
0.0
  0
VERTEX
  5
1F9
330
1AC
100
AcDbEntity
  8
1
  6
Continuous
 62
     7
370
     9
100
AcDbVertex
100
AcDb2dVertex
 10
259.2850300667614
 20
510.6178613515361
 30
0.0
  0
VERTEX
  5
1FA
330
1AC
100
AcDbEntity
  8
1
  6
Continuous
 62
     7
370
     9
100
AcDbVertex
100
AcDb2dVertex
 10
259.2949937755314
 20
510.6206439598654
 30
0.0
  0
SEQEND
  5
1AD
330
1AC
100
AcDbEntity
  8
1
  6
Continuous
370
     9
  0
POLYLINE
  5
1FB
330
1F
100
AcDbEntity
  8
1
  6
Continuous
 62
     7
370
     9
100
AcDb2dPolyline
 66
     1
 10
0.0
 20
0.0
 30
0.0
 70
     2
  0
VERTEX
  5
1FD
330
1FB
100
AcDbEntity
  8
1
  6
Continuous
 62
     7
370
     9
100
AcDbVertex
100
AcDb2dVertex
 10
247.2949937755307
 20
510.7017826326003
 30
0.0
  0
VERTEX
  5
1FE
330
1FB
100
AcDbEntity
  8
1
  6
Continuous
 62
     7
370
     9
100
AcDbVertex
100
AcDb2dVertex
 10
247.3253907552961
 20
510.7146616972761
 30
0.0
  0
VERTEX
  5
1FF
330
1FB
100
AcDbEntity
  8
1
  6
Continuous
 62
     7
370
     9
100
AcDbVertex
100
AcDb2dVertex
 10
247.4157528308586
 20
510.7529326203121
 30
0.0
  0
VERTEX
  5
200
330
1FB
100
AcDbEntity
  8
1
  6
Continuous
 62
     7
370
     9
100
AcDbVertex
100
AcDb2dVertex
 10
247.5636176334958
 20
510.8154223611342
 30
0.0
  0
VERTEX
  5
201
330
1FB
100
AcDbEntity
  8
1
  6
Continuous
 62
     7
370
     9
100
AcDbVertex
100
AcDb2dVertex
 10
247.7649607250286
 20
510.8999602698651
 30
0.0
  0
VERTEX
  5
202
330
1FB
100
AcDbEntity
  8
1
  6
Continuous
 62
     7
370
     9
100
AcDbVertex
100
AcDb2dVertex
 10
248.0143107417244
 20
511.0031570770003
 30
0.0
  0
VERTEX
  5
203
330
1FB
100
AcDbEntity
  8
1
  6
Continuous
 62
     7
370
     9
100
AcDbVertex
100
AcDb2dVertex
 10
248.3049029969483
 20
511.1202698301499
 30
0.0
  0
VERTEX
  5
204
330
1FB
100
AcDbEntity
  8
1
  6
Continuous
 62
     7
370
     9
100
AcDbVertex
100
AcDb2dVertex
 10
248.6288652878284
 20
511.2452642570117
 30
0.0
  0
VERTEX
  5
205
330
1FB
100
AcDbEntity
  8
1
  6
Continuous
 62
     7
370
     9
100
AcDbVertex
100
AcDb2dVertex
 10
248.9774294243591
 20
511.3711466319364
 30
0.0
  0
VERTEX
  5
206
330
1FB
100
AcDbEntity
  8
1
  6
Continuous
 62
     7
370
     9
100
AcDbVertex
100
AcDb2dVertex
 10
249.3411624096108
 20
511.4905718265055
 30
0.0
  0
VERTEX
  5
207
330
1FB
100
AcDbEntity
  8
1
  6
Continuous
 62
     7
370
     9
100
AcDbVertex
100
AcDb2dVertex
 10
249.7102119645681
 20
511.5966587787209
 30
0.0
  0
VERTEX
  5
208
330
1FB
100
AcDbEntity
  8
1
  6
Continuous
 62
     7
370
     9
100
AcDbVertex
100
AcDb2dVertex
 10
250.0745618602659
 20
511.6838783776275
 30
0.0
  0
VERTEX
  5
209
330
1FB
100
AcDbEntity
  8
1
  6
Continuous
 62
     7
370
     9
100
AcDbVertex
100
AcDb2dVertex
 10
250.4242929658695
 20
511.7488395372386
 30
0.0
  0
VERTEX
  5
20A
330
1FB
100
AcDbEntity
  8
1
  6
Continuous
 62
     7
370
     9
100
AcDbVertex
100
AcDb2dVertex
 10
250.7498458252429
 20
511.790798888105
 30
0.0
  0
VERTEX
  5
20B
330
1FB
100
AcDbEntity
  8
1
  6
Continuous
 62
     7
370
     9
100
AcDbVertex
100
AcDb2dVertex
 10
251.0422798856041
 20
511.8117608434833
 30
0.0
  0
VERTEX
  5
20C
330
1FB
100
AcDbEntity
  8
1
  6
Continuous
 62
     7
370
     9
100
AcDbVertex
100
AcDb2dVertex
 10
251.293523355916
 20
511.8161105619436
 30
0.0
  0
VERTEX
  5
20D
330
1FB
100
AcDbEntity
  8
1
  6
Continuous
 62
     7
370
     9
100
AcDbVertex
100
AcDb2dVertex
 10
251.4966063644644
 20
511.8098167069239
 30
0.0
  0
VERTEX
  5
20E
330
1FB
100
AcDbEntity
  8
1
  6
Continuous
 62
     7
370
     9
100
AcDbVertex
100
AcDb2dVertex
 10
251.6458690005105
 20
511.7993330399225
 30
0.0
  0
VERTEX
  5
20F
330
1FB
100
AcDbEntity
  8
1
  6
Continuous
 62
     7
370
     9
100
AcDbVertex
100
AcDb2dVertex
 10
251.7371353489356
 20
511.7903967120989
 30
0.0
  0
VERTEX
  5
210
330
1FB
100
AcDbEntity
  8
1
  6
Continuous
 62
     7
370
     9
100
AcDbVertex
100
AcDb2dVertex
 10
251.7678450490217
 20
511.7869503210053
 30
0.0
  0
VERTEX
  5
211
330
1FB
100
AcDbEntity
  8
1
  6
Continuous
 62
     7
370
     9
100
AcDbVertex
100
AcDb2dVertex
 10
251.7985588742067
 20
511.7832804052163
 30
0.0
  0
VERTEX
  5
212
330
1FB
100
AcDbEntity
  8
1
  6
Continuous
 62
     7
370
     9
100
AcDbVertex
100
AcDb2dVertex
 10
251.889878259721
 20
511.7710708794532
 30
0.0
  0
VERTEX
  5
213
330
1FB
100
AcDbEntity
  8
1
  6
Continuous
 62
     7
370
     9
100
AcDbVertex
100
AcDb2dVertex
 10
252.0393022725615
 20
511.7470331960942
 30
0.0
  0
VERTEX
  5
214
330
1FB
100
AcDbEntity
  8
1
  6
Continuous
 62
     7
370
     9
100
AcDbVertex
100
AcDb2dVertex
 10
252.242567630791
 20
511.7066507193635
 30
0.0
  0
VERTEX
  5
215
330
1FB
100
AcDbEntity
  8
1
  6
Continuous
 62
     7
370
     9
100
AcDbVertex
100
AcDb2dVertex
 10
252.4935719083647
 20
511.645391031568
 30
0.0
  0
VERTEX
  5
216
330
1FB
100
AcDbEntity
  8
1
  6
Continuous
 62
     7
370
     9
100
AcDbVertex
100
AcDb2dVertex
 10
252.784377908204
 20
511.5599913535457
 30
0.0
  0
VERTEX
  5
217
330
1FB
100
AcDbEntity
  8
1
  6
Continuous
 62
     7
370
     9
100
AcDbVertex
100
AcDb2dVertex
 10
253.1053702924584
 20
511.4495232354842
 30
0.0
  0
VERTEX
  5
218
330
1FB
100
AcDbEntity
  8
1
  6
Continuous
 62
     7
370
     9
100
AcDbVertex
100
AcDb2dVertex
 10
253.4456096037838
 20
511.3159954314134
 30
0.0
  0
VERTEX
  5
219
330
1FB
100
AcDbEntity
  8
1
  6
Continuous
 62
     7
370
     9
100
AcDbVertex
100
AcDb2dVertex
 10
253.7933859258333
 20
511.1643618095104
 30
0.0
  0
VERTEX
  5
21A
330
1FB
100
AcDbEntity
  8
1
  6
Continuous
 62
     7
370
     9
100
AcDbVertex
100
AcDb2dVertex
 10
254.1369249279756
 20
511.0019384126429
 30
0.0
  0
VERTEX
  5
21B
330
1FB
100
AcDbEntity
  8
1
  6
Continuous
 62
     7
370
     9
100
AcDbVertex
100
AcDb2dVertex
 10
254.4651553918957
 20
510.8373677826539
 30
0.0
  0
VERTEX
  5
21C
330
1FB
100
AcDbEntity
  8
1
  6
Continuous
 62
     7
370
     9
100
AcDbVertex
100
AcDb2dVertex
 10
254.7684210839759
 20
510.6793678879757
 30
0.0
  0
VERTEX
  5
21D
330
1FB
100
AcDbEntity
  8
1
  6
Continuous
 62
     7
370
     9
100
AcDbVertex
100
AcDb2dVertex
 10
255.0390187532192
 20
510.5355445275265
 30
0.0
  0
VERTEX
  5
21E
330
1FB
100
AcDbEntity
  8
1
  6
Continuous
 62
     7
370
     9
100
AcDbVertex
100
AcDb2dVertex
 10
255.2714699916075
 20
510.4115210134086
 30
0.0
  0
VERTEX
  5
21F
330
1FB
100
AcDbEntity
  8
1
  6
Continuous
 62
     7
370
     9
100
AcDbVertex
100
AcDb2dVertex
 10
255.4624831051611
 20
510.310554387761
 30
0.0
  0
VERTEX
  5
220
330
1FB
100
AcDbEntity
  8
1
  6
Continuous
 62
     7
370
     9
100
AcDbVertex
100
AcDb2dVertex
 10
255.6106218702817
 20
510.2336847342548
 30
0.0
  0
VERTEX
  5
221
330
1FB
100
AcDbEntity
  8
1
  6
Continuous
 62
     7
370
     9
100
AcDbVertex
100
AcDb2dVertex
 10
255.7157576826652
 20
510.1803335869573
 30
0.0
  0
VERTEX
  5
222
330
1FB
100
AcDbEntity
  8
1
  6
Continuous
 62
     7
370
     9
100
AcDbVertex
100
AcDb2dVertex
 10
255.7784265740959
 20
510.149160878756
 30
0.0
  0
VERTEX
  5
223
330
1FB
100
AcDbEntity
  8
1
  6
Continuous
 62
     7
370
     9
100
AcDbVertex
100
AcDb2dVertex
 10
255.7992323371631
 20
510.1389330170898
 30
0.0
  0
VERTEX
  5
224
330
1FB
100
AcDbEntity
  8
1
  6
Continuous
 62
     7
370
     9
100
AcDbVertex
100
AcDb2dVertex
 10
255.8198980651441
 20
510.1288387506145
 30
0.0
  0
VERTEX
  5
225
330
1FB
100
AcDbEntity
  8
1
  6
Continuous
 62
     7
370
     9
100
AcDbVertex
100
AcDb2dVertex
 10
255.8805119070808
 20
510.0996157879864
 30
0.0
  0
VERTEX
  5
226
330
1FB
100
AcDbEntity
  8
1
  6
Continuous
 62
     7
370
     9
100
AcDbVertex
100
AcDb2dVertex
 10
255.9771028762973
 20
510.0542864787077
 30
0.0
  0
VERTEX
  5
227
330
1FB
100
AcDbEntity
  8
1
  6
Continuous
 62
     7
370
     9
100
AcDbVertex
100
AcDb2dVertex
 10
256.103616611422
 20
509.9973928102569
 30
0.0
  0
VERTEX
  5
228
330
1FB
100
AcDbEntity
  8
1
  6
Continuous
 62
     7
370
     9
100
AcDbVertex
100
AcDb2dVertex
 10
256.2526533089386
 20
509.9343477149534
 30
0.0
  0
VERTEX
  5
229
330
1FB
100
AcDbEntity
  8
1
  6
Continuous
 62
     7
370
     9
100
AcDbVertex
100
AcDb2dVertex
 10
256.4163083742505
 20
509.8706952813768
 30
0.0
  0
VERTEX
  5
22A
330
1FB
100
AcDbEntity
  8
1
  6
Continuous
 62
     7
370
     9
100
AcDbVertex
100
AcDb2dVertex
 10
256.5869728016506
 20
509.8114060967488
 30
0.0
  0
VERTEX
  5
22B
330
1FB
100
AcDbEntity
  8
1
  6
Continuous
 62
     7
370
     9
100
AcDbVertex
100
AcDb2dVertex
 10
256.7579674124613
 20
509.7603204200015
 30
0.0
  0
VERTEX
  5
22C
330
1FB
100
AcDbEntity
  8
1
  6
Continuous
 62
     7
370
     9
100
AcDbVertex
100
AcDb2dVertex
 10
256.9239267107592
 20
509.7198170779021
 30
0.0
  0
VERTEX
  5
22D
330
1FB
100
AcDbEntity
  8
1
  6
Continuous
 62
     7
370
     9
100
AcDbVertex
100
AcDb2dVertex
 10
257.0809042884831
 20
509.6907381383883
 30
0.0
  0
VERTEX
  5
22E
330
1FB
100
AcDbEntity
  8
1
  6
Continuous
 62
     7
370
     9
100
AcDbVertex
100
AcDb2dVertex
 10
257.2262295308058
 20
509.6725493243164
 30
0.0
  0
VERTEX
  5
22F
330
1FB
100
AcDbEntity
  8
1
  6
Continuous
 62
     7
370
     9
100
AcDbVertex
100
AcDb2dVertex
 10
257.3581920498015
 20
509.6636745782666
 30
0.0
  0
VERTEX
  5
230
330
1FB
100
AcDbEntity
  8
1
  6
Continuous
 62
     7
370
     9
100
AcDbVertex
100
AcDb2dVertex
 10
257.4756560823404
 20
509.6619185176952
 30
0.0
  0
VERTEX
  5
231
330
1FB
100
AcDbEntity
  8
1
  6
Continuous
 62
     7
370
     9
100
AcDbVertex
100
AcDb2dVertex
 10
257.577707538017
 20
509.6648867948242
 30
0.0
  0
VERTEX
  5
232
330
1FB
100
AcDbEntity
  8
1
  6
Continuous
 62
     7
370
     9
100
AcDbVertex
100
AcDb2dVertex
 10
257.6634131181068
 20
509.6703306091435
 30
0.0
  0
VERTEX
  5
233
330
1FB
100
AcDbEntity
  8
1
  6
Continuous
 62
     7
370
     9
100
AcDbVertex
100
AcDb2dVertex
 10
257.73173113727
 20
509.6763722131602
 30
0.0
  0
VERTEX
  5
234
330
1FB
100
AcDbEntity
  8
1
  6
Continuous
 62
     7
370
     9
100
AcDbVertex
100
AcDb2dVertex
 10
257.7815682008141
 20
509.6816045258805
 30
0.0
  0
VERTEX
  5
235
330
1FB
100
AcDbEntity
  8
1
  6
Continuous
 62
     7
370
     9
100
AcDbVertex
100
AcDb2dVertex
 10
257.811936458509
 20
509.6850903984948
 30
0.0
  0
VERTEX
  5
236
330
1FB
100
AcDbEntity
  8
1
  6
Continuous
 62
     7
370
     9
100
AcDbVertex
100
AcDb2dVertex
 10
257.8221425020396
 20
509.6863076706771
 30
0.0
  0
VERTEX
  5
237
330
1FB
100
AcDbEntity
  8
1
  6
Continuous
 62
     7
370
     9
100
AcDbVertex
100
AcDb2dVertex
 10
257.8323451128216
 20
509.687546250241
 30
0.0
  0
VERTEX
  5
238
330
1FB
100
AcDbEntity
  8
1
  6
Continuous
 62
     7
370
     9
100
AcDbVertex
100
AcDb2dVertex
 10
257.8626554913998
 20
509.6913519908715
 30
0.0
  0
VERTEX
  5
239
330
1FB
100
AcDbEntity
  8
1
  6
Continuous
 62
     7
370
     9
100
AcDbVertex
100
AcDb2dVertex
 10
257.912192721934
 20
509.6979709105254
 30
0.0
  0
VERTEX
  5
23A
330
1FB
100
AcDbEntity
  8
1
  6
Continuous
 62
     7
370
     9
100
AcDbVertex
100
AcDb2dVertex
 10
257.9795257868535
 20
509.7077380243508
 30
0.0
  0
VERTEX
  5
23B
330
1FB
100
AcDbEntity
  8
1
  6
Continuous
 62
     7
370
     9
100
AcDbVertex
100
AcDb2dVertex
 10
258.062726085502
 20
509.7209810575778
 30
0.0
  0
VERTEX
  5
23C
330
1FB
100
AcDbEntity
  8
1
  6
Continuous
 62
     7
370
     9
100
AcDbVertex
100
AcDb2dVertex
 10
258.1594350506447
 20
509.7379145005452
 30
0.0
  0
VERTEX
  5
23D
330
1FB
100
AcDbEntity
  8
1
  6
Continuous
 62
     7
370
     9
100
AcDbVertex
100
AcDb2dVertex
 10
258.2669421752948
 20
509.7585452710584
 30
0.0
  0
VERTEX
  5
23E
330
1FB
100
AcDbEntity
  8
1
  6
Continuous
 62
     7
370
     9
100
AcDbVertex
100
AcDb2dVertex
 10
258.3822688644431
 20
509.7826084373045
 30
0.0
  0
VERTEX
  5
23F
330
1FB
100
AcDbEntity
  8
1
  6
Continuous
 62
     7
370
     9
100
AcDbVertex
100
AcDb2dVertex
 10
258.5022542543838
 20
509.8095449019106
 30
0.0
  0
VERTEX
  5
240
330
1FB
100
AcDbEntity
  8
1
  6
Continuous
 62
     7
370
     9
100
AcDbVertex
100
AcDb2dVertex
 10
258.6236402652283
 20
509.8385241989446
 30
0.0
  0
VERTEX
  5
241
330
1FB
100
AcDbEntity
  8
1
  6
Continuous
 62
     7
370
     9
100
AcDbVertex
100
AcDb2dVertex
 10
258.7431543677695
 20
509.8685066040017
 30
0.0
  0
VERTEX
  5
242
330
1FB
100
AcDbEntity
  8
1
  6
Continuous
 62
     7
370
     9
100
AcDbVertex
100
AcDb2dVertex
 10
258.8575895534211
 20
509.8983315762391
 30
0.0
  0
VERTEX
  5
243
330
1FB
100
AcDbEntity
  8
1
  6
Continuous
 62
     7
370
     9
100
AcDbVertex
100
AcDb2dVertex
 10
258.9638815667142
 20
509.9268156372012
 30
0.0
  0
VERTEX
  5
244
330
1FB
100
AcDbEntity
  8
1
  6
Continuous
 62
     7
370
     9
100
AcDbVertex
100
AcDb2dVertex
 10
259.0591834888099
 20
509.9528428291986
 30
0.0
  0
VERTEX
  5
245
330
1FB
100
AcDbEntity
  8
1
  6
Continuous
 62
     7
370
     9
100
AcDbVertex
100
AcDb2dVertex
 10
259.1409372876678
 20
509.9754346212255
 30
0.0
  0
VERTEX
  5
246
330
1FB
100
AcDbEntity
  8
1
  6
Continuous
 62
     7
370
     9
100
AcDbVertex
100
AcDb2dVertex
 10
259.2069411467502
 20
509.9937924205433
 30
0.0
  0
VERTEX
  5
247
330
1FB
100
AcDbEntity
  8
1
  6
Continuous
 62
     7
370
     9
100
AcDbVertex
100
AcDb2dVertex
 10
259.255410505478
 20
510.0073130183112
 30
0.0
  0
VERTEX
  5
248
330
1FB
100
AcDbEntity
  8
1
  6
Continuous
 62
     7
370
     9
100
AcDbVertex
100
AcDb2dVertex
 10
259.2850300667606
 20
510.0155835257627
 30
0.0
  0
VERTEX
  5
249
330
1FB
100
AcDbEntity
  8
1
  6
Continuous
 62
     7
370
     9
100
AcDbVertex
100
AcDb2dVertex
 10
259.2949937755307
 20
510.018366134092
 30
0.0
  0
SEQEND
  5
1FC
330
1FB
100
AcDbEntity
  8
1
  6
Continuous
370
     9
  0
LINE
  5
24A
330
1F
100
AcDbEntity
  8
1
  6
Continuous
 62
     7
370
     9
100
AcDbLine
 10
259.2949937755307
 20
465.1553571428566
 30
0.0
 11
259.2949937755307
 21
510.018366134092
 31
0.0
  0
CIRCLE
  5
24B
330
1F
100
AcDbEntity
  8
1
  6
Continuous
 62
     7
370
     9
100
AcDbCircle
 10
117.1749998469201
 20
306.8482128103479
 30
0.0
 40
25.15357216625438
  0
CIRCLE
  5
24C
330
1F
100
AcDbEntity
  8
1
  6
Continuous
 62
     7
370
     9
100
AcDbCircle
 10
117.1749998469196
 20
368.1553571428566
 30
0.0
 40
25.15357216625438
  0
CIRCLE
  5
24D
330
1F
100
AcDbEntity
  8
1
  6
Continuous
 62
     7
370
     9
100
AcDbCircle
 10
117.1749998469198
 20
245.5410684778391
 30
0.0
 40
25.15357216625438
  0
LINE
  5
24E
330
1F
100
AcDbEntity
  8
1
  6
Continuous
 62
     7
370
     9
100
AcDbLine
 10
218.3584388326616
 20
363.1553571428566
 30
0.0
 11
218.3584388326616
 21
287.1553571428566
 31
0.0
  0
LINE
  5
24F
330
1F
100
AcDbEntity
  8
1
  6
Continuous
 62
     7
370
     9
100
AcDbLine
 10
240.575120386329
 20
321.0000961341493
 30
0.0
 11
244.4868426764295
 21
320.7454813762238
 31
0.0
  0
ARC
  5
250
330
1F
100
AcDbEntity
  8
1
  6
Continuous
 62
     7
370
     9
100
AcDbCircle
 10
240.4478130071584
 20
319.0442349859057
 30
0.0
 40
1.96
100
AcDbArc
 50
86.27586013335758
 51
112.8409109934256
  0
LINE
  5
251
330
1F
100
AcDbEntity
  8
1
  6
Continuous
 62
     7
370
     9
100
AcDbLine
 10
241.936117504063
 20
317.7688723704622
 30
0.0
 11
244.4868426539343
 21
320.745481377688
 31
0.0
  0
ARC
  5
252
330
1F
100
AcDbEntity
  8
1
  6
Continuous
 62
     7
370
     9
100
AcDbCircle
 10
240.4478129990982
 20
319.0442349465563
 30
0.0
 40
1.96
100
AcDbArc
 50
292.840910993426
 51
319.4059631107285
  0
LINE
  5
253
330
1F
100
AcDbEntity
  8
1
  6
Continuous
 62
     7
370
     9
100
AcDbLine
 10
238.4606557943516
 20
320.3340088074675
 30
0.0
 11
239.6869925022929
 21
320.8505439736971
 31
0.0
  0
LINE
  5
254
330
1F
100
AcDbEntity
  8
1
  6
Continuous
 62
     7
370
     9
100
AcDbLine
 10
239.8123486636765
 20
316.6498083419544
 30
0.0
 11
241.2086335039637
 21
317.2379259587649
 31
0.0
  0
CIRCLE
  5
255
330
1F
100
AcDbEntity
  8
1
  6
Continuous
 62
     7
370
     9
100
AcDbCircle
 10
236.3656271121883
 20
317.3248110990125
 30
0.0
 40
0.6097928982972569
  0
ARC
  5
256
330
1F
100
AcDbEntity
  8
1
  6
Continuous
 62
     7
370
     9
100
AcDbCircle
 10
237.938051491313
 20
317.9871190099415
 30
0.0
 40
1.96
100
AcDbArc
 50
285.6304815694522
 51
292.840910993426
  0
ARC
  5
257
330
1F
100
AcDbEntity
  8
1
  6
Continuous
 62
     7
370
     9
100
AcDbCircle
 10
237.9380514784509
 20
317.9871190404783
 30
0.0
 40
1.96
100
AcDbArc
 50
112.8409109934249
 51
120.0513404173989
  0
ARC
  5
258
330
1F
100
AcDbEntity
  8
1
  6
Continuous
 62
     7
370
     9
100
AcDbCircle
 10
228.2394452568666
 20
315.1249407645547
 30
0.0
 40
0.098
100
AcDbArc
 50
112.8409109934307
 51
172.5034861292218
  0
LINE
  5
259
330
1F
100
AcDbEntity
  8
1
  6
Continuous
 62
     7
370
     9
100
AcDbLine
 10
228.2014042316233
 20
315.2152562139443
 30
0.0
 11
228.4106940627503
 21
315.3034094568598
 31
0.0
  0
ARC
  5
25A
330
1F
100
AcDbEntity
  8
1
  6
Continuous
 62
     7
370
     9
100
AcDbCircle
 10
228.4487350879936
 20
315.2130940074703
 30
0.0
 40
0.098
100
AcDbArc
 50
352.5034861291884
 51
112.8409109934437
  0
ARC
  5
25B
330
1F
100
AcDbEntity
  8
1
  6
Continuous
 62
     7
370
     9
100
AcDbCircle
 10
227.898717978177
 20
312.5356427364734
 30
0.0
 40
0.098
100
AcDbArc
 50
172.503486129191
 51
292.840910993415
  0
LINE
  5
25C
330
1F
100
AcDbEntity
  8
1
  6
Continuous
 62
     7
370
     9
100
AcDbLine
 10
227.9367590034202
 20
312.4453272870838
 30
0.0
 11
228.1460488345472
 21
312.5334805299993
 31
0.0
  0
LINE
  5
25D
330
1F
100
AcDbEntity
  8
1
  6
Continuous
 62
     7
370
     9
100
AcDbLine
 10
228.545897462524
 20
315.2003083523986
 30
0.0
 11
228.2051701838344
 21
312.6110103243172
 31
0.0
  0
ARC
  5
25E
330
1F
100
AcDbEntity
  8
1
  6
Continuous
 62
     7
370
     9
100
AcDbCircle
 10
228.108007809304
 20
312.6237959793889
 30
0.0
 40
0.098
100
AcDbArc
 50
292.8409109934304
 51
352.5034861292215
  0
ARC
  5
25F
330
1F
100
AcDbEntity
  8
1
  6
Continuous
 62
     7
370
     9
100
AcDbCircle
 10
228.8149923108865
 20
315.3673621903312
 30
0.0
 40
0.098
100
AcDbArc
 50
112.8409109934025
 51
172.5034861292218
  0
LINE
  5
260
330
1F
100
AcDbEntity
  8
1
  6
Continuous
 62
     7
370
     9
100
AcDbLine
 10
228.7769512856433
 20
315.4576776397208
 30
0.0
 11
228.9862411167702
 21
315.5458308826363
 31
0.0
  0
ARC
  5
261
330
1F
100
AcDbEntity
  8
1
  6
Continuous
 62
     7
370
     9
100
AcDbCircle
 10
229.0242821420135
 20
315.4555154332467
 30
0.0
 40
0.098
100
AcDbArc
 50
352.5034861292236
 51
112.8409109934307
  0
LINE
  5
262
330
1F
100
AcDbEntity
  8
1
  6
Continuous
 62
     7
370
     9
100
AcDbLine
 10
228.7178299363561
 20
315.3801478454029
 30
0.0
 11
228.3771026576665
 21
312.7908498173216
 31
0.0
  0
ARC
  5
263
330
1F
100
AcDbEntity
  8
1
  6
Continuous
 62
     7
370
     9
100
AcDbCircle
 10
228.4742650321969
 20
312.7780641622499
 30
0.0
 40
0.098
100
AcDbArc
 50
172.503486129191
 51
292.8409109934304
  0
LINE
  5
264
330
1F
100
AcDbEntity
  8
1
  6
Continuous
 62
     7
370
     9
100
AcDbLine
 10
228.5123060574402
 20
312.6877487128604
 30
0.0
 11
228.7215958885672
 21
312.7759019557758
 31
0.0
  0
LINE
  5
265
330
1F
100
AcDbEntity
  8
1
  6
Continuous
 62
     7
370
     9
100
AcDbLine
 10
229.1214445165439
 20
315.4427297781751
 30
0.0
 11
228.7807172378543
 21
312.8534317500937
 31
0.0
  0
ARC
  5
266
330
1F
100
AcDbEntity
  8
1
  6
Continuous
 62
     7
370
     9
100
AcDbCircle
 10
228.6835548633239
 20
312.8662174051654
 30
0.0
 40
0.098
100
AcDbArc
 50
292.8409109934175
 51
352.5034861291907
  0
ARC
  5
267
330
1F
100
AcDbEntity
  8
1
  6
Continuous
 62
     7
370
     9
100
AcDbCircle
 10
229.3905393649065
 20
315.6097836161077
 30
0.0
 40
0.098
100
AcDbArc
 50
112.840910993446
 51
172.503486129224
  0
LINE
  5
268
330
1F
100
AcDbEntity
  8
1
  6
Continuous
 62
     7
370
     9
100
AcDbLine
 10
229.3524983396632
 20
315.7000990654973
 30
0.0
 11
229.5617881707902
 21
315.7882523084128
 31
0.0
  0
ARC
  5
269
330
1F
100
AcDbEntity
  8
1
  6
Continuous
 62
     7
370
     9
100
AcDbCircle
 10
229.5998291960335
 20
315.6979368590232
 30
0.0
 40
0.098
100
AcDbArc
 50
352.5034861292215
 51
112.8409109934307
  0
LINE
  5
26A
330
1F
100
AcDbEntity
  8
1
  6
Continuous
 62
     7
370
     9
100
AcDbLine
 10
229.2933769903761
 20
315.6225692711794
 30
0.0
 11
228.9526497116865
 21
313.0332712430981
 31
0.0
  0
ARC
  5
26B
330
1F
100
AcDbEntity
  8
1
  6
Continuous
 62
     7
370
     9
100
AcDbCircle
 10
229.0498120862169
 20
313.0204855880264
 30
0.0
 40
0.098
100
AcDbArc
 50
172.5034861292218
 51
292.8409109934175
  0
LINE
  5
26C
330
1F
100
AcDbEntity
  8
1
  6
Continuous
 62
     7
370
     9
100
AcDbLine
 10
229.0878531114601
 20
312.9301701386368
 30
0.0
 11
229.2971429425871
 21
313.0183233815523
 31
0.0
  0
LINE
  5
26D
330
1F
100
AcDbEntity
  8
1
  6
Continuous
 62
     7
370
     9
100
AcDbLine
 10
229.6969915705639
 20
315.6851512039516
 30
0.0
 11
229.3562642918742
 21
313.0958531758703
 31
0.0
  0
ARC
  5
26E
330
1F
100
AcDbEntity
  8
1
  6
Continuous
 62
     7
370
     9
100
AcDbCircle
 10
229.2591019173438
 20
313.1086388309419
 30
0.0
 40
0.098
100
AcDbArc
 50
292.8409109934175
 51
352.5034861292215
  0
ARC
  5
26F
330
1F
100
AcDbEntity
  8
1
  6
Continuous
 62
     7
370
     9
100
AcDbCircle
 10
229.9660864259166
 20
315.8522050950045
 30
0.0
 40
0.098
100
AcDbArc
 50
112.8409109934154
 51
172.5034861292218
  0
LINE
  5
270
330
1F
100
AcDbEntity
  8
1
  6
Continuous
 62
     7
370
     9
100
AcDbLine
 10
229.9280454006733
 20
315.942520544394
 30
0.0
 11
230.1373352318003
 21
316.0306737873095
 31
0.0
  0
ARC
  5
271
330
1F
100
AcDbEntity
  8
1
  6
Continuous
 62
     7
370
     9
100
AcDbCircle
 10
230.1753762570436
 20
315.94035833792
 30
0.0
 40
0.098
100
AcDbArc
 50
352.5034861292215
 51
112.8409109934307
  0
LINE
  5
272
330
1F
100
AcDbEntity
  8
1
  6
Continuous
 62
     7
370
     9
100
AcDbLine
 10
229.8689240513862
 20
315.8649907500761
 30
0.0
 11
229.5281967726966
 21
313.2756927219948
 31
0.0
  0
ARC
  5
273
330
1F
100
AcDbEntity
  8
1
  6
Continuous
 62
     7
370
     9
100
AcDbCircle
 10
229.625359147227
 20
313.2629070669232
 30
0.0
 40
0.098
100
AcDbArc
 50
172.5034861292218
 51
292.8409109934304
  0
LINE
  5
274
330
1F
100
AcDbEntity
  8
1
  6
Continuous
 62
     7
370
     9
100
AcDbLine
 10
229.6634001724702
 20
313.1725916175336
 30
0.0
 11
229.8726900035972
 21
313.2607448604491
 31
0.0
  0
LINE
  5
275
330
1F
100
AcDbEntity
  8
1
  6
Continuous
 62
     7
370
     9
100
AcDbLine
 10
230.272538631574
 20
315.9275726828483
 30
0.0
 11
229.9318113528844
 21
313.338274654767
 31
0.0
  0
ARC
  5
276
330
1F
100
AcDbEntity
  8
1
  6
Continuous
 62
     7
370
     9
100
AcDbCircle
 10
229.8346489783539
 20
313.3510603098387
 30
0.0
 40
0.098
100
AcDbArc
 50
292.8409109934175
 51
352.5034861291907
  0
ARC
  5
277
330
1F
100
AcDbEntity
  8
1
  6
Continuous
 62
     7
370
     9
100
AcDbCircle
 10
230.5416334729464
 20
316.0946264676607
 30
0.0
 40
0.098
100
AcDbArc
 50
112.8409109933872
 51
172.5034861292196
  0
LINE
  5
278
330
1F
100
AcDbEntity
  8
1
  6
Continuous
 62
     7
370
     9
100
AcDbLine
 10
230.5035924477031
 20
316.1849419170503
 30
0.0
 11
230.7128822788301
 21
316.2730951599657
 31
0.0
  0
ARC
  5
279
330
1F
100
AcDbEntity
  8
1
  6
Continuous
 62
     7
370
     9
100
AcDbCircle
 10
230.7509233040734
 20
316.1827797105762
 30
0.0
 40
0.098
100
AcDbArc
 50
352.5034861292215
 51
112.8409109934307
  0
LINE
  5
27A
330
1F
100
AcDbEntity
  8
1
  6
Continuous
 62
     7
370
     9
100
AcDbLine
 10
230.444471098416
 20
316.1074121227323
 30
0.0
 11
230.1037438197264
 21
313.5181140946511
 31
0.0
  0
ARC
  5
27B
330
1F
100
AcDbEntity
  8
1
  6
Continuous
 62
     7
370
     9
100
AcDbCircle
 10
230.2009061942568
 20
313.5053284395794
 30
0.0
 40
0.098
100
AcDbArc
 50
172.5034861291889
 51
292.8409109934304
  0
LINE
  5
27C
330
1F
100
AcDbEntity
  8
1
  6
Continuous
 62
     7
370
     9
100
AcDbLine
 10
230.2389472195001
 20
313.4150129901898
 30
0.0
 11
230.448237050627
 21
313.5031662331053
 31
0.0
  0
LINE
  5
27D
330
1F
100
AcDbEntity
  8
1
  6
Continuous
 62
     7
370
     9
100
AcDbLine
 10
230.8480856786038
 20
316.1699940555046
 30
0.0
 11
230.5073583999142
 21
313.5806960274232
 31
0.0
  0
ARC
  5
27E
330
1F
100
AcDbEntity
  8
1
  6
Continuous
 62
     7
370
     9
100
AcDbCircle
 10
230.4101960253838
 20
313.5934816824949
 30
0.0
 40
0.098
100
AcDbArc
 50
292.8409109934175
 51
352.5034861291884
  0
ARC
  5
27F
330
1F
100
AcDbEntity
  8
1
  6
Continuous
 62
     7
370
     9
100
AcDbCircle
 10
231.1171805269663
 20
316.3370478934372
 30
0.0
 40
0.098
100
AcDbArc
 50
112.8409109934154
 51
172.5034861292218
  0
LINE
  5
280
330
1F
100
AcDbEntity
  8
1
  6
Continuous
 62
     7
370
     9
100
AcDbLine
 10
231.0791395017231
 20
316.4273633428267
 30
0.0
 11
231.28842933285
 21
316.5155165857422
 31
0.0
  0
ARC
  5
281
330
1F
100
AcDbEntity
  8
1
  6
Continuous
 62
     7
370
     9
100
AcDbCircle
 10
231.3264703580933
 20
316.4252011363527
 30
0.0
 40
0.098
100
AcDbArc
 50
352.5034861291907
 51
112.8409109934437
  0
LINE
  5
282
330
1F
100
AcDbEntity
  8
1
  6
Continuous
 62
     7
370
     9
100
AcDbLine
 10
231.0200181524359
 20
316.3498335485088
 30
0.0
 11
230.6792908737463
 21
313.7605355204275
 31
0.0
  0
ARC
  5
283
330
1F
100
AcDbEntity
  8
1
  6
Continuous
 62
     7
370
     9
100
AcDbCircle
 10
230.7764532482767
 20
313.7477498653558
 30
0.0
 40
0.098
100
AcDbArc
 50
172.503486129191
 51
292.8409109934304
  0
LINE
  5
284
330
1F
100
AcDbEntity
  8
1
  6
Continuous
 62
     7
370
     9
100
AcDbLine
 10
230.81449427352
 20
313.6574344159663
 30
0.0
 11
231.0237841046469
 21
313.7455876588817
 31
0.0
  0
LINE
  5
285
330
1F
100
AcDbEntity
  8
1
  6
Continuous
 62
     7
370
     9
100
AcDbLine
 10
231.4236327326237
 20
316.412415481281
 30
0.0
 11
231.0829054539341
 21
313.8231174531996
 31
0.0
  0
ARC
  5
286
330
1F
100
AcDbEntity
  8
1
  6
Continuous
 62
     7
370
     9
100
AcDbCircle
 10
230.9857430794037
 20
313.8359031082714
 30
0.0
 40
0.098
100
AcDbArc
 50
292.8409109934046
 51
352.5034861291577
  0
ARC
  5
287
330
1F
100
AcDbEntity
  8
1
  6
Continuous
 62
     7
370
     9
100
AcDbCircle
 10
231.6927275739962
 20
316.5794692660934
 30
0.0
 40
0.098
100
AcDbArc
 50
112.8409109934025
 51
172.5034861292218
  0
LINE
  5
288
330
1F
100
AcDbEntity
  8
1
  6
Continuous
 62
     7
370
     9
100
AcDbLine
 10
231.6546865487529
 20
316.669784715483
 30
0.0
 11
231.8639763798799
 21
316.7579379583984
 31
0.0
  0
ARC
  5
289
330
1F
100
AcDbEntity
  8
1
  6
Continuous
 62
     7
370
     9
100
AcDbCircle
 10
231.9020174051231
 20
316.6676225090089
 30
0.0
 40
0.098
100
AcDbArc
 50
352.5034861291907
 51
112.8409109934437
  0
LINE
  5
28A
330
1F
100
AcDbEntity
  8
1
  6
Continuous
 62
     7
370
     9
100
AcDbLine
 10
231.5955651994658
 20
316.592254921165
 30
0.0
 11
231.2548379207761
 21
314.0029568930837
 31
0.0
  0
ARC
  5
28B
330
1F
100
AcDbEntity
  8
1
  6
Continuous
 62
     7
370
     9
100
AcDbCircle
 10
231.3520002953066
 20
313.9901712380121
 30
0.0
 40
0.098
100
AcDbArc
 50
172.503486129224
 51
292.8409109934304
  0
LINE
  5
28C
330
1F
100
AcDbEntity
  8
1
  6
Continuous
 62
     7
370
     9
100
AcDbLine
 10
231.3900413205498
 20
313.8998557886225
 30
0.0
 11
231.5993311516768
 21
313.988009031538
 31
0.0
  0
LINE
  5
28D
330
1F
100
AcDbEntity
  8
1
  6
Continuous
 62
     7
370
     9
100
AcDbLine
 10
231.9991797796536
 20
316.6548368539372
 30
0.0
 11
231.6584525009639
 21
314.0655388258559
 31
0.0
  0
ARC
  5
28E
330
1F
100
AcDbEntity
  8
1
  6
Continuous
 62
     7
370
     9
100
AcDbCircle
 10
231.5612901264335
 20
314.0783244809276
 30
0.0
 40
0.098
100
AcDbArc
 50
292.8409109934304
 51
352.5034861292236
  0
ARC
  5
28F
330
1F
100
AcDbEntity
  8
1
  6
Continuous
 62
     7
370
     9
100
AcDbCircle
 10
232.2682746280161
 20
316.8218906918698
 30
0.0
 40
0.098
100
AcDbArc
 50
112.8409109934307
 51
172.5034861292218
  0
LINE
  5
290
330
1F
100
AcDbEntity
  8
1
  6
Continuous
 62
     7
370
     9
100
AcDbLine
 10
232.2302336027728
 20
316.9122061412594
 30
0.0
 11
232.4395234338998
 21
317.0003593841749
 31
0.0
  0
ARC
  5
291
330
1F
100
AcDbEntity
  8
1
  6
Continuous
 62
     7
370
     9
100
AcDbCircle
 10
232.4775644591431
 20
316.9100439347854
 30
0.0
 40
0.098
100
AcDbArc
 50
352.5034861291884
 51
112.8409109934437
  0
LINE
  5
292
330
1F
100
AcDbEntity
  8
1
  6
Continuous
 62
     7
370
     9
100
AcDbLine
 10
232.1711122534857
 20
316.8346763469415
 30
0.0
 11
231.8303849747961
 21
314.2453783188603
 31
0.0
  0
ARC
  5
293
330
1F
100
AcDbEntity
  8
1
  6
Continuous
 62
     7
370
     9
100
AcDbCircle
 10
231.9275473493265
 20
314.2325926637885
 30
0.0
 40
0.098
100
AcDbArc
 50
172.5034861291581
 51
292.8409109934304
  0
LINE
  5
294
330
1F
100
AcDbEntity
  8
1
  6
Continuous
 62
     7
370
     9
100
AcDbLine
 10
231.9655883745698
 20
314.142277214399
 30
0.0
 11
232.1748782056967
 21
314.2304304573145
 31
0.0
  0
LINE
  5
295
330
1F
100
AcDbEntity
  8
1
  6
Continuous
 62
     7
370
     9
100
AcDbLine
 10
232.5747268336735
 20
316.8972582797137
 30
0.0
 11
232.2339995549839
 21
314.3079602516324
 31
0.0
  0
ARC
  5
296
330
1F
100
AcDbEntity
  8
1
  6
Continuous
 62
     7
370
     9
100
AcDbCircle
 10
232.1368371804534
 20
314.3207459067041
 30
0.0
 40
0.098
100
AcDbArc
 50
292.8409109934175
 51
352.5034861291907
  0
ARC
  5
297
330
1F
100
AcDbEntity
  8
1
  6
Continuous
 62
     7
370
     9
100
AcDbCircle
 10
232.8438217056555
 20
317.0643122971384
 30
0.0
 40
0.098
100
AcDbArc
 50
112.8409109934154
 51
172.5034861292218
  0
LINE
  5
298
330
1F
100
AcDbEntity
  8
1
  6
Continuous
 62
     7
370
     9
100
AcDbLine
 10
232.8057806804123
 20
317.1546277465279
 30
0.0
 11
233.0150705115392
 21
317.2427809894434
 31
0.0
  0
ARC
  5
299
330
1F
100
AcDbEntity
  8
1
  6
Continuous
 62
     7
370
     9
100
AcDbCircle
 10
233.0531115367825
 20
317.1524655400539
 30
0.0
 40
0.098
100
AcDbArc
 50
352.5034861292236
 51
112.8409109934307
  0
LINE
  5
29A
330
1F
100
AcDbEntity
  8
1
  6
Continuous
 62
     7
370
     9
100
AcDbLine
 10
232.7466593311251
 20
317.07709795221
 30
0.0
 11
232.4059320524355
 21
314.4877999241288
 31
0.0
  0
ARC
  5
29B
330
1F
100
AcDbEntity
  8
1
  6
Continuous
 62
     7
370
     9
100
AcDbCircle
 10
232.5030944269659
 20
314.4750142690571
 30
0.0
 40
0.098
100
AcDbArc
 50
172.503486129191
 51
292.8409109934304
  0
LINE
  5
29C
330
1F
100
AcDbEntity
  8
1
  6
Continuous
 62
     7
370
     9
100
AcDbLine
 10
232.5411354522092
 20
314.3846988196675
 30
0.0
 11
232.7504252833361
 21
314.472852062583
 31
0.0
  0
LINE
  5
29D
330
1F
100
AcDbEntity
  8
1
  6
Continuous
 62
     7
370
     9
100
AcDbLine
 10
233.1502739113129
 20
317.1396798849822
 30
0.0
 11
232.8095466326232
 21
314.5503818569009
 31
0.0
  0
ARC
  5
29E
330
1F
100
AcDbEntity
  8
1
  6
Continuous
 62
     7
370
     9
100
AcDbCircle
 10
232.7123842580928
 20
314.5631675119726
 30
0.0
 40
0.098
100
AcDbArc
 50
292.8409109934304
 51
352.5034861292215
  0
ARC
  5
29F
330
1F
100
AcDbEntity
  8
1
  6
Continuous
 62
     7
370
     9
100
AcDbCircle
 10
233.4193687526853
 20
317.3067336697947
 30
0.0
 40
0.098
100
AcDbArc
 50
112.8409109934001
 51
172.5034861292196
  0
LINE
  5
2A0
330
1F
100
AcDbEntity
  8
1
  6
Continuous
 62
     7
370
     9
100
AcDbLine
 10
233.3813277274421
 20
317.3970491191842
 30
0.0
 11
233.590617558569
 21
317.4852023620997
 31
0.0
  0
ARC
  5
2A1
330
1F
100
AcDbEntity
  8
1
  6
Continuous
 62
     7
370
     9
100
AcDbCircle
 10
233.6286585838123
 20
317.3948869127101
 30
0.0
 40
0.098
100
AcDbArc
 50
352.5034861292236
 51
112.8409109934307
  0
LINE
  5
2A2
330
1F
100
AcDbEntity
  8
1
  6
Continuous
 62
     7
370
     9
100
AcDbLine
 10
233.3222063781549
 20
317.3195193248663
 30
0.0
 11
232.9814790994653
 21
314.730221296785
 31
0.0
  0
ARC
  5
2A3
330
1F
100
AcDbEntity
  8
1
  6
Continuous
 62
     7
370
     9
100
AcDbCircle
 10
233.0786414739957
 20
314.7174356417133
 30
0.0
 40
0.098
100
AcDbArc
 50
172.503486129224
 51
292.8409109934457
  0
LINE
  5
2A4
330
1F
100
AcDbEntity
  8
1
  6
Continuous
 62
     7
370
     9
100
AcDbLine
 10
233.116682499239
 20
314.6271201923238
 30
0.0
 11
233.3259723303659
 21
314.7152734352392
 31
0.0
  0
ARC
  5
2A5
330
1F
100
AcDbEntity
  8
1
  6
Continuous
 62
     7
370
     9
100
AcDbCircle
 10
233.2879313051227
 20
314.8055888846288
 30
0.0
 40
0.098
100
AcDbArc
 50
292.8409109934175
 51
352.5034861291884
  0
LINE
  5
2A6
330
1F
100
AcDbEntity
  8
1
  6
Continuous
 62
     7
370
     9
100
AcDbLine
 10
227.4900320361946
 20
313.3205490647218
 30
0.0
 11
227.9274011281877
 21
313.5047696912214
 31
0.0
  0
LINE
  5
2A7
330
1F
100
AcDbEntity
  8
1
  6
Continuous
 62
     7
370
     9
100
AcDbLine
 10
227.2998268265194
 20
313.7721262765167
 30
0.0
 11
228.0014722757289
 21
314.0676605668913
 31
0.0
  0
LINE
  5
2A8
330
1F
100
AcDbEntity
  8
1
  6
Continuous
 62
     7
370
     9
100
AcDbLine
 10
233.5259042766211
 20
315.8628690090407
 30
0.0
 11
234.3499689580492
 21
316.209966494135
 31
0.0
  0
LINE
  5
2A9
330
1F
100
AcDbEntity
  8
1
  6
Continuous
 62
     7
370
     9
100
AcDbLine
 10
233.6842510435304
 20
317.7904867937842
 30
0.0
 11
236.9565308922178
 21
319.6836500124327
 31
0.0
  0
LINE
  5
2AA
330
1F
100
AcDbEntity
  8
1
  6
Continuous
 62
     7
370
     9
100
AcDbLine
 10
233.6842510435304
 20
317.7904867937842
 30
0.0
 11
234.8254818136907
 21
315.0810232815601
 31
0.0
  0
LINE
  5
2AB
330
1F
100
AcDbEntity
  8
1
  6
Continuous
 62
     7
370
     9
100
AcDbLine
 10
234.8254818136907
 20
315.0810232815601
 30
0.0
 11
238.4661385810293
 21
316.0996010562056
 31
0.0
  0
LINE
  5
2AC
330
1F
100
AcDbEntity
  8
1
  6
Continuous
 62
     7
370
     9
100
AcDbLine
 10
233.5999754241624
 20
316.4257598847106
 30
0.0
 11
234.1597638318327
 21
316.6615437410831
 31
0.0
  0
ARC
  5
2AD
330
1F
100
AcDbEntity
  8
1
  6
Continuous
 62
     7
370
     9
100
AcDbCircle
 10
227.0038520941726
 20
313.3816151271083
 30
0.0
 40
0.4899999999999999
100
AcDbArc
 50
52.84092158263157
 51
352.8409215826405
  0
LINE
  5
2AE
330
1F
100
AcDbEntity
  8
1
  6
Continuous
 62
     7
370
     9
100
AcDbLine
 10
228.1422828823362
 20
315.1377264196263
 30
0.0
 11
228.0014722757289
 21
314.0676605668913
 31
0.0
  0
LINE
  5
2AF
330
1F
100
AcDbEntity
  8
1
  6
Continuous
 62
     7
370
     9
100
AcDbLine
 10
227.9274011281877
 20
313.5047696912214
 30
0.0
 11
227.8015556036466
 21
312.5484283915451
 31
0.0
  0
LINE
  5
2B0
330
1F
100
AcDbEntity
  8
1
  6
Continuous
 62
     7
370
     9
100
AcDbLine
 10
233.7258209583427
 20
317.3821012576385
 30
0.0
 11
233.5999754241624
 21
316.4257598847106
 31
0.0
  0
LINE
  5
2B1
330
1F
100
AcDbEntity
  8
1
  6
Continuous
 62
     7
370
     9
100
AcDbLine
 10
233.5259042766211
 20
315.8628690090407
 30
0.0
 11
233.3850936796531
 21
314.7928032295571
 31
0.0
  0
LINE
  5
2B2
330
1F
100
AcDbEntity
  8
1
  6
Continuous
 62
     7
370
     9
100
AcDbLine
 10
237.1772309735854
 20
319.7934280282698
 30
0.0
 11
238.4606557943516
 21
320.3340088074675
 31
0.0
  0
LINE
  5
2B3
330
1F
100
AcDbEntity
  8
1
  6
Continuous
 62
     7
370
     9
100
AcDbLine
 10
238.6988719961785
 20
316.18081002215
 30
0.0
 11
239.8123486636765
 21
316.6498083419544
 31
0.0
  0
CIRCLE
  5
2B4
330
1F
100
AcDbEntity
  8
1
  6
Continuous
 62
     7
370
     9
100
AcDbCircle
 10
253.2949937755307
 20
324.6635653323551
 30
0.0
 40
5.683742957043786
  0
ARC
  5
2B5
330
1F
100
AcDbEntity
  8
1
  6
Continuous
 62
     7
370
     9
100
AcDbCircle
 10
247.508009503323
 20
316.1216845966357
 30
0.0
 40
1.838997366895901
100
AcDbArc
 50
284.6285765214033
 51
186.7524556348332
  0
ARC
  5
2B6
330
1F
100
AcDbEntity
  8
1
  6
Continuous
 62
     7
370
     9
100
AcDbCircle
 10
253.3176287943688
 20
324.6352405176315
 30
0.0
 40
11.59808223115298
100
AcDbArc
 50
207.2026477749556
 51
228.8241192753588
  0
ARC
  5
2B7
330
1F
100
AcDbEntity
  8
1
  6
Continuous
 62
     7
370
     9
100
AcDbCircle
 10
243.7323801602074
 20
320.8463990920657
 30
0.0
 40
1.680000000006302
100
AcDbArc
 50
244.2438443937196
 51
158.8917860722175
  0
ARC
  5
2B8
330
1F
100
AcDbEntity
  8
1
  6
Continuous
 62
     7
370
     9
100
AcDbCircle
 10
253.3176287943688
 20
324.6352405176315
 30
0.0
 40
11.59808223115298
100
AcDbArc
 50
243.1320760978872
 51
195.9329826909788
  0
LINE
  5
2B9
330
1F
100
AcDbEntity
  8
1
  6
Continuous
 62
     7
370
     9
100
AcDbLine
 10
111.3321427040622
 20
120.1553571428566
 30
0.0
 11
107.3321427040622
 21
124.1553571428566
 31
0.0
  0
LINE
  5
2BA
330
1F
100
AcDbEntity
  8
1
  6
Continuous
 62
     7
370
     9
100
AcDbLine
 10
111.3321427040622
 20
120.1553571428566
 30
0.0
 11
163.7360330101841
 21
120.1553571428566
 31
0.0
  0
LINE
  5
2BB
330
1F
100
AcDbEntity
  8
1
  6
Continuous
 62
     7
370
     9
100
AcDbLine
 10
357.3441962754911
 20
120.1553571428566
 30
0.0
 11
353.344196275491
 21
124.1553571428566
 31
0.0
  0
LINE
  5
2BC
330
1F
100
AcDbEntity
  8
1
  6
Continuous
 62
     7
370
     9
100
AcDbLine
 10
163.7360330101841
 20
120.1553571428566
 30
0.0
 11
167.7360330101841
 21
124.1553571428566
 31
0.0
  0
LINE
  5
2BD
330
1F
100
AcDbEntity
  8
1
  6
Continuous
 62
     7
370
     9
100
AcDbLine
 10
167.7360330101841
 20
124.1553571428566
 30
0.0
 11
353.344196275491
 21
124.1553571428566
 31
0.0
  0
LINE
  5
2BE
330
1F
100
AcDbEntity
  8
1
  6
Continuous
 62
     7
370
     9
100
AcDbLine
 10
357.9181758673278
 20
120.1553571428566
 30
0.0
 11
411.6750000000002
 21
120.1553571428566
 31
0.0
  0
LINE
  5
2BF
330
1F
100
AcDbEntity
  8
1
  6
Continuous
 62
     7
370
     9
100
AcDbLine
 10
410.6750001530811
 20
165.1553571428566
 30
0.0
 11
411.6750000000002
 21
120.1553571428566
 31
0.0
  0
LINE
  5
2C0
330
1F
100
AcDbEntity
  8
1
  6
Continuous
 62
     7
370
     9
100
AcDbLine
 10
107.3321427040622
 20
124.1553571428566
 30
0.0
 11
71.67500000000035
 21
124.1553571428566
 31
0.0
  0
LINE
  5
2C1
330
1F
100
AcDbEntity
  8
1
  6
Continuous
 62
     7
370
     9
100
AcDbLine
 10
72.67499984691955
 20
165.1553571428566
 30
0.0
 11
71.67500000000035
 21
124.1553571428566
 31
0.0
  0
LINE
  5
2C2
330
1F
100
AcDbEntity
  8
1
  6
Continuous
 62
     7
370
     9
100
AcDbLine
 10
72.67499984691955
 20
165.1553571428566
 30
0.0
 11
410.6750001530811
 21
165.1553571428566
 31
0.0
  0
LINE
  5
2C3
330
1F
100
AcDbEntity
  8
1
  6
Continuous
 62
     7
370
     9
100
AcDbLine
 10
247.2949937755307
 20
363.1553571428566
 30
0.0
 11
247.2949937755307
 21
425.1553571428566
 31
0.0
  0
LINE
  5
2C4
330
1F
100
AcDbEntity
  8
1
  6
Continuous
 62
     7
370
     9
100
AcDbLine
 10
247.2949937755307
 20
445.1553571428566
 30
0.0
 11
247.2949937755307
 21
510.7017826326003
 31
0.0
  0
LINE
  5
2C5
330
1F
100
AcDbEntity
  8
1
  6
Continuous
 62
     7
370
     9
100
AcDbLine
 10
458.0607141326348
 20
152.6801020408165
 30
0.0
 11
453.5821427040634
 21
164.5836734693879
 31
0.0
  0
LINE
  5
2C6
330
1F
100
AcDbEntity
  8
1
  6
Continuous
 62
     7
370
     9
100
AcDbLine
 10
453.5821427040634
 20
164.5836734693879
 30
0.0
 11
458.0607141326348
 21
164.5836734693879
 31
0.0
  0
LINE
  5
2C7
330
1F
100
AcDbEntity
  8
1
  6
Continuous
 62
     7
370
     9
100
AcDbLine
 10
458.0607141326348
 20
179.3158163265308
 30
0.0
 11
458.0607141326348
 21
152.6801020408165
 31
0.0
  0
LINE
  5
2C8
330
1F
100
AcDbEntity
  8
1
  6
Continuous
 62
     7
370
     9
100
AcDbLine
 10
25.28928617352756
 20
152.6801020408165
 30
0.0
 11
29.76785760209896
 21
164.5836734693879
 31
0.0
  0
LINE
  5
2C9
330
1F
100
AcDbEntity
  8
1
  6
Continuous
 62
     7
370
     9
100
AcDbLine
 10
29.76785760209896
 20
164.5836734693879
 30
0.0
 11
25.28928617352756
 21
164.5836734693879
 31
0.0
  0
LINE
  5
2CA
330
1F
100
AcDbEntity
  8
1
  6
Continuous
 62
     7
370
     9
100
AcDbLine
 10
25.28928617352756
 20
179.3158163265308
 30
0.0
 11
458.0607141326348
 21
179.3158163265308
 31
0.0
  0
LINE
  5
2CB
330
1F
100
AcDbEntity
  8
1
  6
Continuous
 62
     7
370
     9
100
AcDbLine
 10
25.28928617352756
 20
179.3158163265308
 30
0.0
 11
25.28928617352756
 21
152.6801020408165
 31
0.0
  0
LINE
  5
2CC
330
1F
100
AcDbEntity
  8
1
  6
Continuous
 62
     7
370
     9
100
AcDbLine
 10
307.8715694493223
 20
329.7516978892807
 30
0.0
 11
304.2969460977438
 21
327.7647171214653
 31
0.0
  0
LINE
  5
2CD
330
1F
100
AcDbEntity
  8
1
  6
Continuous
 62
     7
370
     9
100
AcDbLine
 10
304.2969460977438
 20
327.7647171214653
 30
0.0
 11
304.2969460977438
 21
323.3208696132214
 31
0.0
  0
LINE
  5
2CE
330
1F
100
AcDbEntity
  8
1
  6
Continuous
 62
     7
370
     9
100
AcDbLine
 10
304.2969460977438
 20
323.3208696132214
 30
0.0
 11
307.8715694493223
 21
321.333888845406
 31
0.0
  0
LINE
  5
2CF
330
1F
100
AcDbEntity
  8
1
  6
Continuous
 62
     7
370
     9
100
AcDbLine
 10
307.871569755485
 20
329.7516978892807
 30
0.0
 11
311.4461931070634
 21
327.7647171214653
 31
0.0
  0
LINE
  5
2D0
330
1F
100
AcDbEntity
  8
1
  6
Continuous
 62
     7
370
     9
100
AcDbLine
 10
311.4461931070634
 20
327.7647171214653
 30
0.0
 11
311.4461931070634
 21
323.3208696132214
 31
0.0
  0
LINE
  5
2D1
330
1F
100
AcDbEntity
  8
1
  6
Continuous
 62
     7
370
     9
100
AcDbLine
 10
311.4461931070634
 20
323.3208696132214
 30
0.0
 11
307.871569755485
 21
321.333888845406
 31
0.0
  0
DIMENSION
  5
2E5
330
1F
100
AcDbEntity
  8
1
  6
Continuous
 62
     7
370
     9
100
AcDbDimension
  2
Dim1
 10
672.6464285714292
 20
472.0767857142862
 30
0.0
 11
711.6464285714294
 21
477.3267857142862
 31
0.0
 70
   160
  1
<>
 71
     5
 42
-1.0
 73
     0
 74
     0
 75
     0
  3
Standard
100
AcDbAlignedDimension
 13
672.646428571429
 23
396.7238895949728
 33
0.0
 14
750.6464285714294
 24
393.8196428571433
 34
0.0
100
AcDbRotatedDimension
1001
ACAD
1000
DSTYLE
1002
{
1070
   344
1005
0
1070
   343
1005
0
1070
   173
1070
     1
1070
   289
1070
     2
1070
   279
1070
     2
1070
   288
1070
     1
1070
    77
1070
     3
1070
   172
1070
     1
1070
   174
1070
     0
1070
    74
1070
     0
1070
    73
1070
     0
1070
   284
1070
     8
1070
    78
1070
     8
1070
   140
1040
4.0
1070
    40
1040
3.0
1070
    42
1040
2.0
1070
    44
1040
0.0
1070
    43
1040
10.0
1070
   271
1070
     2
1070
    41
1040
4.0
1002
}
  0
DIMENSION
  5
2F9
330
1F
100
AcDbEntity
  8
1
  6
Continuous
 62
     7
370
     9
100
AcDbDimension
  2
Dim2
 10
661.6464285714294
 20
205.0125000000001
 30
0.0
 11
686.6464285714294
 21
210.2625000000001
 31
0.0
 70
   160
  1
<>
 71
     5
 42
-1.0
 73
     0
 74
     0
 75
     0
  3
Standard
100
AcDbAlignedDimension
 13
661.6464285714295
 23
234.3456361784006
 33
0.0
 14
711.6464285714295
 24
234.3456361784006
 34
0.0
100
AcDbRotatedDimension
1001
ACAD
1000
DSTYLE
1002
{
1070
   344
1005
0
1070
   343
1005
0
1070
   173
1070
     1
1070
   289
1070
     2
1070
   279
1070
     2
1070
   288
1070
     1
1070
    77
1070
     3
1070
   172
1070
     1
1070
   174
1070
     0
1070
    74
1070
     0
1070
    73
1070
     0
1070
   284
1070
     8
1070
    78
1070
     8
1070
   140
1040
4.0
1070
    40
1040
3.0
1070
    42
1040
2.0
1070
    44
1040
0.0
1070
    43
1040
10.0
1070
   271
1070
     2
1070
    41
1040
4.0
1002
}
  0
DIMENSION
  5
30D
330
1F
100
AcDbEntity
  8
1
  6
Continuous
 62
     7
370
     9
100
AcDbDimension
  2
Dim3
 10
711.6464285714294
 20
205.0125000000001
 30
0.0
 11
736.6464285714294
 21
210.2625000000001
 31
0.0
 70
   160
  1
<>
 71
     5
 42
-1.0
 73
     0
 74
     0
 75
     0
  3
Standard
100
AcDbAlignedDimension
 13
711.6464285714295
 23
234.3456361784006
 33
0.0
 14
761.6464285714294
 24
234.3456361784006
 34
0.0
100
AcDbRotatedDimension
1001
ACAD
1000
DSTYLE
1002
{
1070
   344
1005
0
1070
   343
1005
0
1070
   173
1070
     1
1070
   289
1070
     2
1070
   279
1070
     2
1070
   288
1070
     1
1070
    77
1070
     3
1070
   172
1070
     1
1070
   174
1070
     0
1070
    74
1070
     0
1070
    73
1070
     0
1070
   284
1070
     8
1070
    78
1070
     8
1070
   140
1040
4.0
1070
    40
1040
3.0
1070
    42
1040
2.0
1070
    44
1040
0.0
1070
    43
1040
10.0
1070
   271
1070
     2
1070
    41
1040
4.0
1002
}
  0
DIMENSION
  5
321
330
1F
100
AcDbEntity
  8
1
  6
Continuous
 62
     7
370
     9
100
AcDbDimension
  2
Dim4
 10
624.1464285714295
 20
86.21249999999985
 30
0.0
 11
711.6464285714294
 21
91.46249999999985
 31
0.0
 70
   160
  1
<>
 71
     5
 42
-1.0
 73
     0
 74
     0
 75
     0
  3
Standard
100
AcDbAlignedDimension
 13
624.1464285714296
 23
114.2624999999999
 33
0.0
 14
799.1464285714294
 24
114.4982142857142
 34
0.0
100
AcDbRotatedDimension
1001
ACAD
1000
DSTYLE
1002
{
1070
   344
1005
0
1070
   343
1005
0
1070
   173
1070
     1
1070
   289
1070
     2
1070
   279
1070
     2
1070
   288
1070
     1
1070
    77
1070
     3
1070
   172
1070
     1
1070
   174
1070
     0
1070
    74
1070
     0
1070
    73
1070
     0
1070
   284
1070
     8
1070
    78
1070
     8
1070
   140
1040
4.0
1070
    40
1040
3.0
1070
    42
1040
2.0
1070
    44
1040
0.0
1070
    43
1040
10.0
1070
   271
1070
     2
1070
    41
1040
4.0
1002
}
  0
DIMENSION
  5
335
330
1F
100
AcDbEntity
  8
1
  6
Continuous
 62
     7
370
     9
100
AcDbDimension
  2
Dim5
 10
480.3035714285713
 20
203.5982142857149
 30
0.0
 11
510.1035714285719
 21
208.8482142857149
 31
0.0
 70
   160
  1
29.8φ
 71
     5
 42
-1.0
 73
     0
 74
     0
 75
     0
  3
Standard
100
AcDbAlignedDimension
 13
480.3035714285718
 23
267.4767857142866
 33
0.0
 14
539.9035714285719
 24
268.1266991028054
 34
0.0
100
AcDbRotatedDimension
1001
ACAD
1000
DSTYLE
1002
{
1070
   344
1005
0
1070
   343
1005
0
1070
   173
1070
     1
1070
   289
1070
     2
1070
   279
1070
     2
1070
   288
1070
     1
1070
    77
1070
     3
1070
   172
1070
     1
1070
   174
1070
     0
1070
    74
1070
     0
1070
    73
1070
     0
1070
   284
1070
     8
1070
    78
1070
     8
1070
   140
1040
4.0
1070
    40
1040
3.0
1070
    42
1040
2.0
1070
    44
1040
0.0
1070
    43
1040
10.0
1070
   271
1070
     2
1070
    41
1040
4.0
1002
}
  0
DIMENSION
  5
349
330
1F
100
AcDbEntity
  8
1
  6
Continuous
 62
     7
370
     9
100
AcDbDimension
  2
Dim6
 10
71.67500000000013
 20
104.65331632653
 30
0.0
 11
241.6750000000001
 21
109.90331632653
 31
0.0
 70
   160
  1
<>
 71
     5
 42
-1.0
 73
     0
 74
     0
 75
     0
  3
Standard
100
AcDbAlignedDimension
 13
71.67500000000035
 23
130.1553571428566
 33
0.0
 14
411.6750000000003
 24
130.1553571428566
 34
0.0
100
AcDbRotatedDimension
1001
ACAD
1000
DSTYLE
1002
{
1070
   344
1005
0
1070
   343
1005
0
1070
   173
1070
     1
1070
   289
1070
     2
1070
   279
1070
     2
1070
   288
1070
     1
1070
    77
1070
     3
1070
   172
1070
     1
1070
   174
1070
     0
1070
    74
1070
     0
1070
    73
1070
     0
1070
   284
1070
     8
1070
    78
1070
     8
1070
   140
1040
4.0
1070
    40
1040
3.0
1070
    42
1040
2.0
1070
    44
1040
0.0
1070
    43
1040
10.0
1070
   271
1070
     2
1070
    41
1040
4.0
1002
}
  0
DIMENSION
  5
35D
330
1F
100
AcDbEntity
  8
1
  6
Continuous
 62
     7
370
     9
100
AcDbDimension
  2
Dim7
 10
291.6749998469194
 20
247.7318877551015
 30
0.0
 11
241.6749998469194
 21
252.9818877551015
 31
0.0
 70
   160
  1
<>
 71
     5
 42
-1.0
 73
     0
 74
     0
 75
     0
  3
Standard
100
AcDbAlignedDimension
 13
291.6749998469195
 23
258.8104591836729
 33
0.0
 14
191.6749998469195
 24
262.1104591836729
 34
0.0
100
AcDbRotatedDimension
1001
ACAD
1000
DSTYLE
1002
{
1070
   344
1005
0
1070
   343
1005
0
1070
   173
1070
     1
1070
   289
1070
     2
1070
   279
1070
     2
1070
   288
1070
     1
1070
    77
1070
     3
1070
   172
1070
     1
1070
   174
1070
     0
1070
    74
1070
     0
1070
    73
1070
     0
1070
   284
1070
     8
1070
    78
1070
     8
1070
   140
1040
4.0
1070
    40
1040
3.0
1070
    42
1040
2.0
1070
    44
1040
0.0
1070
    43
1040
10.0
1070
   271
1070
     2
1070
    41
1040
4.0
1002
}
  0
DIMENSION
  5
371
330
1F
100
AcDbEntity
  8
1
  6
Continuous
 62
     7
370
     9
100
AcDbDimension
  2
Dim8
 10
74.67499984691955
 20
209.2515306122454
 30
0.0
 11
117.1749998469195
 21
214.5015306122454
 31
0.0
 70
   160
  1
<>
 71
     5
 42
-1.0
 73
     0
 74
     0
 75
     0
  3
Standard
100
AcDbAlignedDimension
 13
74.67499984691955
 23
211.3729591836739
 33
0.0
 14
159.6749998469195
 24
211.3729591836739
 34
0.0
100
AcDbRotatedDimension
1001
ACAD
1000
DSTYLE
1002
{
1070
   344
1005
0
1070
   343
1005
0
1070
   173
1070
     1
1070
   289
1070
     2
1070
   279
1070
     2
1070
   288
1070
     1
1070
    77
1070
     3
1070
   172
1070
     1
1070
   174
1070
     0
1070
    74
1070
     0
1070
    73
1070
     0
1070
   284
1070
     8
1070
    78
1070
     8
1070
   140
1040
4.0
1070
    40
1040
3.0
1070
    42
1040
2.0
1070
    44
1040
0.0
1070
    43
1040
10.0
1070
   271
1070
     2
1070
    41
1040
4.0
1002
}
  0
DIMENSION
  5
385
330
1F
100
AcDbEntity
  8
1
  6
Continuous
 62
     7
370
     9
100
AcDbDimension
  2
Dim9
 10
159.6749998469195
 20
209.2515306122454
 30
0.0
 11
169.6749998469195
 21
214.5015306122454
 31
0.0
 70
   160
  1
<>
 71
     5
 42
-1.0
 73
     0
 74
     0
 75
     0
  3
Standard
100
AcDbAlignedDimension
 13
159.6749998469195
 23
215.6158163265312
 33
0.0
 14
179.6749998469195
 24
214.4372448979598
 34
0.0
100
AcDbRotatedDimension
1001
ACAD
1000
DSTYLE
1002
{
1070
   344
1005
0
1070
   343
1005
0
1070
   173
1070
     1
1070
   289
1070
     2
1070
   279
1070
     2
1070
   288
1070
     1
1070
    77
1070
     3
1070
   172
1070
     1
1070
   174
1070
     0
1070
    74
1070
     0
1070
    73
1070
     0
1070
   284
1070
     8
1070
    78
1070
     8
1070
   140
1040
4.0
1070
    40
1040
3.0
1070
    42
1040
2.0
1070
    44
1040
0.0
1070
    43
1040
10.0
1070
   271
1070
     2
1070
    41
1040
4.0
1002
}
  0
DIMENSION
  5
399
330
1F
100
AcDbEntity
  8
1
  6
Continuous
 62
     7
370
     9
100
AcDbDimension
  2
Dim10
 10
179.6749998469194
 20
209.2515306122454
 30
0.0
 11
185.6749998469194
 21
214.5015306122454
 31
0.0
 70
   160
  1
<>
 71
     5
 42
-1.0
 73
     0
 74
     0
 75
     0
  3
Standard
100
AcDbAlignedDimension
 13
179.6749998469195
 23
220.5658163265312
 33
0.0
 14
191.6749998469195
 24
220.3301020408169
 34
0.0
100
AcDbRotatedDimension
1001
ACAD
1000
DSTYLE
1002
{
1070
   344
1005
0
1070
   343
1005
0
1070
   173
1070
     1
1070
   289
1070
     2
1070
   279
1070
     2
1070
   288
1070
     1
1070
    77
1070
     3
1070
   172
1070
     1
1070
   174
1070
     0
1070
    74
1070
     0
1070
    73
1070
     0
1070
   284
1070
     8
1070
    78
1070
     8
1070
   140
1040
4.0
1070
    40
1040
3.0
1070
    42
1040
2.0
1070
    44
1040
0.0
1070
    43
1040
10.0
1070
   271
1070
     2
1070
    41
1040
4.0
1002
}
  0
DIMENSION
  5
3AD
330
1F
100
AcDbEntity
  8
1
  6
Continuous
 62
     7
370
     9
100
AcDbDimension
  2
Dim11
 10
247.2949937755307
 20
495.2908163265313
 30
0.0
 11
253.2949937755307
 21
500.5408163265313
 31
0.0
 70
   160
  1
<>
 71
     5
 42
-1.0
 73
     0
 74
     0
 75
     0
  3
Standard
100
AcDbAlignedDimension
 13
247.2949937755307
 23
500.7122448979599
 33
0.0
 14
259.2949937755307
 24
500.4765306122457
 34
0.0
100
AcDbRotatedDimension
1001
ACAD
1000
DSTYLE
1002
{
1070
   344
1005
0
1070
   343
1005
0
1070
   173
1070
     1
1070
   289
1070
     2
1070
   279
1070
     2
1070
   288
1070
     1
1070
    77
1070
     3
1070
   172
1070
     1
1070
   174
1070
     0
1070
    74
1070
     0
1070
    73
1070
     0
1070
   284
1070
     8
1070
    78
1070
     8
1070
   140
1040
4.0
1070
    40
1040
3.0
1070
    42
1040
2.0
1070
    44
1040
0.0
1070
    43
1040
10.0
1070
   271
1070
     2
1070
    41
1040
4.0
1002
}
  0
DIMENSION
  5
3C1
330
1F
100
AcDbEntity
  8
1
  6
Continuous
 62
     7
370
     9
100
AcDbDimension
  2
Dim12
 10
291.6749998469195
 20
206.4818877551014
 30
0.0
 11
367.9589284183488
 21
211.7318877551014
 31
0.0
 70
   160
  1
<>
 71
     5
 42
-1.0
 73
     0
 74
     0
 75
     0
  3
Standard
100
AcDbAlignedDimension
 13
291.6749998469195
 23
165.1553571428566
 33
0.0
 14
411.6750000000003
 24
172.5390306122442
 34
0.0
100
AcDbRotatedDimension
1001
ACAD
1000
DSTYLE
1002
{
1070
   344
1005
0
1070
   343
1005
0
1070
   173
1070
     1
1070
   289
1070
     2
1070
   279
1070
     2
1070
   288
1070
     1
1070
    77
1070
     3
1070
   172
1070
     1
1070
   174
1070
     0
1070
    74
1070
     0
1070
    73
1070
     0
1070
   284
1070
     8
1070
    78
1070
     8
1070
   140
1040
4.0
1070
    40
1040
3.0
1070
    42
1040
2.0
1070
    44
1040
0.0
1070
    43
1040
10.0
1070
   271
1070
     2
1070
    41
1040
4.0
1002
}
  0
LINE
  5
3C2
330
1F
100
AcDbEntity
  8
1
  6
Continuous
 62
     7
370
     9
100
AcDbLine
 10
44.38214270406235
 20
495.1553571428566
 30
0.0
 11
130.5935550935547
 21
495.1553571428566
 31
0.0
  0
LINE
  5
3C3
330
1F
100
AcDbEntity
  8
1
  6
Continuous
 62
     7
370
     9
100
AcDbLine
 10
44.38214270406232
 20
165.1553571428567
 30
0.0
 11
63.90748440748396
 21
165.1553571428567
 31
0.0
  0
LINE
  5
3C4
330
1F
100
AcDbEntity
  8
1
  6
Continuous
 62
     7
370
     9
100
AcDbLine
 10
312.5749998469195
 20
275.1553571428566
 30
0.0
 11
351.4589284183487
 21
275.1553571428566
 31
0.0
  0
LINE
  5
3C5
330
1F
100
AcDbEntity
  8
1
  6
Continuous
 62
     7
370
     9
100
AcDbLine
 10
315.6010914760911
 20
287.1553571428566
 30
0.0
 11
351.4589284183487
 21
287.1553571428566
 31
0.0
  0
LINE
  5
3C6
330
1F
100
AcDbEntity
  8
1
  6
Continuous
 62
     7
370
     9
100
AcDbLine
 10
312.5749998469195
 20
235.1553571428566
 30
0.0
 11
333.8934511434508
 21
235.1553571428566
 31
0.0
  0
LINE
  5
3C7
330
1F
100
AcDbEntity
  8
1
  6
Continuous
 62
     7
370
     9
100
AcDbLine
 10
316.0641891891888
 20
363.1553571428566
 30
0.0
 11
351.4589284183486
 21
363.1553571428566
 31
0.0
  0
LINE
  5
3C8
330
1F
100
AcDbEntity
  8
1
  6
Continuous
 62
     7
370
     9
100
AcDbLine
 10
233.2854729729727
 20
537.876923978783
 30
0.0
 11
223.097323284823
 21
537.876923978783
 31
0.0
  0
LINE
  5
3C9
330
1F
100
AcDbEntity
  8
1
  6
Continuous
 62
     7
370
     9
100
AcDbLine
 10
228.1913981288978
 20
324.6352405176315
 30
0.0
 11
239.3057432432429
 21
324.6352405176315
 31
0.0
  0
LINE
  5
3CA
330
1F
100
AcDbEntity
  8
1
  6
Continuous
 62
     7
370
     9
100
AcDbLine
 10
414.8197765072759
 20
165.1553571428566
 30
0.0
 11
448.5732141326345
 21
165.1553571428566
 31
0.0
  0
LINE
  5
3CB
330
1F
100
AcDbEntity
  8
1
  6
Continuous
 62
     7
370
     9
100
AcDbLine
 10
416.6721673596668
 20
120.1553571428566
 30
0.0
 11
446.773518711018
 21
120.1553571428566
 31
0.0
  0
LINE
  5
3CC
330
1F
100
AcDbEntity
  8
1
  6
Continuous
 62
     7
370
     9
100
AcDbLine
 10
465.6892857142863
 20
262.1266991028054
 30
0.0
 11
475.9486746361739
 21
262.1266991028054
 31
0.0
  0
LINE
  5
3CD
330
1F
100
AcDbEntity
  8
1
  6
Continuous
 62
     7
370
     9
100
AcDbLine
 10
465.6892857142863
 20
312.1266991028054
 30
0.0
 11
475.9486746361739
 21
312.1266991028054
 31
0.0
  0
LINE
  5
3CE
330
1F
100
AcDbEntity
  8
1
  6
Continuous
 62
     7
370
     9
100
AcDbLine
 10
762.903571428574
 20
334.3456361784004
 30
0.0
 11
815.8321428571458
 21
334.3456361784004
 31
0.0
  0
LINE
  5
3CF
330
1F
100
AcDbEntity
  8
1
  6
Continuous
 62
     7
370
     9
100
AcDbLine
 10
733.8941008315994
 20
446.3456361784006
 30
0.0
 11
815.8321428571454
 21
446.3456361784006
 31
0.0
  0
LINE
  5
3D0
330
1F
100
AcDbEntity
  8
1
  6
Continuous
 62
     7
370
     9
100
AcDbLine
 10
167.9886954261942
 20
287.1553571428566
 30
0.0
 11
176.2086798336787
 21
287.1553571428566
 31
0.0
  0
LINE
  5
3D1
330
1F
100
AcDbEntity
  8
1
  6
Continuous
 62
     7
370
     9
100
AcDbLine
 10
168.220244282743
 20
400.1553571428566
 30
0.0
 11
176.7875519750508
 21
400.1553571428566
 31
0.0
  0
LINE
  5
3D2
330
1F
100
AcDbEntity
  8
1
  6
Continuous
 62
     7
370
     9
100
AcDbLine
 10
233.2854729729727
 20
537.876923978783
 30
0.0
 11
234.0619301082803
 21
534.9791464999158
 31
0.0
  0
LINE
  5
3D3
330
1F
100
AcDbEntity
  8
1
  6
Continuous
 62
     7
370
     9
100
AcDbLine
 10
233.2854729729727
 20
537.876923978783
 30
0.0
 11
232.5090158376651
 21
534.9791464999158
 31
0.0
  0
LINE
  5
3D4
330
1F
100
AcDbEntity
  8
1
  6
Continuous
 62
     7
370
     9
100
AcDbLine
 10
234.0619301082803
 20
534.9791464999158
 30
0.0
 11
232.5090158376651
 21
534.9791464999158
 31
0.0
  0
LINE
  5
3D5
330
1F
100
AcDbEntity
  8
1
  6
Continuous
 62
     7
370
     9
100
AcDbLine
 10
233.2854729729727
 20
537.1524796090662
 30
0.0
 11
233.6737015406265
 21
535.7035908696325
 31
0.0
  0
LINE
  5
3D6
330
1F
100
AcDbEntity
  8
1
  6
Continuous
 62
     7
370
     9
100
AcDbLine
 10
233.2854729729727
 20
537.1524796090662
 30
0.0
 11
232.8972444053189
 21
535.7035908696325
 31
0.0
  0
LINE
  5
3D7
330
1F
100
AcDbEntity
  8
1
  6
Continuous
 62
     7
370
     9
100
AcDbLine
 10
233.6737015406265
 20
535.7035908696325
 30
0.0
 11
232.8972444053189
 21
535.7035908696325
 31
0.0
  0
POLYLINE
  5
3D8
330
1F
100
AcDbEntity
  8
1
  6
Continuous
 62
     7
370
     9
100
AcDb2dPolyline
 66
     1
 10
0.0
 20
0.0
 30
0.0
  0
VERTEX
  5
3DA
330
3D8
100
AcDbEntity
  8
1
  6
Continuous
 62
     7
370
     9
100
AcDbVertex
100
AcDb2dVertex
 10
233.2854729729727
 20
537.876923978783
 30
0.0
  0
VERTEX
  5
3DB
330
3D8
100
AcDbEntity
  8
1
  6
Continuous
 62
     7
370
     9
100
AcDbVertex
100
AcDb2dVertex
 10
233.2854729729727
 20
530.4784303534286
 30
0.0
  0
SEQEND
  5
3D9
330
3D8
100
AcDbEntity
  8
1
  6
Continuous
370
     9
  0
LINE
  5
3DC
330
1F
100
AcDbEntity
  8
1
  6
Continuous
 62
     7
370
     9
100
AcDbLine
 10
233.2854729729727
 20
324.6352405176315
 30
0.0
 11
232.5090158376651
 21
327.5330179964987
 31
0.0
  0
LINE
  5
3DD
330
1F
100
AcDbEntity
  8
1
  6
Continuous
 62
     7
370
     9
100
AcDbLine
 10
233.2854729729727
 20
324.6352405176315
 30
0.0
 11
234.0619301082803
 21
327.5330179964987
 31
0.0
  0
LINE
  5
3DE
330
1F
100
AcDbEntity
  8
1
  6
Continuous
 62
     7
370
     9
100
AcDbLine
 10
232.5090158376651
 20
327.5330179964987
 30
0.0
 11
234.0619301082803
 21
327.5330179964987
 31
0.0
  0
LINE
  5
3DF
330
1F
100
AcDbEntity
  8
1
  6
Continuous
 62
     7
370
     9
100
AcDbLine
 10
233.2854729729727
 20
325.3596848873483
 30
0.0
 11
232.8972444053189
 21
326.8085736267819
 31
0.0
  0
LINE
  5
3E0
330
1F
100
AcDbEntity
  8
1
  6
Continuous
 62
     7
370
     9
100
AcDbLine
 10
233.2854729729727
 20
325.3596848873483
 30
0.0
 11
233.6737015406265
 21
326.8085736267819
 31
0.0
  0
LINE
  5
3E1
330
1F
100
AcDbEntity
  8
1
  6
Continuous
 62
     7
370
     9
100
AcDbLine
 10
232.8972444053189
 20
326.8085736267819
 30
0.0
 11
233.6737015406265
 21
326.8085736267819
 31
0.0
  0
POLYLINE
  5
3E2
330
1F
100
AcDbEntity
  8
1
  6
Continuous
 62
     7
370
     9
100
AcDb2dPolyline
 66
     1
 10
0.0
 20
0.0
 30
0.0
  0
VERTEX
  5
3E4
330
3E2
100
AcDbEntity
  8
1
  6
Continuous
 62
     7
370
     9
100
AcDbVertex
100
AcDb2dVertex
 10
233.2854729729727
 20
324.6352405176315
 30
0.0
  0
VERTEX
  5
3E5
330
3E2
100
AcDbEntity
  8
1
  6
Continuous
 62
     7
370
     9
100
AcDbVertex
100
AcDb2dVertex
 10
233.2854729729727
 20
331.8095114345103
 30
0.0
  0
SEQEND
  5
3E3
330
3E2
100
AcDbEntity
  8
1
  6
Continuous
370
     9
  0
LINE
  5
3E6
330
1F
100
AcDbEntity
  8
1
  6
Continuous
 62
     7
370
     9
100
AcDbLine
 10
339.3348492723471
 20
363.1553571428566
 30
0.0
 11
340.1113064076547
 21
360.2575796639894
 31
0.0
  0
LINE
  5
3E7
330
1F
100
AcDbEntity
  8
1
  6
Continuous
 62
     7
370
     9
100
AcDbLine
 10
339.3348492723471
 20
363.1553571428566
 30
0.0
 11
338.5583921370396
 21
360.2575796639894
 31
0.0
  0
LINE
  5
3E8
330
1F
100
AcDbEntity
  8
1
  6
Continuous
 62
     7
370
     9
100
AcDbLine
 10
340.1113064076547
 20
360.2575796639894
 30
0.0
 11
338.5583921370396
 21
360.2575796639894
 31
0.0
  0
LINE
  5
3E9
330
1F
100
AcDbEntity
  8
1
  6
Continuous
 62
     7
370
     9
100
AcDbLine
 10
339.3348492723471
 20
362.4309127731398
 30
0.0
 11
339.7230778400009
 21
360.9820240337062
 31
0.0
  0
LINE
  5
3EA
330
1F
100
AcDbEntity
  8
1
  6
Continuous
 62
     7
370
     9
100
AcDbLine
 10
339.3348492723471
 20
362.4309127731398
 30
0.0
 11
338.9466207046934
 21
360.9820240337062
 31
0.0
  0
LINE
  5
3EB
330
1F
100
AcDbEntity
  8
1
  6
Continuous
 62
     7
370
     9
100
AcDbLine
 10
339.7230778400009
 20
360.9820240337062
 30
0.0
 11
338.9466207046934
 21
360.9820240337062
 31
0.0
  0
POLYLINE
  5
3EC
330
1F
100
AcDbEntity
  8
1
  6
Continuous
 62
     7
370
     9
100
AcDb2dPolyline
 66
     1
 10
0.0
 20
0.0
 30
0.0
  0
VERTEX
  5
3EE
330
3EC
100
AcDbEntity
  8
1
  6
Continuous
 62
     7
370
     9
100
AcDbVertex
100
AcDb2dVertex
 10
339.3348492723471
 20
363.1553571428566
 30
0.0
  0
VERTEX
  5
3EF
330
3EC
100
AcDbEntity
  8
1
  6
Continuous
 62
     7
370
     9
100
AcDbVertex
100
AcDb2dVertex
 10
339.3348492723471
 20
356.8167879417867
 30
0.0
  0
SEQEND
  5
3ED
330
3EC
100
AcDbEntity
  8
1
  6
Continuous
370
     9
  0
LINE
  5
3F0
330
1F
100
AcDbEntity
  8
1
  6
Continuous
 62
     7
370
     9
100
AcDbLine
 10
339.3348492723471
 20
287.1553571428566
 30
0.0
 11
338.5583921370396
 21
290.0531346217238
 31
0.0
  0
LINE
  5
3F1
330
1F
100
AcDbEntity
  8
1
  6
Continuous
 62
     7
370
     9
100
AcDbLine
 10
339.3348492723471
 20
287.1553571428566
 30
0.0
 11
340.1113064076547
 21
290.0531346217238
 31
0.0
  0
LINE
  5
3F2
330
1F
100
AcDbEntity
  8
1
  6
Continuous
 62
     7
370
     9
100
AcDbLine
 10
338.5583921370396
 20
290.0531346217238
 30
0.0
 11
340.1113064076547
 21
290.0531346217238
 31
0.0
  0
LINE
  5
3F3
330
1F
100
AcDbEntity
  8
1
  6
Continuous
 62
     7
370
     9
100
AcDbLine
 10
339.3348492723471
 20
287.8798015125734
 30
0.0
 11
338.9466207046934
 21
289.328690252007
 31
0.0
  0
LINE
  5
3F4
330
1F
100
AcDbEntity
  8
1
  6
Continuous
 62
     7
370
     9
100
AcDbLine
 10
339.3348492723471
 20
287.8798015125734
 30
0.0
 11
339.7230778400009
 21
289.328690252007
 31
0.0
  0
LINE
  5
3F5
330
1F
100
AcDbEntity
  8
1
  6
Continuous
 62
     7
370
     9
100
AcDbLine
 10
338.9466207046934
 20
289.328690252007
 30
0.0
 11
339.7230778400009
 21
289.328690252007
 31
0.0
  0
POLYLINE
  5
3F6
330
1F
100
AcDbEntity
  8
1
  6
Continuous
 62
     7
370
     9
100
AcDb2dPolyline
 66
     1
 10
0.0
 20
0.0
 30
0.0
  0
VERTEX
  5
3F8
330
3F6
100
AcDbEntity
  8
1
  6
Continuous
 62
     7
370
     9
100
AcDbVertex
100
AcDb2dVertex
 10
339.3348492723471
 20
287.1553571428566
 30
0.0
  0
VERTEX
  5
3F9
330
3F6
100
AcDbEntity
  8
1
  6
Continuous
 62
     7
370
     9
100
AcDbVertex
100
AcDb2dVertex
 10
339.3348492723471
 20
294.7616943866934
 30
0.0
  0
SEQEND
  5
3F7
330
3F6
100
AcDbEntity
  8
1
  6
Continuous
370
     9
  0
LINE
  5
3FA
330
1F
100
AcDbEntity
  8
1
  6
Continuous
 62
     7
370
     9
100
AcDbLine
 10
172.1565748440736
 20
400.1553571428566
 30
0.0
 11
172.9330319793812
 21
397.2575796639894
 31
0.0
  0
LINE
  5
3FB
330
1F
100
AcDbEntity
  8
1
  6
Continuous
 62
     7
370
     9
100
AcDbLine
 10
172.1565748440736
 20
400.1553571428566
 30
0.0
 11
171.3801177087661
 21
397.2575796639894
 31
0.0
  0
LINE
  5
3FC
330
1F
100
AcDbEntity
  8
1
  6
Continuous
 62
     7
370
     9
100
AcDbLine
 10
172.9330319793812
 20
397.2575796639894
 30
0.0
 11
171.3801177087661
 21
397.2575796639894
 31
0.0
  0
LINE
  5
3FD
330
1F
100
AcDbEntity
  8
1
  6
Continuous
 62
     7
370
     9
100
AcDbLine
 10
172.1565748440736
 20
399.4309127731398
 30
0.0
 11
172.5448034117274
 21
397.9820240337062
 31
0.0
  0
LINE
  5
3FE
330
1F
100
AcDbEntity
  8
1
  6
Continuous
 62
     7
370
     9
100
AcDbLine
 10
172.1565748440736
 20
399.4309127731398
 30
0.0
 11
171.7683462764198
 21
397.9820240337062
 31
0.0
  0
LINE
  5
3FF
330
1F
100
AcDbEntity
  8
1
  6
Continuous
 62
     7
370
     9
100
AcDbLine
 10
172.5448034117274
 20
397.9820240337062
 30
0.0
 11
171.7683462764198
 21
397.9820240337062
 31
0.0
  0
POLYLINE
  5
400
330
1F
100
AcDbEntity
  8
1
  6
Continuous
 62
     7
370
     9
100
AcDb2dPolyline
 66
     1
 10
0.0
 20
0.0
 30
0.0
  0
VERTEX
  5
402
330
400
100
AcDbEntity
  8
1
  6
Continuous
 62
     7
370
     9
100
AcDbVertex
100
AcDb2dVertex
 10
172.1565748440736
 20
400.1553571428566
 30
0.0
  0
VERTEX
  5
403
330
400
100
AcDbEntity
  8
1
  6
Continuous
 62
     7
370
     9
100
AcDbVertex
100
AcDb2dVertex
 10
172.1565748440736
 20
394.3277027027013
 30
0.0
  0
SEQEND
  5
401
330
400
100
AcDbEntity
  8
1
  6
Continuous
370
     9
  0
LINE
  5
404
330
1F
100
AcDbEntity
  8
1
  6
Continuous
 62
     7
370
     9
100
AcDbLine
 10
44.38214270406235
 20
495.1553571428566
 30
0.0
 11
45.15859983936991
 21
492.2575796639894
 31
0.0
  0
LINE
  5
405
330
1F
100
AcDbEntity
  8
1
  6
Continuous
 62
     7
370
     9
100
AcDbLine
 10
44.38214270406235
 20
495.1553571428566
 30
0.0
 11
43.60568556875479
 21
492.2575796639894
 31
0.0
  0
LINE
  5
406
330
1F
100
AcDbEntity
  8
1
  6
Continuous
 62
     7
370
     9
100
AcDbLine
 10
45.15859983936991
 20
492.2575796639894
 30
0.0
 11
43.60568556875479
 21
492.2575796639894
 31
0.0
  0
LINE
  5
407
330
1F
100
AcDbEntity
  8
1
  6
Continuous
 62
     7
370
     9
100
AcDbLine
 10
44.38214270406235
 20
494.4309127731398
 30
0.0
 11
44.77037127171613
 21
492.9820240337062
 31
0.0
  0
LINE
  5
408
330
1F
100
AcDbEntity
  8
1
  6
Continuous
 62
     7
370
     9
100
AcDbLine
 10
44.38214270406235
 20
494.4309127731398
 30
0.0
 11
43.99391413640857
 21
492.9820240337062
 31
0.0
  0
LINE
  5
409
330
1F
100
AcDbEntity
  8
1
  6
Continuous
 62
     7
370
     9
100
AcDbLine
 10
44.77037127171613
 20
492.9820240337062
 30
0.0
 11
43.99391413640857
 21
492.9820240337062
 31
0.0
  0
POLYLINE
  5
40A
330
1F
100
AcDbEntity
  8
1
  6
Continuous
 62
     7
370
     9
100
AcDb2dPolyline
 66
     1
 10
0.0
 20
0.0
 30
0.0
  0
VERTEX
  5
40C
330
40A
100
AcDbEntity
  8
1
  6
Continuous
 62
     7
370
     9
100
AcDbVertex
100
AcDb2dVertex
 10
44.38214270406235
 20
495.1553571428566
 30
0.0
  0
VERTEX
  5
40D
330
40A
100
AcDbEntity
  8
1
  6
Continuous
 62
     7
370
     9
100
AcDbVertex
100
AcDb2dVertex
 10
44.38214270406235
 20
490.4204781704765
 30
0.0
  0
SEQEND
  5
40B
330
40A
100
AcDbEntity
  8
1
  6
Continuous
370
     9
  0
LINE
  5
40E
330
1F
100
AcDbEntity
  8
1
  6
Continuous
 62
     7
370
     9
100
AcDbLine
 10
172.1565748440736
 20
287.1553571428566
 30
0.0
 11
171.3801177087661
 21
290.0531346217239
 31
0.0
  0
LINE
  5
40F
330
1F
100
AcDbEntity
  8
1
  6
Continuous
 62
     7
370
     9
100
AcDbLine
 10
172.1565748440736
 20
287.1553571428566
 30
0.0
 11
172.9330319793812
 21
290.0531346217239
 31
0.0
  0
LINE
  5
410
330
1F
100
AcDbEntity
  8
1
  6
Continuous
 62
     7
370
     9
100
AcDbLine
 10
171.3801177087661
 20
290.0531346217239
 30
0.0
 11
172.9330319793812
 21
290.0531346217239
 31
0.0
  0
LINE
  5
411
330
1F
100
AcDbEntity
  8
1
  6
Continuous
 62
     7
370
     9
100
AcDbLine
 10
172.1565748440736
 20
287.8798015125735
 30
0.0
 11
171.7683462764198
 21
289.328690252007
 31
0.0
  0
LINE
  5
412
330
1F
100
AcDbEntity
  8
1
  6
Continuous
 62
     7
370
     9
100
AcDbLine
 10
172.1565748440736
 20
287.8798015125735
 30
0.0
 11
172.5448034117274
 21
289.328690252007
 31
0.0
  0
LINE
  5
413
330
1F
100
AcDbEntity
  8
1
  6
Continuous
 62
     7
370
     9
100
AcDbLine
 10
171.7683462764198
 20
289.328690252007
 30
0.0
 11
172.5448034117274
 21
289.328690252007
 31
0.0
  0
POLYLINE
  5
414
330
1F
100
AcDbEntity
  8
1
  6
Continuous
 62
     7
370
     9
100
AcDb2dPolyline
 66
     1
 10
0.0
 20
0.0
 30
0.0
  0
VERTEX
  5
416
330
414
100
AcDbEntity
  8
1
  6
Continuous
 62
     7
370
     9
100
AcDbVertex
100
AcDb2dVertex
 10
172.1565748440736
 20
287.1553571428566
 30
0.0
  0
VERTEX
  5
417
330
414
100
AcDbEntity
  8
1
  6
Continuous
 62
     7
370
     9
100
AcDbVertex
100
AcDb2dVertex
 10
172.1565748440736
 20
298.9295738045727
 30
0.0
  0
SEQEND
  5
415
330
414
100
AcDbEntity
  8
1
  6
Continuous
370
     9
  0
LINE
  5
418
330
1F
100
AcDbEntity
  8
1
  6
Continuous
 62
     7
370
     9
100
AcDbLine
 10
44.38214270406235
 20
165.1553571428567
 30
0.0
 11
43.60568556875479
 21
168.0531346217239
 31
0.0
  0
LINE
  5
419
330
1F
100
AcDbEntity
  8
1
  6
Continuous
 62
     7
370
     9
100
AcDbLine
 10
44.38214270406235
 20
165.1553571428567
 30
0.0
 11
45.15859983936991
 21
168.0531346217239
 31
0.0
  0
LINE
  5
41A
330
1F
100
AcDbEntity
  8
1
  6
Continuous
 62
     7
370
     9
100
AcDbLine
 10
43.60568556875479
 20
168.0531346217239
 30
0.0
 11
45.15859983936991
 21
168.0531346217239
 31
0.0
  0
LINE
  5
41B
330
1F
100
AcDbEntity
  8
1
  6
Continuous
 62
     7
370
     9
100
AcDbLine
 10
44.38214270406235
 20
165.8798015125735
 30
0.0
 11
43.99391413640857
 21
167.3286902520071
 31
0.0
  0
LINE
  5
41C
330
1F
100
AcDbEntity
  8
1
  6
Continuous
 62
     7
370
     9
100
AcDbLine
 10
44.38214270406235
 20
165.8798015125735
 30
0.0
 11
44.77037127171613
 21
167.3286902520071
 31
0.0
  0
LINE
  5
41D
330
1F
100
AcDbEntity
  8
1
  6
Continuous
 62
     7
370
     9
100
AcDbLine
 10
43.99391413640857
 20
167.3286902520071
 30
0.0
 11
44.77037127171613
 21
167.3286902520071
 31
0.0
  0
POLYLINE
  5
41E
330
1F
100
AcDbEntity
  8
1
  6
Continuous
 62
     7
370
     9
100
AcDb2dPolyline
 66
     1
 10
0.0
 20
0.0
 30
0.0
  0
VERTEX
  5
420
330
41E
100
AcDbEntity
  8
1
  6
Continuous
 62
     7
370
     9
100
AcDbVertex
100
AcDb2dVertex
 10
44.38214270406235
 20
165.1553571428567
 30
0.0
  0
VERTEX
  5
421
330
41E
100
AcDbEntity
  8
1
  6
Continuous
 62
     7
370
     9
100
AcDbVertex
100
AcDb2dVertex
 10
44.38214270406235
 20
167.8729209979203
 30
0.0
  0
SEQEND
  5
41F
330
41E
100
AcDbEntity
  8
1
  6
Continuous
370
     9
  0
LINE
  5
422
330
1F
100
AcDbEntity
  8
1
  6
Continuous
 62
     7
370
     9
100
AcDbLine
 10
330.0728950103928
 20
235.1553571428566
 30
0.0
 11
329.2964378750852
 21
238.0531346217238
 31
0.0
  0
LINE
  5
423
330
1F
100
AcDbEntity
  8
1
  6
Continuous
 62
     7
370
     9
100
AcDbLine
 10
330.0728950103928
 20
235.1553571428566
 30
0.0
 11
330.8493521457004
 21
238.0531346217238
 31
0.0
  0
LINE
  5
424
330
1F
100
AcDbEntity
  8
1
  6
Continuous
 62
     7
370
     9
100
AcDbLine
 10
329.2964378750852
 20
238.0531346217238
 30
0.0
 11
330.8493521457004
 21
238.0531346217238
 31
0.0
  0
LINE
  5
425
330
1F
100
AcDbEntity
  8
1
  6
Continuous
 62
     7
370
     9
100
AcDbLine
 10
330.0728950103928
 20
235.8798015125734
 30
0.0
 11
329.6846664427391
 21
237.328690252007
 31
0.0
  0
LINE
  5
426
330
1F
100
AcDbEntity
  8
1
  6
Continuous
 62
     7
370
     9
100
AcDbLine
 10
330.0728950103928
 20
235.8798015125734
 30
0.0
 11
330.4611235780466
 21
237.328690252007
 31
0.0
  0
LINE
  5
427
330
1F
100
AcDbEntity
  8
1
  6
Continuous
 62
     7
370
     9
100
AcDbLine
 10
329.6846664427391
 20
237.328690252007
 30
0.0
 11
330.4611235780466
 21
237.328690252007
 31
0.0
  0
POLYLINE
  5
428
330
1F
100
AcDbEntity
  8
1
  6
Continuous
 62
     7
370
     9
100
AcDb2dPolyline
 66
     1
 10
0.0
 20
0.0
 30
0.0
  0
VERTEX
  5
42A
330
428
100
AcDbEntity
  8
1
  6
Continuous
 62
     7
370
     9
100
AcDbVertex
100
AcDb2dVertex
 10
330.0728950103928
 20
235.1553571428566
 30
0.0
  0
VERTEX
  5
42B
330
428
100
AcDbEntity
  8
1
  6
Continuous
 62
     7
370
     9
100
AcDbVertex
100
AcDb2dVertex
 10
330.0728950103928
 20
239.6530665280654
 30
0.0
  0
SEQEND
  5
429
330
428
100
AcDbEntity
  8
1
  6
Continuous
370
     9
  0
LINE
  5
42C
330
1F
100
AcDbEntity
  8
1
  6
Continuous
 62
     7
370
     9
100
AcDbLine
 10
330.0728950103928
 20
275.1553571428566
 30
0.0
 11
330.8493521457004
 21
272.2575796639894
 31
0.0
  0
LINE
  5
42D
330
1F
100
AcDbEntity
  8
1
  6
Continuous
 62
     7
370
     9
100
AcDbLine
 10
330.0728950103928
 20
275.1553571428566
 30
0.0
 11
329.2964378750852
 21
272.2575796639894
 31
0.0
  0
LINE
  5
42E
330
1F
100
AcDbEntity
  8
1
  6
Continuous
 62
     7
370
     9
100
AcDbLine
 10
330.8493521457004
 20
272.2575796639894
 30
0.0
 11
329.2964378750852
 21
272.2575796639894
 31
0.0
  0
LINE
  5
42F
330
1F
100
AcDbEntity
  8
1
  6
Continuous
 62
     7
370
     9
100
AcDbLine
 10
330.0728950103928
 20
274.4309127731398
 30
0.0
 11
330.4611235780466
 21
272.9820240337062
 31
0.0
  0
LINE
  5
430
330
1F
100
AcDbEntity
  8
1
  6
Continuous
 62
     7
370
     9
100
AcDbLine
 10
330.0728950103928
 20
274.4309127731398
 30
0.0
 11
329.6846664427391
 21
272.9820240337062
 31
0.0
  0
LINE
  5
431
330
1F
100
AcDbEntity
  8
1
  6
Continuous
 62
     7
370
     9
100
AcDbLine
 10
330.4611235780466
 20
272.9820240337062
 30
0.0
 11
329.6846664427391
 21
272.9820240337062
 31
0.0
  0
POLYLINE
  5
432
330
1F
100
AcDbEntity
  8
1
  6
Continuous
 62
     7
370
     9
100
AcDb2dPolyline
 66
     1
 10
0.0
 20
0.0
 30
0.0
  0
VERTEX
  5
434
330
432
100
AcDbEntity
  8
1
  6
Continuous
 62
     7
370
     9
100
AcDbVertex
100
AcDb2dVertex
 10
330.0728950103928
 20
275.1553571428566
 30
0.0
  0
VERTEX
  5
435
330
432
100
AcDbEntity
  8
1
  6
Continuous
 62
     7
370
     9
100
AcDbVertex
100
AcDb2dVertex
 10
330.0728950103928
 20
271.1437110187098
 30
0.0
  0
SEQEND
  5
433
330
432
100
AcDbEntity
  8
1
  6
Continuous
370
     9
  0
LINE
  5
436
330
1F
100
AcDbEntity
  8
1
  6
Continuous
 62
     7
370
     9
100
AcDbLine
 10
351.4589284183487
 20
275.1553571428566
 30
0.0
 11
352.2353855536563
 21
272.2575796639894
 31
0.0
  0
LINE
  5
437
330
1F
100
AcDbEntity
  8
1
  6
Continuous
 62
     7
370
     9
100
AcDbLine
 10
351.4589284183487
 20
275.1553571428566
 30
0.0
 11
350.6824712830411
 21
272.2575796639894
 31
0.0
  0
LINE
  5
438
330
1F
100
AcDbEntity
  8
1
  6
Continuous
 62
     7
370
     9
100
AcDbLine
 10
352.2353855536563
 20
272.2575796639894
 30
0.0
 11
350.6824712830411
 21
272.2575796639894
 31
0.0
  0
LINE
  5
439
330
1F
100
AcDbEntity
  8
1
  6
Continuous
 62
     7
370
     9
100
AcDbLine
 10
351.4589284183487
 20
274.4309127731398
 30
0.0
 11
351.8471569860025
 21
272.9820240337062
 31
0.0
  0
LINE
  5
43A
330
1F
100
AcDbEntity
  8
1
  6
Continuous
 62
     7
370
     9
100
AcDbLine
 10
351.4589284183487
 20
274.4309127731398
 30
0.0
 11
351.070699850695
 21
272.9820240337062
 31
0.0
  0
LINE
  5
43B
330
1F
100
AcDbEntity
  8
1
  6
Continuous
 62
     7
370
     9
100
AcDbLine
 10
351.8471569860025
 20
272.9820240337062
 30
0.0
 11
351.070699850695
 21
272.9820240337062
 31
0.0
  0
POLYLINE
  5
43C
330
1F
100
AcDbEntity
  8
1
  6
Continuous
 62
     7
370
     9
100
AcDb2dPolyline
 66
     1
 10
0.0
 20
0.0
 30
0.0
  0
VERTEX
  5
43E
330
43C
100
AcDbEntity
  8
1
  6
Continuous
 62
     7
370
     9
100
AcDbVertex
100
AcDb2dVertex
 10
351.4589284183487
 20
275.1553571428566
 30
0.0
  0
VERTEX
  5
43F
330
43C
100
AcDbEntity
  8
1
  6
Continuous
 62
     7
370
     9
100
AcDbVertex
100
AcDb2dVertex
 10
351.4589284183487
 20
272.7645530145518
 30
0.0
  0
SEQEND
  5
43D
330
43C
100
AcDbEntity
  8
1
  6
Continuous
370
     9
  0
LINE
  5
440
330
1F
100
AcDbEntity
  8
1
  6
Continuous
 62
     7
370
     9
100
AcDbLine
 10
351.4589284183487
 20
165.1553571428566
 30
0.0
 11
350.6824712830411
 21
168.0531346217238
 31
0.0
  0
LINE
  5
441
330
1F
100
AcDbEntity
  8
1
  6
Continuous
 62
     7
370
     9
100
AcDbLine
 10
351.4589284183487
 20
165.1553571428566
 30
0.0
 11
352.2353855536563
 21
168.0531346217238
 31
0.0
  0
LINE
  5
442
330
1F
100
AcDbEntity
  8
1
  6
Continuous
 62
     7
370
     9
100
AcDbLine
 10
350.6824712830411
 20
168.0531346217238
 30
0.0
 11
352.2353855536563
 21
168.0531346217238
 31
0.0
  0
LINE
  5
443
330
1F
100
AcDbEntity
  8
1
  6
Continuous
 62
     7
370
     9
100
AcDbLine
 10
351.4589284183487
 20
165.8798015125734
 30
0.0
 11
351.070699850695
 21
167.328690252007
 31
0.0
  0
LINE
  5
444
330
1F
100
AcDbEntity
  8
1
  6
Continuous
 62
     7
370
     9
100
AcDbLine
 10
351.4589284183487
 20
165.8798015125734
 30
0.0
 11
351.8471569860025
 21
167.328690252007
 31
0.0
  0
LINE
  5
445
330
1F
100
AcDbEntity
  8
1
  6
Continuous
 62
     7
370
     9
100
AcDbLine
 10
351.070699850695
 20
167.328690252007
 30
0.0
 11
351.8471569860025
 21
167.328690252007
 31
0.0
  0
POLYLINE
  5
446
330
1F
100
AcDbEntity
  8
1
  6
Continuous
 62
     7
370
     9
100
AcDb2dPolyline
 66
     1
 10
0.0
 20
0.0
 30
0.0
  0
VERTEX
  5
448
330
446
100
AcDbEntity
  8
1
  6
Continuous
 62
     7
370
     9
100
AcDbVertex
100
AcDb2dVertex
 10
351.4589284183487
 20
165.1553571428566
 30
0.0
  0
VERTEX
  5
449
330
446
100
AcDbEntity
  8
1
  6
Continuous
 62
     7
370
     9
100
AcDbVertex
100
AcDb2dVertex
 10
351.4589284183487
 20
169.2622141372133
 30
0.0
  0
SEQEND
  5
447
330
446
100
AcDbEntity
  8
1
  6
Continuous
370
     9
  0
LINE
  5
44A
330
1F
100
AcDbEntity
  8
1
  6
Continuous
 62
     7
370
     9
100
AcDbLine
 10
471.7807952182925
 20
312.1266991028054
 30
0.0
 11
472.5572523536001
 21
309.2289216239382
 31
0.0
  0
LINE
  5
44B
330
1F
100
AcDbEntity
  8
1
  6
Continuous
 62
     7
370
     9
100
AcDbLine
 10
471.7807952182925
 20
312.1266991028054
 30
0.0
 11
471.0043380829849
 21
309.2289216239382
 31
0.0
  0
LINE
  5
44C
330
1F
100
AcDbEntity
  8
1
  6
Continuous
 62
     7
370
     9
100
AcDbLine
 10
472.5572523536001
 20
309.2289216239382
 30
0.0
 11
471.0043380829849
 21
309.2289216239382
 31
0.0
  0
LINE
  5
44D
330
1F
100
AcDbEntity
  8
1
  6
Continuous
 62
     7
370
     9
100
AcDbLine
 10
471.7807952182925
 20
311.4022547330886
 30
0.0
 11
472.1690237859463
 21
309.953365993655
 31
0.0
  0
LINE
  5
44E
330
1F
100
AcDbEntity
  8
1
  6
Continuous
 62
     7
370
     9
100
AcDbLine
 10
471.7807952182925
 20
311.4022547330886
 30
0.0
 11
471.3925666506387
 21
309.953365993655
 31
0.0
  0
LINE
  5
44F
330
1F
100
AcDbEntity
  8
1
  6
Continuous
 62
     7
370
     9
100
AcDbLine
 10
472.1690237859463
 20
309.953365993655
 30
0.0
 11
471.3925666506387
 21
309.953365993655
 31
0.0
  0
POLYLINE
  5
450
330
1F
100
AcDbEntity
  8
1
  6
Continuous
 62
     7
370
     9
100
AcDb2dPolyline
 66
     1
 10
0.0
 20
0.0
 30
0.0
  0
VERTEX
  5
452
330
450
100
AcDbEntity
  8
1
  6
Continuous
 62
     7
370
     9
100
AcDbVertex
100
AcDb2dVertex
 10
471.7807952182925
 20
312.1266991028054
 30
0.0
  0
VERTEX
  5
453
330
450
100
AcDbEntity
  8
1
  6
Continuous
 62
     7
370
     9
100
AcDbVertex
100
AcDb2dVertex
 10
471.7807952182925
 20
309.8123700623686
 30
0.0
  0
SEQEND
  5
451
330
450
100
AcDbEntity
  8
1
  6
Continuous
370
     9
  0
LINE
  5
454
330
1F
100
AcDbEntity
  8
1
  6
Continuous
 62
     7
370
     9
100
AcDbLine
 10
471.7807952182925
 20
262.1266991028054
 30
0.0
 11
471.0043380829849
 21
265.0244765816727
 31
0.0
  0
LINE
  5
455
330
1F
100
AcDbEntity
  8
1
  6
Continuous
 62
     7
370
     9
100
AcDbLine
 10
471.7807952182925
 20
262.1266991028054
 30
0.0
 11
472.5572523536001
 21
265.0244765816727
 31
0.0
  0
LINE
  5
456
330
1F
100
AcDbEntity
  8
1
  6
Continuous
 62
     7
370
     9
100
AcDbLine
 10
471.0043380829849
 20
265.0244765816727
 30
0.0
 11
472.5572523536001
 21
265.0244765816727
 31
0.0
  0
LINE
  5
457
330
1F
100
AcDbEntity
  8
1
  6
Continuous
 62
     7
370
     9
100
AcDbLine
 10
471.7807952182925
 20
262.8511434725223
 30
0.0
 11
471.3925666506387
 21
264.3000322119559
 31
0.0
  0
LINE
  5
458
330
1F
100
AcDbEntity
  8
1
  6
Continuous
 62
     7
370
     9
100
AcDbLine
 10
471.7807952182925
 20
262.8511434725223
 30
0.0
 11
472.1690237859463
 21
264.3000322119559
 31
0.0
  0
LINE
  5
459
330
1F
100
AcDbEntity
  8
1
  6
Continuous
 62
     7
370
     9
100
AcDbLine
 10
471.3925666506387
 20
264.3000322119559
 30
0.0
 11
472.1690237859463
 21
264.3000322119559
 31
0.0
  0
POLYLINE
  5
45A
330
1F
100
AcDbEntity
  8
1
  6
Continuous
 62
     7
370
     9
100
AcDb2dPolyline
 66
     1
 10
0.0
 20
0.0
 30
0.0
  0
VERTEX
  5
45C
330
45A
100
AcDbEntity
  8
1
  6
Continuous
 62
     7
370
     9
100
AcDbVertex
100
AcDb2dVertex
 10
471.7807952182925
 20
262.1266991028054
 30
0.0
  0
VERTEX
  5
45D
330
45A
100
AcDbEntity
  8
1
  6
Continuous
 62
     7
370
     9
100
AcDbVertex
100
AcDb2dVertex
 10
471.7807952182925
 20
266.7442827442815
 30
0.0
  0
SEQEND
  5
45B
330
45A
100
AcDbEntity
  8
1
  6
Continuous
370
     9
  0
LINE
  5
45E
330
1F
100
AcDbEntity
  8
1
  6
Continuous
 62
     7
370
     9
100
AcDbLine
 10
785.2979469854433
 20
446.3456361784006
 30
0.0
 11
786.0744041207508
 21
443.4478586995334
 31
0.0
  0
LINE
  5
45F
330
1F
100
AcDbEntity
  8
1
  6
Continuous
 62
     7
370
     9
100
AcDbLine
 10
785.2979469854433
 20
446.3456361784006
 30
0.0
 11
784.5214898501358
 21
443.4478586995334
 31
0.0
  0
LINE
  5
460
330
1F
100
AcDbEntity
  8
1
  6
Continuous
 62
     7
370
     9
100
AcDbLine
 10
786.0744041207508
 20
443.4478586995334
 30
0.0
 11
784.5214898501358
 21
443.4478586995334
 31
0.0
  0
LINE
  5
461
330
1F
100
AcDbEntity
  8
1
  6
Continuous
 62
     7
370
     9
100
AcDbLine
 10
785.2979469854433
 20
445.6211918086838
 30
0.0
 11
785.6861755530971
 21
444.1723030692502
 31
0.0
  0
LINE
  5
462
330
1F
100
AcDbEntity
  8
1
  6
Continuous
 62
     7
370
     9
100
AcDbLine
 10
785.2979469854433
 20
445.6211918086838
 30
0.0
 11
784.9097184177896
 21
444.1723030692502
 31
0.0
  0
LINE
  5
463
330
1F
100
AcDbEntity
  8
1
  6
Continuous
 62
     7
370
     9
100
AcDbLine
 10
785.6861755530971
 20
444.1723030692502
 30
0.0
 11
784.9097184177896
 21
444.1723030692502
 31
0.0
  0
POLYLINE
  5
464
330
1F
100
AcDbEntity
  8
1
  6
Continuous
 62
     7
370
     9
100
AcDb2dPolyline
 66
     1
 10
0.0
 20
0.0
 30
0.0
  0
VERTEX
  5
466
330
464
100
AcDbEntity
  8
1
  6
Continuous
 62
     7
370
     9
100
AcDbVertex
100
AcDb2dVertex
 10
785.2979469854433
 20
446.3456361784006
 30
0.0
  0
VERTEX
  5
467
330
464
100
AcDbEntity
  8
1
  6
Continuous
 62
     7
370
     9
100
AcDbVertex
100
AcDb2dVertex
 10
785.2979469854433
 20
440.6374740124722
 30
0.0
  0
SEQEND
  5
465
330
464
100
AcDbEntity
  8
1
  6
Continuous
370
     9
  0
LINE
  5
468
330
1F
100
AcDbEntity
  8
1
  6
Continuous
 62
     7
370
     9
100
AcDbLine
 10
785.2979469854433
 20
334.3456361784004
 30
0.0
 11
784.5214898501358
 21
337.2434136572676
 31
0.0
  0
LINE
  5
469
330
1F
100
AcDbEntity
  8
1
  6
Continuous
 62
     7
370
     9
100
AcDbLine
 10
785.2979469854433
 20
334.3456361784004
 30
0.0
 11
786.0744041207508
 21
337.2434136572676
 31
0.0
  0
LINE
  5
46A
330
1F
100
AcDbEntity
  8
1
  6
Continuous
 62
     7
370
     9
100
AcDbLine
 10
784.5214898501358
 20
337.2434136572676
 30
0.0
 11
786.0744041207508
 21
337.2434136572676
 31
0.0
  0
LINE
  5
46B
330
1F
100
AcDbEntity
  8
1
  6
Continuous
 62
     7
370
     9
100
AcDbLine
 10
785.2979469854433
 20
335.0700805481172
 30
0.0
 11
784.9097184177896
 21
336.5189692875508
 31
0.0
  0
LINE
  5
46C
330
1F
100
AcDbEntity
  8
1
  6
Continuous
 62
     7
370
     9
100
AcDbLine
 10
785.2979469854433
 20
335.0700805481172
 30
0.0
 11
785.6861755530971
 21
336.5189692875508
 31
0.0
  0
LINE
  5
46D
330
1F
100
AcDbEntity
  8
1
  6
Continuous
 62
     7
370
     9
100
AcDbLine
 10
784.9097184177896
 20
336.5189692875508
 30
0.0
 11
785.6861755530971
 21
336.5189692875508
 31
0.0
  0
POLYLINE
  5
46E
330
1F
100
AcDbEntity
  8
1
  6
Continuous
 62
     7
370
     9
100
AcDb2dPolyline
 66
     1
 10
0.0
 20
0.0
 30
0.0
  0
VERTEX
  5
470
330
46E
100
AcDbEntity
  8
1
  6
Continuous
 62
     7
370
     9
100
AcDbVertex
100
AcDb2dVertex
 10
785.2979469854433
 20
334.3456361784004
 30
0.0
  0
VERTEX
  5
471
330
46E
100
AcDbEntity
  8
1
  6
Continuous
 62
     7
370
     9
100
AcDbVertex
100
AcDb2dVertex
 10
785.2979469854433
 20
337.3666839916826
 30
0.0
  0
SEQEND
  5
46F
330
46E
100
AcDbEntity
  8
1
  6
Continuous
370
     9
  0
LINE
  5
472
330
1F
100
AcDbEntity
  8
1
  6
Continuous
 62
     7
370
     9
100
AcDbLine
 10
780.8985187110129
 20
234.3456361784006
 30
0.0
 11
780.8985187110129
 21
334.3456361784004
 31
0.0
  0
LINE
  5
473
330
1F
100
AcDbEntity
  8
1
  6
Continuous
 62
     7
370
     9
100
AcDbLine
 10
767.8535714285739
 20
234.3456361784006
 30
0.0
 11
780.8985187110129
 21
234.3456361784006
 31
0.0
  0
LINE
  5
474
330
1F
100
AcDbEntity
  8
1
  6
Continuous
 62
     7
370
     9
100
AcDbLine
 10
780.8985187110129
 20
234.3456361784006
 30
0.0
 11
780.1220615757054
 21
237.2434136572678
 31
0.0
  0
LINE
  5
475
330
1F
100
AcDbEntity
  8
1
  6
Continuous
 62
     7
370
     9
100
AcDbLine
 10
780.8985187110129
 20
234.3456361784006
 30
0.0
 11
781.6749758463204
 21
237.2434136572678
 31
0.0
  0
LINE
  5
476
330
1F
100
AcDbEntity
  8
1
  6
Continuous
 62
     7
370
     9
100
AcDbLine
 10
780.1220615757054
 20
237.2434136572678
 30
0.0
 11
781.6749758463204
 21
237.2434136572678
 31
0.0
  0
LINE
  5
477
330
1F
100
AcDbEntity
  8
1
  6
Continuous
 62
     7
370
     9
100
AcDbLine
 10
780.8985187110129
 20
235.0700805481173
 30
0.0
 11
780.5102901433592
 21
236.518969287551
 31
0.0
  0
LINE
  5
478
330
1F
100
AcDbEntity
  8
1
  6
Continuous
 62
     7
370
     9
100
AcDbLine
 10
780.8985187110129
 20
235.0700805481173
 30
0.0
 11
781.2867472786667
 21
236.518969287551
 31
0.0
  0
LINE
  5
479
330
1F
100
AcDbEntity
  8
1
  6
Continuous
 62
     7
370
     9
100
AcDbLine
 10
780.5102901433592
 20
236.518969287551
 30
0.0
 11
781.2867472786667
 21
236.518969287551
 31
0.0
  0
POLYLINE
  5
47A
330
1F
100
AcDbEntity
  8
1
  6
Continuous
 62
     7
370
     9
100
AcDb2dPolyline
 66
     1
 10
0.0
 20
0.0
 30
0.0
  0
VERTEX
  5
47C
330
47A
100
AcDbEntity
  8
1
  6
Continuous
 62
     7
370
     9
100
AcDbVertex
100
AcDb2dVertex
 10
780.8985187110129
 20
234.3456361784006
 30
0.0
  0
VERTEX
  5
47D
330
47A
100
AcDbEntity
  8
1
  6
Continuous
 62
     7
370
     9
100
AcDbVertex
100
AcDb2dVertex
 10
780.8985187110129
 20
236.6429313929305
 30
0.0
  0
SEQEND
  5
47B
330
47A
100
AcDbEntity
  8
1
  6
Continuous
370
     9
  0
LINE
  5
47E
330
1F
100
AcDbEntity
  8
1
  6
Continuous
 62
     7
370
     9
100
AcDbLine
 10
780.8985187110129
 20
334.3456361784004
 30
0.0
 11
781.6749758463204
 21
331.4478586995332
 31
0.0
  0
LINE
  5
47F
330
1F
100
AcDbEntity
  8
1
  6
Continuous
 62
     7
370
     9
100
AcDbLine
 10
780.8985187110129
 20
334.3456361784004
 30
0.0
 11
780.1220615757054
 21
331.4478586995332
 31
0.0
  0
LINE
  5
480
330
1F
100
AcDbEntity
  8
1
  6
Continuous
 62
     7
370
     9
100
AcDbLine
 10
781.6749758463204
 20
331.4478586995332
 30
0.0
 11
780.1220615757054
 21
331.4478586995332
 31
0.0
  0
LINE
  5
481
330
1F
100
AcDbEntity
  8
1
  6
Continuous
 62
     7
370
     9
100
AcDbLine
 10
780.8985187110129
 20
333.6211918086836
 30
0.0
 11
781.2867472786667
 21
332.17230306925
 31
0.0
  0
LINE
  5
482
330
1F
100
AcDbEntity
  8
1
  6
Continuous
 62
     7
370
     9
100
AcDbLine
 10
780.8985187110129
 20
333.6211918086836
 30
0.0
 11
780.5102901433592
 21
332.17230306925
 31
0.0
  0
LINE
  5
483
330
1F
100
AcDbEntity
  8
1
  6
Continuous
 62
     7
370
     9
100
AcDbLine
 10
781.2867472786667
 20
332.17230306925
 30
0.0
 11
780.5102901433592
 21
332.17230306925
 31
0.0
  0
POLYLINE
  5
484
330
1F
100
AcDbEntity
  8
1
  6
Continuous
 62
     7
370
     9
100
AcDb2dPolyline
 66
     1
 10
0.0
 20
0.0
 30
0.0
  0
VERTEX
  5
486
330
484
100
AcDbEntity
  8
1
  6
Continuous
 62
     7
370
     9
100
AcDbVertex
100
AcDb2dVertex
 10
780.8985187110129
 20
334.3456361784004
 30
0.0
  0
VERTEX
  5
487
330
484
100
AcDbEntity
  8
1
  6
Continuous
 62
     7
370
     9
100
AcDbVertex
100
AcDb2dVertex
 10
780.8985187110129
 20
329.9571205821194
 30
0.0
  0
SEQEND
  5
485
330
484
100
AcDbEntity
  8
1
  6
Continuous
370
     9
  0
LINE
  5
488
330
1F
100
AcDbEntity
  8
1
  6
Continuous
 62
     7
370
     9
100
AcDbLine
 10
435.8907224532165
 20
165.1553571428566
 30
0.0
 11
436.6671795885241
 21
162.2575796639894
 31
0.0
  0
LINE
  5
489
330
1F
100
AcDbEntity
  8
1
  6
Continuous
 62
     7
370
     9
100
AcDbLine
 10
435.8907224532165
 20
165.1553571428566
 30
0.0
 11
435.114265317909
 21
162.2575796639894
 31
0.0
  0
LINE
  5
48A
330
1F
100
AcDbEntity
  8
1
  6
Continuous
 62
     7
370
     9
100
AcDbLine
 10
436.6671795885241
 20
162.2575796639894
 30
0.0
 11
435.114265317909
 21
162.2575796639894
 31
0.0
  0
LINE
  5
48B
330
1F
100
AcDbEntity
  8
1
  6
Continuous
 62
     7
370
     9
100
AcDbLine
 10
435.8907224532165
 20
164.4309127731398
 30
0.0
 11
436.2789510208703
 21
162.9820240337062
 31
0.0
  0
LINE
  5
48C
330
1F
100
AcDbEntity
  8
1
  6
Continuous
 62
     7
370
     9
100
AcDbLine
 10
435.8907224532165
 20
164.4309127731398
 30
0.0
 11
435.5024938855628
 21
162.9820240337062
 31
0.0
  0
LINE
  5
48D
330
1F
100
AcDbEntity
  8
1
  6
Continuous
 62
     7
370
     9
100
AcDbLine
 10
436.2789510208703
 20
162.9820240337062
 30
0.0
 11
435.5024938855628
 21
162.9820240337062
 31
0.0
  0
POLYLINE
  5
48E
330
1F
100
AcDbEntity
  8
1
  6
Continuous
 62
     7
370
     9
100
AcDb2dPolyline
 66
     1
 10
0.0
 20
0.0
 30
0.0
  0
VERTEX
  5
490
330
48E
100
AcDbEntity
  8
1
  6
Continuous
 62
     7
370
     9
100
AcDbVertex
100
AcDb2dVertex
 10
435.8907224532165
 20
165.1553571428566
 30
0.0
  0
VERTEX
  5
491
330
48E
100
AcDbEntity
  8
1
  6
Continuous
 62
     7
370
     9
100
AcDbVertex
100
AcDb2dVertex
 10
435.8907224532165
 20
155.6008316008305
 30
0.0
  0
SEQEND
  5
48F
330
48E
100
AcDbEntity
  8
1
  6
Continuous
370
     9
  0
LINE
  5
492
330
1F
100
AcDbEntity
  8
1
  6
Continuous
 62
     7
370
     9
100
AcDbLine
 10
435.8907224532165
 20
120.1553571428566
 30
0.0
 11
435.114265317909
 21
123.0531346217238
 31
0.0
  0
LINE
  5
493
330
1F
100
AcDbEntity
  8
1
  6
Continuous
 62
     7
370
     9
100
AcDbLine
 10
435.8907224532165
 20
120.1553571428566
 30
0.0
 11
436.6671795885241
 21
123.0531346217238
 31
0.0
  0
LINE
  5
494
330
1F
100
AcDbEntity
  8
1
  6
Continuous
 62
     7
370
     9
100
AcDbLine
 10
435.114265317909
 20
123.0531346217238
 30
0.0
 11
436.6671795885241
 21
123.0531346217238
 31
0.0
  0
LINE
  5
495
330
1F
100
AcDbEntity
  8
1
  6
Continuous
 62
     7
370
     9
100
AcDbLine
 10
435.8907224532165
 20
120.8798015125734
 30
0.0
 11
435.5024938855628
 21
122.328690252007
 31
0.0
  0
LINE
  5
496
330
1F
100
AcDbEntity
  8
1
  6
Continuous
 62
     7
370
     9
100
AcDbLine
 10
435.8907224532165
 20
120.8798015125734
 30
0.0
 11
436.2789510208703
 21
122.328690252007
 31
0.0
  0
LINE
  5
497
330
1F
100
AcDbEntity
  8
1
  6
Continuous
 62
     7
370
     9
100
AcDbLine
 10
435.5024938855628
 20
122.328690252007
 30
0.0
 11
436.2789510208703
 21
122.328690252007
 31
0.0
  0
POLYLINE
  5
498
330
1F
100
AcDbEntity
  8
1
  6
Continuous
 62
     7
370
     9
100
AcDb2dPolyline
 66
     1
 10
0.0
 20
0.0
 30
0.0
  0
VERTEX
  5
49A
330
498
100
AcDbEntity
  8
1
  6
Continuous
 62
     7
370
     9
100
AcDbVertex
100
AcDb2dVertex
 10
435.8907224532165
 20
120.1553571428566
 30
0.0
  0
VERTEX
  5
49B
330
498
100
AcDbEntity
  8
1
  6
Continuous
 62
     7
370
     9
100
AcDbVertex
100
AcDb2dVertex
 10
435.8907224532165
 20
126.8887733887724
 30
0.0
  0
SEQEND
  5
499
330
498
100
AcDbEntity
  8
1
  6
Continuous
370
     9
  0
LINE
  5
49C
330
1F
100
AcDbEntity
  8
1
  6
Continuous
 62
     7
370
     9
100
AcDbLine
 10
330.0728950103928
 20
275.1553571428566
 30
0.0
 11
330.0728950103928
 21
258.8716216216202
 31
0.0
  0
LINE
  5
49D
330
1F
100
AcDbEntity
  8
1
  6
Continuous
 62
     7
370
     9
100
AcDbLine
 10
330.0728950103928
 20
245.9048856548843
 30
0.0
 11
330.0728950103928
 21
235.1553571428566
 31
0.0
  0
LINE
  5
49E
330
1F
100
AcDbEntity
  8
1
  6
Continuous
 62
     7
370
     9
100
AcDbLine
 10
339.3348492723471
 20
363.1553571428566
 30
0.0
 11
339.3348492723471
 21
329.4119825697952
 31
0.0
  0
LINE
  5
49F
330
1F
100
AcDbEntity
  8
1
  6
Continuous
 62
     7
370
     9
100
AcDbLine
 10
339.3348492723471
 20
318.9119825697952
 30
0.0
 11
339.3348492723471
 21
287.1553571428566
 31
0.0
  0
LINE
  5
4A0
330
1F
100
AcDbEntity
  8
1
  6
Continuous
 62
     7
370
     9
100
AcDbLine
 10
172.1565748440736
 20
400.1553571428566
 30
0.0
 11
172.1565748440736
 21
351.2596153846138
 31
0.0
  0
LINE
  5
4A1
330
1F
100
AcDbEntity
  8
1
  6
Continuous
 62
     7
370
     9
100
AcDbLine
 10
172.1565748440736
 20
341.7661122661107
 30
0.0
 11
172.1565748440736
 21
287.1553571428566
 31
0.0
  0
LINE
  5
4A2
330
1F
100
AcDbEntity
  8
1
  6
Continuous
 62
     7
370
     9
100
AcDbLine
 10
44.38214270406235
 20
495.1553571428566
 30
0.0
 11
44.38214270406235
 21
372.5621101871085
 31
0.0
  0
LINE
  5
4A3
330
1F
100
AcDbEntity
  8
1
  6
Continuous
 62
     7
370
     9
100
AcDbLine
 10
44.38214270406235
 20
349.8703222453206
 30
0.0
 11
44.38214270406235
 21
165.1553571428567
 31
0.0
  0
LINE
  5
4A4
330
1F
100
AcDbEntity
  8
1
  6
Continuous
 62
     7
370
     9
100
AcDbLine
 10
233.2854729729727
 20
324.6352405176315
 30
0.0
 11
233.2854729729727
 21
441.5636694386676
 31
0.0
  0
LINE
  5
4A5
330
1F
100
AcDbEntity
  8
1
  6
Continuous
 62
     7
370
     9
100
AcDbLine
 10
233.2854729729727
 20
461.9399688149669
 30
0.0
 11
233.2854729729727
 21
537.876923978783
 31
0.0
  0
LINE
  5
4A6
330
1F
100
AcDbEntity
  8
1
  6
Continuous
 62
     7
370
     9
100
AcDbLine
 10
435.8907224532165
 20
165.1553571428566
 30
0.0
 11
435.8907224532165
 21
143.7918399168389
 31
0.0
  0
LINE
  5
4A7
330
1F
100
AcDbEntity
  8
1
  6
Continuous
 62
     7
370
     9
100
AcDbLine
 10
435.8907224532165
 20
134.066787941787
 30
0.0
 11
435.8907224532165
 21
120.1553571428566
 31
0.0
  0
LINE
  5
4A8
330
1F
100
AcDbEntity
  8
1
  6
Continuous
 62
     7
370
     9
100
AcDbLine
 10
351.4589284183487
 20
165.1553571428566
 30
0.0
 11
351.4589284183487
 21
222.6342255717244
 31
0.0
  0
LINE
  5
4A9
330
1F
100
AcDbEntity
  8
1
  6
Continuous
 62
     7
370
     9
100
AcDbLine
 10
351.4589284183487
 20
235.1378638253626
 30
0.0
 11
351.4589284183487
 21
275.1553571428566
 31
0.0
  0
LINE
  5
4AA
330
1F
100
AcDbEntity
  8
1
  6
Continuous
 62
     7
370
     9
100
AcDbLine
 10
471.7807952182925
 20
312.1266991028054
 30
0.0
 11
471.7807952182925
 21
293.4881756756743
 31
0.0
  0
LINE
  5
4AB
330
1F
100
AcDbEntity
  8
1
  6
Continuous
 62
     7
370
     9
100
AcDbLine
 10
471.7807952182925
 20
283.3000259875246
 30
0.0
 11
471.7807952182925
 21
262.1266991028054
 31
0.0
  0
TEXT
  5
4AC
330
1F
100
AcDbEntity
  8
1
  6
Continuous
 62
     7
370
     9
100
AcDbText
 10
466.6787173763773
 20
281.9799399502526
 30
0.0
 40
10.5
  1
25
 41
0.5
100
AcDbText
  0
LINE
  5
4AD
330
1F
100
AcDbEntity
  8
1
  6
Continuous
 62
     7
370
     9
100
AcDbLine
 10
543.0978430353357
 20
274.1266991028054
 30
0.0
 11
554.317857142858
 21
274.1266991028054
 31
0.0
  0
LINE
  5
4AE
330
1F
100
AcDbEntity
  8
1
  6
Continuous
 62
     7
370
     9
100
AcDbLine
 10
543.0978430353357
 20
262.1266991028054
 30
0.0
 11
554.317857142858
 21
262.1266991028054
 31
0.0
  0
TEXT
  5
4AF
330
1F
100
AcDbEntity
  8
1
  6
Continuous
 62
     7
370
     9
100
AcDbText
 10
547.2577194553792
 20
263.2244825697953
 30
0.0
 40
10.5
  1
6
 41
0.5
100
AcDbText
  0
LINE
  5
4B0
330
1F
100
AcDbEntity
  8
1
  6
Continuous
 62
     7
370
     9
100
AcDbLine
 10
785.2979469854433
 20
446.3456361784006
 30
0.0
 11
785.2979469854433
 21
410.4203482328469
 31
0.0
  0
LINE
  5
4B1
330
1F
100
AcDbEntity
  8
1
  6
Continuous
 62
     7
370
     9
100
AcDbLine
 10
785.2979469854433
 20
398.3798076923064
 30
0.0
 11
785.2979469854433
 21
334.3456361784004
 31
0.0
  0
TEXT
  5
4B2
330
1F
100
AcDbEntity
  8
1
  6
Continuous
 62
     7
370
     9
100
AcDbText
 10
778.2682405378293
 20
398.9121125074251
 30
0.0
 40
10.5
  1
112
 41
0.5
100
AcDbText
  0
TEXT
  5
4B3
330
1F
100
AcDbEntity
  8
1
  6
Continuous
 62
     7
370
     9
100
AcDbText
 10
770.7429026999944
 20
276.885865106178
 30
0.0
 40
10.5
  1
100
 41
0.5
100
AcDbText
  0
TEXT
  5
4B4
330
1F
100
AcDbEntity
  8
1
  6
Continuous
 62
     7
370
     9
100
AcDbText
 10
428.0827118772938
 20
180.9159411594691
 30
0.0
 40
10.5
  1
A面
 41
0.75
100
AcDbText
  0
TEXT
  5
4B5
330
1F
100
AcDbEntity
  8
1
  6
Continuous
 62
     7
370
     9
100
AcDbText
 10
36.7330274401134
 20
357.4648671851797
 30
0.0
 40
10.5
  1
330
 41
0.5
100
AcDbText
  0
TEXT
  5
4B6
330
1F
100
AcDbEntity
  8
1
  6
Continuous
 62
     7
370
     9
100
AcDbText
 10
164.5074595801247
 20
341.2564472267599
 30
0.0
 40
10.5
  1
113
 41
0.5
100
AcDbText
  0
TEXT
  5
4B7
330
1F
100
AcDbEntity
  8
1
  6
Continuous
 62
     7
370
     9
100
AcDbText
 10
225.6363577090238
 20
443.601041821354
 30
0.0
 40
10.5
  1
270
 41
0.5
100
AcDbText
  0
TEXT
  5
4B8
330
1F
100
AcDbEntity
  8
1
  6
Continuous
 62
     7
370
     9
100
AcDbText
 10
334.4643202869882
 20
318.9119825697952
 30
0.0
 40
10.5
  1
76
 41
0.5
100
AcDbText
  0
TEXT
  5
4B9
330
1F
100
AcDbEntity
  8
1
  6
Continuous
 62
     7
370
     9
100
AcDbText
 10
324.623493883662
 20
247.8264836092965
 30
0.0
 40
10.5
  1
40
 41
0.5
100
AcDbText
  0
TEXT
  5
4BA
330
1F
100
AcDbEntity
  8
1
  6
Continuous
 62
     7
370
     9
100
AcDbText
 10
344.8840188316819
 20
222.9349815302945
 30
0.0
 40
10.5
  1
200
 41
0.5
100
AcDbText
  0
TEXT
  5
4BB
330
1F
100
AcDbEntity
  8
1
  6
Continuous
 62
     7
370
     9
100
AcDbText
 10
341.7581092682773
 20
275.843895251708
 30
0.0
 40
10.5
  1
12
 41
0.5
100
AcDbText
  0
TEXT
  5
4BC
330
1F
100
AcDbEntity
  8
1
  6
Continuous
 62
     7
370
     9
100
AcDbText
 10
430.3982004427824
 20
132.7537789973071
 30
0.0
 40
10.5
  1
45±1
 41
0.625
100
AcDbText
  0
LINE
  5
4BD
330
1F
100
AcDbEntity
  8
1
  6
Continuous
 62
     7
370
     9
100
AcDbLine
 10
179.6749998469195
 20
287.1553571428566
 30
0.0
 11
314.5749998469195
 21
287.1553571428566
 31
0.0
  0
ARC
  5
4BE
330
1F
100
AcDbEntity
  8
1
  6
Continuous
 62
     7
370
     9
100
AcDbCircle
 10
308.5749998469195
 20
293.1553571428566
 30
0.0
 40
6.0
100
AcDbArc
 50
269.9999999999998
 51
275.6981088453835
  0
ARC
  5
4BF
330
1F
100
AcDbEntity
  8
1
  6
Continuous
 62
     7
370
     9
100
AcDbCircle
 10
308.5749998469195
 20
357.1553571428566
 30
0.0
 40
6.0
100
AcDbArc
 50
0.0000000000005428
 51
0.8699924917081368
  0
LINE
  5
4C0
330
1F
100
AcDbEntity
  8
1
  6
Continuous
 62
     7
370
     9
100
AcDbLine
 10
212.6749998469195
 20
363.1553571428566
 30
0.0
 11
314.5749998469195
 21
363.1553571428566
 31
0.0
  0
LINE
  5
4C1
330
1F
100
AcDbEntity
  8
1
  6
Continuous
 62
     7
370
     9
100
AcDbLine
 10
314.5749998469195
 20
363.1553571428566
 30
0.0
 11
314.5749998469195
 21
287.1553571428566
 31
0.0
  0
VIEWPORT
  5
3B
330
1B
100
AcDbEntity
 67
     1
  8
0
100
AcDbViewport
 10
445.5
 20
315.0
 30
0.0
 40
891.0
 41
630.0
 68
     1
 69
     1
 12
445.5
 22
315.0
 13
0.0
 23
0.0
 14
0.5
 24
0.5
 15
0.5
 25
0.5
 16
0.0
 26
0.0
 36
1.0
 17
0.0
 27
0.0
 37
0.0
 42
50.0
 43
0.0
 44
0.0
 45
9.0
 50
0.0
 51
0.0
 72
   100
 90
   557152
  1

281
     0
 71
     1
 74
     0
110
0.0
120
0.0
130
0.0
111
1.0
121
0.0
131
0.0
112
0.0
122
1.0
132
0.0
 79
     0
146
0.0
170
     0
 61
     5
292
     1
282
     1
141
0.0
142
0.0
 63
   256
  0
ENDSEC
  0
SECTION
  2
OBJECTS
  0
DICTIONARY
  5
C
330
0
100
AcDbDictionary
281
     1
  3
ACAD_GROUP
350
D
  3
ACAD_LAYOUT
350
1A
  3
ACAD_MLINESTYLE
350
17
  3
ACAD_PLOTSETTINGS
350
19
  3
ACAD_PLOTSTYLENAME
350
E
  3
ACAD_TABLESTYLE
350
4C2
  3
ACAD_VISUALSTYLE
350
2A
  0
DICTIONARY
  5
D
102
{ACAD_REACTORS
330
C
102
}
330
C
100
AcDbDictionary
281
     1
  0
DICTIONARY
  5
1A
102
{ACAD_REACTORS
330
C
102
}
330
C
100
AcDbDictionary
281
     1
  3
Layout1
350
1E
  3
Layout2
350
26
  3
Model
350
22
  0
DICTIONARY
  5
17
102
{ACAD_REACTORS
330
C
102
}
330
C
100
AcDbDictionary
281
     1
  3
Standard
350
18
  0
DICTIONARY
  5
19
102
{ACAD_REACTORS
330
C
102
}
330
C
100
AcDbDictionary
281
     1
  0
ACDBDICTIONARYWDFLT
  5
E
102
{ACAD_REACTORS
330
C
102
}
330
C
100
AcDbDictionary
281
     1
  3
Normal
350
F
100
AcDbDictionaryWithDefault
340
F
  0
DICTIONARY
  5
4C2
102
{ACAD_REACTORS
330
C
102
}
330
C
100
AcDbDictionary
281
     1
  0
DICTIONARY
  5
2A
102
{ACAD_REACTORS
330
C
102
}
330
C
100
AcDbDictionary
281
     1
  3
2dWireframe
350
2F
  3
3D Hidden
350
31
  3
3dWireframe
350
30
  3
Basic
350
32
  3
Brighten
350
36
  3
ColorChange
350
3A
  3
Conceptual
350
34
  3
Dim
350
35
  3
Facepattern
350
39
  3
Flat
350
2B
  3
FlatWithEdges
350
2C
  3
Gouraud
350
2D
  3
GouraudWithEdges
350
2E
  3
Linepattern
350
38
  3
Realistic
350
33
  3
Thicken
350
37
  0
LAYOUT
  5
1E
102
{ACAD_REACTORS
330
1A
102
}
330
1A
100
AcDbPlotSettings
  1

  2
none_device
  4

  6

 40
0.0
 41
0.0
 42
0.0
 43
0.0
 44
0.0
 45
0.0
 46
0.0
 47
0.0
 48
0.0
 49
0.0
140
0.0
141
0.0
142
1.0
143
1.0
 70
   688
 72
     0
 73
     0
 74
     5
  7

 75
    16
 76
     0
 77
     2
 78
   300
147
1.0
148
0.0
149
0.0
100
AcDbLayout
  1
Layout1
 70
     1
 71
     1
 10
0.0
 20
0.0
 11
297.0
 21
210.0
 12
0.0
 22
0.0
 32
0.0
 14
0.0
 24
0.0
 34
0.0
 15
297.0
 25
210.0
 35
0.0
146
0.0
 13
0.0
 23
0.0
 33
0.0
 16
1.0
 26
0.0
 36
0.0
 17
0.0
 27
1.0
 37
0.0
 76
     0
330
1B
331
3B
  0
LAYOUT
  5
26
102
{ACAD_REACTORS
330
1A
102
}
330
1A
100
AcDbPlotSettings
  1

  2
none_device
  4

  6

 40
0.0
 41
0.0
 42
0.0
 43
0.0
 44
0.0
 45
0.0
 46
0.0
 47
0.0
 48
0.0
 49
0.0
140
0.0
141
0.0
142
1.0
143
1.0
 70
   688
 72
     0
 73
     0
 74
     5
  7

 75
    16
 76
     0
 77
     2
 78
   300
147
1.0
148
0.0
149
0.0
100
AcDbLayout
  1
Layout2
 70
     1
 71
     2
 10
0.0
 20
0.0
 11
0.0
 21
0.0
 12
0.0
 22
0.0
 32
0.0
 14
0.0
 24
0.0
 34
0.0
 15
0.0
 25
0.0
 35
0.0
146
0.0
 13
0.0
 23
0.0
 33
0.0
 16
1.0
 26
0.0
 36
0.0
 17
0.0
 27
1.0
 37
0.0
 76
     0
330
23
  0
LAYOUT
  5
22
102
{ACAD_REACTORS
330
1A
102
}
330
1A
100
AcDbPlotSettings
  1

  2
none_device
  4

  6

 40
0.0
 41
0.0
 42
0.0
 43
0.0
 44
0.0
 45
0.0
 46
0.0
 47
0.0
 48
0.0
 49
0.0
140
0.0
141
0.0
142
1.0
143
1.0
 70
  1712
 72
     0
 73
     0
 74
     0
  7

 75
     0
 76
     0
 77
     2
 78
   300
147
1.0
148
0.0
149
0.0
100
AcDbLayout
  1
Model
 70
     1
 71
     0
 10
0.0
 20
0.0
 11
891.0
 21
630.0
 12
0.0
 22
0.0
 32
0.0
 14
0.0
 24
0.0
 34
0.0
 15
891.0
 25
630.0
 35
0.0
146
0.0
 13
0.0
 23
0.0
 33
0.0
 16
1.0
 26
0.0
 36
0.0
 17
0.0
 27
1.0
 37
0.0
 76
     0
330
1F
331
29
  0
MLINESTYLE
  5
18
102
{ACAD_REACTORS
330
17
102
}
330
17
100
AcDbMlineStyle
  2
Standard
 70
     0
  3

 62
   256
 51
90.0
 52
90.0
 71
     2
 49
0.5
 62
   256
  6
BYLAYER
 49
-0.5
 62
   256
  6
BYLAYER
  0
ACDBPLACEHOLDER
  5
F
102
{ACAD_REACTORS
330
E
102
}
330
E
  0
VISUALSTYLE
  5
2F
102
{ACAD_REACTORS
330
2A
102
}
330
2A
100
AcDbVisualStyle
  2
2dWireframe
 70
     4
 71
     0
 72
     2
 73
     0
 90
        0
 40
-0.6
 41
-30.0
 62
     5
 63
     7
421
 16777215
 74
     1
 91
        4
 64
     7
 65
   257
 75
     1
175
     1
 42
1.0
 92
        0
 66
   257
 43
1.0
 76
     1
 77
     6
 78
     2
 67
     7
 79
     5
170
     0
171
     0
290
     0
174
     0
 93
        1
 44
0.0
173
     0
291
     0
 45
0.0
  0
VISUALSTYLE
  5
31
102
{ACAD_REACTORS
330
2A
102
}
330
2A
100
AcDbVisualStyle
  2
3D Hidden
 70
     6
 71
     1
 72
     2
 73
     2
 90
        0
 40
-0.6
 41
-30.0
 62
     5
 63
     7
421
 16777215
 74
     2
 91
        2
 64
     7
 65
   257
 75
     2
175
     1
 42
40.0
 92
        0
 66
   257
 43
1.0
 76
     1
 77
     6
 78
     2
 67
     7
 79
     3
170
     0
171
     0
290
     0
174
     0
 93
        1
 44
0.0
173
     0
291
     0
 45
0.0
  0
VISUALSTYLE
  5
30
102
{ACAD_REACTORS
330
2A
102
}
330
2A
100
AcDbVisualStyle
  2
3dWireframe
 70
     5
 71
     0
 72
     2
 73
     0
 90
        0
 40
-0.6
 41
-30.0
 62
     5
 63
     7
421
 16777215
 74
     1
 91
        4
 64
     7
 65
   257
 75
     1
175
     1
 42
1.0
 92
        0
 66
   257
 43
1.0
 76
     1
 77
     6
 78
     2
 67
     7
 79
     5
170
     0
171
     0
290
     0
174
     0
 93
        1
 44
0.0
173
     0
291
     0
 45
0.0
  0
VISUALSTYLE
  5
32
102
{ACAD_REACTORS
330
2A
102
}
330
2A
100
AcDbVisualStyle
  2
Basic
 70
     7
 71
     1
 72
     0
 73
     1
 90
        0
 40
-0.6
 41
-30.0
 62
     5
 63
     7
421
 16777215
 74
     0
 91
        4
 64
     7
 65
   257
 75
     1
175
     1
 42
1.0
 92
        8
 66
     7
 43
1.0
 76
     1
 77
     6
 78
     2
 67
     7
 79
     5
170
     0
171
     0
290
     0
174
     0
 93
        1
 44
0.0
173
     0
291
     1
 45
0.0
  0
VISUALSTYLE
  5
36
102
{ACAD_REACTORS
330
2A
102
}
330
2A
100
AcDbVisualStyle
  2
Brighten
 70
    12
 71
     2
 72
     2
 73
     0
 90
        0
 40
-0.6
 41
-30.0
 62
     5
 63
     7
421
 16777215
 74
     1
 91
        4
 64
     7
 65
   257
 75
     1
175
     1
 42
1.0
 92
        8
 66
     7
 43
1.0
 76
     1
 77
     6
 78
     2
 67
     7
 79
     5
170
     0
171
     0
290
     0
174
     0
 93
        1
 44
50.0
173
     0
291
     1
 45
0.0
  0
VISUALSTYLE
  5
3A
102
{ACAD_REACTORS
330
2A
102
}
330
2A
100
AcDbVisualStyle
  2
ColorChange
 70
    16
 71
     2
 72
     2
 73
     3
 90
        0
 40
-0.6
 41
-30.0
 62
     5
 63
     8
421
  8421504
 74
     1
 91
        4
 64
     7
 65
   257
 75
     1
175
     1
 42
1.0
 92
        8
 66
     8
424
  8421504
 43
1.0
 76
     1
 77
     6
 78
     2
 67
     7
 79
     5
170
     0
171
     0
290
     0
174
     0
 93
        1
 44
0.0
173
     0
291
     1
 45
0.0
  0
VISUALSTYLE
  5
34
102
{ACAD_REACTORS
330
2A
102
}
330
2A
100
AcDbVisualStyle
  2
Conceptual
 70
     9
 71
     3
 72
     2
 73
     0
 90
        0
 40
-0.6
 41
-30.0
 62
     5
 63
     7
421
 16777215
 74
     2
 91
        2
 64
     7
 65
   257
 75
     1
175
     1
 42
40.0
 92
        8
 66
     7
 43
1.0
 76
     1
 77
     6
 78
     2
 67
     7
 79
     3
170
     0
171
     0
290
     0
174
     0
 93
        1
 44
0.0
173
     0
291
     0
 45
0.0
  0
VISUALSTYLE
  5
35
102
{ACAD_REACTORS
330
2A
102
}
330
2A
100
AcDbVisualStyle
  2
Dim
 70
    11
 71
     2
 72
     2
 73
     0
 90
        0
 40
-0.6
 41
-30.0
 62
     5
 63
     7
421
 16777215
 74
     1
 91
        4
 64
     7
 65
   257
 75
     1
175
     1
 42
1.0
 92
        8
 66
     7
 43
1.0
 76
     1
 77
     6
 78
     2
 67
     7
 79
     5
170
     0
171
     0
290
     0
174
     0
 93
        1
 44
-50.0
173
     0
291
     1
 45
0.0
  0
VISUALSTYLE
  5
39
102
{ACAD_REACTORS
330
2A
102
}
330
2A
100
AcDbVisualStyle
  2
Facepattern
 70
    15
 71
     2
 72
     2
 73
     0
 90
        0
 40
-0.6
 41
-30.0
 62
     5
 63
     7
421
 16777215
 74
     1
 91
        4
 64
     7
 65
   257
 75
     1
175
     1
 42
1.0
 92
        8
 66
     7
 43
1.0
 76
     1
 77
     6
 78
     2
 67
     7
 79
     5
170
     0
171
     0
290
     0
174
     0
 93
        1
 44
0.0
173
     0
291
     1
 45
0.0
  0
VISUALSTYLE
  5
2B
102
{ACAD_REACTORS
330
2A
102
}
330
2A
100
AcDbVisualStyle
  2
Flat
 70
     0
 71
     2
 72
     1
 73
     1
 90
        2
 40
-0.6
 41
30.0
 62
     5
 63
     7
421
 16777215
 74
     0
 91
        4
 64
     7
 65
   257
 75
     1
175
     1
 42
1.0
 92
        8
 66
     7
 43
1.0
 76
     1
 77
     6
 78
     2
 67
     7
 79
     5
170
     0
171
     0
290
     0
174
     0
 93
       13
 44
0.0
173
     0
291
     1
 45
0.0
  0
VISUALSTYLE
  5
2C
102
{ACAD_REACTORS
330
2A
102
}
330
2A
100
AcDbVisualStyle
  2
FlatWithEdges
 70
     1
 71
     2
 72
     1
 73
     1
 90
        2
 40
-0.6
 41
30.0
 62
     5
 63
     7
421
 16777215
 74
     1
 91
        4
 64
     7
 65
   257
 75
     1
175
     1
 42
1.0
 92
        0
 66
   257
 43
1.0
 76
     1
 77
     6
 78
     2
 67
     7
 79
     5
170
     0
171
     0
290
     0
174
     0
 93
       13
 44
0.0
173
     0
291
     1
 45
0.0
  0
VISUALSTYLE
  5
2D
102
{ACAD_REACTORS
330
2A
102
}
330
2A
100
AcDbVisualStyle
  2
Gouraud
 70
     2
 71
     2
 72
     2
 73
     1
 90
        2
 40
-0.6
 41
30.0
 62
     5
 63
     7
421
 16777215
 74
     0
 91
        4
 64
     7
 65
   257
 75
     1
175
     1
 42
1.0
 92
        0
 66
     7
 43
1.0
 76
     1
 77
     6
 78
     2
 67
     7
 79
     5
170
     0
171
     0
290
     0
174
     0
 93
       13
 44
0.0
173
     0
291
     1
 45
0.0
  0
VISUALSTYLE
  5
2E
102
{ACAD_REACTORS
330
2A
102
}
330
2A
100
AcDbVisualStyle
  2
GouraudWithEdges
 70
     3
 71
     2
 72
     2
 73
     1
 90
        2
 40
-0.6
 41
30.0
 62
     5
 63
     7
421
 16777215
 74
     1
 91
        4
 64
     7
 65
   257
 75
     1
175
     1
 42
1.0
 92
        0
 66
   257
 43
1.0
 76
     1
 77
     6
 78
     2
 67
     7
 79
     5
170
     0
171
     0
290
     0
174
     0
 93
       13
 44
0.0
173
     0
291
     1
 45
0.0
  0
VISUALSTYLE
  5
38
102
{ACAD_REACTORS
330
2A
102
}
330
2A
100
AcDbVisualStyle
  2
Linepattern
 70
    14
 71
     2
 72
     2
 73
     0
 90
        0
 40
-0.6
 41
-30.0
 62
     5
 63
     7
421
 16777215
 74
     1
 91
        4
 64
     7
 65
   257
 75
     7
175
     7
 42
1.0
 92
        8
 66
     7
 43
1.0
 76
     1
 77
     6
 78
     2
 67
     7
 79
     5
170
     0
171
     0
290
     0
174
     0
 93
        1
 44
0.0
173
     0
291
     1
 45
0.0
  0
VISUALSTYLE
  5
33
102
{ACAD_REACTORS
330
2A
102
}
330
2A
100
AcDbVisualStyle
  2
Realistic
 70
     8
 71
     2
 72
     2
 73
     0
 90
        0
 40
-0.6
 41
-30.0
 62
     5
 63
     7
421
 16777215
 74
     1
 91
        0
 64
     7
 65
   257
 75
     1
175
     1
 42
1.0
 92
        8
 66
     8
424
  7895160
 43
1.0
 76
     1
 77
     6
 78
     2
 67
     7
 79
     5
170
     0
171
     0
290
     0
174
     0
 93
       13
 44
0.0
173
     0
291
     0
 45
0.0
  0
VISUALSTYLE
  5
37
102
{ACAD_REACTORS
330
2A
102
}
330
2A
100
AcDbVisualStyle
  2
Thicken
 70
    13
 71
     2
 72
     2
 73
     0
 90
        0
 40
-0.6
 41
-30.0
 62
     5
 63
     7
421
 16777215
 74
     1
 91
        4
 64
     7
 65
   257
 75
     1
175
     1
 42
1.0
 92
       12
 66
     7
 43
1.0
 76
     1
 77
     6
 78
     2
 67
     7
 79
     5
170
     0
171
     0
290
     0
174
     0
 93
        1
 44
0.0
173
     0
291
     1
 45
0.0
  0
ENDSEC
  0
EOF
