  0
SECTION
  2
HEADER
  9
$ACADVER
  1
AC1021
  9
$ACADMAINTVER
 70
     1
  9
$DWGCODEPAGE
  3
ANSI_932
  9
$INSBASE
 10
0.0
 20
0.0
 30
0.0
  9
$EXTMIN
 10
0.0
 20
0.0
 30
0.0
  9
$EXTMAX
 10
891.0
 20
630.0
 30
0.0
  9
$LIMMIN
 10
0.0
 20
0.0
  9
$LIMMAX
 10
891.0
 20
630.0
  9
$ORTHOMODE
 70
     0
  9
$REGENMODE
 70
     1
  9
$FILLMODE
 70
     1
  9
$QTEXTMODE
 70
     0
  9
$MIRRTEXT
 70
     1
  9
$LTSCALE
 40
0.75
  9
$ATTMODE
 70
     1
  9
$TEXTSIZE
 40
15.0
  9
$TRACEWID
 40
0.05
  9
$TEXTSTYLE
  7
Standard
  9
$CLAYER
  8
0
  9
$CELTYPE
  6
ByLayer
  9
$CECOLOR
 62
   256
  9
$CELTSCALE
 40
1.0
  9
$DISPSILH
 70
     0
  9
$DIMSCALE
 40
3.0
  9
$DIMASZ
 40
4.0
  9
$DIMEXO
 40
2.0
  9
$DIMDLI
 40
10.0
  9
$DIMRND
 40
0.0
  9
$DIMDLE
 40
0.0
  9
$DIMEXE
 40
2.0
  9
$DIMTP
 40
0.0
  9
$DIMTM
 40
0.0
  9
$DIMTXT
 40
4.0
  9
$DIMCEN
 40
0.09
  9
$DIMTSZ
 40
0.0
  9
$DIMTOL
 70
     0
  9
$DIMLIM
 70
     0
  9
$DIMTIH
 70
     0
  9
$DIMTOH
 70
     0
  9
$DIMSE1
 70
     0
  9
$DIMSE2
 70
     0
  9
$DIMTAD
 70
     3
  9
$DIMZIN
 70
     8
  9
$DIMBLK
  1

  9
$DIMASO
 70
     1
  9
$DIMSHO
 70
     1
  9
$DIMPOST
  1

  9
$DIMAPOST
  1

  9
$DIMALT
 70
     0
  9
$DIMALTD
 70
     2
  9
$DIMALTF
 40
25.4
  9
$DIMLFAC
 40
1.0
  9
$DIMTOFL
 70
     1
  9
$DIMTVP
 40
0.7
  9
$DIMTIX
 70
     0
  9
$DIMSOXD
 70
     0
  9
$DIMSAH
 70
     0
  9
$DIMBLK1
  1

  9
$DIMBLK2
  1

  9
$DIMSTYLE
  2
Standard
  9
$DIMCLRD
 70
     0
  9
$DIMCLRE
 70
     0
  9
$DIMCLRT
 70
     0
  9
$DIMTFAC
 40
0.5
  9
$DIMGAP
 40
0.09
  9
$DIMJUST
 70
     0
  9
$DIMSD1
 70
     0
  9
$DIMSD2
 70
     0
  9
$DIMTOLJ
 70
     1
  9
$DIMTZIN
 70
     8
  9
$DIMALTZ
 70
     0
  9
$DIMALTTZ
 70
     0
  9
$DIMUPT
 70
     1
  9
$DIMDEC
 70
     2
  9
$DIMTDEC
 70
     4
  9
$DIMALTU
 70
     2
  9
$DIMALTTD
 70
     2
  9
$DIMTXSTY
  7
Standard
  9
$DIMAUNIT
 70
     0
  9
$DIMADEC
 70
     0
  9
$DIMALTRND
 40
0.0
  9
$DIMAZIN
 70
     0
  9
$DIMDSEP
 70
    46
  9
$DIMATFIT
 70
     2
  9
$DIMFRAC
 70
     0
  9
$DIMLDRBLK
  1

  9
$DIMLUNIT
 70
     2
  9
$DIMLWD
 70
    -2
  9
$DIMLWE
 70
    -2
  9
$DIMTMOVE
 70
     2
  9
$DIMFXL
 40
1.0
  9
$DIMFXLON
 70
     0
  9
$DIMJOGANG
 40
0.7853981633974483
  9
$DIMTFILL
 70
     0
  9
$DIMTFILLCLR
 70
     0
  9
$DIMARCSYM
 70
     0
  9
$DIMLTYPE
  6

  9
$DIMLTEX1
  6

  9
$DIMLTEX2
  6

  9
$LUNITS
 70
     2
  9
$LUPREC
 70
     4
  9
$SKETCHINC
 40
0.1
  9
$FILLETRAD
 40
0.5
  9
$AUNITS
 70
     0
  9
$AUPREC
 70
     0
  9
$MENU
  1
.
  9
$ELEVATION
 40
0.0
  9
$PELEVATION
 40
0.0
  9
$THICKNESS
 40
0.0
  9
$LIMCHECK
 70
     0
  9
$CHAMFERA
 40
0.5
  9
$CHAMFERB
 40
0.5
  9
$CHAMFERC
 40
1.0
  9
$CHAMFERD
 40
0.0
  9
$SKPOLY
 70
     0
  9
$TDCREATE
 40
2454850.073541667
  9
$TDUCREATE
 40
2454849.698541667
  9
$TDUPDATE
 40
2454850.073541667
  9
$TDUUPDATE
 40
2454849.698541667
  9
$TDINDWG
 40
0.0000000116
  9
$TDUSRTIMER
 40
0.0000000116
  9
$USRTIMER
 70
     1
  9
$ANGBASE
 50
0.0
  9
$ANGDIR
 70
     0
  9
$PDMODE
 70
     0
  9
$PDSIZE
 40
0.0
  9
$PLINEWID
 40
0.0
  9
$SPLFRAME
 70
     0
  9
$SPLINETYPE
 70
     6
  9
$SPLINESEGS
 70
     8
  9
$HANDSEED
  5
53A
  9
$SURFTAB1
 70
     6
  9
$SURFTAB2
 70
     6
  9
$SURFTYPE
 70
     6
  9
$SURFU
 70
     6
  9
$SURFV
 70
     6
  9
$UCSBASE
  2

  9
$UCSNAME
  2

  9
$UCSORG
 10
0.0
 20
0.0
 30
0.0
  9
$UCSXDIR
 10
1.0
 20
0.0
 30
0.0
  9
$UCSYDIR
 10
0.0
 20
1.0
 30
0.0
  9
$UCSORTHOREF
  2

  9
$UCSORTHOVIEW
 70
     0
  9
$UCSORGTOP
 10
0.0
 20
0.0
 30
0.0
  9
$UCSORGBOTTOM
 10
0.0
 20
0.0
 30
0.0
  9
$UCSORGLEFT
 10
0.0
 20
0.0
 30
0.0
  9
$UCSORGRIGHT
 10
0.0
 20
0.0
 30
0.0
  9
$UCSORGFRONT
 10
0.0
 20
0.0
 30
0.0
  9
$UCSORGBACK
 10
0.0
 20
0.0
 30
0.0
  9
$PUCSBASE
  2

  9
$PUCSNAME
  2

  9
$PUCSORG
 10
0.0
 20
0.0
 30
0.0
  9
$PUCSXDIR
 10
1.0
 20
0.0
 30
0.0
  9
$PUCSYDIR
 10
0.0
 20
1.0
 30
0.0
  9
$PUCSORTHOREF
  2

  9
$PUCSORTHOVIEW
 70
     0
  9
$PUCSORGTOP
 10
0.0
 20
0.0
 30
0.0
  9
$PUCSORGBOTTOM
 10
0.0
 20
0.0
 30
0.0
  9
$PUCSORGLEFT
 10
0.0
 20
0.0
 30
0.0
  9
$PUCSORGRIGHT
 10
0.0
 20
0.0
 30
0.0
  9
$PUCSORGFRONT
 10
0.0
 20
0.0
 30
0.0
  9
$PUCSORGBACK
 10
0.0
 20
0.0
 30
0.0
  9
$USERI1
 70
     0
  9
$USERI2
 70
     0
  9
$USERI3
 70
     0
  9
$USERI4
 70
     0
  9
$USERI5
 70
     0
  9
$USERR1
 40
0.0
  9
$USERR2
 40
0.0
  9
$USERR3
 40
0.0
  9
$USERR4
 40
0.0
  9
$USERR5
 40
0.0
  9
$WORLDVIEW
 70
     1
  9
$SHADEDGE
 70
     3
  9
$SHADEDIF
 70
    70
  9
$TILEMODE
 70
     1
  9
$MAXACTVP
 70
    64
  9
$PINSBASE
 10
0.0
 20
0.0
 30
0.0
  9
$PLIMCHECK
 70
     0
  9
$PEXTMIN
 10
0.0
 20
0.0
 30
0.0
  9
$PEXTMAX
 10
297.0
 20
210.0
 30
0.0
  9
$PLIMMIN
 10
0.0
 20
0.0
  9
$PLIMMAX
 10
297.0
 20
210.0
  9
$UNITMODE
 70
     0
  9
$VISRETAIN
 70
     1
  9
$PLINEGEN
 70
     0
  9
$PSLTSCALE
 70
     1
  9
$TREEDEPTH
 70
  3020
  9
$CMLSTYLE
  2
Standard
  9
$CMLJUST
 70
     0
  9
$CMLSCALE
 40
1.0
  9
$PROXYGRAPHICS
 70
     1
  9
$MEASUREMENT
 70
     1
  9
$CELWEIGHT
370
    -1
  9
$ENDCAPS
280
     0
  9
$JOINSTYLE
280
     0
  9
$LWDISPLAY
290
     0
  9
$INSUNITS
 70
     4
  9
$HYPERLINKBASE
  1

  9
$STYLESHEET
  1

  9
$XEDIT
290
     1
  9
$CEPSNTYPE
380
     0
  9
$PSTYLEMODE
290
     1
  9
$FINGERPRINTGUID
  2
{825D41B3-454B-4292-91C4-C12F62E4F3CD}
  9
$VERSIONGUID
  2
{FAEB1C32-E019-11D5-929B-00C0DF256EC4}
  9
$EXTNAMES
290
     1
  9
$PSVPSCALE
 40
0.0
  9
$OLESTARTUP
290
     0
  9
$SORTENTS
280
   127
  9
$INDEXCTL
280
     0
  9
$HIDETEXT
280
     1
  9
$XCLIPFRAME
290
     0
  9
$HALOGAP
280
     0
  9
$OBSCOLOR
 70
   257
  9
$OBSLTYPE
280
     0
  9
$INTERSECTIONDISPLAY
280
     0
  9
$INTERSECTIONCOLOR
 70
   257
  9
$DIMASSOC
280
     1
  9
$PROJECTNAME
  1

  9
$CAMERADISPLAY
290
     0
  9
$LENSLENGTH
 40
50.0
  9
$CAMERAHEIGHT
 40
0.0
  9
$STEPSPERSEC
 40
2.0
  9
$STEPSIZE
 40
6.0
  9
$3DDWFPREC
 40
2.0
  9
$PSOLWIDTH
 40
0.25
  9
$PSOLHEIGHT
 40
4.0
  9
$LOFTANG1
 40
1.570796326794897
  9
$LOFTANG2
 40
1.570796326794897
  9
$LOFTMAG1
 40
0.0
  9
$LOFTMAG2
 40
0.0
  9
$LOFTPARAM
 70
     7
  9
$LOFTNORMALS
280
     1
  9
$LATITUDE
 40
37.795
  9
$LONGITUDE
 40
-122.394
  9
$NORTHDIRECTION
 40
0.0
  9
$TIMEZONE
 70
 -8000
  9
$LIGHTGLYPHDISPLAY
280
     1
  9
$TILEMODELIGHTSYNCH
280
     1
  9
$SOLIDHIST
280
     1
  9
$SHOWHIST
280
     1
  9
$DWFFRAME
280
     2
  9
$DGNFRAME
280
     2
  9
$REALWORLDSCALE
290
     1
  9
$INTERFERECOLOR
 62
   256
  9
$CSHADOW
280
     0
  9
$SHADOWPLANELOCATION
 40
0.0
  0
ENDSEC
  0
SECTION
  2
CLASSES
  0
CLASS
  1
ACDBDICTIONARYWDFLT
  2
AcDbDictionaryWithDefault
  3
ObjectDBX Classes
 90
        0
 91
        3
280
     0
281
     0
  0
CLASS
  1
VISUALSTYLE
  2
AcDbVisualStyle
  3
ObjectDBX Classes
 90
     4095
 91
        3
280
     0
281
     0
  0
ENDSEC
  0
SECTION
  2
TABLES
  0
TABLE
  2
VPORT
  5
8
330
0
100
AcDbSymbolTable
 70
     1
  0
VPORT
  5
29
330
8
100
AcDbSymbolTableRecord
100
AcDbViewportTableRecord
  2
*Active
 70
     0
 10
0.0
 20
0.0
 11
1.0
 21
1.0
 12
10.42990654205607
 22
4.5
 13
0.0
 23
0.0
 14
0.5
 24
0.5
 15
0.5
 25
0.5
 16
0.0
 26
0.0
 36
1.0
 17
0.0
 27
0.0
 37
0.0
 40
9.0
 41
1.972972972850329
 42
50.0
 43
0.0
 44
0.0
 50
0.0
 51
0.0
 71
     0
 72
   100
 73
     1
 74
     3
 75
     0
 76
     0
 77
     0
 78
     0
281
     0
 65
     1
110
0.0
120
0.0
130
0.0
111
1.0
121
0.0
131
0.0
112
0.0
122
1.0
132
0.0
 79
     0
146
0.0
 60
     3
 61
     5
292
     1
282
     1
141
0.0
142
0.0
 63
   256
  0
ENDTAB
  0
TABLE
  2
LTYPE
  5
5
330
0
100
AcDbSymbolTable
 70
     9
  0
LTYPE
  5
14
330
5
100
AcDbSymbolTableRecord
100
AcDbLinetypeTableRecord
  2
ByBlock
 70
     0
  3

 72
    65
 73
     0
 40
0.0
  0
LTYPE
  5
15
330
5
100
AcDbSymbolTableRecord
100
AcDbLinetypeTableRecord
  2
ByLayer
 70
     0
  3

 72
    65
 73
     0
 40
0.0
  0
LTYPE
  5
16
330
5
100
AcDbSymbolTableRecord
100
AcDbLinetypeTableRecord
  2
Continuous
 70
     0
  3
Solid line
 72
    65
 73
     0
 40
0.0
  0
LTYPE
  5
79
330
5
100
AcDbSymbolTableRecord
100
AcDbLinetypeTableRecord
  2
DOT
 70
     0
  3
DOT
 72
    65
 73
     2
 40
4.0
 49
6.0
 74
     0
 49
-2.0
 74
     0
  0
LTYPE
  5
7A
330
5
100
AcDbSymbolTableRecord
100
AcDbLinetypeTableRecord
  2
HIDDEN
 70
     0
  3
HIDDEN
 72
    65
 73
     2
 40
4.2
 49
8.4
 74
     0
 49
-4.2
 74
     0
  0
LTYPE
  5
7B
330
5
100
AcDbSymbolTableRecord
100
AcDbLinetypeTableRecord
  2
DASHDOT
 70
     0
  3
DASHDOT
 72
    65
 73
     4
 40
14.5
 49
30.0
 74
     0
 49
-9.0
 74
     0
 49
2.5
 74
     0
 49
-9.0
 74
     0
  0
LTYPE
  5
7C
330
5
100
AcDbSymbolTableRecord
100
AcDbLinetypeTableRecord
  2
PHANTOM
 70
     0
  3
PHANTOM
 72
    65
 73
     6
 40
12.0
 49
30.0
 74
     0
 49
-9.0
 74
     0
 49
2.5
 74
     0
 49
-5.0
 74
     0
 49
2.5
 74
     0
 49
-9.0
 74
     0
  0
LTYPE
  5
7D
330
5
100
AcDbSymbolTableRecord
100
AcDbLinetypeTableRecord
  2
ACAD_ISO14W100
 70
     0
  3
ACAD_ISO14W100
 72
    65
 73
     8
 40
1.5
 49
12.0
 74
     0
 49
-3.0
 74
     0
 49
0.5
 74
     0
 49
-3.0
 74
     0
 49
0.5
 74
     0
 49
-3.0
 74
     0
 49
0.5
 74
     0
 49
-3.0
 74
     0
  0
LTYPE
  5
7E
330
5
100
AcDbSymbolTableRecord
100
AcDbLinetypeTableRecord
  2
ACAD_ISO06W100
 70
     0
  3
ACAD_ISO06W100
 72
    65
 73
     8
 40
13.5
 49
24.0
 74
     0
 49
-3.0
 74
     0
 49
0.5
 74
     0
 49
-3.0
 74
     0
 49
0.5
 74
     0
 49
-3.0
 74
     0
 49
0.5
 74
     0
 49
-3.0
 74
     0
  0
LTYPE
  5
7F
330
5
100
AcDbSymbolTableRecord
100
AcDbLinetypeTableRecord
  2
ACAD_ISO11W100
 70
     0
  3
ACAD_ISO11W100
 72
    65
 73
     6
 40
15.5
 49
12.0
 74
     0
 49
-3.0
 74
     0
 49
12.0
 74
     0
 49
-3.0
 74
     0
 49
0.5
 74
     0
 49
-3.0
 74
     0
  0
LTYPE
  5
80
330
5
100
AcDbSymbolTableRecord
100
AcDbLinetypeTableRecord
  2
ACAD_ISO13W100
 70
     0
  3
ACAD_ISO13W100
 72
    65
 73
     8
 40
13.0
 49
12.0
 74
     0
 49
-3.0
 74
     0
 49
12.0
 74
     0
 49
-3.0
 74
     0
 49
0.5
 74
     0
 49
-3.0
 74
     0
 49
0.5
 74
     0
 49
-3.0
 74
     0
  0
ENDTAB
  0
TABLE
  2
LAYER
  5
2
330
0
100
AcDbSymbolTable
 70
    22
  0
LAYER
  5
10
330
2
100
AcDbSymbolTableRecord
100
AcDbLayerTableRecord
  2
0
 70
     0
 62
     7
  6
Continuous
370
    -3
390
F
347
0
  0
LAYER
  5
81
330
2
100
AcDbSymbolTableRecord
100
AcDbLayerTableRecord
  2
1
 70
     0
 62
     7
  6
Continuous
370
    -3
390
F
347
0
  0
LAYER
  5
82
330
2
100
AcDbSymbolTableRecord
100
AcDbLayerTableRecord
  2
2
 70
     0
 62
   134
  6
Continuous
370
    -3
390
F
347
0
  0
LAYER
  5
83
330
2
100
AcDbSymbolTableRecord
100
AcDbLayerTableRecord
  2
3
 70
     0
 62
   214
  6
Continuous
370
    -3
390
F
347
0
  0
LAYER
  5
84
330
2
100
AcDbSymbolTableRecord
100
AcDbLayerTableRecord
  2
4
 70
     0
 62
    54
  6
Continuous
370
    -3
390
F
347
0
  0
LAYER
  5
85
330
2
100
AcDbSymbolTableRecord
100
AcDbLayerTableRecord
  2
5
 70
     0
 62
    94
  6
Continuous
370
    -3
390
F
347
0
  0
LAYER
  5
86
330
2
100
AcDbSymbolTableRecord
100
AcDbLayerTableRecord
  2
6
 70
     0
 62
    14
  6
Continuous
370
    -3
390
F
347
0
  0
LAYER
  5
87
330
2
100
AcDbSymbolTableRecord
100
AcDbLayerTableRecord
  2
7
 70
     0
 62
     4
  6
Continuous
370
    -3
390
F
347
0
  0
LAYER
  5
88
330
2
100
AcDbSymbolTableRecord
100
AcDbLayerTableRecord
  2
8
 70
     0
 62
     6
  6
Continuous
370
    -3
390
F
347
0
  0
LAYER
  5
89
330
2
100
AcDbSymbolTableRecord
100
AcDbLayerTableRecord
  2
9
 70
     0
 62
     2
  6
Continuous
370
    -3
390
F
347
0
  0
LAYER
  5
8A
330
2
100
AcDbSymbolTableRecord
100
AcDbLayerTableRecord
  2
10
 70
     0
 62
     3
  6
Continuous
370
    -3
390
F
347
0
  0
LAYER
  5
8B
330
2
100
AcDbSymbolTableRecord
100
AcDbLayerTableRecord
  2
11
 70
     0
 62
   251
  6
Continuous
370
    -3
390
F
347
0
  0
LAYER
  5
8C
330
2
100
AcDbSymbolTableRecord
100
AcDbLayerTableRecord
  2
12
 70
     0
 62
   136
  6
Continuous
370
    -3
390
F
347
0
  0
LAYER
  5
8D
330
2
100
AcDbSymbolTableRecord
100
AcDbLayerTableRecord
  2
13
 70
     0
 62
   216
  6
Continuous
370
    -3
390
F
347
0
  0
LAYER
  5
8E
330
2
100
AcDbSymbolTableRecord
100
AcDbLayerTableRecord
  2
14
 70
     0
 62
    56
  6
Continuous
370
    -3
390
F
347
0
  0
LAYER
  5
8F
330
2
100
AcDbSymbolTableRecord
100
AcDbLayerTableRecord
  2
15
 70
     0
 62
    96
  6
Continuous
370
    -3
390
F
347
0
  0
LAYER
  5
90
330
2
100
AcDbSymbolTableRecord
100
AcDbLayerTableRecord
  2
16
 70
     0
 62
    16
  6
Continuous
370
    -3
390
F
347
0
  0
LAYER
  5
91
330
2
100
AcDbSymbolTableRecord
100
AcDbLayerTableRecord
  2
17
 70
     0
 62
   132
  6
Continuous
370
    -3
390
F
347
0
  0
LAYER
  5
92
330
2
100
AcDbSymbolTableRecord
100
AcDbLayerTableRecord
  2
18
 70
     0
 62
   212
  6
Continuous
370
    -3
390
F
347
0
  0
LAYER
  5
93
330
2
100
AcDbSymbolTableRecord
100
AcDbLayerTableRecord
  2
19
 70
     0
 62
    52
  6
Continuous
370
    -3
390
F
347
0
  0
LAYER
  5
94
330
2
100
AcDbSymbolTableRecord
100
AcDbLayerTableRecord
  2
20
 70
     0
 62
   250
  6
Continuous
370
    -3
390
F
347
0
  0
LAYER
  5
95
330
2
100
AcDbSymbolTableRecord
100
AcDbLayerTableRecord
  2
21
 70
     0
 62
     7
  6
Continuous
370
    -3
390
F
347
0
  0
ENDTAB
  0
TABLE
  2
STYLE
  5
3
330
0
100
AcDbSymbolTable
 70
     2
  0
STYLE
  5
11
330
3
100
AcDbSymbolTableRecord
100
AcDbTextStyleTableRecord
  2
Standard
 70
     0
 40
0.0
 41
1.0
 50
0.0
 71
     0
 42
0.2
  3
txt
  4
bigfont
  0
STYLE
  5
3D
330
3
100
AcDbSymbolTableRecord
100
AcDbTextStyleTableRecord
  2
T_STANDARD
 70
     4
 40
10.0
 41
1.0
 50
0.0
 71
     0
 42
10.0
  3
txt
  4
bigfont
  0
ENDTAB
  0
TABLE
  2
VIEW
  5
6
330
0
100
AcDbSymbolTable
 70
     0
  0
ENDTAB
  0
TABLE
  2
UCS
  5
7
330
0
100
AcDbSymbolTable
 70
     0
  0
ENDTAB
  0
TABLE
  2
APPID
  5
9
330
0
100
AcDbSymbolTable
 70
     2
  0
APPID
  5
12
330
9
100
AcDbSymbolTableRecord
100
AcDbRegAppTableRecord
  2
ACAD
 70
     0
  0
APPID
  5
3C
330
9
100
AcDbSymbolTableRecord
100
AcDbRegAppTableRecord
  2
ODA
 70
     0
  0
ENDTAB
  0
TABLE
  2
DIMSTYLE
  5
A
330
0
100
AcDbSymbolTable
 70
     1
100
AcDbDimStyleTable
  0
DIMSTYLE
105
27
102
{ACAD_REACTORS
330
42E
330
442
330
456
330
46A
330
47E
330
492
330
4A6
330
4BA
330
4CE
330
4E2
330
4F6
330
50A
330
51E
102
}
330
A
100
AcDbSymbolTableRecord
100
AcDbDimStyleTableRecord
  2
Standard
 70
     0
340
11
  0
ENDTAB
  0
TABLE
  2
BLOCK_RECORD
  5
1
330
0
100
AcDbSymbolTable
 70
    31
  0
BLOCK_RECORD
  5
1F
330
1
100
AcDbSymbolTableRecord
100
AcDbBlockTableRecord
  2
*Model_Space
340
22
 70
     0
280
     1
281
     0
  0
BLOCK_RECORD
  5
1B
330
1
100
AcDbSymbolTableRecord
100
AcDbBlockTableRecord
  2
*Paper_Space
340
1E
 70
     0
280
     1
281
     0
  0
BLOCK_RECORD
  5
23
330
1
100
AcDbSymbolTableRecord
100
AcDbBlockTableRecord
  2
*Paper_Space0
340
26
 70
     0
280
     1
281
     0
  0
BLOCK_RECORD
  5
3E
330
1
100
AcDbSymbolTableRecord
100
AcDbBlockTableRecord
  2
_ORIGIN
340
0
 70
     0
280
     1
281
     0
  0
BLOCK_RECORD
  5
43
330
1
100
AcDbSymbolTableRecord
100
AcDbBlockTableRecord
  2
_DOTBLANK
340
0
 70
     0
280
     1
281
     0
  0
BLOCK_RECORD
  5
48
330
1
100
AcDbSymbolTableRecord
100
AcDbBlockTableRecord
  2
_DOT
340
0
 70
     0
280
     1
281
     0
  0
BLOCK_RECORD
  5
4D
330
1
100
AcDbSymbolTableRecord
100
AcDbBlockTableRecord
  2
_OPEN
340
0
 70
     0
280
     1
281
     0
  0
BLOCK_RECORD
  5
53
330
1
100
AcDbSymbolTableRecord
100
AcDbBlockTableRecord
  2
_CLOSED
340
0
 70
     0
280
     1
281
     0
  0
BLOCK_RECORD
  5
5A
330
1
100
AcDbSymbolTableRecord
100
AcDbBlockTableRecord
  2
_CLOSEDBLANK
340
0
 70
     0
280
     1
281
     0
  0
BLOCK_RECORD
  5
60
330
1
100
AcDbSymbolTableRecord
100
AcDbBlockTableRecord
  2
_BOXBLANK
340
0
 70
     0
280
     1
281
     0
  0
BLOCK_RECORD
  5
68
330
1
100
AcDbSymbolTableRecord
100
AcDbBlockTableRecord
  2
_BOXFILLED
340
0
 70
     0
280
     1
281
     0
  0
BLOCK_RECORD
  5
6D
330
1
100
AcDbSymbolTableRecord
100
AcDbBlockTableRecord
  2
_INTEGRAL
340
0
 70
     0
280
     1
281
     0
  0
BLOCK_RECORD
  5
72
330
1
100
AcDbSymbolTableRecord
100
AcDbBlockTableRecord
  2
_OBLIQUE
340
0
 70
     0
280
     1
281
     0
  0
BLOCK_RECORD
  5
76
330
1
100
AcDbSymbolTableRecord
100
AcDbBlockTableRecord
  2
_NONE
340
0
 70
     0
280
     1
281
     0
  0
BLOCK_RECORD
  5
BC
330
1
100
AcDbSymbolTableRecord
100
AcDbBlockTableRecord
  2
*G12
340
0
102
{BLKREFS
331
10F
102
}
 70
     0
280
     1
281
     0
  0
BLOCK_RECORD
  5
141
330
1
100
AcDbSymbolTableRecord
100
AcDbBlockTableRecord
  2
*G13
340
0
102
{BLKREFS
331
165
102
}
 70
     0
280
     1
281
     0
  0
BLOCK_RECORD
  5
29F
330
1
100
AcDbSymbolTableRecord
100
AcDbBlockTableRecord
  2
*G14
340
0
102
{BLKREFS
331
2AC
102
}
 70
     0
280
     1
281
     0
  0
BLOCK_RECORD
  5
2A7
330
1
100
AcDbSymbolTableRecord
100
AcDbBlockTableRecord
  2
*G15
340
0
102
{BLKREFS
331
2AB
102
}
 70
     0
280
     1
281
     0
  0
BLOCK_RECORD
  5
2AE
330
1
100
AcDbSymbolTableRecord
100
AcDbBlockTableRecord
  2
*G16
340
0
102
{BLKREFS
331
2BB
102
}
 70
     0
280
     1
281
     0
  0
BLOCK_RECORD
  5
2B6
330
1
100
AcDbSymbolTableRecord
100
AcDbBlockTableRecord
  2
*G17
340
0
102
{BLKREFS
331
2BA
102
}
 70
     0
280
     1
281
     0
  0
BLOCK_RECORD
  5
41B
330
1
100
AcDbSymbolTableRecord
100
AcDbBlockTableRecord
  2
Dim1
340
0
 70
     0
280
     1
281
     0
  0
BLOCK_RECORD
  5
42F
330
1
100
AcDbSymbolTableRecord
100
AcDbBlockTableRecord
  2
Dim2
340
0
 70
     0
280
     1
281
     0
  0
BLOCK_RECORD
  5
443
330
1
100
AcDbSymbolTableRecord
100
AcDbBlockTableRecord
  2
Dim3
340
0
 70
     0
280
     1
281
     0
  0
BLOCK_RECORD
  5
457
330
1
100
AcDbSymbolTableRecord
100
AcDbBlockTableRecord
  2
Dim4
340
0
 70
     0
280
     1
281
     0
  0
BLOCK_RECORD
  5
46B
330
1
100
AcDbSymbolTableRecord
100
AcDbBlockTableRecord
  2
Dim5
340
0
 70
     0
280
     1
281
     0
  0
BLOCK_RECORD
  5
47F
330
1
100
AcDbSymbolTableRecord
100
AcDbBlockTableRecord
  2
Dim6
340
0
 70
     0
280
     1
281
     0
  0
BLOCK_RECORD
  5
493
330
1
100
AcDbSymbolTableRecord
100
AcDbBlockTableRecord
  2
Dim7
340
0
 70
     0
280
     1
281
     0
  0
BLOCK_RECORD
  5
4A7
330
1
100
AcDbSymbolTableRecord
100
AcDbBlockTableRecord
  2
Dim8
340
0
 70
     0
280
     1
281
     0
  0
BLOCK_RECORD
  5
4BB
330
1
100
AcDbSymbolTableRecord
100
AcDbBlockTableRecord
  2
Dim9
340
0
 70
     0
280
     1
281
     0
  0
BLOCK_RECORD
  5
4CF
330
1
100
AcDbSymbolTableRecord
100
AcDbBlockTableRecord
  2
Dim10
340
0
 70
     0
280
     1
281
     0
  0
BLOCK_RECORD
  5
4E3
330
1
100
AcDbSymbolTableRecord
100
AcDbBlockTableRecord
  2
Dim11
340
0
 70
     0
280
     1
281
     0
  0
BLOCK_RECORD
  5
4F7
330
1
100
AcDbSymbolTableRecord
100
AcDbBlockTableRecord
  2
Dim12
340
0
 70
     0
280
     1
281
     0
  0
BLOCK_RECORD
  5
50B
330
1
100
AcDbSymbolTableRecord
100
AcDbBlockTableRecord
  2
Dim13
340
0
 70
     0
280
     1
281
     0
  0
ENDTAB
  0
ENDSEC
  0
SECTION
  2
BLOCKS
  0
BLOCK
  5
20
330
1F
100
AcDbEntity
  8
0
100
AcDbBlockBegin
  2
*Model_Space
 70
     0
 71
     0
 10
0.0
 20
0.0
 30
0.0
  3
*Model_Space
  1

  0
ENDBLK
  5
21
330
1F
100
AcDbEntity
  8
0
100
AcDbBlockEnd
  0
BLOCK
  5
1C
330
1B
100
AcDbEntity
 67
     1
  8
0
100
AcDbBlockBegin
  2
*Paper_Space
 70
     0
 71
     0
 10
0.0
 20
0.0
 30
0.0
  3
*Paper_Space
  1

  0
ENDBLK
  5
1D
330
1B
100
AcDbEntity
 67
     1
  8
0
100
AcDbBlockEnd
  0
BLOCK
  5
24
330
23
100
AcDbEntity
  8
0
100
AcDbBlockBegin
  2
*Paper_Space0
 70
     0
 71
     0
 10
0.0
 20
0.0
 30
0.0
  3
*Paper_Space0
  1

  0
ENDBLK
  5
25
330
23
100
AcDbEntity
  8
0
100
AcDbBlockEnd
  0
BLOCK
  5
41
330
3E
100
AcDbEntity
  8
0
100
AcDbBlockBegin
  2
_ORIGIN
 70
     0
 71
     0
 10
0.0
 20
0.0
 30
0.0
  3
_ORIGIN
  1

  0
CIRCLE
  5
3F
330
3E
100
AcDbEntity
  8
0
100
AcDbCircle
 10
0.0
 20
0.0
 30
0.0
 40
0.5
  0
LINE
  5
40
330
3E
100
AcDbEntity
  8
0
100
AcDbLine
 10
0.0
 20
0.0
 30
0.0
 11
-1.0
 21
0.0
 31
0.0
  0
ENDBLK
  5
42
330
3E
100
AcDbEntity
  8
0
100
AcDbBlockEnd
  0
BLOCK
  5
46
330
43
100
AcDbEntity
  8
0
100
AcDbBlockBegin
  2
_DOTBLANK
 70
     0
 71
     0
 10
0.0
 20
0.0
 30
0.0
  3
_DOTBLANK
  1

  0
CIRCLE
  5
44
330
43
100
AcDbEntity
  8
0
100
AcDbCircle
 10
0.0
 20
0.0
 30
0.0
 40
0.5
  0
LINE
  5
45
330
43
100
AcDbEntity
  8
0
100
AcDbLine
 10
-0.5
 20
0.0
 30
0.0
 11
-1.0
 21
0.0
 31
0.0
  0
ENDBLK
  5
47
330
43
100
AcDbEntity
  8
0
100
AcDbBlockEnd
  0
BLOCK
  5
4B
330
48
100
AcDbEntity
  8
0
100
AcDbBlockBegin
  2
_DOT
 70
     0
 71
     0
 10
0.0
 20
0.0
 30
0.0
  3
_DOT
  1

  0
LWPOLYLINE
  5
49
330
48
100
AcDbEntity
  8
0
100
AcDbPolyline
 90
        2
 70
     1
 43
0.5
 10
-0.25
 20
0.0
 42
1.0
 10
0.25
 20
0.0
 42
1.0
  0
LINE
  5
4A
330
48
100
AcDbEntity
  8
0
100
AcDbLine
 10
-0.5
 20
0.0
 30
0.0
 11
-1.0
 21
0.0
 31
0.0
  0
ENDBLK
  5
4C
330
48
100
AcDbEntity
  8
0
100
AcDbBlockEnd
  0
BLOCK
  5
51
330
4D
100
AcDbEntity
  8
0
100
AcDbBlockBegin
  2
_OPEN
 70
     0
 71
     0
 10
0.0
 20
0.0
 30
0.0
  3
_OPEN
  1

  0
LINE
  5
4E
330
4D
100
AcDbEntity
  8
0
100
AcDbLine
 10
-1.0
 20
0.1666666666666667
 30
0.0
 11
0.0
 21
0.0
 31
0.0
  0
LINE
  5
4F
330
4D
100
AcDbEntity
  8
0
100
AcDbLine
 10
-1.0
 20
-0.1666666666666667
 30
0.0
 11
0.0
 21
0.0
 31
0.0
  0
LINE
  5
50
330
4D
100
AcDbEntity
  8
0
100
AcDbLine
 10
0.0
 20
0.0
 30
0.0
 11
-1.0
 21
0.0
 31
0.0
  0
ENDBLK
  5
52
330
4D
100
AcDbEntity
  8
0
100
AcDbBlockEnd
  0
BLOCK
  5
58
330
53
100
AcDbEntity
  8
0
100
AcDbBlockBegin
  2
_CLOSED
 70
     0
 71
     0
 10
0.0
 20
0.0
 30
0.0
  3
_CLOSED
  1

  0
LINE
  5
54
330
53
100
AcDbEntity
  8
0
100
AcDbLine
 10
-1.0
 20
0.1666666666666667
 30
0.0
 11
0.0
 21
0.0
 31
0.0
  0
LINE
  5
55
330
53
100
AcDbEntity
  8
0
100
AcDbLine
 10
0.0
 20
0.0
 30
0.0
 11
-1.0
 21
-0.1666666666666667
 31
0.0
  0
LINE
  5
56
330
53
100
AcDbEntity
  8
0
100
AcDbLine
 10
-1.0
 20
0.1666666666666667
 30
0.0
 11
-1.0
 21
-0.1666666666666667
 31
0.0
  0
LINE
  5
57
330
53
100
AcDbEntity
  8
0
100
AcDbLine
 10
0.0
 20
0.0
 30
0.0
 11
-1.0
 21
0.0
 31
0.0
  0
ENDBLK
  5
59
330
53
100
AcDbEntity
  8
0
100
AcDbBlockEnd
  0
BLOCK
  5
5E
330
5A
100
AcDbEntity
  8
0
100
AcDbBlockBegin
  2
_CLOSEDBLANK
 70
     0
 71
     0
 10
0.0
 20
0.0
 30
0.0
  3
_CLOSEDBLANK
  1

  0
LINE
  5
5B
330
5A
100
AcDbEntity
  8
0
100
AcDbLine
 10
-1.0
 20
0.1666666666666667
 30
0.0
 11
0.0
 21
0.0
 31
0.0
  0
LINE
  5
5C
330
5A
100
AcDbEntity
  8
0
100
AcDbLine
 10
0.0
 20
0.0
 30
0.0
 11
-1.0
 21
-0.1666666666666667
 31
0.0
  0
LINE
  5
5D
330
5A
100
AcDbEntity
  8
0
100
AcDbLine
 10
-1.0
 20
0.1666666666666667
 30
0.0
 11
-1.0
 21
-0.1666666666666667
 31
0.0
  0
ENDBLK
  5
5F
330
5A
100
AcDbEntity
  8
0
100
AcDbBlockEnd
  0
BLOCK
  5
66
330
60
100
AcDbEntity
  8
0
100
AcDbBlockBegin
  2
_BOXBLANK
 70
     0
 71
     0
 10
0.0
 20
0.0
 30
0.0
  3
_BOXBLANK
  1

  0
LINE
  5
61
330
60
100
AcDbEntity
  8
0
100
AcDbLine
 10
-0.5
 20
-0.5
 30
0.0
 11
0.5
 21
-0.5
 31
0.0
  0
LINE
  5
62
330
60
100
AcDbEntity
  8
0
100
AcDbLine
 10
0.5
 20
-0.5
 30
0.0
 11
0.5
 21
0.5
 31
0.0
  0
LINE
  5
63
330
60
100
AcDbEntity
  8
0
100
AcDbLine
 10
0.5
 20
0.5
 30
0.0
 11
-0.5
 21
0.5
 31
0.0
  0
LINE
  5
64
330
60
100
AcDbEntity
  8
0
100
AcDbLine
 10
-0.5
 20
0.5
 30
0.0
 11
-0.5
 21
-0.5
 31
0.0
  0
LINE
  5
65
330
60
100
AcDbEntity
  8
0
100
AcDbLine
 10
-0.5
 20
0.0
 30
0.0
 11
-1.0
 21
0.0
 31
0.0
  0
ENDBLK
  5
67
330
60
100
AcDbEntity
  8
0
100
AcDbBlockEnd
  0
BLOCK
  5
6B
330
68
100
AcDbEntity
  8
0
100
AcDbBlockBegin
  2
_BOXFILLED
 70
     0
 71
     0
 10
0.0
 20
0.0
 30
0.0
  3
_BOXFILLED
  1

  0
SOLID
  5
69
330
68
100
AcDbEntity
  8
0
100
AcDbTrace
 10
-0.5
 20
0.5
 30
0.0
 11
0.5
 21
0.5
 31
0.0
 12
-0.5
 22
-0.5
 32
0.0
 13
0.5
 23
-0.5
 33
0.0
  0
LINE
  5
6A
330
68
100
AcDbEntity
  8
0
100
AcDbLine
 10
-0.5
 20
0.0
 30
0.0
 11
-1.0
 21
0.0
 31
0.0
  0
ENDBLK
  5
6C
330
68
100
AcDbEntity
  8
0
100
AcDbBlockEnd
  0
BLOCK
  5
70
330
6D
100
AcDbEntity
  8
0
100
AcDbBlockBegin
  2
_INTEGRAL
 70
     0
 71
     0
 10
0.0
 20
0.0
 30
0.0
  3
_INTEGRAL
  1

  0
ARC
  5
6E
330
6D
100
AcDbEntity
  8
0
100
AcDbCircle
 10
0.444888
 20
-0.0913346
 30
0.0
 40
0.4541666
100
AcDbArc
 50
84.16951033439696
 51
265.6909581978302
  0
ARC
  5
6F
330
6D
100
AcDbEntity
  8
0
100
AcDbCircle
 10
-0.444888
 20
0.0913346
 30
0.0
 40
0.4541666
100
AcDbArc
 50
317.4098226892151
 51
138.9312705526484
  0
ENDBLK
  5
71
330
6D
100
AcDbEntity
  8
0
100
AcDbBlockEnd
  0
BLOCK
  5
74
330
72
100
AcDbEntity
  8
0
100
AcDbBlockBegin
  2
_OBLIQUE
 70
     0
 71
     0
 10
0.0
 20
0.0
 30
0.0
  3
_OBLIQUE
  1

  0
LINE
  5
73
330
72
100
AcDbEntity
  8
0
100
AcDbLine
 10
-0.5
 20
-0.5
 30
0.0
 11
0.5
 21
0.5
 31
0.0
  0
ENDBLK
  5
75
330
72
100
AcDbEntity
  8
0
100
AcDbBlockEnd
  0
BLOCK
  5
77
330
76
100
AcDbEntity
  8
0
100
AcDbBlockBegin
  2
_NONE
 70
     0
 71
     0
 10
0.0
 20
0.0
 30
0.0
  3
_NONE
  1

  0
ENDBLK
  5
78
330
76
100
AcDbEntity
  8
0
100
AcDbBlockEnd
  0
BLOCK
  5
BD
330
BC
100
AcDbEntity
  8
0
100
AcDbBlockBegin
  2
*G12
 70
     1
 71
     0
 10
0.0
 20
0.0
 30
0.0
  3
*G12
  1

  0
LINE
  5
BF
330
BC
100
AcDbEntity
  8
1
  6
Continuous
 62
     7
370
     9
100
AcDbLine
 10
630.1723602484473
 20
320.7622523623793
 30
0.0
 11
632.0664366131844
 21
318.8681759976421
 31
0.0
  0
LINE
  5
C0
330
BC
100
AcDbEntity
  8
1
  6
Continuous
 62
     7
370
     9
100
AcDbLine
 10
630.1723602484473
 20
322.8835727059389
 30
0.0
 11
634.187756956744
 21
318.8681759976421
 31
0.0
  0
LINE
  5
C1
330
BC
100
AcDbEntity
  8
1
  6
Continuous
 62
     7
370
     9
100
AcDbLine
 10
630.1723602484473
 20
325.0048930494985
 30
0.0
 11
636.3090773003036
 21
318.8681759976421
 31
0.0
  0
LINE
  5
C2
330
BC
100
AcDbEntity
  8
1
  6
Continuous
 62
     7
370
     9
100
AcDbLine
 10
630.1723602484471
 20
327.1262133930582
 30
0.0
 11
638.4303976438631
 21
318.8681759976421
 31
0.0
  0
LINE
  5
C3
330
BC
100
AcDbEntity
  8
1
  6
Continuous
 62
     7
370
     9
100
AcDbLine
 10
630.1723602484471
 20
329.2475337366179
 30
0.0
 11
640.5517179874228
 21
318.8681759976421
 31
0.0
  0
LINE
  5
C4
330
BC
100
AcDbEntity
  8
1
  6
Continuous
 62
     7
370
     9
100
AcDbLine
 10
630.1723602484471
 20
331.3688540801775
 30
0.0
 11
642.6730383309823
 21
318.8681759976421
 31
0.0
  0
LINE
  5
C5
330
BC
100
AcDbEntity
  8
1
  6
Continuous
 62
     7
370
     9
100
AcDbLine
 10
630.1723602484471
 20
333.4901744237371
 30
0.0
 11
644.794358674542
 21
318.8681759976421
 31
0.0
  0
LINE
  5
C6
330
BC
100
AcDbEntity
  8
1
  6
Continuous
 62
     7
370
     9
100
AcDbLine
 10
650.9417978087373
 20
312.7207368634467
 30
0.0
 11
651.5045672392833
 21
312.1579674329006
 31
0.0
  0
LINE
  5
C7
330
BC
100
AcDbEntity
  8
1
  6
Continuous
 62
     7
370
     9
100
AcDbLine
 10
630.172360248447
 20
335.6114947672968
 30
0.0
 11
646.9156790181015
 21
318.8681759976421
 31
0.0
  0
LINE
  5
C8
330
BC
100
AcDbEntity
  8
1
  6
Continuous
 62
     7
370
     9
100
AcDbLine
 10
652.1670004694122
 20
313.6168545463314
 30
0.0
 11
653.6258875828429
 21
312.1579674329006
 31
0.0
  0
LINE
  5
C9
330
BC
100
AcDbEntity
  8
1
  6
Continuous
 62
     7
370
     9
100
AcDbLine
 10
630.172360248447
 20
337.7328151108564
 30
0.0
 11
649.0369993616611
 21
318.8681759976421
 31
0.0
  0
LINE
  5
CA
330
BC
100
AcDbEntity
  8
1
  6
Continuous
 62
     7
370
     9
100
AcDbLine
 10
653.3922031300872
 20
314.5129722292161
 30
0.0
 11
655.7472079264026
 21
312.1579674329006
 31
0.0
  0
LINE
  5
CB
330
BC
100
AcDbEntity
  8
1
  6
Continuous
 62
     7
370
     9
100
AcDbLine
 10
630.172360248447
 20
339.8541354544161
 30
0.0
 11
651.1583197052207
 21
318.8681759976421
 31
0.0
  0
LINE
  5
CC
330
BC
100
AcDbEntity
  8
1
  6
Continuous
 62
     7
370
     9
100
AcDbLine
 10
654.6174057907621
 20
315.4090899121007
 30
0.0
 11
657.8685282699621
 21
312.1579674329006
 31
0.0
  0
LINE
  5
CD
330
BC
100
AcDbEntity
  8
1
  6
Continuous
 62
     7
370
     9
100
AcDbLine
 10
630.172360248447
 20
341.9754557979757
 30
0.0
 11
653.2796400487803
 21
318.8681759976421
 31
0.0
  0
LINE
  5
CE
330
BC
100
AcDbEntity
  8
1
  6
Continuous
 62
     7
370
     9
100
AcDbLine
 10
655.842608451437
 20
316.3052075949855
 30
0.0
 11
659.9898486135218
 21
312.1579674329006
 31
0.0
  0
LINE
  5
CF
330
BC
100
AcDbEntity
  8
1
  6
Continuous
 62
     7
370
     9
100
AcDbLine
 10
630.172360248447
 20
344.0967761415353
 30
0.0
 11
655.4009603923399
 21
318.8681759976421
 31
0.0
  0
LINE
  5
D0
330
BC
100
AcDbEntity
  8
1
  6
Continuous
 62
     7
370
     9
100
AcDbLine
 10
657.0678111121119
 20
317.2013252778701
 30
0.0
 11
662.1111689570813
 21
312.1579674329006
 31
0.0
  0
LINE
  5
D1
330
BC
100
AcDbEntity
  8
1
  6
Continuous
 62
     7
370
     9
100
AcDbLine
 10
630.1723602484469
 20
346.218096485095
 30
0.0
 11
657.5222807358995
 21
318.8681759976421
 31
0.0
  0
LINE
  5
D2
330
BC
100
AcDbEntity
  8
1
  6
Continuous
 62
     7
370
     9
100
AcDbLine
 10
658.2930137727868
 20
318.0974429607548
 30
0.0
 11
664.2324893006409
 21
312.1579674329006
 31
0.0
  0
LINE
  5
D3
330
BC
100
AcDbEntity
  8
1
  6
Continuous
 62
     7
370
     9
100
AcDbLine
 10
630.1723602484469
 20
348.3394168286546
 30
0.0
 11
666.3538096442005
 21
312.1579674329006
 31
0.0
  0
LINE
  5
D4
330
BC
100
AcDbEntity
  8
1
  6
Continuous
 62
     7
370
     9
100
AcDbLine
 10
630.1723602484469
 20
350.4607371722142
 30
0.0
 11
668.47512998776
 21
312.1579674329006
 31
0.0
  0
LINE
  5
D5
330
BC
100
AcDbEntity
  8
1
  6
Continuous
 62
     7
370
     9
100
AcDbLine
 10
630.1723602484469
 20
352.5820575157739
 30
0.0
 11
670.5964503313197
 21
312.1579674329006
 31
0.0
  0
LINE
  5
D6
330
BC
100
AcDbEntity
  8
1
  6
Continuous
 62
     7
370
     9
100
AcDbLine
 10
630.1723602484468
 20
354.7033778593335
 30
0.0
 11
672.7177706748793
 21
312.1579674329006
 31
0.0
  0
LINE
  5
D7
330
BC
100
AcDbEntity
  8
1
  6
Continuous
 62
     7
370
     9
100
AcDbLine
 10
630.1723602484468
 20
356.8246982028932
 30
0.0
 11
674.8390910184388
 21
312.1579674329006
 31
0.0
  0
LINE
  5
D8
330
BC
100
AcDbEntity
  8
1
  6
Continuous
 62
     7
370
     9
100
AcDbLine
 10
630.1723602484468
 20
358.9460185464528
 30
0.0
 11
676.9604113619985
 21
312.1579674329006
 31
0.0
  0
LINE
  5
D9
330
BC
100
AcDbEntity
  8
1
  6
Continuous
 62
     7
370
     9
100
AcDbLine
 10
630.1723602484468
 20
361.0673388900124
 30
0.0
 11
679.081731705558
 21
312.1579674329006
 31
0.0
  0
LINE
  5
DA
330
BC
100
AcDbEntity
  8
1
  6
Continuous
 62
     7
370
     9
100
AcDbLine
 10
630.1723602484468
 20
363.1886592335721
 30
0.0
 11
681.2030520491177
 21
312.1579674329006
 31
0.0
  0
LINE
  5
DB
330
BC
100
AcDbEntity
  8
1
  6
Continuous
 62
     7
370
     9
100
AcDbLine
 10
630.1723602484467
 20
365.3099795771317
 30
0.0
 11
683.3243723926772
 21
312.1579674329006
 31
0.0
  0
LINE
  5
DC
330
BC
100
AcDbEntity
  8
1
  6
Continuous
 62
     7
370
     9
100
AcDbLine
 10
630.1723602484467
 20
367.4312999206913
 30
0.0
 11
685.4456927362369
 21
312.1579674329006
 31
0.0
  0
LINE
  5
DD
330
BC
100
AcDbEntity
  8
1
  6
Continuous
 62
     7
370
     9
100
AcDbLine
 10
630.1723602484467
 20
369.552620264251
 30
0.0
 11
680.856804515055
 21
318.8681759976421
 31
0.0
  0
LINE
  5
DE
330
BC
100
AcDbEntity
  8
1
  6
Continuous
 62
     7
370
     9
100
AcDbLine
 10
685.9186164251951
 20
313.806364087502
 30
0.0
 11
687.5670130797964
 21
312.1579674329006
 31
0.0
  0
LINE
  5
DF
330
BC
100
AcDbEntity
  8
1
  6
Continuous
 62
     7
370
     9
100
AcDbLine
 10
630.1723602484467
 20
371.6739406078106
 30
0.0
 11
682.9781248586146
 21
318.8681759976421
 31
0.0
  0
LINE
  5
E0
330
BC
100
AcDbEntity
  8
1
  6
Continuous
 62
     7
370
     9
100
AcDbLine
 10
630.1723602484466
 20
373.7952609513703
 30
0.0
 11
685.0994452021743
 21
318.8681759976421
 31
0.0
  0
LINE
  5
E1
330
BC
100
AcDbEntity
  8
1
  6
Continuous
 62
     7
370
     9
100
AcDbLine
 10
630.1723602484466
 20
375.9165812949299
 30
0.0
 11
687.2207655457338
 21
318.8681759976421
 31
0.0
  0
LINE
  5
E2
330
BC
100
AcDbEntity
  8
1
  6
Continuous
 62
     7
370
     9
100
AcDbLine
 10
630.1723602484466
 20
378.0379016384895
 30
0.0
 11
689.3420858892933
 21
318.8681759976421
 31
0.0
  0
LINE
  5
E3
330
BC
100
AcDbEntity
  8
1
  6
Continuous
 62
     7
370
     9
100
AcDbLine
 10
631.557346587979
 20
378.7742356425167
 30
0.0
 11
691.463406232853
 21
318.8681759976421
 31
0.0
  0
LINE
  5
E4
330
BC
100
AcDbEntity
  8
1
  6
Continuous
 62
     7
370
     9
100
AcDbLine
 10
633.3843237108333
 20
379.0685788632219
 30
0.0
 11
693.5847265764125
 21
318.8681759976421
 31
0.0
  0
LINE
  5
E5
330
BC
100
AcDbEntity
  8
1
  6
Continuous
 62
     7
370
     9
100
AcDbLine
 10
635.0279837377738
 20
379.5462391798412
 30
0.0
 11
695.7060469199722
 21
318.8681759976421
 31
0.0
  0
LINE
  5
E6
330
BC
100
AcDbEntity
  8
1
  6
Continuous
 62
     7
370
     9
100
AcDbLine
 10
636.5215003436464
 20
380.1740429175281
 30
0.0
 11
697.8273672635318
 21
318.8681759976421
 31
0.0
  0
LINE
  5
E7
330
BC
100
AcDbEntity
  8
1
  6
Continuous
 62
     7
370
     9
100
AcDbLine
 10
637.884421493165
 20
380.9324421115692
 30
0.0
 11
699.9486876070913
 21
318.8681759976421
 31
0.0
  0
LINE
  5
E8
330
BC
100
AcDbEntity
  8
1
  6
Continuous
 62
     7
370
     9
100
AcDbLine
 10
639.128401401687
 20
381.8097825466066
 30
0.0
 11
702.070007950651
 21
318.8681759976421
 31
0.0
  0
LINE
  5
E9
330
BC
100
AcDbEntity
  8
1
  6
Continuous
 62
     7
370
     9
100
AcDbLine
 10
640.2598313614562
 20
382.7996729303971
 30
0.0
 11
704.1913282942105
 21
318.8681759976421
 31
0.0
  0
LINE
  5
EA
330
BC
100
AcDbEntity
  8
1
  6
Continuous
 62
     7
370
     9
100
AcDbLine
 10
641.2810546873702
 20
383.8997699480427
 30
0.0
 11
706.3126486377702
 21
318.8681759976421
 31
0.0
  0
LINE
  5
EB
330
BC
100
AcDbEntity
  8
1
  6
Continuous
 62
     7
370
     9
100
AcDbLine
 10
642.190773766375
 20
385.1113712125976
 30
0.0
 11
708.1723602497857
 21
319.1297847291861
 31
0.0
  0
LINE
  5
EC
330
BC
100
AcDbEntity
  8
1
  6
Continuous
 62
     7
370
     9
100
AcDbLine
 10
642.9838271504824
 20
386.4396381720497
 30
0.0
 11
708.1723602606393
 21
321.2511050618922
 31
0.0
  0
LINE
  5
ED
330
BC
100
AcDbEntity
  8
1
  6
Continuous
 62
     7
370
     9
100
AcDbLine
 10
643.6502408996271
 20
387.8945447664645
 30
0.0
 11
708.1723602714927
 21
323.3724253945983
 31
0.0
  0
LINE
  5
EE
330
BC
100
AcDbEntity
  8
1
  6
Continuous
 62
     7
370
     9
100
AcDbLine
 10
644.1731025750444
 20
389.493003434607
 30
0.0
 11
708.1723602823462
 21
325.4937457273045
 31
0.0
  0
LINE
  5
EF
330
BC
100
AcDbEntity
  8
1
  6
Continuous
 62
     7
370
     9
100
AcDbLine
 10
644.5240022139922
 20
391.2634241392188
 30
0.0
 11
708.1723602931996
 21
327.6150660600106
 31
0.0
  0
LINE
  5
F0
330
BC
100
AcDbEntity
  8
1
  6
Continuous
 62
     7
370
     9
100
AcDbLine
 10
644.6523032044694
 20
393.2564434923012
 30
0.0
 11
708.1723603040531
 21
329.7363863927168
 31
0.0
  0
LINE
  5
F1
330
BC
100
AcDbEntity
  8
1
  6
Continuous
 62
     7
370
     9
100
AcDbLine
 10
644.4542151086317
 20
395.5758519316984
 30
0.0
 11
708.1723603149065
 21
331.8577067254229
 31
0.0
  0
LINE
  5
F2
330
BC
100
AcDbEntity
  8
1
  6
Continuous
 62
     7
370
     9
100
AcDbLine
 10
643.6373694398789
 20
398.5140179440109
 30
0.0
 11
708.1723603257601
 21
333.9790270581291
 31
0.0
  0
LINE
  5
F3
330
BC
100
AcDbEntity
  8
1
  6
Continuous
 62
     7
370
     9
100
AcDbLine
 10
642.060697919416
 20
402.2120098080334
 30
0.0
 11
708.1723603366136
 21
336.1003473908352
 31
0.0
  0
LINE
  5
F4
330
BC
100
AcDbEntity
  8
1
  6
Continuous
 62
     7
370
     9
100
AcDbLine
 10
643.2666321673265
 20
403.1273959036825
 30
0.0
 11
708.172360347467
 21
338.2216677235413
 31
0.0
  0
LINE
  5
F5
330
BC
100
AcDbEntity
  8
1
  6
Continuous
 62
     7
370
     9
100
AcDbLine
 10
644.472566415237
 20
404.0427819993316
 30
0.0
 11
708.1723603583205
 21
340.3429880562475
 31
0.0
  0
LINE
  5
F6
330
BC
100
AcDbEntity
  8
1
  6
Continuous
 62
     7
370
     9
100
AcDbLine
 10
645.6785006631475
 20
404.9581680949807
 30
0.0
 11
708.1723603691739
 21
342.4643083889536
 31
0.0
  0
LINE
  5
F7
330
BC
100
AcDbEntity
  8
1
  6
Continuous
 62
     7
370
     9
100
AcDbLine
 10
646.884434911058
 20
405.8735541906299
 30
0.0
 11
708.1723603800274
 21
344.5856287216598
 31
0.0
  0
LINE
  5
F8
330
BC
100
AcDbEntity
  8
1
  6
Continuous
 62
     7
370
     9
100
AcDbLine
 10
648.0903691589684
 20
406.7889402862791
 30
0.0
 11
708.172360390881
 21
346.7069490543659
 31
0.0
  0
LINE
  5
F9
330
BC
100
AcDbEntity
  8
1
  6
Continuous
 62
     7
370
     9
100
AcDbLine
 10
649.2963034068789
 20
407.7043263819282
 30
0.0
 11
708.1723604017344
 21
348.8282693870721
 31
0.0
  0
LINE
  5
FA
330
BC
100
AcDbEntity
  8
1
  6
Continuous
 62
     7
370
     9
100
AcDbLine
 10
650.5022376547894
 20
408.6197124775773
 30
0.0
 11
708.1723604125879
 21
350.9495897197782
 31
0.0
  0
LINE
  5
FB
330
BC
100
AcDbEntity
  8
1
  6
Continuous
 62
     7
370
     9
100
AcDbLine
 10
651.7081719026997
 20
409.5350985732264
 30
0.0
 11
708.1723604234413
 21
353.0709100524844
 31
0.0
  0
LINE
  5
FC
330
BC
100
AcDbEntity
  8
1
  6
Continuous
 62
     7
370
     9
100
AcDbLine
 10
652.9141061506102
 20
410.4504846688756
 30
0.0
 11
708.1723604342948
 21
355.1922303851905
 31
0.0
  0
LINE
  5
FD
330
BC
100
AcDbEntity
  8
1
  6
Continuous
 62
     7
370
     9
100
AcDbLine
 10
654.1200403985207
 20
411.3658707645247
 30
0.0
 11
708.1723604451482
 21
357.3135507178966
 31
0.0
  0
LINE
  5
FE
330
BC
100
AcDbEntity
  8
1
  6
Continuous
 62
     7
370
     9
100
AcDbLine
 10
655.3259746464312
 20
412.2812568601739
 30
0.0
 11
708.1723604560018
 21
359.4348710506027
 31
0.0
  0
LINE
  5
FF
330
BC
100
AcDbEntity
  8
1
  6
Continuous
 62
     7
370
     9
100
AcDbLine
 10
656.539034954063
 20
413.1895168961017
 30
0.0
 11
708.1723604668553
 21
361.5561913833089
 31
0.0
  0
LINE
  5
100
330
BC
100
AcDbEntity
  8
1
  6
Continuous
 62
     7
370
     9
100
AcDbLine
 10
657.8267490920823
 20
414.0231231016419
 30
0.0
 11
708.1723604777087
 21
363.677511716015
 31
0.0
  0
LINE
  5
101
330
BC
100
AcDbEntity
  8
1
  6
Continuous
 62
     7
370
     9
100
AcDbLine
 10
659.202041643948
 20
414.7691508933359
 30
0.0
 11
708.1723604885622
 21
365.7988320487212
 31
0.0
  0
LINE
  5
102
330
BC
100
AcDbEntity
  8
1
  6
Continuous
 62
     7
370
     9
100
AcDbLine
 10
660.6712787518151
 20
415.4212341290283
 30
0.0
 11
708.1723604994156
 21
367.9201523814273
 31
0.0
  0
LINE
  5
103
330
BC
100
AcDbEntity
  8
1
  6
Continuous
 62
     7
370
     9
100
AcDbLine
 10
662.2436910958195
 20
415.9701421285836
 30
0.0
 11
708.1723605102691
 21
370.0414727141335
 31
0.0
  0
LINE
  5
104
330
BC
100
AcDbEntity
  8
1
  6
Continuous
 62
     7
370
     9
100
AcDbLine
 10
663.9326474314613
 20
416.4025061365014
 30
0.0
 11
708.1723605211226
 21
372.1627930468396
 31
0.0
  0
LINE
  5
105
330
BC
100
AcDbEntity
  8
1
  6
Continuous
 62
     7
370
     9
100
AcDbLine
 10
665.7579610488461
 20
416.6985128626762
 30
0.0
 11
694.7836996384962
 21
387.6727742730258
 31
0.0
  0
LINE
  5
106
330
BC
100
AcDbEntity
  8
1
  6
Continuous
 62
     7
370
     9
100
AcDbLine
 10
702.6571816986803
 20
379.7992922128415
 30
0.0
 11
708.1723605319761
 21
374.2841133795458
 31
0.0
  0
LINE
  5
107
330
BC
100
AcDbEntity
  8
1
  6
Continuous
 62
     7
370
     9
100
AcDbLine
 10
667.7504167010844
 20
416.8273775539974
 30
0.0
 11
693.9139482193839
 21
390.6638460356976
 31
0.0
  0
LINE
  5
108
330
BC
100
AcDbEntity
  8
1
  6
Continuous
 62
     7
370
     9
100
AcDbLine
 10
705.6482534613522
 20
378.9295407937292
 30
0.0
 11
708.1723605428296
 21
376.4054337122519
 31
0.0
  0
LINE
  5
109
330
BC
100
AcDbEntity
  8
1
  6
Continuous
 62
     7
370
     9
100
AcDbLine
 10
669.961809968295
 20
416.7373046303465
 30
0.0
 11
693.6934024720471
 21
393.0057121265942
 31
0.0
  0
LINE
  5
10A
330
BC
100
AcDbEntity
  8
1
  6
Continuous
 62
     7
370
     9
100
AcDbLine
 10
707.9901195522488
 20
378.7089950463923
 30
0.0
 11
708.172360553683
 21
378.526754044958
 31
0.0
  0
LINE
  5
10B
330
BC
100
AcDbEntity
  8
1
  6
Continuous
 62
     7
370
     9
100
AcDbLine
 10
672.4919168475267
 20
416.3285180946744
 30
0.0
 11
693.8076957557403
 21
395.0127391864605
 31
0.0
  0
LINE
  5
10C
330
BC
100
AcDbEntity
  8
1
  6
Continuous
 62
     7
370
     9
100
AcDbLine
 10
675.5910976983852
 20
415.3506575873754
 30
0.0
 11
694.1483136504498
 21
396.7934416353107
 31
0.0
  0
LINE
  5
10D
330
BC
100
AcDbEntity
  8
1
  6
Continuous
 62
     7
370
     9
100
AcDbLine
 10
680.8144665907602
 20
412.2486090385599
 30
0.0
 11
694.6628826118981
 21
398.4001930174219
 31
0.0
  0
LINE
  5
10E
330
BC
100
AcDbEntity
  8
1
  6
Continuous
 62
     7
370
     9
100
AcDbLine
 10
689.6191099284563
 20
405.5652860444234
 30
0.0
 11
695.3221668333423
 21
399.8622291395373
 31
0.0
  0
ENDBLK
  5
BE
330
BC
100
AcDbEntity
  8
0
100
AcDbBlockEnd
  0
BLOCK
  5
142
330
141
100
AcDbEntity
  8
0
100
AcDbBlockBegin
  2
*G13
 70
     1
 71
     0
 10
0.0
 20
0.0
 30
0.0
  3
*G13
  1

  0
LINE
  5
144
330
141
100
AcDbEntity
  8
1
  6
Continuous
 62
     7
370
     9
100
AcDbLine
 10
302.7861277320553
 20
341.0698209481732
 30
0.0
 11
310.4758857189445
 21
341.0698209481732
 31
0.0
  0
LINE
  5
145
330
141
100
AcDbEntity
  8
1
  6
Continuous
 62
     7
370
     9
100
AcDbLine
 10
302.7861277320553
 20
343.4698209481732
 30
0.0
 11
311.5950240985166
 21
343.4698209481732
 31
0.0
  0
LINE
  5
146
330
141
100
AcDbEntity
  8
1
  6
Continuous
 62
     7
370
     9
100
AcDbLine
 10
302.7861277320553
 20
345.8698209481732
 30
0.0
 11
311.7861277320553
 21
345.8698209481732
 31
0.0
  0
LINE
  5
147
330
141
100
AcDbEntity
  8
1
  6
Continuous
 62
     7
370
     9
100
AcDbLine
 10
302.7861277320553
 20
348.2698209481732
 30
0.0
 11
311.7861277320553
 21
348.2698209481732
 31
0.0
  0
LINE
  5
148
330
141
100
AcDbEntity
  8
1
  6
Continuous
 62
     7
370
     9
100
AcDbLine
 10
302.7861277320553
 20
350.6698209481731
 30
0.0
 11
311.7861277320553
 21
350.6698209481731
 31
0.0
  0
LINE
  5
149
330
141
100
AcDbEntity
  8
1
  6
Continuous
 62
     7
370
     9
100
AcDbLine
 10
302.7861277320553
 20
353.0698209481731
 30
0.0
 11
311.7861277320553
 21
353.0698209481731
 31
0.0
  0
LINE
  5
14A
330
141
100
AcDbEntity
  8
1
  6
Continuous
 62
     7
370
     9
100
AcDbLine
 10
302.7861277320553
 20
355.4698209481731
 30
0.0
 11
311.7861277320553
 21
355.4698209481731
 31
0.0
  0
LINE
  5
14B
330
141
100
AcDbEntity
  8
1
  6
Continuous
 62
     7
370
     9
100
AcDbLine
 10
302.7861277320553
 20
357.8698209481731
 30
0.0
 11
311.7861277320553
 21
357.8698209481731
 31
0.0
  0
LINE
  5
14C
330
141
100
AcDbEntity
  8
1
  6
Continuous
 62
     7
370
     9
100
AcDbLine
 10
302.7861277320553
 20
360.269820948173
 30
0.0
 11
311.7861277320553
 21
360.269820948173
 31
0.0
  0
LINE
  5
14D
330
141
100
AcDbEntity
  8
1
  6
Continuous
 62
     7
370
     9
100
AcDbLine
 10
302.7861277320553
 20
362.669820948173
 30
0.0
 11
311.7861277320553
 21
362.669820948173
 31
0.0
  0
LINE
  5
14E
330
141
100
AcDbEntity
  8
1
  6
Continuous
 62
     7
370
     9
100
AcDbLine
 10
302.7861277320553
 20
365.069820948173
 30
0.0
 11
311.7861277320553
 21
365.069820948173
 31
0.0
  0
LINE
  5
14F
330
141
100
AcDbEntity
  8
1
  6
Continuous
 62
     7
370
     9
100
AcDbLine
 10
302.7861277320553
 20
367.469820948173
 30
0.0
 11
311.7861277320553
 21
367.469820948173
 31
0.0
  0
LINE
  5
150
330
141
100
AcDbEntity
  8
1
  6
Continuous
 62
     7
370
     9
100
AcDbLine
 10
302.7861277320553
 20
369.869820948173
 30
0.0
 11
311.7861277320553
 21
369.869820948173
 31
0.0
  0
LINE
  5
151
330
141
100
AcDbEntity
  8
1
  6
Continuous
 62
     7
370
     9
100
AcDbLine
 10
302.7861277320553
 20
372.2698209481729
 30
0.0
 11
311.7861277320553
 21
372.2698209481729
 31
0.0
  0
LINE
  5
152
330
141
100
AcDbEntity
  8
1
  6
Continuous
 62
     7
370
     9
100
AcDbLine
 10
302.7861277320553
 20
374.6698209481729
 30
0.0
 11
311.7861277320553
 21
374.6698209481729
 31
0.0
  0
LINE
  5
153
330
141
100
AcDbEntity
  8
1
  6
Continuous
 62
     7
370
     9
100
AcDbLine
 10
302.7861277320553
 20
377.0698209481729
 30
0.0
 11
311.7861277320553
 21
377.0698209481729
 31
0.0
  0
LINE
  5
154
330
141
100
AcDbEntity
  8
1
  6
Continuous
 62
     7
370
     9
100
AcDbLine
 10
302.7861277320553
 20
379.4698209481729
 30
0.0
 11
311.7861277320553
 21
379.4698209481729
 31
0.0
  0
LINE
  5
155
330
141
100
AcDbEntity
  8
1
  6
Continuous
 62
     7
370
     9
100
AcDbLine
 10
302.7861277320553
 20
381.8698209481728
 30
0.0
 11
311.7861277320553
 21
381.8698209481728
 31
0.0
  0
LINE
  5
156
330
141
100
AcDbEntity
  8
1
  6
Continuous
 62
     7
370
     9
100
AcDbLine
 10
302.7861277320553
 20
384.2698209481728
 30
0.0
 11
311.7861277320553
 21
384.2698209481728
 31
0.0
  0
LINE
  5
157
330
141
100
AcDbEntity
  8
1
  6
Continuous
 62
     7
370
     9
100
AcDbLine
 10
302.7861277320553
 20
386.6698209481728
 30
0.0
 11
311.7861277320553
 21
386.6698209481728
 31
0.0
  0
LINE
  5
158
330
141
100
AcDbEntity
  8
1
  6
Continuous
 62
     7
370
     9
100
AcDbLine
 10
302.7861277320553
 20
389.0698209481728
 30
0.0
 11
311.7861277320553
 21
389.0698209481728
 31
0.0
  0
LINE
  5
159
330
141
100
AcDbEntity
  8
1
  6
Continuous
 62
     7
370
     9
100
AcDbLine
 10
302.7861277320553
 20
391.4698209481728
 30
0.0
 11
311.7861277320553
 21
391.4698209481728
 31
0.0
  0
LINE
  5
15A
330
141
100
AcDbEntity
  8
1
  6
Continuous
 62
     7
370
     9
100
AcDbLine
 10
302.7861277320553
 20
393.8698209481727
 30
0.0
 11
311.7861277320553
 21
393.8698209481727
 31
0.0
  0
LINE
  5
15B
330
141
100
AcDbEntity
  8
1
  6
Continuous
 62
     7
370
     9
100
AcDbLine
 10
302.7861277320553
 20
396.2698209481727
 30
0.0
 11
311.7861277320553
 21
396.2698209481727
 31
0.0
  0
LINE
  5
15C
330
141
100
AcDbEntity
  8
1
  6
Continuous
 62
     7
370
     9
100
AcDbLine
 10
302.7861277320553
 20
398.6698209481727
 30
0.0
 11
311.7861277320553
 21
398.6698209481727
 31
0.0
  0
LINE
  5
15D
330
141
100
AcDbEntity
  8
1
  6
Continuous
 62
     7
370
     9
100
AcDbLine
 10
302.7861277320553
 20
401.0698209481727
 30
0.0
 11
311.7861277320553
 21
401.0698209481727
 31
0.0
  0
LINE
  5
15E
330
141
100
AcDbEntity
  8
1
  6
Continuous
 62
     7
370
     9
100
AcDbLine
 10
302.7861277320553
 20
403.4698209481726
 30
0.0
 11
311.7861277320553
 21
403.4698209481726
 31
0.0
  0
LINE
  5
15F
330
141
100
AcDbEntity
  8
1
  6
Continuous
 62
     7
370
     9
100
AcDbLine
 10
302.7861277320553
 20
405.8698209481726
 30
0.0
 11
311.7861277320553
 21
405.8698209481726
 31
0.0
  0
LINE
  5
160
330
141
100
AcDbEntity
  8
1
  6
Continuous
 62
     7
370
     9
100
AcDbLine
 10
302.7861277320553
 20
408.2698209481726
 30
0.0
 11
311.7861277320553
 21
408.2698209481726
 31
0.0
  0
LINE
  5
161
330
141
100
AcDbEntity
  8
1
  6
Continuous
 62
     7
370
     9
100
AcDbLine
 10
302.7861277320553
 20
410.6698209481726
 30
0.0
 11
311.7861277320553
 21
410.6698209481726
 31
0.0
  0
LINE
  5
162
330
141
100
AcDbEntity
  8
1
  6
Continuous
 62
     7
370
     9
100
AcDbLine
 10
302.7861277320553
 20
413.0698209481725
 30
0.0
 11
311.7861277320553
 21
413.0698209481725
 31
0.0
  0
LINE
  5
163
330
141
100
AcDbEntity
  8
1
  6
Continuous
 62
     7
370
     9
100
AcDbLine
 10
302.7861277320553
 20
415.4698209481725
 30
0.0
 11
311.7861277320553
 21
415.4698209481725
 31
0.0
  0
LINE
  5
164
330
141
100
AcDbEntity
  8
1
  6
Continuous
 62
     7
370
     9
100
AcDbLine
 10
302.7861277320553
 20
417.8698209481725
 30
0.0
 11
311.7861277320553
 21
417.8698209481725
 31
0.0
  0
ENDBLK
  5
143
330
141
100
AcDbEntity
  8
0
100
AcDbBlockEnd
  0
BLOCK
  5
2A0
330
29F
100
AcDbEntity
  8
0
100
AcDbBlockBegin
  2
*G14
 70
     1
 71
     0
 10
0.0
 20
0.0
 30
0.0
  3
*G14
  1

  0
LINE
  5
2A2
330
29F
100
AcDbEntity
  8
1
  6
Continuous
 62
     7
370
     9
100
AcDbLine
 10
319.0679849191194
 20
275.5777966767252
 30
0.0
 11
319.0679849191194
 21
279.5752995521361
 31
0.0
  0
LINE
  5
2A3
330
29F
100
AcDbEntity
  8
1
  6
Continuous
 62
     7
370
     9
100
AcDbLine
 10
319.0679849191194
 20
275.5827909259029
 30
0.0
 11
322.5342464091635
 21
273.5790452390198
 31
0.0
  0
LINE
  5
2A4
330
29F
100
AcDbEntity
  8
1
  6
Continuous
 62
     7
370
     9
100
AcDbLine
 10
322.5342467153248
 20
281.5740509898416
 30
0.0
 11
326.0005082053691
 21
279.5752995521361
 31
0.0
  0
LINE
  5
2A5
330
29F
100
AcDbEntity
  8
1
  6
Continuous
 62
     7
370
     9
100
AcDbLine
 10
326.0005082053685
 20
275.5777966767252
 30
0.0
 11
326.0005082053685
 21
279.5752995521361
 31
0.0
  0
LINE
  5
2A6
330
29F
100
AcDbEntity
  8
1
  6
Continuous
 62
     7
370
     9
100
AcDbLine
 10
326.0005082053685
 20
275.5827909259029
 30
0.0
 11
322.5342467153243
 21
273.5790452390198
 31
0.0
  0
INSERT
  5
2AB
330
29F
100
AcDbEntity
  8
0
100
AcDbBlockReference
  2
*G15
 10
0.0
 20
0.0
 30
0.0
  0
ENDBLK
  5
2A1
330
29F
100
AcDbEntity
  8
0
100
AcDbBlockEnd
  0
BLOCK
  5
2A8
330
2A7
100
AcDbEntity
  8
0
100
AcDbBlockBegin
  2
*G15
 70
     1
 71
     0
 10
0.0
 20
0.0
 30
0.0
  3
*G15
  1

  0
LINE
  5
2AA
330
2A7
100
AcDbEntity
  8
1
  6
Continuous
 62
     7
370
     9
100
AcDbLine
 10
322.5342464091631
 20
281.5740509898416
 30
0.0
 11
319.0679849191188
 21
279.5752995521361
 31
0.0
  0
ENDBLK
  5
2A9
330
2A7
100
AcDbEntity
  8
0
100
AcDbBlockEnd
  0
BLOCK
  5
2AF
330
2AE
100
AcDbEntity
  8
0
100
AcDbBlockBegin
  2
*G16
 70
     1
 71
     0
 10
0.0
 20
0.0
 30
0.0
  3
*G16
  1

  0
LINE
  5
2B1
330
2AE
100
AcDbEntity
  8
1
  6
Continuous
 62
     7
370
     9
100
AcDbLine
 10
319.0679849191195
 20
238.718438835145
 30
0.0
 11
319.0679849191195
 21
242.7159417105559
 31
0.0
  0
LINE
  5
2B2
330
2AE
100
AcDbEntity
  8
1
  6
Continuous
 62
     7
370
     9
100
AcDbLine
 10
319.0679849191195
 20
238.7234330843226
 30
0.0
 11
322.5342464091636
 21
236.7196873974395
 31
0.0
  0
LINE
  5
2B3
330
2AE
100
AcDbEntity
  8
1
  6
Continuous
 62
     7
370
     9
100
AcDbLine
 10
322.5342467153249
 20
244.7146931482614
 30
0.0
 11
326.0005082053692
 21
242.7159417105559
 31
0.0
  0
LINE
  5
2B4
330
2AE
100
AcDbEntity
  8
1
  6
Continuous
 62
     7
370
     9
100
AcDbLine
 10
326.0005082053685
 20
238.718438835145
 30
0.0
 11
326.0005082053685
 21
242.7159417105559
 31
0.0
  0
LINE
  5
2B5
330
2AE
100
AcDbEntity
  8
1
  6
Continuous
 62
     7
370
     9
100
AcDbLine
 10
326.0005082053685
 20
238.7234330843226
 30
0.0
 11
322.5342467153244
 21
236.7196873974395
 31
0.0
  0
INSERT
  5
2BA
330
2AE
100
AcDbEntity
  8
0
100
AcDbBlockReference
  2
*G17
 10
0.0
 20
0.0
 30
0.0
  0
ENDBLK
  5
2B0
330
2AE
100
AcDbEntity
  8
0
100
AcDbBlockEnd
  0
BLOCK
  5
2B7
330
2B6
100
AcDbEntity
  8
0
100
AcDbBlockBegin
  2
*G17
 70
     1
 71
     0
 10
0.0
 20
0.0
 30
0.0
  3
*G17
  1

  0
LINE
  5
2B9
330
2B6
100
AcDbEntity
  8
1
  6
Continuous
 62
     7
370
     9
100
AcDbLine
 10
322.5342464091631
 20
244.7146931482614
 30
0.0
 11
319.0679849191188
 21
242.7159417105559
 31
0.0
  0
ENDBLK
  5
2B8
330
2B6
100
AcDbEntity
  8
0
100
AcDbBlockEnd
  0
BLOCK
  5
41C
330
41B
100
AcDbEntity
  8
0
100
AcDbBlockBegin
  2
Dim1
 70
     0
 71
     0
 10
0.0
 20
0.0
 30
0.0
  3
Dim1
  1

  0
LINE
  5
41E
330
41B
100
AcDbEntity
  8
1
  6
Continuous
 62
     7
370
     9
100
AcDbLine
 10
581.672360248447
 20
32.06561078915237
 30
0.0
 11
756.6723602484468
 21
32.06561078915237
 31
0.0
  0
LINE
  5
41F
330
41B
100
AcDbEntity
  8
1
  6
Continuous
 62
     7
370
     9
100
AcDbLine
 10
581.672360248447
 20
32.06561078915237
 30
0.0
 11
581.6723602484474
 21
71.96384205856228
 31
0.0
  0
LINE
  5
420
330
41B
100
AcDbEntity
  8
1
  6
Continuous
 62
     7
370
     9
100
AcDbLine
 10
756.6723602484468
 20
32.06561078915237
 30
0.0
 11
756.6723602484471
 21
71.96384205856228
 31
0.0
  0
LINE
  5
421
330
41B
100
AcDbEntity
  8
1
  6
Continuous
 62
     7
370
     9
100
AcDbLine
 10
581.672360248447
 20
32.06561078915237
 30
0.0
 11
584.5701377273142
 21
32.84206792445993
 31
0.0
  0
LINE
  5
422
330
41B
100
AcDbEntity
  8
1
  6
Continuous
 62
     7
370
     9
100
AcDbLine
 10
581.672360248447
 20
32.06561078915237
 30
0.0
 11
584.5701377273142
 21
31.2891536538448
 31
0.0
  0
LINE
  5
423
330
41B
100
AcDbEntity
  8
1
  6
Continuous
 62
     7
370
     9
100
AcDbLine
 10
584.5701377273142
 20
32.84206792445993
 30
0.0
 11
584.5701377273142
 21
31.2891536538448
 31
0.0
  0
LINE
  5
424
330
41B
100
AcDbEntity
  8
1
  6
Continuous
 62
     7
370
     9
100
AcDbLine
 10
582.3968046181639
 20
32.06561078915237
 30
0.0
 11
583.8456933575975
 21
32.45383935680615
 31
0.0
  0
LINE
  5
425
330
41B
100
AcDbEntity
  8
1
  6
Continuous
 62
     7
370
     9
100
AcDbLine
 10
582.3968046181639
 20
32.06561078915237
 30
0.0
 11
583.8456933575975
 21
31.67738222149859
 31
0.0
  0
LINE
  5
426
330
41B
100
AcDbEntity
  8
1
  6
Continuous
 62
     7
370
     9
100
AcDbLine
 10
583.8456933575975
 20
32.45383935680615
 30
0.0
 11
583.8456933575975
 21
31.67738222149859
 31
0.0
  0
LINE
  5
427
330
41B
100
AcDbEntity
  8
1
  6
Continuous
 62
     7
370
     9
100
AcDbLine
 10
756.6723602484468
 20
32.06561078915237
 30
0.0
 11
753.7745827695796
 21
31.28915365384481
 31
0.0
  0
LINE
  5
428
330
41B
100
AcDbEntity
  8
1
  6
Continuous
 62
     7
370
     9
100
AcDbLine
 10
756.6723602484468
 20
32.06561078915237
 30
0.0
 11
753.7745827695796
 21
32.84206792445994
 31
0.0
  0
LINE
  5
429
330
41B
100
AcDbEntity
  8
1
  6
Continuous
 62
     7
370
     9
100
AcDbLine
 10
753.7745827695796
 20
31.28915365384481
 30
0.0
 11
753.7745827695796
 21
32.84206792445994
 31
0.0
  0
LINE
  5
42A
330
41B
100
AcDbEntity
  8
1
  6
Continuous
 62
     7
370
     9
100
AcDbLine
 10
755.94791587873
 20
32.06561078915237
 30
0.0
 11
754.4990271392963
 21
31.67738222149859
 31
0.0
  0
LINE
  5
42B
330
41B
100
AcDbEntity
  8
1
  6
Continuous
 62
     7
370
     9
100
AcDbLine
 10
755.94791587873
 20
32.06561078915237
 30
0.0
 11
754.4990271392963
 21
32.45383935680615
 31
0.0
  0
LINE
  5
42C
330
41B
100
AcDbEntity
  8
1
  6
Continuous
 62
     7
370
     9
100
AcDbLine
 10
754.4990271392963
 20
31.67738222149859
 30
0.0
 11
754.4990271392963
 21
32.45383935680615
 31
0.0
  0
MTEXT
  5
42D
330
41B
100
AcDbEntity
  8
1
  6
Continuous
 62
     7
370
     9
100
AcDbMText
 10
669.1723602484469
 20
37.31561078915237
 30
0.0
 40
10.5
 41
0.0
 46
0.0
 71
     8
 72
     1
  1
175
 73
     1
 44
1.0
  0
ENDBLK
  5
41D
330
41B
100
AcDbEntity
  8
0
100
AcDbBlockEnd
  0
BLOCK
  5
430
330
42F
100
AcDbEntity
  8
0
100
AcDbBlockBegin
  2
Dim2
 70
     0
 71
     0
 10
0.0
 20
0.0
 30
0.0
  3
Dim2
  1

  0
LINE
  5
432
330
42F
100
AcDbEntity
  8
1
  6
Continuous
 62
     7
370
     9
100
AcDbLine
 10
669.1723602484473
 20
202.4824755989367
 30
0.0
 11
619.1723602484473
 21
202.4824755989367
 31
0.0
  0
LINE
  5
433
330
42F
100
AcDbEntity
  8
1
  6
Continuous
 62
     7
370
     9
100
AcDbLine
 10
669.1723602484473
 20
202.4824755989367
 30
0.0
 11
669.1723602484474
 21
225.1579674329006
 31
0.0
  0
LINE
  5
434
330
42F
100
AcDbEntity
  8
1
  6
Continuous
 62
     7
370
     9
100
AcDbLine
 10
619.1723602484473
 20
202.4824755989367
 30
0.0
 11
619.1723602484474
 21
225.1579674329006
 31
0.0
  0
LINE
  5
435
330
42F
100
AcDbEntity
  8
1
  6
Continuous
 62
     7
370
     9
100
AcDbLine
 10
669.1723602484473
 20
202.4824755989367
 30
0.0
 11
666.2745827695801
 21
201.7060184636291
 31
0.0
  0
LINE
  5
436
330
42F
100
AcDbEntity
  8
1
  6
Continuous
 62
     7
370
     9
100
AcDbLine
 10
669.1723602484473
 20
202.4824755989367
 30
0.0
 11
666.2745827695801
 21
203.2589327342442
 31
0.0
  0
LINE
  5
437
330
42F
100
AcDbEntity
  8
1
  6
Continuous
 62
     7
370
     9
100
AcDbLine
 10
666.2745827695801
 20
201.7060184636291
 30
0.0
 11
666.2745827695801
 21
203.2589327342442
 31
0.0
  0
LINE
  5
438
330
42F
100
AcDbEntity
  8
1
  6
Continuous
 62
     7
370
     9
100
AcDbLine
 10
668.4479158787304
 20
202.4824755989367
 30
0.0
 11
666.9990271392968
 21
202.0942470312829
 31
0.0
  0
LINE
  5
439
330
42F
100
AcDbEntity
  8
1
  6
Continuous
 62
     7
370
     9
100
AcDbLine
 10
668.4479158787304
 20
202.4824755989367
 30
0.0
 11
666.9990271392968
 21
202.8707041665905
 31
0.0
  0
LINE
  5
43A
330
42F
100
AcDbEntity
  8
1
  6
Continuous
 62
     7
370
     9
100
AcDbLine
 10
666.9990271392968
 20
202.0942470312829
 30
0.0
 11
666.9990271392968
 21
202.8707041665905
 31
0.0
  0
LINE
  5
43B
330
42F
100
AcDbEntity
  8
1
  6
Continuous
 62
     7
370
     9
100
AcDbLine
 10
619.1723602484473
 20
202.4824755989367
 30
0.0
 11
622.0701377273144
 21
203.2589327342442
 31
0.0
  0
LINE
  5
43C
330
42F
100
AcDbEntity
  8
1
  6
Continuous
 62
     7
370
     9
100
AcDbLine
 10
619.1723602484473
 20
202.4824755989367
 30
0.0
 11
622.0701377273144
 21
201.7060184636291
 31
0.0
  0
LINE
  5
43D
330
42F
100
AcDbEntity
  8
1
  6
Continuous
 62
     7
370
     9
100
AcDbLine
 10
622.0701377273144
 20
203.2589327342442
 30
0.0
 11
622.0701377273144
 21
201.7060184636291
 31
0.0
  0
LINE
  5
43E
330
42F
100
AcDbEntity
  8
1
  6
Continuous
 62
     7
370
     9
100
AcDbLine
 10
619.8968046181641
 20
202.4824755989367
 30
0.0
 11
621.3456933575977
 21
202.8707041665905
 31
0.0
  0
LINE
  5
43F
330
42F
100
AcDbEntity
  8
1
  6
Continuous
 62
     7
370
     9
100
AcDbLine
 10
619.8968046181641
 20
202.4824755989367
 30
0.0
 11
621.3456933575977
 21
202.0942470312829
 31
0.0
  0
LINE
  5
440
330
42F
100
AcDbEntity
  8
1
  6
Continuous
 62
     7
370
     9
100
AcDbLine
 10
621.3456933575977
 20
202.8707041665905
 30
0.0
 11
621.3456933575977
 21
202.0942470312829
 31
0.0
  0
MTEXT
  5
441
330
42F
100
AcDbEntity
  8
1
  6
Continuous
 62
     7
370
     9
100
AcDbMText
 10
644.1723602484474
 20
207.7324755989367
 30
0.0
 40
10.5
 41
0.0
 46
0.0
 71
     8
 72
     1
  1
50
 73
     1
 44
1.0
  0
ENDBLK
  5
431
330
42F
100
AcDbEntity
  8
0
100
AcDbBlockEnd
  0
BLOCK
  5
444
330
443
100
AcDbEntity
  8
0
100
AcDbBlockBegin
  2
Dim3
 70
     0
 71
     0
 10
0.0
 20
0.0
 30
0.0
  3
Dim3
  1

  0
LINE
  5
446
330
443
100
AcDbEntity
  8
1
  6
Continuous
 62
     7
370
     9
100
AcDbLine
 10
669.1723602484473
 20
202.4824755989367
 30
0.0
 11
719.1723602484473
 21
202.4824755989367
 31
0.0
  0
LINE
  5
447
330
443
100
AcDbEntity
  8
1
  6
Continuous
 62
     7
370
     9
100
AcDbLine
 10
669.1723602484473
 20
202.4824755989367
 30
0.0
 11
669.1723602484474
 21
225.1579674329006
 31
0.0
  0
LINE
  5
448
330
443
100
AcDbEntity
  8
1
  6
Continuous
 62
     7
370
     9
100
AcDbLine
 10
719.1723602484473
 20
202.4824755989367
 30
0.0
 11
719.1723602484474
 21
225.1579674329006
 31
0.0
  0
LINE
  5
449
330
443
100
AcDbEntity
  8
1
  6
Continuous
 62
     7
370
     9
100
AcDbLine
 10
669.1723602484473
 20
202.4824755989367
 30
0.0
 11
672.0701377273144
 21
203.2589327342442
 31
0.0
  0
LINE
  5
44A
330
443
100
AcDbEntity
  8
1
  6
Continuous
 62
     7
370
     9
100
AcDbLine
 10
669.1723602484473
 20
202.4824755989367
 30
0.0
 11
672.0701377273144
 21
201.7060184636291
 31
0.0
  0
LINE
  5
44B
330
443
100
AcDbEntity
  8
1
  6
Continuous
 62
     7
370
     9
100
AcDbLine
 10
672.0701377273144
 20
203.2589327342442
 30
0.0
 11
672.0701377273144
 21
201.7060184636291
 31
0.0
  0
LINE
  5
44C
330
443
100
AcDbEntity
  8
1
  6
Continuous
 62
     7
370
     9
100
AcDbLine
 10
669.8968046181641
 20
202.4824755989367
 30
0.0
 11
671.3456933575977
 21
202.8707041665905
 31
0.0
  0
LINE
  5
44D
330
443
100
AcDbEntity
  8
1
  6
Continuous
 62
     7
370
     9
100
AcDbLine
 10
669.8968046181641
 20
202.4824755989367
 30
0.0
 11
671.3456933575977
 21
202.0942470312829
 31
0.0
  0
LINE
  5
44E
330
443
100
AcDbEntity
  8
1
  6
Continuous
 62
     7
370
     9
100
AcDbLine
 10
671.3456933575977
 20
202.8707041665905
 30
0.0
 11
671.3456933575977
 21
202.0942470312829
 31
0.0
  0
LINE
  5
44F
330
443
100
AcDbEntity
  8
1
  6
Continuous
 62
     7
370
     9
100
AcDbLine
 10
719.1723602484473
 20
202.4824755989367
 30
0.0
 11
716.2745827695801
 21
201.7060184636291
 31
0.0
  0
LINE
  5
450
330
443
100
AcDbEntity
  8
1
  6
Continuous
 62
     7
370
     9
100
AcDbLine
 10
719.1723602484473
 20
202.4824755989367
 30
0.0
 11
716.2745827695801
 21
203.2589327342442
 31
0.0
  0
LINE
  5
451
330
443
100
AcDbEntity
  8
1
  6
Continuous
 62
     7
370
     9
100
AcDbLine
 10
716.2745827695801
 20
201.7060184636291
 30
0.0
 11
716.2745827695801
 21
203.2589327342442
 31
0.0
  0
LINE
  5
452
330
443
100
AcDbEntity
  8
1
  6
Continuous
 62
     7
370
     9
100
AcDbLine
 10
718.4479158787304
 20
202.4824755989367
 30
0.0
 11
716.9990271392968
 21
202.0942470312829
 31
0.0
  0
LINE
  5
453
330
443
100
AcDbEntity
  8
1
  6
Continuous
 62
     7
370
     9
100
AcDbLine
 10
718.4479158787304
 20
202.4824755989367
 30
0.0
 11
716.9990271392968
 21
202.8707041665905
 31
0.0
  0
LINE
  5
454
330
443
100
AcDbEntity
  8
1
  6
Continuous
 62
     7
370
     9
100
AcDbLine
 10
716.9990271392968
 20
202.0942470312829
 30
0.0
 11
716.9990271392968
 21
202.8707041665905
 31
0.0
  0
MTEXT
  5
455
330
443
100
AcDbEntity
  8
1
  6
Continuous
 62
     7
370
     9
100
AcDbMText
 10
694.1723602484474
 20
207.7324755989367
 30
0.0
 40
10.5
 41
0.0
 46
0.0
 71
     8
 72
     1
  1
50
 73
     1
 44
1.0
  0
ENDBLK
  5
445
330
443
100
AcDbEntity
  8
0
100
AcDbBlockEnd
  0
BLOCK
  5
458
330
457
100
AcDbEntity
  8
0
100
AcDbBlockBegin
  2
Dim4
 70
     0
 71
     0
 10
0.0
 20
0.0
 30
0.0
  3
Dim4
  1

  0
LINE
  5
45A
330
457
100
AcDbEntity
  8
1
  6
Continuous
 62
     7
370
     9
100
AcDbLine
 10
630.1723602484474
 20
442.757320319437
 30
0.0
 11
708.1723602484474
 21
442.757320319437
 31
0.0
  0
LINE
  5
45B
330
457
100
AcDbEntity
  8
1
  6
Continuous
 62
     7
370
     9
100
AcDbLine
 10
630.1723602484474
 20
442.757320319437
 30
0.0
 11
630.1723602484473
 21
384.7078481935773
 31
0.0
  0
LINE
  5
45C
330
457
100
AcDbEntity
  8
1
  6
Continuous
 62
     7
370
     9
100
AcDbLine
 10
708.1723602484474
 20
442.757320319437
 30
0.0
 11
708.1723602484473
 21
384.019160381548
 31
0.0
  0
LINE
  5
45D
330
457
100
AcDbEntity
  8
1
  6
Continuous
 62
     7
370
     9
100
AcDbLine
 10
630.1723602484474
 20
442.757320319437
 30
0.0
 11
633.0701377273145
 21
443.5337774547446
 31
0.0
  0
LINE
  5
45E
330
457
100
AcDbEntity
  8
1
  6
Continuous
 62
     7
370
     9
100
AcDbLine
 10
630.1723602484474
 20
442.757320319437
 30
0.0
 11
633.0701377273145
 21
441.9808631841295
 31
0.0
  0
LINE
  5
45F
330
457
100
AcDbEntity
  8
1
  6
Continuous
 62
     7
370
     9
100
AcDbLine
 10
633.0701377273145
 20
443.5337774547446
 30
0.0
 11
633.0701377273145
 21
441.9808631841295
 31
0.0
  0
LINE
  5
460
330
457
100
AcDbEntity
  8
1
  6
Continuous
 62
     7
370
     9
100
AcDbLine
 10
630.8968046181642
 20
442.757320319437
 30
0.0
 11
632.3456933575978
 21
443.1455488870908
 31
0.0
  0
LINE
  5
461
330
457
100
AcDbEntity
  8
1
  6
Continuous
 62
     7
370
     9
100
AcDbLine
 10
630.8968046181642
 20
442.757320319437
 30
0.0
 11
632.3456933575978
 21
442.3690917517833
 31
0.0
  0
LINE
  5
462
330
457
100
AcDbEntity
  8
1
  6
Continuous
 62
     7
370
     9
100
AcDbLine
 10
632.3456933575978
 20
443.1455488870908
 30
0.0
 11
632.3456933575978
 21
442.3690917517833
 31
0.0
  0
LINE
  5
463
330
457
100
AcDbEntity
  8
1
  6
Continuous
 62
     7
370
     9
100
AcDbLine
 10
708.1723602484474
 20
442.757320319437
 30
0.0
 11
705.2745827695802
 21
441.9808631841295
 31
0.0
  0
LINE
  5
464
330
457
100
AcDbEntity
  8
1
  6
Continuous
 62
     7
370
     9
100
AcDbLine
 10
708.1723602484474
 20
442.757320319437
 30
0.0
 11
705.2745827695802
 21
443.5337774547446
 31
0.0
  0
LINE
  5
465
330
457
100
AcDbEntity
  8
1
  6
Continuous
 62
     7
370
     9
100
AcDbLine
 10
705.2745827695802
 20
441.9808631841295
 30
0.0
 11
705.2745827695802
 21
443.5337774547446
 31
0.0
  0
LINE
  5
466
330
457
100
AcDbEntity
  8
1
  6
Continuous
 62
     7
370
     9
100
AcDbLine
 10
707.4479158787306
 20
442.757320319437
 30
0.0
 11
705.9990271392969
 21
442.3690917517833
 31
0.0
  0
LINE
  5
467
330
457
100
AcDbEntity
  8
1
  6
Continuous
 62
     7
370
     9
100
AcDbLine
 10
707.4479158787306
 20
442.757320319437
 30
0.0
 11
705.9990271392969
 21
443.1455488870909
 31
0.0
  0
LINE
  5
468
330
457
100
AcDbEntity
  8
1
  6
Continuous
 62
     7
370
     9
100
AcDbLine
 10
705.9990271392969
 20
442.3690917517833
 30
0.0
 11
705.9990271392969
 21
443.1455488870909
 31
0.0
  0
MTEXT
  5
469
330
457
100
AcDbEntity
  8
1
  6
Continuous
 62
     7
370
     9
100
AcDbMText
 10
669.1723602484474
 20
448.007320319437
 30
0.0
 40
10.5
 41
0.0
 46
0.0
 71
     8
 72
     1
  1
78
 73
     1
 44
1.0
  0
ENDBLK
  5
459
330
457
100
AcDbEntity
  8
0
100
AcDbBlockEnd
  0
BLOCK
  5
46C
330
46B
100
AcDbEntity
  8
0
100
AcDbBlockBegin
  2
Dim5
 70
     0
 71
     0
 10
0.0
 20
0.0
 30
0.0
  3
Dim5
  1

  0
LINE
  5
46E
330
46B
100
AcDbEntity
  8
1
  6
Continuous
 62
     7
370
     9
100
AcDbLine
 10
441.4636647493546
 20
32.06561078915313
 30
0.0
 11
101.4636647493546
 21
32.06561078915313
 31
0.0
  0
LINE
  5
46F
330
46B
100
AcDbEntity
  8
1
  6
Continuous
 62
     7
370
     9
100
AcDbLine
 10
441.4636647493546
 20
32.06561078915313
 30
0.0
 11
441.4636647493548
 21
52.57904523901963
 31
0.0
  0
LINE
  5
470
330
46B
100
AcDbEntity
  8
1
  6
Continuous
 62
     7
370
     9
100
AcDbLine
 10
101.4636647493546
 20
32.06561078915313
 30
0.0
 11
101.4636647493548
 21
52.57904523901963
 31
0.0
  0
LINE
  5
471
330
46B
100
AcDbEntity
  8
1
  6
Continuous
 62
     7
370
     9
100
AcDbLine
 10
441.4636647493546
 20
32.06561078915313
 30
0.0
 11
438.5658872704874
 21
31.28915365384558
 31
0.0
  0
LINE
  5
472
330
46B
100
AcDbEntity
  8
1
  6
Continuous
 62
     7
370
     9
100
AcDbLine
 10
441.4636647493546
 20
32.06561078915313
 30
0.0
 11
438.5658872704874
 21
32.84206792446071
 31
0.0
  0
LINE
  5
473
330
46B
100
AcDbEntity
  8
1
  6
Continuous
 62
     7
370
     9
100
AcDbLine
 10
438.5658872704874
 20
31.28915365384558
 30
0.0
 11
438.5658872704874
 21
32.84206792446071
 31
0.0
  0
LINE
  5
474
330
46B
100
AcDbEntity
  8
1
  6
Continuous
 62
     7
370
     9
100
AcDbLine
 10
440.7392203796378
 20
32.06561078915313
 30
0.0
 11
439.2903316402042
 21
31.67738222149936
 31
0.0
  0
LINE
  5
475
330
46B
100
AcDbEntity
  8
1
  6
Continuous
 62
     7
370
     9
100
AcDbLine
 10
440.7392203796378
 20
32.06561078915313
 30
0.0
 11
439.2903316402042
 21
32.45383935680692
 31
0.0
  0
LINE
  5
476
330
46B
100
AcDbEntity
  8
1
  6
Continuous
 62
     7
370
     9
100
AcDbLine
 10
439.2903316402042
 20
31.67738222149936
 30
0.0
 11
439.2903316402042
 21
32.45383935680692
 31
0.0
  0
LINE
  5
477
330
46B
100
AcDbEntity
  8
1
  6
Continuous
 62
     7
370
     9
100
AcDbLine
 10
101.4636647493546
 20
32.06561078915313
 30
0.0
 11
104.3614422282218
 21
32.84206792446069
 31
0.0
  0
LINE
  5
478
330
46B
100
AcDbEntity
  8
1
  6
Continuous
 62
     7
370
     9
100
AcDbLine
 10
101.4636647493546
 20
32.06561078915313
 30
0.0
 11
104.3614422282218
 21
31.28915365384557
 31
0.0
  0
LINE
  5
479
330
46B
100
AcDbEntity
  8
1
  6
Continuous
 62
     7
370
     9
100
AcDbLine
 10
104.3614422282218
 20
32.84206792446069
 30
0.0
 11
104.3614422282218
 21
31.28915365384557
 31
0.0
  0
LINE
  5
47A
330
46B
100
AcDbEntity
  8
1
  6
Continuous
 62
     7
370
     9
100
AcDbLine
 10
102.1881091190714
 20
32.06561078915313
 30
0.0
 11
103.636997858505
 21
32.45383935680692
 31
0.0
  0
LINE
  5
47B
330
46B
100
AcDbEntity
  8
1
  6
Continuous
 62
     7
370
     9
100
AcDbLine
 10
102.1881091190714
 20
32.06561078915313
 30
0.0
 11
103.636997858505
 21
31.67738222149935
 31
0.0
  0
LINE
  5
47C
330
46B
100
AcDbEntity
  8
1
  6
Continuous
 62
     7
370
     9
100
AcDbLine
 10
103.636997858505
 20
32.45383935680692
 30
0.0
 11
103.636997858505
 21
31.67738222149935
 31
0.0
  0
MTEXT
  5
47D
330
46B
100
AcDbEntity
  8
1
  6
Continuous
 62
     7
370
     9
100
AcDbMText
 10
271.4636647493546
 20
37.31561078915313
 30
0.0
 40
10.5
 41
0.0
 46
0.0
 71
     8
 72
     1
  1
340
 73
     1
 44
1.0
  0
ENDBLK
  5
46D
330
46B
100
AcDbEntity
  8
0
100
AcDbBlockEnd
  0
BLOCK
  5
480
330
47F
100
AcDbEntity
  8
0
100
AcDbBlockBegin
  2
Dim6
 70
     0
 71
     0
 10
0.0
 20
0.0
 30
0.0
  3
Dim6
  1

  0
LINE
  5
482
330
47F
100
AcDbEntity
  8
1
  6
Continuous
 62
     7
370
     9
100
AcDbLine
 10
240.1273784007592
 20
161.7725207270412
 30
0.0
 11
321.1273784007595
 21
161.7725207270412
 31
0.0
  0
LINE
  5
483
330
47F
100
AcDbEntity
  8
1
  6
Continuous
 62
     7
370
     9
100
AcDbLine
 10
240.1273784007592
 20
161.7725207270412
 30
0.0
 11
240.1273784007597
 21
215.5790452390196
 31
0.0
  0
LINE
  5
484
330
47F
100
AcDbEntity
  8
1
  6
Continuous
 62
     7
370
     9
100
AcDbLine
 10
321.1273784007595
 20
161.7725207270412
 30
0.0
 11
321.1273784007597
 21
182.0597878077865
 31
0.0
  0
LINE
  5
485
330
47F
100
AcDbEntity
  8
1
  6
Continuous
 62
     7
370
     9
100
AcDbLine
 10
240.1273784007592
 20
161.7725207270412
 30
0.0
 11
243.0251558796264
 21
162.5489778623487
 31
0.0
  0
LINE
  5
486
330
47F
100
AcDbEntity
  8
1
  6
Continuous
 62
     7
370
     9
100
AcDbLine
 10
240.1273784007592
 20
161.7725207270412
 30
0.0
 11
243.0251558796264
 21
160.9960635917336
 31
0.0
  0
LINE
  5
487
330
47F
100
AcDbEntity
  8
1
  6
Continuous
 62
     7
370
     9
100
AcDbLine
 10
243.0251558796264
 20
162.5489778623487
 30
0.0
 11
243.0251558796264
 21
160.9960635917336
 31
0.0
  0
LINE
  5
488
330
47F
100
AcDbEntity
  8
1
  6
Continuous
 62
     7
370
     9
100
AcDbLine
 10
240.851822770476
 20
161.7725207270412
 30
0.0
 11
242.3007115099096
 21
162.160749294695
 31
0.0
  0
LINE
  5
489
330
47F
100
AcDbEntity
  8
1
  6
Continuous
 62
     7
370
     9
100
AcDbLine
 10
240.851822770476
 20
161.7725207270412
 30
0.0
 11
242.3007115099096
 21
161.3842921593874
 31
0.0
  0
LINE
  5
48A
330
47F
100
AcDbEntity
  8
1
  6
Continuous
 62
     7
370
     9
100
AcDbLine
 10
242.3007115099096
 20
162.160749294695
 30
0.0
 11
242.3007115099096
 21
161.3842921593874
 31
0.0
  0
LINE
  5
48B
330
47F
100
AcDbEntity
  8
1
  6
Continuous
 62
     7
370
     9
100
AcDbLine
 10
321.1273784007595
 20
161.7725207270412
 30
0.0
 11
318.2296009218923
 21
160.9960635917336
 31
0.0
  0
LINE
  5
48C
330
47F
100
AcDbEntity
  8
1
  6
Continuous
 62
     7
370
     9
100
AcDbLine
 10
321.1273784007595
 20
161.7725207270412
 30
0.0
 11
318.2296009218923
 21
162.5489778623487
 31
0.0
  0
LINE
  5
48D
330
47F
100
AcDbEntity
  8
1
  6
Continuous
 62
     7
370
     9
100
AcDbLine
 10
318.2296009218923
 20
160.9960635917336
 30
0.0
 11
318.2296009218923
 21
162.5489778623487
 31
0.0
  0
LINE
  5
48E
330
47F
100
AcDbEntity
  8
1
  6
Continuous
 62
     7
370
     9
100
AcDbLine
 10
320.4029340310427
 20
161.7725207270412
 30
0.0
 11
318.9540452916091
 21
161.3842921593874
 31
0.0
  0
LINE
  5
48F
330
47F
100
AcDbEntity
  8
1
  6
Continuous
 62
     7
370
     9
100
AcDbLine
 10
320.4029340310427
 20
161.7725207270412
 30
0.0
 11
318.9540452916091
 21
162.160749294695
 31
0.0
  0
LINE
  5
490
330
47F
100
AcDbEntity
  8
1
  6
Continuous
 62
     7
370
     9
100
AcDbLine
 10
318.9540452916091
 20
161.3842921593874
 30
0.0
 11
318.9540452916091
 21
162.160749294695
 31
0.0
  0
MTEXT
  5
491
330
47F
100
AcDbEntity
  8
1
  6
Continuous
 62
     7
370
     9
100
AcDbMText
 10
280.6273784007594
 20
167.0225207270412
 30
0.0
 40
10.5
 41
0.0
 46
0.0
 71
     8
 72
     1
  1
81
 73
     1
 44
1.0
  0
ENDBLK
  5
481
330
47F
100
AcDbEntity
  8
0
100
AcDbBlockEnd
  0
BLOCK
  5
494
330
493
100
AcDbEntity
  8
0
100
AcDbBlockBegin
  2
Dim7
 70
     0
 71
     0
 10
0.0
 20
0.0
 30
0.0
  3
Dim7
  1

  0
LINE
  5
496
330
493
100
AcDbEntity
  8
1
  6
Continuous
 62
     7
370
     9
100
AcDbLine
 10
225.2273784007596
 20
177.7697062860473
 30
0.0
 11
255.0273784007595
 21
177.7697062860473
 31
0.0
  0
LINE
  5
497
330
493
100
AcDbEntity
  8
1
  6
Continuous
 62
     7
370
     9
100
AcDbLine
 10
225.2273784007596
 20
177.7697062860473
 30
0.0
 11
225.2273784007596
 21
186.066290136979
 31
0.0
  0
LINE
  5
498
330
493
100
AcDbEntity
  8
1
  6
Continuous
 62
     7
370
     9
100
AcDbLine
 10
255.0273784007595
 20
177.7697062860473
 30
0.0
 11
255.0273784007596
 21
185.8357000748672
 31
0.0
  0
LINE
  5
499
330
493
100
AcDbEntity
  8
1
  6
Continuous
 62
     7
370
     9
100
AcDbLine
 10
225.2273784007596
 20
177.7697062860473
 30
0.0
 11
228.1251558796268
 21
178.5461634213549
 31
0.0
  0
LINE
  5
49A
330
493
100
AcDbEntity
  8
1
  6
Continuous
 62
     7
370
     9
100
AcDbLine
 10
225.2273784007596
 20
177.7697062860473
 30
0.0
 11
228.1251558796268
 21
176.9932491507398
 31
0.0
  0
LINE
  5
49B
330
493
100
AcDbEntity
  8
1
  6
Continuous
 62
     7
370
     9
100
AcDbLine
 10
228.1251558796268
 20
178.5461634213549
 30
0.0
 11
228.1251558796268
 21
176.9932491507398
 31
0.0
  0
LINE
  5
49C
330
493
100
AcDbEntity
  8
1
  6
Continuous
 62
     7
370
     9
100
AcDbLine
 10
225.9518227704764
 20
177.7697062860473
 30
0.0
 11
227.40071150991
 21
178.1579348537011
 31
0.0
  0
LINE
  5
49D
330
493
100
AcDbEntity
  8
1
  6
Continuous
 62
     7
370
     9
100
AcDbLine
 10
225.9518227704764
 20
177.7697062860473
 30
0.0
 11
227.40071150991
 21
177.3814777183935
 31
0.0
  0
LINE
  5
49E
330
493
100
AcDbEntity
  8
1
  6
Continuous
 62
     7
370
     9
100
AcDbLine
 10
227.40071150991
 20
178.1579348537011
 30
0.0
 11
227.40071150991
 21
177.3814777183935
 31
0.0
  0
LINE
  5
49F
330
493
100
AcDbEntity
  8
1
  6
Continuous
 62
     7
370
     9
100
AcDbLine
 10
255.0273784007595
 20
177.7697062860473
 30
0.0
 11
252.1296009218923
 21
176.9932491507398
 31
0.0
  0
LINE
  5
4A0
330
493
100
AcDbEntity
  8
1
  6
Continuous
 62
     7
370
     9
100
AcDbLine
 10
255.0273784007595
 20
177.7697062860473
 30
0.0
 11
252.1296009218923
 21
178.5461634213549
 31
0.0
  0
LINE
  5
4A1
330
493
100
AcDbEntity
  8
1
  6
Continuous
 62
     7
370
     9
100
AcDbLine
 10
252.1296009218923
 20
176.9932491507398
 30
0.0
 11
252.1296009218923
 21
178.5461634213549
 31
0.0
  0
LINE
  5
4A2
330
493
100
AcDbEntity
  8
1
  6
Continuous
 62
     7
370
     9
100
AcDbLine
 10
254.3029340310427
 20
177.7697062860473
 30
0.0
 11
252.8540452916091
 21
177.3814777183935
 31
0.0
  0
LINE
  5
4A3
330
493
100
AcDbEntity
  8
1
  6
Continuous
 62
     7
370
     9
100
AcDbLine
 10
254.3029340310427
 20
177.7697062860473
 30
0.0
 11
252.8540452916091
 21
178.1579348537011
 31
0.0
  0
LINE
  5
4A4
330
493
100
AcDbEntity
  8
1
  6
Continuous
 62
     7
370
     9
100
AcDbLine
 10
252.8540452916091
 20
177.3814777183935
 30
0.0
 11
252.8540452916091
 21
178.1579348537011
 31
0.0
  0
MTEXT
  5
4A5
330
493
100
AcDbEntity
  8
1
  6
Continuous
 62
     7
370
     9
100
AcDbMText
 10
240.1273784007595
 20
183.0197062860473
 30
0.0
 40
10.5
 41
0.0
 46
0.0
 71
     8
 72
     1
  1
30φ
 73
     1
 44
1.0
  0
ENDBLK
  5
495
330
493
100
AcDbEntity
  8
0
100
AcDbBlockEnd
  0
BLOCK
  5
4A8
330
4A7
100
AcDbEntity
  8
0
100
AcDbBlockBegin
  2
Dim8
 70
     0
 71
     0
 10
0.0
 20
0.0
 30
0.0
  3
Dim8
  1

  0
LINE
  5
4AA
330
4A7
100
AcDbEntity
  8
1
  6
Continuous
 62
     7
370
     9
100
AcDbLine
 10
321.1273784007596
 20
161.7725207270412
 30
0.0
 11
328.1273784007597
 21
161.7725207270412
 31
0.0
  0
LINE
  5
4AB
330
4A7
100
AcDbEntity
  8
1
  6
Continuous
 62
     7
370
     9
100
AcDbLine
 10
321.1273784007596
 20
161.7725207270412
 30
0.0
 11
321.1273784007596
 21
166.8984912239358
 31
0.0
  0
LINE
  5
4AC
330
4A7
100
AcDbEntity
  8
1
  6
Continuous
 62
     7
370
     9
100
AcDbLine
 10
328.1273784007597
 20
161.7725207270412
 30
0.0
 11
328.1273784007597
 21
167.820851472383
 31
0.0
  0
LINE
  5
4AD
330
4A7
100
AcDbEntity
  8
1
  6
Continuous
 62
     7
370
     9
100
AcDbLine
 10
321.1273784007596
 20
161.7725207270412
 30
0.0
 11
318.2296009218924
 21
160.9960635917336
 31
0.0
  0
LINE
  5
4AE
330
4A7
100
AcDbEntity
  8
1
  6
Continuous
 62
     7
370
     9
100
AcDbLine
 10
321.1273784007596
 20
161.7725207270412
 30
0.0
 11
318.2296009218924
 21
162.5489778623487
 31
0.0
  0
LINE
  5
4AF
330
4A7
100
AcDbEntity
  8
1
  6
Continuous
 62
     7
370
     9
100
AcDbLine
 10
318.2296009218924
 20
160.9960635917336
 30
0.0
 11
318.2296009218924
 21
162.5489778623487
 31
0.0
  0
LINE
  5
4B0
330
4A7
100
AcDbEntity
  8
1
  6
Continuous
 62
     7
370
     9
100
AcDbLine
 10
320.4029340310428
 20
161.7725207270412
 30
0.0
 11
318.9540452916092
 21
161.3842921593874
 31
0.0
  0
LINE
  5
4B1
330
4A7
100
AcDbEntity
  8
1
  6
Continuous
 62
     7
370
     9
100
AcDbLine
 10
320.4029340310428
 20
161.7725207270412
 30
0.0
 11
318.9540452916092
 21
162.160749294695
 31
0.0
  0
LINE
  5
4B2
330
4A7
100
AcDbEntity
  8
1
  6
Continuous
 62
     7
370
     9
100
AcDbLine
 10
318.9540452916092
 20
161.3842921593874
 30
0.0
 11
318.9540452916092
 21
162.160749294695
 31
0.0
  0
LINE
  5
4B3
330
4A7
100
AcDbEntity
  8
1
  6
Continuous
 62
     7
370
     9
100
AcDbLine
 10
328.1273784007597
 20
161.7725207270412
 30
0.0
 11
331.0251558796269
 21
162.5489778623487
 31
0.0
  0
LINE
  5
4B4
330
4A7
100
AcDbEntity
  8
1
  6
Continuous
 62
     7
370
     9
100
AcDbLine
 10
328.1273784007597
 20
161.7725207270412
 30
0.0
 11
331.0251558796269
 21
160.9960635917336
 31
0.0
  0
LINE
  5
4B5
330
4A7
100
AcDbEntity
  8
1
  6
Continuous
 62
     7
370
     9
100
AcDbLine
 10
331.0251558796269
 20
162.5489778623487
 30
0.0
 11
331.0251558796269
 21
160.9960635917336
 31
0.0
  0
LINE
  5
4B6
330
4A7
100
AcDbEntity
  8
1
  6
Continuous
 62
     7
370
     9
100
AcDbLine
 10
328.8518227704765
 20
161.7725207270412
 30
0.0
 11
330.3007115099101
 21
162.160749294695
 31
0.0
  0
LINE
  5
4B7
330
4A7
100
AcDbEntity
  8
1
  6
Continuous
 62
     7
370
     9
100
AcDbLine
 10
328.8518227704765
 20
161.7725207270412
 30
0.0
 11
330.3007115099101
 21
161.3842921593874
 31
0.0
  0
LINE
  5
4B8
330
4A7
100
AcDbEntity
  8
1
  6
Continuous
 62
     7
370
     9
100
AcDbLine
 10
330.3007115099101
 20
162.160749294695
 30
0.0
 11
330.3007115099101
 21
161.3842921593874
 31
0.0
  0
MTEXT
  5
4B9
330
4A7
100
AcDbEntity
  8
1
  6
Continuous
 62
     7
370
     9
100
AcDbMText
 10
324.6273784007597
 20
167.0225207270412
 30
0.0
 40
10.5
 41
0.0
 46
0.0
 71
     8
 72
     1
  1
/2
 73
     1
 44
1.0
  0
ENDBLK
  5
4A9
330
4A7
100
AcDbEntity
  8
0
100
AcDbBlockEnd
  0
BLOCK
  5
4BC
330
4BB
100
AcDbEntity
  8
0
100
AcDbBlockBegin
  2
Dim9
 70
     0
 71
     0
 10
0.0
 20
0.0
 30
0.0
  3
Dim9
  1

  0
LINE
  5
4BE
330
4BB
100
AcDbEntity
  8
1
  6
Continuous
 62
     7
370
     9
100
AcDbLine
 10
328.1273784007595
 20
161.7725207270412
 30
0.0
 11
348.1273784007595
 21
161.7725207270412
 31
0.0
  0
LINE
  5
4BF
330
4BB
100
AcDbEntity
  8
1
  6
Continuous
 62
     7
370
     9
100
AcDbLine
 10
328.1273784007595
 20
161.7725207270412
 30
0.0
 11
328.1273784007597
 21
176.2373887394637
 31
0.0
  0
LINE
  5
4C0
330
4BB
100
AcDbEntity
  8
1
  6
Continuous
 62
     7
370
     9
100
AcDbLine
 10
348.1273784007595
 20
161.7725207270412
 30
0.0
 11
348.1273784007597
 21
174.5079632736252
 31
0.0
  0
LINE
  5
4C1
330
4BB
100
AcDbEntity
  8
1
  6
Continuous
 62
     7
370
     9
100
AcDbLine
 10
328.1273784007595
 20
161.7725207270412
 30
0.0
 11
331.0251558796268
 21
162.5489778623487
 31
0.0
  0
LINE
  5
4C2
330
4BB
100
AcDbEntity
  8
1
  6
Continuous
 62
     7
370
     9
100
AcDbLine
 10
328.1273784007595
 20
161.7725207270412
 30
0.0
 11
331.0251558796268
 21
160.9960635917336
 31
0.0
  0
LINE
  5
4C3
330
4BB
100
AcDbEntity
  8
1
  6
Continuous
 62
     7
370
     9
100
AcDbLine
 10
331.0251558796268
 20
162.5489778623487
 30
0.0
 11
331.0251558796268
 21
160.9960635917336
 31
0.0
  0
LINE
  5
4C4
330
4BB
100
AcDbEntity
  8
1
  6
Continuous
 62
     7
370
     9
100
AcDbLine
 10
328.8518227704764
 20
161.7725207270412
 30
0.0
 11
330.3007115099099
 21
162.160749294695
 31
0.0
  0
LINE
  5
4C5
330
4BB
100
AcDbEntity
  8
1
  6
Continuous
 62
     7
370
     9
100
AcDbLine
 10
328.8518227704764
 20
161.7725207270412
 30
0.0
 11
330.3007115099099
 21
161.3842921593874
 31
0.0
  0
LINE
  5
4C6
330
4BB
100
AcDbEntity
  8
1
  6
Continuous
 62
     7
370
     9
100
AcDbLine
 10
330.3007115099099
 20
162.160749294695
 30
0.0
 11
330.3007115099099
 21
161.3842921593874
 31
0.0
  0
LINE
  5
4C7
330
4BB
100
AcDbEntity
  8
1
  6
Continuous
 62
     7
370
     9
100
AcDbLine
 10
348.1273784007595
 20
161.7725207270412
 30
0.0
 11
345.2296009218923
 21
160.9960635917336
 31
0.0
  0
LINE
  5
4C8
330
4BB
100
AcDbEntity
  8
1
  6
Continuous
 62
     7
370
     9
100
AcDbLine
 10
348.1273784007595
 20
161.7725207270412
 30
0.0
 11
345.2296009218923
 21
162.5489778623487
 31
0.0
  0
LINE
  5
4C9
330
4BB
100
AcDbEntity
  8
1
  6
Continuous
 62
     7
370
     9
100
AcDbLine
 10
345.2296009218923
 20
160.9960635917336
 30
0.0
 11
345.2296009218923
 21
162.5489778623487
 31
0.0
  0
LINE
  5
4CA
330
4BB
100
AcDbEntity
  8
1
  6
Continuous
 62
     7
370
     9
100
AcDbLine
 10
347.4029340310427
 20
161.7725207270412
 30
0.0
 11
345.9540452916091
 21
161.3842921593874
 31
0.0
  0
LINE
  5
4CB
330
4BB
100
AcDbEntity
  8
1
  6
Continuous
 62
     7
370
     9
100
AcDbLine
 10
347.4029340310427
 20
161.7725207270412
 30
0.0
 11
345.9540452916091
 21
162.160749294695
 31
0.0
  0
LINE
  5
4CC
330
4BB
100
AcDbEntity
  8
1
  6
Continuous
 62
     7
370
     9
100
AcDbLine
 10
345.9540452916091
 20
161.3842921593874
 30
0.0
 11
345.9540452916091
 21
162.160749294695
 31
0.0
  0
MTEXT
  5
4CD
330
4BB
100
AcDbEntity
  8
1
  6
Continuous
 62
     7
370
     9
100
AcDbMText
 10
338.1273784007595
 20
167.0225207270412
 30
0.0
 40
10.5
 41
0.0
 46
0.0
 71
     8
 72
     1
  1
20
 73
     1
 44
1.0
  0
ENDBLK
  5
4BD
330
4BB
100
AcDbEntity
  8
0
100
AcDbBlockEnd
  0
BLOCK
  5
4D0
330
4CF
100
AcDbEntity
  8
0
100
AcDbBlockBegin
  2
Dim10
 70
     0
 71
     0
 10
0.0
 20
0.0
 30
0.0
  3
Dim10
  1

  0
LINE
  5
4D2
330
4CF
100
AcDbEntity
  8
1
  6
Continuous
 62
     7
370
     9
100
AcDbLine
 10
348.1273784007595
 20
161.7725207270412
 30
0.0
 11
433.1273784007595
 21
161.7725207270412
 31
0.0
  0
LINE
  5
4D3
330
4CF
100
AcDbEntity
  8
1
  6
Continuous
 62
     7
370
     9
100
AcDbLine
 10
348.1273784007595
 20
161.7725207270412
 30
0.0
 11
348.1273784007597
 21
174.1620781804575
 31
0.0
  0
LINE
  5
4D4
330
4CF
100
AcDbEntity
  8
1
  6
Continuous
 62
     7
370
     9
100
AcDbLine
 10
433.1273784007595
 20
161.7725207270412
 30
0.0
 11
433.1273784007597
 21
171.8561775593395
 31
0.0
  0
LINE
  5
4D5
330
4CF
100
AcDbEntity
  8
1
  6
Continuous
 62
     7
370
     9
100
AcDbLine
 10
348.1273784007595
 20
161.7725207270412
 30
0.0
 11
351.0251558796268
 21
162.5489778623487
 31
0.0
  0
LINE
  5
4D6
330
4CF
100
AcDbEntity
  8
1
  6
Continuous
 62
     7
370
     9
100
AcDbLine
 10
348.1273784007595
 20
161.7725207270412
 30
0.0
 11
351.0251558796268
 21
160.9960635917336
 31
0.0
  0
LINE
  5
4D7
330
4CF
100
AcDbEntity
  8
1
  6
Continuous
 62
     7
370
     9
100
AcDbLine
 10
351.0251558796268
 20
162.5489778623487
 30
0.0
 11
351.0251558796268
 21
160.9960635917336
 31
0.0
  0
LINE
  5
4D8
330
4CF
100
AcDbEntity
  8
1
  6
Continuous
 62
     7
370
     9
100
AcDbLine
 10
348.8518227704764
 20
161.7725207270412
 30
0.0
 11
350.3007115099099
 21
162.160749294695
 31
0.0
  0
LINE
  5
4D9
330
4CF
100
AcDbEntity
  8
1
  6
Continuous
 62
     7
370
     9
100
AcDbLine
 10
348.8518227704764
 20
161.7725207270412
 30
0.0
 11
350.3007115099099
 21
161.3842921593874
 31
0.0
  0
LINE
  5
4DA
330
4CF
100
AcDbEntity
  8
1
  6
Continuous
 62
     7
370
     9
100
AcDbLine
 10
350.3007115099099
 20
162.160749294695
 30
0.0
 11
350.3007115099099
 21
161.3842921593874
 31
0.0
  0
LINE
  5
4DB
330
4CF
100
AcDbEntity
  8
1
  6
Continuous
 62
     7
370
     9
100
AcDbLine
 10
433.1273784007595
 20
161.7725207270412
 30
0.0
 11
430.2296009218923
 21
160.9960635917336
 31
0.0
  0
LINE
  5
4DC
330
4CF
100
AcDbEntity
  8
1
  6
Continuous
 62
     7
370
     9
100
AcDbLine
 10
433.1273784007595
 20
161.7725207270412
 30
0.0
 11
430.2296009218923
 21
162.5489778623487
 31
0.0
  0
LINE
  5
4DD
330
4CF
100
AcDbEntity
  8
1
  6
Continuous
 62
     7
370
     9
100
AcDbLine
 10
430.2296009218923
 20
160.9960635917336
 30
0.0
 11
430.2296009218923
 21
162.5489778623487
 31
0.0
  0
LINE
  5
4DE
330
4CF
100
AcDbEntity
  8
1
  6
Continuous
 62
     7
370
     9
100
AcDbLine
 10
432.4029340310427
 20
161.7725207270412
 30
0.0
 11
430.9540452916091
 21
161.3842921593874
 31
0.0
  0
LINE
  5
4DF
330
4CF
100
AcDbEntity
  8
1
  6
Continuous
 62
     7
370
     9
100
AcDbLine
 10
432.4029340310427
 20
161.7725207270412
 30
0.0
 11
430.9540452916091
 21
162.160749294695
 31
0.0
  0
LINE
  5
4E0
330
4CF
100
AcDbEntity
  8
1
  6
Continuous
 62
     7
370
     9
100
AcDbLine
 10
430.9540452916091
 20
161.3842921593874
 30
0.0
 11
430.9540452916091
 21
162.160749294695
 31
0.0
  0
MTEXT
  5
4E1
330
4CF
100
AcDbEntity
  8
1
  6
Continuous
 62
     7
370
     9
100
AcDbMText
 10
390.6273784007595
 20
167.0225207270412
 30
0.0
 40
10.5
 41
0.0
 46
0.0
 71
     8
 72
     1
  1
85
 73
     1
 44
1.0
  0
ENDBLK
  5
4D1
330
4CF
100
AcDbEntity
  8
0
100
AcDbBlockEnd
  0
BLOCK
  5
4E4
330
4E3
100
AcDbEntity
  8
0
100
AcDbBlockBegin
  2
Dim11
 70
     0
 71
     0
 10
0.0
 20
0.0
 30
0.0
  3
Dim11
  1

  0
LINE
  5
4E6
330
4E3
100
AcDbEntity
  8
1
  6
Continuous
 62
     7
370
     9
100
AcDbLine
 10
320.6012568700298
 20
266.8196739468033
 30
0.0
 11
445.9893532289141
 21
479.6054801755568
 31
0.0
  0
LINE
  5
4E7
330
4E3
100
AcDbEntity
  8
1
  6
Continuous
 62
     7
370
     9
100
AcDbLine
 10
320.6012568700298
 20
266.8196739468033
 30
0.0
 11
288.5152251229796
 21
281.7816362702576
 31
0.0
  0
LINE
  5
4E8
330
4E3
100
AcDbEntity
  8
1
  6
Continuous
 62
     7
370
     9
100
AcDbLine
 10
445.9893532289141
 20
479.6054801755568
 30
0.0
 11
416.0861965548281
 21
493.5495511356923
 31
0.0
  0
LINE
  5
4E9
330
4E3
100
AcDbEntity
  8
1
  6
Continuous
 62
     7
370
     9
100
AcDbLine
 10
320.6012568700298
 20
266.8196739468033
 30
0.0
 11
321.4034528287787
 21
269.7104319172614
 31
0.0
  0
LINE
  5
4EA
330
4E3
100
AcDbEntity
  8
1
  6
Continuous
 62
     7
370
     9
100
AcDbLine
 10
320.6012568700298
 20
266.8196739468033
 30
0.0
 11
322.7413579343486
 21
268.9220458060379
 31
0.0
  0
LINE
  5
4EB
330
4E3
100
AcDbEntity
  8
1
  6
Continuous
 62
     7
370
     9
100
AcDbLine
 10
321.4034528287787
 20
269.7104319172614
 30
0.0
 11
322.7413579343486
 21
268.9220458060379
 31
0.0
  0
LINE
  5
4EC
330
4E3
100
AcDbEntity
  8
1
  6
Continuous
 62
     7
370
     9
100
AcDbLine
 10
320.9690439979132
 20
267.4438151755149
 30
0.0
 11
321.3701419772877
 21
268.8891941607439
 31
0.0
  0
LINE
  5
4ED
330
4E3
100
AcDbEntity
  8
1
  6
Continuous
 62
     7
370
     9
100
AcDbLine
 10
320.9690439979132
 20
267.4438151755149
 30
0.0
 11
322.0390945300726
 21
268.4950011051322
 31
0.0
  0
LINE
  5
4EE
330
4E3
100
AcDbEntity
  8
1
  6
Continuous
 62
     7
370
     9
100
AcDbLine
 10
321.3701419772877
 20
268.8891941607439
 30
0.0
 11
322.0390945300726
 21
268.4950011051322
 31
0.0
  0
LINE
  5
4EF
330
4E3
100
AcDbEntity
  8
1
  6
Continuous
 62
     7
370
     9
100
AcDbLine
 10
445.9893532289141
 20
479.6054801755568
 30
0.0
 11
445.1871572701652
 21
476.7147222050987
 31
0.0
  0
LINE
  5
4F0
330
4E3
100
AcDbEntity
  8
1
  6
Continuous
 62
     7
370
     9
100
AcDbLine
 10
445.9893532289141
 20
479.6054801755568
 30
0.0
 11
443.8492521645953
 21
477.5031083163222
 31
0.0
  0
LINE
  5
4F1
330
4E3
100
AcDbEntity
  8
1
  6
Continuous
 62
     7
370
     9
100
AcDbLine
 10
445.1871572701652
 20
476.7147222050987
 30
0.0
 11
443.8492521645953
 21
477.5031083163222
 31
0.0
  0
LINE
  5
4F2
330
4E3
100
AcDbEntity
  8
1
  6
Continuous
 62
     7
370
     9
100
AcDbLine
 10
445.6215661010307
 20
478.9813389468452
 30
0.0
 11
445.2204681216562
 21
477.5359599616162
 31
0.0
  0
LINE
  5
4F3
330
4E3
100
AcDbEntity
  8
1
  6
Continuous
 62
     7
370
     9
100
AcDbLine
 10
445.6215661010307
 20
478.9813389468452
 30
0.0
 11
444.5515155688713
 21
477.9301530172279
 31
0.0
  0
LINE
  5
4F4
330
4E3
100
AcDbEntity
  8
1
  6
Continuous
 62
     7
370
     9
100
AcDbLine
 10
445.2204681216562
 20
477.5359599616162
 30
0.0
 11
444.5515155688713
 21
477.9301530172279
 31
0.0
  0
MTEXT
  5
4F5
330
4E3
100
AcDbEntity
  8
1
  6
Continuous
 62
     7
370
     9
100
AcDbMText
 10
378.7721952183931
 20
375.8779058318944
 30
0.0
 40
10.5
 41
0.0
 46
0.0
 71
     8
 72
     1
  1
360
 11
0.50768167061225
 21
0.861544729729313
 31
0.0
 73
     1
 44
1.0
  0
ENDBLK
  5
4E5
330
4E3
100
AcDbEntity
  8
0
100
AcDbBlockEnd
  0
BLOCK
  5
4F8
330
4F7
100
AcDbEntity
  8
0
100
AcDbBlockBegin
  2
Dim12
 70
     0
 71
     0
 10
0.0
 20
0.0
 30
0.0
  3
Dim12
  1

  0
LINE
  5
4FA
330
4F7
100
AcDbEntity
  8
1
  6
Continuous
 62
     7
370
     9
100
AcDbLine
 10
378.3926837668203
 20
456.2707700731633
 30
0.0
 11
391.4478633165635
 21
448.5777564254115
 31
0.0
  0
LINE
  5
4FB
330
4F7
100
AcDbEntity
  8
1
  6
Continuous
 62
     7
370
     9
100
AcDbLine
 10
378.3926837668203
 20
456.2707700731633
 30
0.0
 11
376.7047974866803
 21
453.4063973506198
 31
0.0
  0
LINE
  5
4FC
330
4F7
100
AcDbEntity
  8
1
  6
Continuous
 62
     7
370
     9
100
AcDbLine
 10
391.4478633165635
 20
448.5777564254115
 30
0.0
 11
389.7599769875718
 21
445.7133836199658
 31
0.0
  0
LINE
  5
4FD
330
4F7
100
AcDbEntity
  8
1
  6
Continuous
 62
     7
370
     9
100
AcDbLine
 10
378.3926837668203
 20
456.2707700731633
 30
0.0
 11
375.5019257963622
 21
457.0729660319122
 31
0.0
  0
LINE
  5
4FE
330
4F7
100
AcDbEntity
  8
1
  6
Continuous
 62
     7
370
     9
100
AcDbLine
 10
378.3926837668203
 20
456.2707700731633
 30
0.0
 11
376.2903119075857
 21
458.4108711374821
 31
0.0
  0
LINE
  5
4FF
330
4F7
100
AcDbEntity
  8
1
  6
Continuous
 62
     7
370
     9
100
AcDbLine
 10
375.5019257963622
 20
457.0729660319122
 30
0.0
 11
376.2903119075857
 21
458.4108711374821
 31
0.0
  0
LINE
  5
500
330
4F7
100
AcDbEntity
  8
1
  6
Continuous
 62
     7
370
     9
100
AcDbLine
 10
377.7685425381087
 20
456.6385572010468
 30
0.0
 11
376.3231635528796
 21
457.0396551804212
 31
0.0
  0
LINE
  5
501
330
4F7
100
AcDbEntity
  8
1
  6
Continuous
 62
     7
370
     9
100
AcDbLine
 10
377.7685425381087
 20
456.6385572010468
 30
0.0
 11
376.7173566084914
 21
457.7086077332061
 31
0.0
  0
LINE
  5
502
330
4F7
100
AcDbEntity
  8
1
  6
Continuous
 62
     7
370
     9
100
AcDbLine
 10
376.3231635528796
 20
457.0396551804212
 30
0.0
 11
376.7173566084914
 21
457.7086077332061
 31
0.0
  0
LINE
  5
503
330
4F7
100
AcDbEntity
  8
1
  6
Continuous
 62
     7
370
     9
100
AcDbLine
 10
391.4478633165635
 20
448.5777564254115
 30
0.0
 11
394.3386212870216
 21
447.7755604666626
 31
0.0
  0
LINE
  5
504
330
4F7
100
AcDbEntity
  8
1
  6
Continuous
 62
     7
370
     9
100
AcDbLine
 10
391.4478633165635
 20
448.5777564254115
 30
0.0
 11
393.5502351757981
 21
446.4376553610927
 31
0.0
  0
LINE
  5
505
330
4F7
100
AcDbEntity
  8
1
  6
Continuous
 62
     7
370
     9
100
AcDbLine
 10
394.3386212870216
 20
447.7755604666626
 30
0.0
 11
393.5502351757981
 21
446.4376553610927
 31
0.0
  0
LINE
  5
506
330
4F7
100
AcDbEntity
  8
1
  6
Continuous
 62
     7
370
     9
100
AcDbLine
 10
392.0720045452751
 20
448.209969297528
 30
0.0
 11
393.5173835305042
 21
447.8088713181536
 31
0.0
  0
LINE
  5
507
330
4F7
100
AcDbEntity
  8
1
  6
Continuous
 62
     7
370
     9
100
AcDbLine
 10
392.0720045452751
 20
448.209969297528
 30
0.0
 11
393.1231904748924
 21
447.1399187653686
 31
0.0
  0
LINE
  5
508
330
4F7
100
AcDbEntity
  8
1
  6
Continuous
 62
     7
370
     9
100
AcDbLine
 10
393.5173835305042
 20
447.8088713181536
 30
0.0
 11
393.1231904748924
 21
447.1399187653686
 31
0.0
  0
MTEXT
  5
509
330
4F7
100
AcDbEntity
  8
1
  6
Continuous
 62
     7
370
     9
100
AcDbMText
 10
387.5856023124062
 20
456.9473730803663
 30
0.0
 40
10.5
 41
0.0
 46
0.0
 71
     8
 72
     1
  1
15φ
 11
0.8615447297293199
 21
-0.5076816706122381
 31
0.0
 73
     1
 44
1.0
  0
ENDBLK
  5
4F9
330
4F7
100
AcDbEntity
  8
0
100
AcDbBlockEnd
  0
BLOCK
  5
50C
330
50B
100
AcDbEntity
  8
0
100
AcDbBlockBegin
  2
Dim13
 70
     0
 71
     0
 10
0.0
 20
0.0
 30
0.0
  3
Dim13
  1

  0
LINE
  5
50E
330
50B
100
AcDbEntity
  8
1
  6
Continuous
 62
     7
370
     9
100
AcDbLine
 10
46.39694672294831
 20
253.6294826158101
 30
0.0
 11
105.9969467229483
 21
253.6294826158101
 31
0.0
  0
LINE
  5
50F
330
50B
100
AcDbEntity
  8
1
  6
Continuous
 62
     7
370
     9
100
AcDbLine
 10
46.39694672294831
 20
253.6294826158101
 30
0.0
 11
46.39694672294878
 21
311.5080540443818
 31
0.0
  0
LINE
  5
510
330
50B
100
AcDbEntity
  8
1
  6
Continuous
 62
     7
370
     9
100
AcDbLine
 10
105.9969467229483
 20
253.6294826158101
 30
0.0
 11
105.9969467229488
 21
312.1579674329006
 31
0.0
  0
LINE
  5
511
330
50B
100
AcDbEntity
  8
1
  6
Continuous
 62
     7
370
     9
100
AcDbLine
 10
46.39694672294831
 20
253.6294826158101
 30
0.0
 11
49.29472420181552
 21
254.4059397511176
 31
0.0
  0
LINE
  5
512
330
50B
100
AcDbEntity
  8
1
  6
Continuous
 62
     7
370
     9
100
AcDbLine
 10
46.39694672294831
 20
253.6294826158101
 30
0.0
 11
49.29472420181552
 21
252.8530254805025
 31
0.0
  0
LINE
  5
513
330
50B
100
AcDbEntity
  8
1
  6
Continuous
 62
     7
370
     9
100
AcDbLine
 10
49.29472420181552
 20
254.4059397511176
 30
0.0
 11
49.29472420181552
 21
252.8530254805025
 31
0.0
  0
LINE
  5
514
330
50B
100
AcDbEntity
  8
1
  6
Continuous
 62
     7
370
     9
100
AcDbLine
 10
47.12139109266511
 20
253.6294826158101
 30
0.0
 11
48.57027983209872
 21
254.0177111834639
 31
0.0
  0
LINE
  5
515
330
50B
100
AcDbEntity
  8
1
  6
Continuous
 62
     7
370
     9
100
AcDbLine
 10
47.12139109266511
 20
253.6294826158101
 30
0.0
 11
48.57027983209872
 21
253.2412540481563
 31
0.0
  0
LINE
  5
516
330
50B
100
AcDbEntity
  8
1
  6
Continuous
 62
     7
370
     9
100
AcDbLine
 10
48.57027983209872
 20
254.0177111834639
 30
0.0
 11
48.57027983209872
 21
253.2412540481563
 31
0.0
  0
LINE
  5
517
330
50B
100
AcDbEntity
  8
1
  6
Continuous
 62
     7
370
     9
100
AcDbLine
 10
105.9969467229483
 20
253.6294826158101
 30
0.0
 11
103.0991692440811
 21
252.8530254805025
 31
0.0
  0
LINE
  5
518
330
50B
100
AcDbEntity
  8
1
  6
Continuous
 62
     7
370
     9
100
AcDbLine
 10
105.9969467229483
 20
253.6294826158101
 30
0.0
 11
103.0991692440811
 21
254.4059397511176
 31
0.0
  0
LINE
  5
519
330
50B
100
AcDbEntity
  8
1
  6
Continuous
 62
     7
370
     9
100
AcDbLine
 10
103.0991692440811
 20
252.8530254805025
 30
0.0
 11
103.0991692440811
 21
254.4059397511176
 31
0.0
  0
LINE
  5
51A
330
50B
100
AcDbEntity
  8
1
  6
Continuous
 62
     7
370
     9
100
AcDbLine
 10
105.2725023532315
 20
253.6294826158101
 30
0.0
 11
103.8236136137979
 21
253.2412540481563
 31
0.0
  0
LINE
  5
51B
330
50B
100
AcDbEntity
  8
1
  6
Continuous
 62
     7
370
     9
100
AcDbLine
 10
105.2725023532315
 20
253.6294826158101
 30
0.0
 11
103.8236136137979
 21
254.0177111834639
 31
0.0
  0
LINE
  5
51C
330
50B
100
AcDbEntity
  8
1
  6
Continuous
 62
     7
370
     9
100
AcDbLine
 10
103.8236136137979
 20
253.2412540481563
 30
0.0
 11
103.8236136137979
 21
254.0177111834639
 31
0.0
  0
MTEXT
  5
51D
330
50B
100
AcDbEntity
  8
1
  6
Continuous
 62
     7
370
     9
100
AcDbMText
 10
76.19694672294892
 20
258.87948261581
 30
0.0
 40
10.5
 41
0.0
 46
0.0
 71
     8
 72
     1
  1
29.8φ
 73
     1
 44
1.0
  0
ENDBLK
  5
50D
330
50B
100
AcDbEntity
  8
0
100
AcDbBlockEnd
  0
ENDSEC
  0
SECTION
  2
ENTITIES
  0
CIRCLE
  5
96
330
1F
100
AcDbEntity
  8
1
  6
Continuous
 62
     7
370
     9
100
AcDbCircle
 10
669.1723602484473
 20
231.1579674329006
 30
0.0
 40
10.0
  0
CIRCLE
  5
97
330
1F
100
AcDbEntity
  8
1
  6
Continuous
 62
     7
370
     9
100
AcDbCircle
 10
619.1723602484475
 20
231.1579674329006
 30
0.0
 40
4.0
  0
CIRCLE
  5
98
330
1F
100
AcDbEntity
  8
1
  6
Continuous
 62
     7
370
     9
100
AcDbCircle
 10
719.1723602484475
 20
231.1579674329007
 30
0.0
 40
4.0
  0
ARC
  5
99
330
1F
100
AcDbEntity
  8
1
  6
Continuous
 62
     7
370
     9
100
AcDbCircle
 10
587.6723602484475
 20
309.2742183479812
 30
0.0
 40
-2.0
100
AcDbArc
 50
0.0
 51
308.6598082540877
  0
ARC
  5
9A
330
1F
100
AcDbEntity
  8
1
  6
Continuous
 62
     7
370
     9
100
AcDbCircle
 10
750.6723602484473
 20
309.2742183479812
 30
0.0
 40
-2.0
100
AcDbArc
 50
231.3401917459116
 51
179.9999999999998
  0
ARC
  5
9B
330
1F
100
AcDbEntity
  8
1
  6
Continuous
 62
     7
370
     9
100
AcDbCircle
 10
750.6723602484473
 20
107.1579674329006
 30
0.0
 40
-2.0
100
AcDbArc
 50
179.9999999999998
 51
89.99999999999991
  0
ARC
  5
9C
330
1F
100
AcDbEntity
  8
1
  6
Continuous
 62
     7
370
     9
100
AcDbCircle
 10
587.6723602484475
 20
107.1579674329006
 30
0.0
 40
-2.0
100
AcDbArc
 50
89.99999999999991
 51
0.0
  0
LINE
  5
9D
330
1F
100
AcDbEntity
  8
1
  6
Continuous
 62
     7
370
     9
100
AcDbLine
 10
587.6723602484475
 20
83.15796743290065
 30
0.0
 11
750.6723602484473
 21
83.15796743290065
 31
0.0
  0
LINE
  5
9E
330
1F
100
AcDbEntity
  8
1
  6
Continuous
 62
     7
370
     9
100
AcDbLine
 10
742.6723602484473
 20
91.15796743290065
 30
0.0
 11
595.6723602484475
 21
91.15796743290065
 31
0.0
  0
ARC
  5
9F
330
1F
100
AcDbEntity
  8
1
  6
Continuous
 62
     7
370
     9
100
AcDbCircle
 10
595.6723602484475
 20
97.15796743290065
 30
0.0
 40
6.0
100
AcDbArc
 50
179.9999999999998
 51
269.9999999999998
  0
ARC
  5
A0
330
1F
100
AcDbEntity
  8
1
  6
Continuous
 62
     7
370
     9
100
AcDbCircle
 10
587.6723602484475
 20
89.15796743290065
 30
0.0
 40
6.0
100
AcDbArc
 50
179.9999999999998
 51
269.9999999999998
  0
ARC
  5
A1
330
1F
100
AcDbEntity
  8
1
  6
Continuous
 62
     7
370
     9
100
AcDbCircle
 10
742.6723602484473
 20
97.15796743290065
 30
0.0
 40
6.0
100
AcDbArc
 50
269.9999999999998
 51
359.9999999999991
  0
ARC
  5
A2
330
1F
100
AcDbEntity
  8
1
  6
Continuous
 62
     7
370
     9
100
AcDbCircle
 10
750.6723602484473
 20
89.15796743290065
 30
0.0
 40
6.0
100
AcDbArc
 50
269.9999999999998
 51
359.9999999999991
  0
LINE
  5
A3
330
1F
100
AcDbEntity
  8
1
  6
Continuous
 62
     7
370
     9
100
AcDbLine
 10
581.6723602484475
 20
357.9268578738916
 30
0.0
 11
581.6723602484475
 21
89.15796743290065
 31
0.0
  0
ARC
  5
A4
330
1F
100
AcDbEntity
  8
1
  6
Continuous
 62
     7
370
     9
100
AcDbCircle
 10
591.6723602484475
 20
357.9268578738916
 30
0.0
 40
10.0
100
AcDbArc
 50
124.8877244881056
 51
179.9999999999998
  0
ARC
  5
A5
330
1F
100
AcDbEntity
  8
1
  6
Continuous
 62
     7
370
     9
100
AcDbCircle
 10
669.1723604015302
 20
404.1579674329006
 30
0.0
 40
20.0
100
AcDbArc
 50
55.11227551189402
 51
124.887724488106
  0
LINE
  5
A6
330
1F
100
AcDbEntity
  8
1
  6
Continuous
 62
     7
370
     9
100
AcDbLine
 10
585.9526588051034
 20
366.1296022560485
 30
0.0
 11
656.7887476965877
 21
419.8990104586801
 31
0.0
  0
ARC
  5
A7
330
1F
100
AcDbEntity
  8
1
  6
Continuous
 62
     7
370
     9
100
AcDbCircle
 10
669.1670541225778
 20
404.1898561203877
 30
0.0
 40
20.0
100
AcDbArc
 50
51.34019174591022
 51
128.2785499048808
  0
LINE
  5
A8
330
1F
100
AcDbEntity
  8
1
  6
Continuous
 62
     7
370
     9
100
AcDbLine
 10
752.3920619979529
 20
366.1296022560485
 30
0.0
 11
681.5559731064684
 21
419.8990104586801
 31
0.0
  0
LINE
  5
A9
330
1F
100
AcDbEntity
  8
1
  6
Continuous
 62
     7
370
     9
100
AcDbLine
 10
756.6723602484473
 20
89.15796743290059
 30
0.0
 11
756.6723602484473
 21
357.9293323884603
 31
0.0
  0
ARC
  5
AA
330
1F
100
AcDbEntity
  8
1
  6
Continuous
 62
     7
370
     9
100
AcDbCircle
 10
746.6723605546086
 20
357.9268578738916
 30
0.0
 40
10.0
100
AcDbArc
 50
0.0141779242576441
 51
55.11227551189393
  0
ARC
  5
AB
330
1F
100
AcDbEntity
  8
1
  6
Continuous
 62
     7
370
     9
100
AcDbCircle
 10
668.0487154163717
 20
396.7976350958616
 30
0.0
 40
20.0
100
AcDbArc
 50
55.11227551189429
 51
124.887724488106
  0
ARC
  5
AC
330
1F
100
AcDbEntity
  8
1
  6
Continuous
 62
     7
370
     9
100
AcDbCircle
 10
668.0434091374192
 20
396.8295237833486
 30
0.0
 40
20.0
100
AcDbArc
 50
51.34019174591022
 51
128.2785499048808
  0
LINE
  5
AD
330
1F
100
AcDbEntity
  8
1
  6
Continuous
 62
     7
370
     9
100
AcDbLine
 10
589.6723602484475
 20
97.15796743290065
 30
0.0
 11
589.6723602484475
 21
357.4817615996459
 31
0.0
  0
LINE
  5
AE
330
1F
100
AcDbEntity
  8
1
  6
Continuous
 62
     7
370
     9
100
AcDbLine
 10
593.6262342441468
 20
365.4469584170585
 30
0.0
 11
655.6651027114292
 21
412.5386781216411
 31
0.0
  0
ARC
  5
AF
330
1F
100
AcDbEntity
  8
1
  6
Continuous
 62
     7
370
     9
100
AcDbCircle
 10
599.6723602484475
 20
357.4817615996459
 30
0.0
 40
10.0
100
AcDbArc
 50
127.2009700465239
 51
179.9999999999998
  0
LINE
  5
B0
330
1F
100
AcDbEntity
  8
1
  6
Continuous
 62
     7
370
     9
100
AcDbLine
 10
744.718486252748
 20
363.7411127500758
 30
0.0
 11
680.4323281213099
 21
412.5386781216411
 31
0.0
  0
LINE
  5
B1
330
1F
100
AcDbEntity
  8
1
  6
Continuous
 62
     7
370
     9
100
AcDbLine
 10
748.6723602484473
 20
355.7759159326632
 30
0.0
 11
748.6723602484473
 21
97.15796743290059
 31
0.0
  0
ARC
  5
B2
330
1F
100
AcDbEntity
  8
1
  6
Continuous
 62
     7
370
     9
100
AcDbCircle
 10
738.6723602484473
 20
355.7759159326632
 30
0.0
 40
10.0
100
AcDbArc
 50
0.0
 51
52.79902995347614
  0
ARC
  5
B3
330
1F
100
AcDbEntity
  8
1
  6
Continuous
 62
     7
370
     9
100
AcDbCircle
 10
630.1723602484473
 20
393.1879531289542
 30
0.0
 40
14.4801049353768
100
AcDbArc
 50
269.999999999997
 51
37.20097004652368
  0
LINE
  5
B4
330
1F
100
AcDbEntity
  8
1
  6
Continuous
 62
     7
370
     9
100
AcDbLine
 10
630.1723602484473
 20
378.7973269877186
 30
0.0
 11
630.1723602484473
 21
318.8681759976421
 31
0.0
  0
LINE
  5
B5
330
1F
100
AcDbEntity
  8
1
  6
Continuous
 62
     7
370
     9
100
AcDbLine
 10
708.1723602484473
 20
378.7078481935774
 30
0.0
 11
708.1723602484473
 21
318.8681759976421
 31
0.0
  0
ARC
  5
B6
330
1F
100
AcDbEntity
  8
1
  6
Continuous
 62
     7
370
     9
100
AcDbCircle
 10
708.1723605546089
 20
393.1879531289542
 30
0.0
 40
14.4801049353768
100
AcDbArc
 50
148.183297415507
 51
270.0000000000023
  0
LINE
  5
B7
330
1F
100
AcDbEntity
  8
1
  6
Continuous
 62
     7
370
     9
100
AcDbLine
 10
630.1723602484473
 20
318.8681759976421
 30
0.0
 11
659.3467862688552
 21
318.8681759976421
 31
0.0
  0
LINE
  5
B8
330
1F
100
AcDbEntity
  8
1
  6
Continuous
 62
     7
370
     9
100
AcDbLine
 10
650.1723602484473
 20
312.1579674329006
 30
0.0
 11
659.3467862688552
 21
318.8681759976421
 31
0.0
  0
LINE
  5
B9
330
1F
100
AcDbEntity
  8
1
  6
Continuous
 62
     7
370
     9
100
AcDbLine
 10
678.9979345342009
 20
318.8681759976421
 30
0.0
 11
708.1723602484473
 21
318.8681759976421
 31
0.0
  0
LINE
  5
BA
330
1F
100
AcDbEntity
  8
1
  6
Continuous
 62
     7
370
     9
100
AcDbLine
 10
650.1723602484473
 20
312.1579674329006
 30
0.0
 11
688.1723605546089
 21
312.1579674329006
 31
0.0
  0
LINE
  5
BB
330
1F
100
AcDbEntity
  8
1
  6
Continuous
 62
     7
370
     9
100
AcDbLine
 10
688.1723605546089
 20
312.1579674329006
 30
0.0
 11
678.9979345342009
 21
318.8681759976421
 31
0.0
  0
INSERT
  5
10F
330
1F
100
AcDbEntity
  8
0
100
AcDbBlockReference
  2
*G12
 10
0.0
 20
0.0
 30
0.0
  0
POLYLINE
  5
110
330
1F
100
AcDbEntity
  8
1
  6
Continuous
 62
     7
370
     9
100
AcDb2dPolyline
 66
     1
 10
0.0
 20
0.0
 30
0.0
  0
VERTEX
  5
112
330
110
100
AcDbEntity
  8
1
  6
Continuous
 62
     7
370
     9
100
AcDbVertex
100
AcDb2dVertex
 10
671.0915640535333
 20
233.528276562253
 30
0.0
  0
VERTEX
  5
113
330
110
100
AcDbEntity
  8
1
  6
Continuous
 62
     7
370
     9
100
AcDbVertex
100
AcDb2dVertex
 10
647.7815290178639
 20
252.0593389529751
 30
0.0
  0
VERTEX
  5
114
330
110
100
AcDbEntity
  8
1
  6
Continuous
 62
     7
370
     9
100
AcDbVertex
100
AcDb2dVertex
 10
620.9096346079258
 20
252.0593389529751
 30
0.0
  0
SEQEND
  5
111
330
110
100
AcDbEntity
  8
1
  6
Continuous
370
     9
  0
TEXT
  5
115
330
1F
100
AcDbEntity
  8
1
  6
Continuous
 62
     7
370
     9
100
AcDbText
 10
620.9096346079258
 20
253.5644065205427
 30
0.0
 40
10.5
  1
20φ
 41
0.6666666666666666
100
AcDbText
  0
LINE
  5
116
330
1F
100
AcDbEntity
  8
1
  6
Continuous
 62
     7
370
     9
100
AcDbLine
 10
719.1723602484474
 20
231.1579674329006
 30
0.0
 11
730.6786563470579
 21
209.861357586515
 31
0.0
  0
LINE
  5
117
330
1F
100
AcDbEntity
  8
1
  6
Continuous
 62
     7
370
     9
100
AcDbLine
 10
730.6786563470579
 20
209.861357586515
 30
0.0
 11
721.4550538625857
 21
189.1082519964526
 31
0.0
  0
LINE
  5
118
330
1F
100
AcDbEntity
  8
1
  6
Continuous
 62
     7
370
     9
100
AcDbLine
 10
149.1019299023995
 20
62.57904523901964
 30
0.0
 11
337.3672360248485
 21
62.57904523901964
 31
0.0
  0
ARC
  5
119
330
1F
100
AcDbEntity
  8
1
  6
Continuous
 62
     7
370
     9
100
AcDbCircle
 10
358.1273784007597
 20
135.5790452390196
 30
0.0
 40
10.0
100
AcDbArc
 50
179.9999999999998
 51
269.9999999999998
  0
LINE
  5
11A
330
1F
100
AcDbEntity
  8
1
  6
Continuous
 62
     7
370
     9
100
AcDbLine
 10
358.1273784007597
 20
125.5790452390196
 30
0.0
 11
423.1273784007597
 21
125.5790452390196
 31
0.0
  0
LINE
  5
11B
330
1F
100
AcDbEntity
  8
1
  6
Continuous
 62
     7
370
     9
100
AcDbLine
 10
433.1273784007597
 20
115.5790452390196
 30
0.0
 11
433.1273784007597
 21
103.5790452390196
 31
0.0
  0
ARC
  5
11C
330
1F
100
AcDbEntity
  8
1
  6
Continuous
 62
     7
370
     9
100
AcDbCircle
 10
423.1273784007597
 20
115.5790452390196
 30
0.0
 40
10.0
100
AcDbArc
 50
0.0
 51
89.99999999999991
  0
CIRCLE
  5
11D
330
1F
100
AcDbEntity
  8
1
  6
Continuous
 62
     7
370
     9
100
AcDbCircle
 10
390.6273784007603
 20
258.9484322564418
 30
0.0
 40
25.15357216625438
  0
LINE
  5
11E
330
1F
100
AcDbEntity
  8
1
  6
Continuous
 62
     7
370
     9
100
AcDbLine
 10
328.1273784007597
 20
228.5025146267793
 30
0.0
 11
328.1273784007597
 21
103.5790452390196
 31
0.0
  0
LINE
  5
11F
330
1F
100
AcDbEntity
  8
1
  6
Continuous
 62
     7
370
     9
100
AcDbLine
 10
433.1273784007597
 20
362.2555765889506
 30
0.0
 11
433.1273784007597
 21
119.3806250163009
 31
0.0
  0
CIRCLE
  5
120
330
1F
100
AcDbEntity
  8
1
  6
Continuous
 62
     7
370
     9
100
AcDbCircle
 10
390.6273784007598
 20
320.2555765889506
 30
0.0
 40
25.15357216625438
  0
CIRCLE
  5
121
330
1F
100
AcDbEntity
  8
1
  6
Continuous
 62
     7
370
     9
100
AcDbCircle
 10
390.6273784007599
 20
197.6412879239331
 30
0.0
 40
25.15357216625438
  0
LINE
  5
122
330
1F
100
AcDbEntity
  8
1
  6
Continuous
 62
     7
370
     9
100
AcDbLine
 10
328.1273784007597
 20
315.055646530147
 30
0.0
 11
328.1273784007597
 21
223.5790452390196
 31
0.0
  0
ARC
  5
123
330
1F
100
AcDbEntity
  8
1
  6
Continuous
 62
     7
370
     9
100
AcDbCircle
 10
322.1273784007597
 20
315.055646530147
 30
0.0
 40
6.0
100
AcDbArc
 50
0.0
 51
63.55774705752687
  0
LINE
  5
124
330
1F
100
AcDbEntity
  8
1
  6
Continuous
 62
     7
370
     9
100
AcDbLine
 10
341.3672360248485
 20
58.57904523901964
 30
0.0
 11
337.3672360248485
 21
62.57904523901964
 31
0.0
  0
LINE
  5
125
330
1F
100
AcDbEntity
  8
1
  6
Continuous
 62
     7
370
     9
100
AcDbLine
 10
341.3672360248485
 20
58.57904523901964
 30
0.0
 11
393.3250251891072
 21
58.57904523901964
 31
0.0
  0
LINE
  5
126
330
1F
100
AcDbEntity
  8
1
  6
Continuous
 62
     7
370
     9
100
AcDbLine
 10
393.3250251891072
 20
58.57904523901964
 30
0.0
 11
397.3250251891072
 21
62.57904523901964
 31
0.0
  0
LINE
  5
127
330
1F
100
AcDbEntity
  8
1
  6
Continuous
 62
     7
370
     9
100
AcDbLine
 10
145.1019299023995
 20
58.57904523901964
 30
0.0
 11
149.1019299023995
 21
62.57904523901964
 31
0.0
  0
LINE
  5
128
330
1F
100
AcDbEntity
  8
1
  6
Continuous
 62
     7
370
     9
100
AcDbLine
 10
335.5628514252564
 20
463.5790452390198
 30
0.0
 11
335.5628514252564
 21
456.5790452390198
 31
0.0
  0
ARC
  5
129
330
1F
100
AcDbEntity
  8
1
  6
Continuous
 62
     7
370
     9
100
AcDbCircle
 10
333.5628514252564
 20
463.5790452390198
 30
0.0
 40
2.0
100
AcDbArc
 50
0.0
 51
89.99999999999991
  0
ARC
  5
12A
330
1F
100
AcDbEntity
  8
1
  6
Continuous
 62
     7
370
     9
100
AcDbCircle
 10
333.5628514252564
 20
456.5790452390198
 30
0.0
 40
2.0
100
AcDbArc
 50
269.9999999999998
 51
0.0
  0
LINE
  5
12B
330
1F
100
AcDbEntity
  8
1
  6
Continuous
 62
     7
370
     9
100
AcDbLine
 10
313.7861277320552
 20
418.5790452390196
 30
0.0
 11
313.7861277320552
 21
433.5790452390196
 31
0.0
  0
LINE
  5
12C
330
1F
100
AcDbEntity
  8
1
  6
Continuous
 62
     7
370
     9
100
AcDbLine
 10
300.7861277320552
 20
418.5790452390196
 30
0.0
 11
313.7861277320552
 21
418.5790452390196
 31
0.0
  0
LINE
  5
12D
330
1F
100
AcDbEntity
  8
1
  6
Continuous
 62
     7
370
     9
100
AcDbLine
 10
300.7861277320552
 20
418.5790452390196
 30
0.0
 11
300.7861277320552
 21
433.5790452390196
 31
0.0
  0
LINE
  5
12E
330
1F
100
AcDbEntity
  8
1
  6
Continuous
 62
     7
370
     9
100
AcDbLine
 10
295.7861277320552
 20
433.5790452390196
 30
0.0
 11
295.7861277320552
 21
445.5790452390196
 31
0.0
  0
LINE
  5
12F
330
1F
100
AcDbEntity
  8
1
  6
Continuous
 62
     7
370
     9
100
AcDbLine
 10
318.5009425105748
 20
454.5790452390196
 30
0.0
 11
318.2061058288875
 21
452.5790452390196
 31
0.0
  0
LINE
  5
130
330
1F
100
AcDbEntity
  8
1
  6
Continuous
 62
     7
370
     9
100
AcDbLine
 10
295.4912910503679
 20
454.5790452390196
 30
0.0
 11
295.7861277320552
 21
452.5790452390196
 31
0.0
  0
LINE
  5
131
330
1F
100
AcDbEntity
  8
1
  6
Continuous
 62
     7
370
     9
100
AcDbLine
 10
295.7861277320552
 20
452.5790452390196
 30
0.0
 11
318.2061058288875
 21
452.5790452390196
 31
0.0
  0
LINE
  5
132
330
1F
100
AcDbEntity
  8
1
  6
Continuous
 62
     7
370
     9
100
AcDbLine
 10
318.5009425105748
 20
454.5790452390196
 30
0.0
 11
318.2061058288875
 21
452.5790452390196
 31
0.0
  0
LINE
  5
133
330
1F
100
AcDbEntity
  8
1
  6
Continuous
 62
     7
370
     9
100
AcDbLine
 10
295.7861277320552
 20
452.5790452390196
 30
0.0
 11
295.7861277320552
 21
445.5790452390196
 31
0.0
  0
LINE
  5
134
330
1F
100
AcDbEntity
  8
1
  6
Continuous
 62
     7
370
     9
100
AcDbLine
 10
318.2061058288875
 20
452.5790452390196
 30
0.0
 11
318.2059135933297
 21
445.5790452390196
 31
0.0
  0
LINE
  5
135
330
1F
100
AcDbEntity
  8
1
  6
Continuous
 62
     7
370
     9
100
AcDbLine
 10
302.7861277320552
 20
418.5790452390196
 30
0.0
 11
302.7861277320552
 21
340.3605966573267
 31
0.0
  0
LINE
  5
136
330
1F
100
AcDbEntity
  8
1
  6
Continuous
 62
     7
370
     9
100
AcDbLine
 10
311.7861277320552
 20
418.5790452390196
 30
0.0
 11
311.7861277320552
 21
343.8796440128312
 31
0.0
  0
LINE
  5
137
330
1F
100
AcDbEntity
  8
1
  6
Continuous
 62
     7
370
     9
100
AcDbLine
 10
295.7861277320552
 20
445.5790452390196
 30
0.0
 11
348.1273784007597
 21
445.5790452390196
 31
0.0
  0
LINE
  5
138
330
1F
100
AcDbEntity
  8
1
  6
Continuous
 62
     7
370
     9
100
AcDbLine
 10
348.1273784007597
 20
433.5790452390196
 30
0.0
 11
295.7861277320552
 21
433.5790452390196
 31
0.0
  0
LINE
  5
139
330
1F
100
AcDbEntity
  8
1
  6
Continuous
 62
     7
370
     9
100
AcDbLine
 10
278.4291902062901
 20
463.5790452390198
 30
0.0
 11
278.4291902062901
 21
456.5790452390198
 31
0.0
  0
LINE
  5
13A
330
1F
100
AcDbEntity
  8
1
  6
Continuous
 62
     7
370
     9
100
AcDbLine
 10
280.4291902062901
 20
465.5790452390197
 30
0.0
 11
333.5628514252564
 21
465.5790452390197
 31
0.0
  0
ARC
  5
13B
330
1F
100
AcDbEntity
  8
1
  6
Continuous
 62
     7
370
     9
100
AcDbCircle
 10
280.4291902062901
 20
463.5790452390198
 30
0.0
 40
2.0
100
AcDbArc
 50
89.99999999999991
 51
179.9999999999998
  0
LINE
  5
13C
330
1F
100
AcDbEntity
  8
1
  6
Continuous
 62
     7
370
     9
100
AcDbLine
 10
333.5628514252564
 20
454.5790452390196
 30
0.0
 11
280.4291902062901
 21
454.5790452390196
 31
0.0
  0
ARC
  5
13D
330
1F
100
AcDbEntity
  8
1
  6
Continuous
 62
     7
370
     9
100
AcDbCircle
 10
280.4291902062901
 20
456.5790452390198
 30
0.0
 40
2.0
100
AcDbArc
 50
179.9999999999998
 51
269.9999999999998
  0
ELLIPSE
  5
13E
330
1F
100
AcDbEntity
  8
1
  6
Continuous
 62
     7
370
     9
100
AcDbEllipse
 10
329.0523726716249
 20
477.3703475057662
 30
0.0
 11
7.379531309360302E-13
 21
10.24882459480591
 31
0.0
210
0.0
220
0.0
230
1.0
 40
0.2944503528732954
 41
0.0
 42
6.283185307179586
  0
LINE
  5
13F
330
1F
100
AcDbEntity
  8
1
  6
Continuous
 62
     7
370
     9
100
AcDbLine
 10
327.5628514252564
 20
465.5790452390198
 30
0.0
 11
327.5628514252564
 21
468.4569605611504
 31
0.0
  0
LINE
  5
140
330
1F
100
AcDbEntity
  8
1
  6
Continuous
 62
     7
370
     9
100
AcDbLine
 10
330.5628514252564
 20
465.5790452390198
 30
0.0
 11
330.5628514252564
 21
468.5252878537877
 31
0.0
  0
INSERT
  5
165
330
1F
100
AcDbEntity
  8
0
100
AcDbBlockReference
  2
*G13
 10
0.0
 20
0.0
 30
0.0
  0
LINE
  5
166
330
1F
100
AcDbEntity
  8
1
  6
Continuous
 62
     7
370
     9
100
AcDbLine
 10
101.4636647493548
 20
58.57904523901964
 30
0.0
 11
145.1019299023995
 21
58.57904523901964
 31
0.0
  0
LINE
  5
167
330
1F
100
AcDbEntity
  8
1
  6
Continuous
 62
     7
370
     9
100
AcDbLine
 10
104.9288366670748
 20
99.00605094575181
 30
0.0
 11
101.4636647493548
 21
58.57904523901964
 31
0.0
  0
ARC
  5
168
330
1F
100
AcDbEntity
  8
1
  6
Continuous
 62
     7
370
     9
100
AcDbCircle
 10
109.9105699122836
 20
98.57904523901965
 30
0.0
 40
5.0
100
AcDbArc
 50
89.99999999999991
 51
175.1009075462125
  0
LINE
  5
169
330
1F
100
AcDbEntity
  8
1
  6
Continuous
 62
     7
370
     9
100
AcDbLine
 10
109.9105699122836
 20
103.5790452390196
 30
0.0
 11
433.0167598925879
 21
103.5790452390196
 31
0.0
  0
ARC
  5
16A
330
1F
100
AcDbEntity
  8
1
  6
Continuous
 62
     7
370
     9
100
AcDbCircle
 10
433.0167598925879
 20
98.57904523901965
 30
0.0
 40
5.0
100
AcDbArc
 50
4.899092453787858
 51
89.99999999999991
  0
LINE
  5
16B
330
1F
100
AcDbEntity
  8
1
  6
Continuous
 62
     7
370
     9
100
AcDbLine
 10
397.3250251891072
 20
62.57904523901964
 30
0.0
 11
441.1208079126594
 21
62.57904523901964
 31
0.0
  0
LINE
  5
16C
330
1F
100
AcDbEntity
  8
1
  6
Continuous
 62
     7
370
     9
100
AcDbLine
 10
437.9984931377966
 20
99.00605094575184
 30
0.0
 11
441.1208079126594
 21
62.57904523901964
 31
0.0
  0
LINE
  5
16D
330
1F
100
AcDbEntity
  8
1
  6
Continuous
 62
     7
370
     9
100
AcDbLine
 10
289.3528625299211
 20
396.3341658423548
 30
0.0
 11
289.3528625299211
 21
366.4643633475524
 31
0.0
  0
LINE
  5
16E
330
1F
100
AcDbEntity
  8
1
  6
Continuous
 62
     7
370
     9
100
AcDbLine
 10
297.3528625299211
 20
383.837894875939
 30
0.0
 11
297.3528625299211
 21
384.2762887580023
 31
0.0
  0
CIRCLE
  5
16F
330
1F
100
AcDbEntity
  8
1
  6
Continuous
 62
     7
370
     9
100
AcDbCircle
 10
289.3528625299211
 20
384.1362322483914
 30
0.0
 40
4.705163318312657
  0
LINE
  5
170
330
1F
100
AcDbEntity
  8
1
  6
Continuous
 62
     7
370
     9
100
AcDbLine
 10
284.9605406922196
 20
385.8232623981059
 30
0.0
 11
294.0580258482338
 21
382.6879300101652
 31
0.0
  0
LINE
  5
171
330
1F
100
AcDbEntity
  8
1
  6
Continuous
 62
     7
370
     9
100
AcDbLine
 10
297.2287017026195
 20
385.4088183734385
 30
0.0
 11
302.7861277320552
 21
378.7577535257054
 31
0.0
  0
LINE
  5
172
330
1F
100
AcDbEntity
  8
1
  6
Continuous
 62
     7
370
     9
100
AcDbLine
 10
225.2273784007597
 20
235.5790452390196
 30
0.0
 11
255.0273784007596
 21
235.5790452390196
 31
0.0
  0
ARC
  5
173
330
1F
100
AcDbEntity
  8
1
  6
Continuous
 62
     7
370
     9
100
AcDbCircle
 10
288.7503273869608
 20
242.5790452390196
 30
0.0
 40
5.0
100
AcDbArc
 50
21.76759770115959
 51
89.99999999999991
  0
LINE
  5
174
330
1F
100
AcDbEntity
  8
1
  6
Continuous
 62
     7
370
     9
100
AcDbLine
 10
296.8712167176182
 20
235.7248317761487
 30
0.0
 11
293.3938058712555
 21
244.4332587018906
 31
0.0
  0
ARC
  5
175
330
1F
100
AcDbEntity
  8
1
  6
Continuous
 62
     7
370
     9
100
AcDbCircle
 10
301.5146952019129
 20
237.5790452390196
 30
0.0
 40
5.0
100
AcDbArc
 50
201.767597701159
 51
270.0000000000003
  0
LINE
  5
176
330
1F
100
AcDbEntity
  8
1
  6
Continuous
 62
     7
370
     9
100
AcDbLine
 10
323.1273784007597
 20
232.5790452390196
 30
0.0
 11
301.514695201913
 21
232.5790452390196
 31
0.0
  0
ARC
  5
177
330
1F
100
AcDbEntity
  8
1
  6
Continuous
 62
     7
370
     9
100
AcDbCircle
 10
323.1273784007597
 20
237.5790452390196
 30
0.0
 40
5.0
100
AcDbArc
 50
269.9999999999998
 51
0.0
  0
LINE
  5
178
330
1F
100
AcDbEntity
  8
1
  6
Continuous
 62
     7
370
     9
100
AcDbLine
 10
225.2273784007597
 20
235.5790452390196
 30
0.0
 11
225.2273784007597
 21
247.5790452390196
 31
0.0
  0
LINE
  5
179
330
1F
100
AcDbEntity
  8
1
  6
Continuous
 62
     7
370
     9
100
AcDbLine
 10
255.0273784007596
 20
247.5790452390196
 30
0.0
 11
255.0273784007596
 21
235.5790452390196
 31
0.0
  0
CIRCLE
  5
17A
330
1F
100
AcDbEntity
  8
1
  6
Continuous
 62
     7
370
     9
100
AcDbCircle
 10
283.0773784007597
 20
284.3173458845833
 30
0.0
 40
17.0
  0
LINE
  5
17B
330
1F
100
AcDbEntity
  8
1
  6
Continuous
 62
     7
370
     9
100
AcDbLine
 10
283.0773784007597
 20
301.3173458845833
 30
0.0
 11
268.9423949916164
 21
293.7620398459165
 31
0.0
  0
LINE
  5
17C
330
1F
100
AcDbEntity
  8
1
  6
Continuous
 62
     7
370
     9
100
AcDbLine
 10
268.9423949916164
 20
293.7620398459165
 30
0.0
 11
268.9423949916165
 21
274.8726519232501
 31
0.0
  0
LINE
  5
17D
330
1F
100
AcDbEntity
  8
1
  6
Continuous
 62
     7
370
     9
100
AcDbLine
 10
268.9423949916165
 20
274.8726519232501
 30
0.0
 11
283.0773784007598
 21
267.3173458845833
 31
0.0
  0
LINE
  5
17E
330
1F
100
AcDbEntity
  8
1
  6
Continuous
 62
     7
370
     9
100
AcDbLine
 10
283.0773784007598
 20
301.3173458845833
 30
0.0
 11
297.212361809903
 21
293.7620398459165
 31
0.0
  0
LINE
  5
17F
330
1F
100
AcDbEntity
  8
1
  6
Continuous
 62
     7
370
     9
100
AcDbLine
 10
297.212361809903
 20
293.7620398459165
 30
0.0
 11
297.212361809903
 21
274.8726519232501
 31
0.0
  0
LINE
  5
180
330
1F
100
AcDbEntity
  8
1
  6
Continuous
 62
     7
370
     9
100
AcDbLine
 10
297.212361809903
 20
274.8726519232501
 30
0.0
 11
283.0773784007597
 21
267.3173458845833
 31
0.0
  0
CIRCLE
  5
181
330
1F
100
AcDbEntity
  8
1
  6
Continuous
 62
     7
370
     9
100
AcDbCircle
 10
283.0773787054223
 20
284.3173453931492
 30
0.0
 40
12.46396921118476
  0
LINE
  5
182
330
1F
100
AcDbEntity
  8
1
  6
Continuous
 62
     7
370
     9
100
AcDbLine
 10
267.2911815871096
 20
292.6610511693657
 30
0.0
 11
294.489258784
 21
335.1045714073998
 31
0.0
  0
LINE
  5
183
330
1F
100
AcDbEntity
  8
1
  6
Continuous
 62
     7
370
     9
100
AcDbLine
 10
298.894868796227
 20
276.0331183824016
 30
0.0
 11
324.4261434201352
 21
319.3601401155809
 31
0.0
  0
ARC
  5
184
330
1F
100
AcDbEntity
  8
1
  6
Continuous
 62
     7
370
     9
100
AcDbCircle
 10
283.0773784007597
 20
284.3173458845833
 30
0.0
 40
17.85557133554127
100
AcDbArc
 50
141.0850681030684
 51
332.3572213360695
  0
ARC
  5
185
330
1F
100
AcDbEntity
  8
1
  6
Continuous
 62
     7
370
     9
100
AcDbCircle
 10
283.0773784007597
 20
284.3173458845833
 30
0.0
 40
29.78860704982688
100
AcDbArc
 50
95.37439029353509
 51
22.71653402213241
  0
ARC
  5
186
330
1F
100
AcDbEntity
  8
1
  6
Continuous
 62
     7
370
     9
100
AcDbCircle
 10
283.0773784007597
 20
284.3173458845833
 30
0.0
 40
32.20980270200079
100
AcDbArc
 50
90.88071313695822
 51
25.87211533114506
  0
ARC
  5
187
330
1F
100
AcDbEntity
  8
1
  6
Continuous
 62
     7
370
     9
100
AcDbCircle
 10
238.1273784007597
 20
289.3173458845833
 30
0.0
 40
5.0
100
AcDbArc
 50
0.0
 51
89.99999999999991
  0
LINE
  5
188
330
1F
100
AcDbEntity
  8
1
  6
Continuous
 62
     7
370
     9
100
AcDbLine
 10
243.1273784007597
 20
289.3173458845833
 30
0.0
 11
243.1273784007597
 21
252.5790452390196
 31
0.0
  0
ARC
  5
189
330
1F
100
AcDbEntity
  8
1
  6
Continuous
 62
     7
370
     9
100
AcDbCircle
 10
248.1273784007597
 20
252.5790452390196
 30
0.0
 40
5.0
100
AcDbArc
 50
179.9999999999998
 51
269.9999999999998
  0
LINE
  5
18A
330
1F
100
AcDbEntity
  8
1
  6
DOT
 62
     7
370
     9
100
AcDbLine
 10
255.0273784007596
 20
235.5790452390196
 30
0.0
 11
255.0273784007596
 21
190.5790452390196
 31
0.0
  0
LINE
  5
18B
330
1F
100
AcDbEntity
  8
1
  6
DOT
 62
     7
370
     9
100
AcDbLine
 10
225.6179638975166
 20
190.5790452390196
 30
0.0
 11
255.0273784007596
 21
190.5790452390196
 31
0.0
  0
LINE
  5
18C
330
1F
100
AcDbEntity
  8
1
  6
DOT
 62
     7
370
     9
100
AcDbLine
 10
225.2273784007597
 20
235.5790452390196
 30
0.0
 11
225.2273784007597
 21
190.5790452390196
 31
0.0
  0
CIRCLE
  5
18D
330
1F
100
AcDbEntity
  8
1
  6
Continuous
 62
     7
370
     9
100
AcDbCircle
 10
198.6029855793463
 20
394.2739677145409
 30
0.0
 40
8.181771022823398
  0
LINE
  5
18E
330
1F
100
AcDbEntity
  8
1
  6
Continuous
 62
     7
370
     9
100
AcDbLine
 10
198.6029855793469
 20
413.6858582799837
 30
0.0
 11
198.6029855793469
 21
370.6177709618965
 31
0.0
  0
LINE
  5
18F
330
1F
100
AcDbEntity
  8
1
  6
Continuous
 62
     7
370
     9
100
AcDbLine
 10
238.1273784007597
 20
294.3173458845833
 30
0.0
 11
217.1273784007597
 21
294.3173458845833
 31
0.0
  0
ARC
  5
190
330
1F
100
AcDbEntity
  8
1
  6
Continuous
 62
     7
370
     9
100
AcDbCircle
 10
217.1273784007597
 20
299.3173458845833
 30
0.0
 40
5.0
100
AcDbArc
 50
179.9999999999998
 51
269.9999999999998
  0
LINE
  5
191
330
1F
100
AcDbEntity
  8
1
  6
Continuous
 62
     7
370
     9
100
AcDbLine
 10
278.1273784007597
 20
321.055646530147
 30
0.0
 11
285.4866185411101
 21
321.055646530147
 31
0.0
  0
ARC
  5
192
330
1F
100
AcDbEntity
  8
1
  6
Continuous
 62
     7
370
     9
100
AcDbCircle
 10
278.1273784007597
 20
331.055646530147
 30
0.0
 40
10.0
100
AcDbArc
 50
179.9999999999998
 51
269.9999999999998
  0
ARC
  5
193
330
1F
100
AcDbEntity
  8
1
  6
Continuous
 62
     7
370
     9
100
AcDbCircle
 10
287.3528625299211
 20
383.8378948759389
 30
0.0
 40
10.0
100
AcDbArc
 50
0.0000000000003257
 51
83.95643095074806
  0
LINE
  5
194
330
1F
100
AcDbEntity
  8
1
  6
Continuous
 62
     7
370
     9
100
AcDbLine
 10
288.4057094364809
 20
393.7823160954643
 30
0.0
 11
268.1273784007597
 21
400.5790451101833
 31
0.0
  0
LINE
  5
195
330
1F
100
AcDbEntity
  8
1
  6
Continuous
 62
     7
370
     9
100
AcDbLine
 10
286.7300764542452
 20
374.2957007240263
 30
0.0
 11
268.1273784007597
 21
373.5790452340742
 31
0.0
  0
LINE
  5
196
330
1F
100
AcDbEntity
  8
1
  6
Continuous
 62
     7
370
     9
100
AcDbLine
 10
284.6284736226295
 20
374.2147379947144
 30
0.0
 11
295.193092520342
 21
335.8607210406545
 31
0.0
  0
ARC
  5
197
330
1F
100
AcDbEntity
  8
1
  6
Continuous
 62
     7
370
     9
100
AcDbCircle
 10
287.3528625299211
 20
384.2762887580023
 30
0.0
 40
10.0
100
AcDbArc
 50
266.4293879132694
 51
0.0
  0
LINE
  5
198
330
1F
100
AcDbEntity
  8
1
  6
Continuous
 62
     7
370
     9
100
AcDbLine
 10
321.1273784007597
 20
232.5790452390196
 30
0.0
 11
321.1273784007597
 21
103.5790452390196
 31
0.0
  0
LINE
  5
199
330
1F
100
AcDbEntity
  8
1
  6
Continuous
 62
     7
370
     9
100
AcDbLine
 10
212.1273784007597
 20
379.2739677145409
 30
0.0
 11
196.5924398291933
 21
379.2739677145409
 31
0.0
  0
ARC
  5
19A
330
1F
100
AcDbEntity
  8
1
  6
Continuous
 62
     7
370
     9
100
AcDbCircle
 10
197.1273784007597
 20
394.2739677145409
 30
0.0
 40
15.0
100
AcDbArc
 50
89.99999999999991
 51
273.134769566969
  0
CIRCLE
  5
19B
330
1F
100
AcDbEntity
  8
1
  6
Continuous
 62
     7
370
     9
100
AcDbCircle
 10
240.1273784007598
 20
401.8339531804579
 30
0.0
 40
9.0
  0
ARC
  5
19C
330
1F
100
AcDbEntity
  8
1
  6
Continuous
 62
     7
370
     9
100
AcDbCircle
 10
237.1273784007592
 20
387.1370147237588
 30
0.0
 40
2.01810140583654
100
AcDbArc
 50
352.3202436189517
 51
164.7879239851538
  0
ARC
  5
19D
330
1F
100
AcDbEntity
  8
1
  6
Continuous
 62
     7
370
     9
100
AcDbCircle
 10
243.1273787069219
 20
387.1370147237588
 30
0.0
 40
2.01810140583654
100
AcDbArc
 50
15.21207601484624
 51
187.6797563810476
  0
ARC
  5
19E
330
1F
100
AcDbEntity
  8
1
  6
Continuous
 62
     7
370
     9
100
AcDbCircle
 10
240.1273784007598
 20
401.8339531804578
 30
0.0
 40
15.00000000000006
100
AcDbArc
 50
266.1774462707227
 51
273.8225543074443
  0
ARC
  5
19F
330
1F
100
AcDbEntity
  8
1
  6
Continuous
 62
     7
370
     9
100
AcDbCircle
 10
240.1273784007598
 20
401.8339531804578
 30
0.0
 40
15.00000000000006
100
AcDbArc
 50
289.251365466412
 51
250.7486356636404
  0
LINE
  5
1A0
330
1F
100
AcDbEntity
  8
1
  6
Continuous
 62
     7
370
     9
100
AcDbLine
 10
240.1273784007598
 20
417.8148566580123
 30
0.0
 11
240.1273784007598
 21
383.9841530305945
 31
0.0
  0
LINE
  5
1A1
330
1F
100
AcDbEntity
  8
1
  6
Continuous
 62
     7
370
     9
100
AcDbLine
 10
258.0315978454585
 20
401.8339531804578
 30
0.0
 11
223.7623670762279
 21
401.8339531804578
 31
0.0
  0
ARC
  5
1A2
330
1F
100
AcDbEntity
  8
1
  6
Continuous
 62
     7
370
     9
100
AcDbCircle
 10
240.0514854833201
 20
373.396035564601
 30
0.0
 40
4.0
100
AcDbArc
 50
352.4584699179694
 51
359.6688993419419
  0
ARC
  5
1A3
330
1F
100
AcDbEntity
  8
1
  6
Continuous
 62
     7
370
     9
100
AcDbCircle
 10
240.0514854156987
 20
373.3960355649918
 30
0.0
 40
4.0
100
AcDbArc
 50
179.6688993419423
 51
186.8793287659155
  0
ARC
  5
1A4
330
1F
100
AcDbEntity
  8
1
  6
Continuous
 62
     7
370
     9
100
AcDbCircle
 10
237.647740739527
 20
355.4502622764101
 30
0.0
 40
0.2
100
AcDbArc
 50
179.6688993419496
 51
239.3314744777419
  0
LINE
  5
1A5
330
1F
100
AcDbEntity
  8
1
  6
Continuous
 62
     7
370
     9
100
AcDbLine
 10
237.4477440789668
 20
355.4514180293052
 30
0.0
 11
237.4504223287001
 21
355.9148743659288
 31
0.0
  0
ARC
  5
1A6
330
1F
100
AcDbEntity
  8
1
  6
Continuous
 62
     7
370
     9
100
AcDbCircle
 10
237.6504189892602
 20
355.9137186130337
 30
0.0
 40
0.2
100
AcDbArc
 50
59.33147447774223
 51
179.6688993419332
  0
ARC
  5
1A7
330
1F
100
AcDbEntity
  8
1
  6
Continuous
 62
     7
370
     9
100
AcDbCircle
 10
242.2321071796688
 20
352.7316697462813
 30
0.0
 40
0.2
100
AcDbArc
 50
239.3314744777253
 51
359.6688993419493
  0
LINE
  5
1A8
330
1F
100
AcDbEntity
  8
1
  6
Continuous
 62
     7
370
     9
100
AcDbLine
 10
242.432103840229
 20
352.7305139933863
 30
0.0
 11
242.4347820899623
 21
353.1939703300098
 31
0.0
  0
LINE
  5
1A9
330
1F
100
AcDbEntity
  8
1
  6
Continuous
 62
     7
370
     9
100
AcDbLine
 10
237.7524330883493
 20
356.0857451330446
 30
0.0
 11
242.3367995284912
 21
353.3671526029158
 31
0.0
  0
ARC
  5
1AA
330
1F
100
AcDbEntity
  8
1
  6
Continuous
 62
     7
370
     9
100
AcDbCircle
 10
242.2347854294021
 20
353.195126082905
 30
0.0
 40
0.2
100
AcDbArc
 50
359.6688993419167
 51
59.33147447772562
  0
ARC
  5
1AB
330
1F
100
AcDbEntity
  8
1
  6
Continuous
 62
     7
370
     9
100
AcDbCircle
 10
237.6551058324794
 20
356.7247672986892
 30
0.0
 40
0.2
100
AcDbArc
 50
179.6688993419333
 51
239.3314744777253
  0
LINE
  5
1AC
330
1F
100
AcDbEntity
  8
1
  6
Continuous
 62
     7
370
     9
100
AcDbLine
 10
237.4551091719192
 20
356.7259230515843
 30
0.0
 11
237.4577874216525
 21
357.189379388208
 31
0.0
  0
ARC
  5
1AD
330
1F
100
AcDbEntity
  8
1
  6
Continuous
 62
     7
370
     9
100
AcDbCircle
 10
237.6577840822126
 20
357.188223635313
 30
0.0
 40
0.2
100
AcDbArc
 50
59.33147447772562
 51
179.6688993419658
  0
LINE
  5
1AE
330
1F
100
AcDbEntity
  8
1
  6
Continuous
 62
     7
370
     9
100
AcDbLine
 10
237.5530917333903
 20
356.5527407786785
 30
0.0
 11
242.1374581735321
 21
353.8341482485498
 31
0.0
  0
ARC
  5
1AF
330
1F
100
AcDbEntity
  8
1
  6
Continuous
 62
     7
370
     9
100
AcDbCircle
 10
242.2394722726212
 20
354.0061747685606
 30
0.0
 40
0.2
100
AcDbArc
 50
239.3314744777279
 51
359.6688993419328
  0
LINE
  5
1B0
330
1F
100
AcDbEntity
  8
1
  6
Continuous
 62
     7
370
     9
100
AcDbLine
 10
242.4394689331814
 20
354.0050190156655
 30
0.0
 11
242.4421471829147
 21
354.4684753522891
 31
0.0
  0
LINE
  5
1B1
330
1F
100
AcDbEntity
  8
1
  6
Continuous
 62
     7
370
     9
100
AcDbLine
 10
237.7597981813017
 20
357.3602501553237
 30
0.0
 11
242.3441646214436
 21
354.641657625195
 31
0.0
  0
ARC
  5
1B2
330
1F
100
AcDbEntity
  8
1
  6
Continuous
 62
     7
370
     9
100
AcDbCircle
 10
242.2421505223545
 20
354.4696311051842
 30
0.0
 40
0.2
100
AcDbArc
 50
359.6688993419493
 51
59.33147447771992
  0
ARC
  5
1B3
330
1F
100
AcDbEntity
  8
1
  6
Continuous
 62
     7
370
     9
100
AcDbCircle
 10
237.6624711135312
 20
357.9992722094229
 30
0.0
 40
0.2
100
AcDbArc
 50
179.6688993419333
 51
239.3314744777392
  0
LINE
  5
1B4
330
1F
100
AcDbEntity
  8
1
  6
Continuous
 62
     7
370
     9
100
AcDbLine
 10
237.462474452971
 20
358.000427962318
 30
0.0
 11
237.4651527027042
 21
358.4638842989417
 31
0.0
  0
ARC
  5
1B5
330
1F
100
AcDbEntity
  8
1
  6
Continuous
 62
     7
370
     9
100
AcDbCircle
 10
237.6651493632644
 20
358.4627285460466
 30
0.0
 40
0.2
100
AcDbArc
 50
59.33147447771162
 51
179.6688993419495
  0
LINE
  5
1B6
330
1F
100
AcDbEntity
  8
1
  6
Continuous
 62
     7
370
     9
100
AcDbLine
 10
237.5604570144421
 20
357.8272456894121
 30
0.0
 11
242.1448234545838
 21
355.1086531592834
 31
0.0
  0
ARC
  5
1B7
330
1F
100
AcDbEntity
  8
1
  6
Continuous
 62
     7
370
     9
100
AcDbCircle
 10
242.246837553673
 20
355.2806796792943
 30
0.0
 40
0.2
100
AcDbArc
 50
239.3314744777196
 51
359.668899341933
  0
LINE
  5
1B8
330
1F
100
AcDbEntity
  8
1
  6
Continuous
 62
     7
370
     9
100
AcDbLine
 10
237.7671634623536
 20
358.6347550660574
 30
0.0
 11
242.3515299024954
 21
355.9161625359287
 31
0.0
  0
ARC
  5
1B9
330
1F
100
AcDbEntity
  8
1
  6
Continuous
 62
     7
370
     9
100
AcDbCircle
 10
237.6698363005333
 20
359.2737771759294
 30
0.0
 40
0.2
100
AcDbArc
 50
179.6688993419332
 51
239.3314744777476
  0
LINE
  5
1BA
330
1F
100
AcDbEntity
  8
1
  6
Continuous
 62
     7
370
     9
100
AcDbLine
 10
237.4698396399732
 20
359.2749329288245
 30
0.0
 11
237.4725178897064
 21
359.738389265448
 31
0.0
  0
ARC
  5
1BB
330
1F
100
AcDbEntity
  8
1
  6
Continuous
 62
     7
370
     9
100
AcDbCircle
 10
237.6725145502666
 20
359.737233512553
 30
0.0
 40
0.2
100
AcDbArc
 50
59.33147447771992
 51
179.6688993419495
  0
LINE
  5
1BC
330
1F
100
AcDbEntity
  8
1
  6
Continuous
 62
     7
370
     9
100
AcDbLine
 10
237.5678222014443
 20
359.1017506559185
 30
0.0
 11
242.152188641586
 21
356.3831581257898
 31
0.0
  0
LINE
  5
1BD
330
1F
100
AcDbEntity
  8
1
  6
Continuous
 62
     7
370
     9
100
AcDbLine
 10
242.4541994012354
 20
356.5540288929056
 30
0.0
 11
242.4568776509686
 21
357.0174852295291
 31
0.0
  0
LINE
  5
1BE
330
1F
100
AcDbEntity
  8
1
  6
Continuous
 62
     7
370
     9
100
AcDbLine
 10
237.7745286493557
 20
359.9092600325638
 30
0.0
 11
242.3588950894975
 21
357.1906675024351
 31
0.0
  0
ARC
  5
1BF
330
1F
100
AcDbEntity
  8
1
  6
Continuous
 62
     7
370
     9
100
AcDbCircle
 10
242.2568809904084
 20
357.0186409824242
 30
0.0
 40
0.2
100
AcDbArc
 50
359.6688993419331
 51
59.33147447771992
  0
ARC
  5
1C0
330
1F
100
AcDbEntity
  8
1
  6
Continuous
 62
     7
370
     9
100
AcDbCircle
 10
237.6772015815851
 20
360.548282086663
 30
0.0
 40
0.2
100
AcDbArc
 50
179.6688993419332
 51
239.3314744777476
  0
LINE
  5
1C1
330
1F
100
AcDbEntity
  8
1
  6
Continuous
 62
     7
370
     9
100
AcDbLine
 10
237.477204921025
 20
360.5494378395581
 30
0.0
 11
237.4798831707582
 21
361.0128941761816
 31
0.0
  0
ARC
  5
1C2
330
1F
100
AcDbEntity
  8
1
  6
Continuous
 62
     7
370
     9
100
AcDbCircle
 10
237.6798798313184
 20
361.0117384232866
 30
0.0
 40
0.2
100
AcDbArc
 50
59.33147447774223
 51
179.6688993419496
  0
LINE
  5
1C3
330
1F
100
AcDbEntity
  8
1
  6
Continuous
 62
     7
370
     9
100
AcDbLine
 10
237.5751874824961
 20
360.3762555666522
 30
0.0
 11
242.1595539226378
 21
357.6576630365234
 31
0.0
  0
ARC
  5
1C4
330
1F
100
AcDbEntity
  8
1
  6
Continuous
 62
     7
370
     9
100
AcDbCircle
 10
242.2615680217269
 20
357.8296895565343
 30
0.0
 40
0.2
100
AcDbArc
 50
239.3314744777335
 51
359.6688993419493
  0
LINE
  5
1C5
330
1F
100
AcDbEntity
  8
1
  6
Continuous
 62
     7
370
     9
100
AcDbLine
 10
242.4615646822872
 20
357.8285338036392
 30
0.0
 11
242.4642429320204
 21
358.2919901402628
 31
0.0
  0
LINE
  5
1C6
330
1F
100
AcDbEntity
  8
1
  6
Continuous
 62
     7
370
     9
100
AcDbLine
 10
237.7818939304075
 20
361.1837649432975
 30
0.0
 11
242.3662603705493
 21
358.4651724131687
 31
0.0
  0
ARC
  5
1C7
330
1F
100
AcDbEntity
  8
1
  6
Continuous
 62
     7
370
     9
100
AcDbCircle
 10
242.2642462714602
 20
358.2931458931579
 30
0.0
 40
0.2
100
AcDbArc
 50
359.6688993419493
 51
59.33147447773393
  0
ARC
  5
1C8
330
1F
100
AcDbEntity
  8
1
  6
Continuous
 62
     7
370
     9
100
AcDbCircle
 10
237.6845667685873
 20
361.8227870531693
 30
0.0
 40
0.2
100
AcDbArc
 50
179.6688993419332
 51
239.3314744777392
  0
LINE
  5
1C9
330
1F
100
AcDbEntity
  8
1
  6
Continuous
 62
     7
370
     9
100
AcDbLine
 10
237.4845701080271
 20
361.8239428060645
 30
0.0
 11
237.4872483577603
 21
362.2873991426881
 31
0.0
  0
ARC
  5
1CA
330
1F
100
AcDbEntity
  8
1
  6
Continuous
 62
     7
370
     9
100
AcDbCircle
 10
237.6872450183205
 20
362.286243389793
 30
0.0
 40
0.2
100
AcDbArc
 50
59.33147447773393
 51
179.6688993419496
  0
LINE
  5
1CB
330
1F
100
AcDbEntity
  8
1
  6
Continuous
 62
     7
370
     9
100
AcDbLine
 10
237.5825526694982
 20
361.6507605331586
 30
0.0
 11
242.1669191096399
 21
358.9321680030299
 31
0.0
  0
ARC
  5
1CC
330
1F
100
AcDbEntity
  8
1
  6
Continuous
 62
     7
370
     9
100
AcDbCircle
 10
242.2689332087291
 20
359.1041945230407
 30
0.0
 40
0.2
100
AcDbArc
 50
239.3314744777196
 51
359.6688993419493
  0
LINE
  5
1CD
330
1F
100
AcDbEntity
  8
1
  6
Continuous
 62
     7
370
     9
100
AcDbLine
 10
242.4689298692894
 20
359.1030387701456
 30
0.0
 11
242.4716081190226
 21
359.5664951067692
 31
0.0
  0
LINE
  5
1CE
330
1F
100
AcDbEntity
  8
1
  6
Continuous
 62
     7
370
     9
100
AcDbLine
 10
237.7892591174096
 20
362.4582699098038
 30
0.0
 11
242.3736255575515
 21
359.7396773796751
 31
0.0
  0
ARC
  5
1CF
330
1F
100
AcDbEntity
  8
1
  6
Continuous
 62
     7
370
     9
100
AcDbCircle
 10
242.2716114584623
 20
359.5676508596642
 30
0.0
 40
0.2
100
AcDbArc
 50
359.6688993419493
 51
59.33147447771992
  0
ARC
  5
1D0
330
1F
100
AcDbEntity
  8
1
  6
Continuous
 62
     7
370
     9
100
AcDbCircle
 10
237.6919316377978
 20
363.0972922081306
 30
0.0
 40
0.2
100
AcDbArc
 50
179.6688993419332
 51
239.3314744777476
  0
LINE
  5
1D1
330
1F
100
AcDbEntity
  8
1
  6
Continuous
 62
     7
370
     9
100
AcDbLine
 10
237.4919349772376
 20
363.0984479610257
 30
0.0
 11
237.4946132269708
 21
363.5619042976492
 31
0.0
  0
ARC
  5
1D2
330
1F
100
AcDbEntity
  8
1
  6
Continuous
 62
     7
370
     9
100
AcDbCircle
 10
237.694609887531
 20
363.5607485447542
 30
0.0
 40
0.2
100
AcDbArc
 50
59.33147447772823
 51
179.6688993419495
  0
LINE
  5
1D3
330
1F
100
AcDbEntity
  8
1
  6
Continuous
 62
     7
370
     9
100
AcDbLine
 10
237.5899175387087
 20
362.9252656881197
 30
0.0
 11
242.1742839788504
 21
360.2066731579911
 31
0.0
  0
ARC
  5
1D4
330
1F
100
AcDbEntity
  8
1
  6
Continuous
 62
     7
370
     9
100
AcDbCircle
 10
242.2762980779396
 20
360.3786996780019
 30
0.0
 40
0.2
100
AcDbArc
 50
239.3314744777196
 51
359.6688993419331
  0
LINE
  5
1D5
330
1F
100
AcDbEntity
  8
1
  6
Continuous
 62
     7
370
     9
100
AcDbLine
 10
242.4762947384999
 20
360.3775439251068
 30
0.0
 11
242.4789729882331
 21
360.8410002617304
 31
0.0
  0
LINE
  5
1D6
330
1F
100
AcDbEntity
  8
1
  6
Continuous
 62
     7
370
     9
100
AcDbLine
 10
237.7966239866201
 20
363.7327750647651
 30
0.0
 11
242.380990426762
 21
361.0141825346363
 31
0.0
  0
ARC
  5
1D7
330
1F
100
AcDbEntity
  8
1
  6
Continuous
 62
     7
370
     9
100
AcDbCircle
 10
242.2789763276728
 20
360.8421560146255
 30
0.0
 40
0.2
100
AcDbArc
 50
359.6688993419493
 51
59.33147447771992
  0
ARC
  5
1D8
330
1F
100
AcDbEntity
  8
1
  6
Continuous
 62
     7
370
     9
100
AcDbCircle
 10
237.6992969188496
 20
364.3717971188642
 30
0.0
 40
0.2
100
AcDbArc
 50
179.6688993419333
 51
239.3314744777253
  0
LINE
  5
1D9
330
1F
100
AcDbEntity
  8
1
  6
Continuous
 62
     7
370
     9
100
AcDbLine
 10
237.4993002582894
 20
364.3729528717593
 30
0.0
 11
237.5019785080226
 21
364.8364092083829
 31
0.0
  0
ARC
  5
1DA
330
1F
100
AcDbEntity
  8
1
  6
Continuous
 62
     7
370
     9
100
AcDbCircle
 10
237.7019751685828
 20
364.8352534554879
 30
0.0
 40
0.2
100
AcDbArc
 50
59.33147447773393
 51
179.6688993419496
  0
LINE
  5
1DB
330
1F
100
AcDbEntity
  8
1
  6
Continuous
 62
     7
370
     9
100
AcDbLine
 10
237.5972828197605
 20
364.1997705988534
 30
0.0
 11
242.1816492599023
 21
361.4811780687247
 31
0.0
  0
ARC
  5
1DC
330
1F
100
AcDbEntity
  8
1
  6
Continuous
 62
     7
370
     9
100
AcDbCircle
 10
242.2836633589914
 20
361.6532045887355
 30
0.0
 40
0.2
100
AcDbArc
 50
239.3314744777476
 51
359.6688993419493
  0
LINE
  5
1DD
330
1F
100
AcDbEntity
  8
1
  6
Continuous
 62
     7
370
     9
100
AcDbLine
 10
242.4836600195516
 20
361.6520488358405
 30
0.0
 11
242.4863382692848
 21
362.1155051724641
 31
0.0
  0
ARC
  5
1DE
330
1F
100
AcDbEntity
  8
1
  6
Continuous
 62
     7
370
     9
100
AcDbCircle
 10
242.2863416087246
 20
362.1166609253591
 30
0.0
 40
0.2
100
AcDbArc
 50
359.6688993419493
 51
59.33147447774223
  0
LINE
  5
1DF
330
1F
100
AcDbEntity
  8
1
  6
Continuous
 62
     7
370
     9
100
AcDbLine
 10
240.4937983432282
 20
363.4121860937684
 30
0.0
 11
240.5043437720307
 21
365.2370143538852
 31
0.0
  0
LINE
  5
1E0
330
1F
100
AcDbEntity
  8
1
  6
Continuous
 62
     7
370
     9
100
AcDbLine
 10
237.0044023554298
 20
365.2572400287215
 30
0.0
 11
236.0802829340241
 21
372.9169209132214
 31
0.0
  0
LINE
  5
1E1
330
1F
100
AcDbEntity
  8
1
  6
Continuous
 62
     7
370
     9
100
AcDbLine
 10
237.0044023554298
 20
365.2572400287215
 30
0.0
 11
243.0043022398583
 21
365.2225674414784
 31
0.0
  0
LINE
  5
1E2
330
1F
100
AcDbEntity
  8
1
  6
Continuous
 62
     7
370
     9
100
AcDbLine
 10
243.0043022398583
 20
365.2225674414784
 30
0.0
 11
244.0168854463795
 21
372.8710563907589
 31
0.0
  0
LINE
  5
1E3
330
1F
100
AcDbEntity
  8
1
  6
Continuous
 62
     7
370
     9
100
AcDbLine
 10
239.4971969431971
 20
364.0031844698835
 30
0.0
 11
239.504360469229
 21
365.2427931183606
 31
0.0
  0
LINE
  5
1E4
330
1F
100
AcDbEntity
  8
1
  6
Continuous
 62
     7
370
     9
100
AcDbLine
 10
237.8039892676719
 20
365.0072799754987
 30
0.0
 11
239.4971969431971
 21
364.0031844698835
 31
0.0
  0
LINE
  5
1E5
330
1F
100
AcDbEntity
  8
1
  6
Continuous
 62
     7
370
     9
100
AcDbLine
 10
240.4937983432282
 20
363.4121860937684
 30
0.0
 11
242.3883557078137
 21
362.28868744537
 31
0.0
  0
LINE
  5
1E6
330
1F
100
AcDbEntity
  8
1
  6
Continuous
 62
     7
370
     9
100
AcDbLine
 10
236.051552204494
 20
373.4191506228933
 30
0.0
 11
236.0821274759876
 21
378.7100326276223
 31
0.0
  0
LINE
  5
1E7
330
1F
100
AcDbEntity
  8
1
  6
Continuous
 62
     7
370
     9
100
AcDbLine
 10
240.1273784007598
 20
386.528875655979
 30
0.0
 11
236.0821274759876
 21
378.7100326276223
 31
0.0
  0
LINE
  5
1E8
330
1F
100
AcDbEntity
  8
1
  6
Continuous
 62
     7
370
     9
100
AcDbLine
 10
244.0514186945248
 20
373.3729205066996
 30
0.0
 11
244.0803086201349
 21
378.3721627067493
 31
0.0
  0
LINE
  5
1E9
330
1F
100
AcDbEntity
  8
1
  6
Continuous
 62
     7
370
     9
100
AcDbLine
 10
240.1273783651654
 20
386.5288757294265
 30
0.0
 11
244.0803086201349
 21
378.3721627067493
 31
0.0
  0
ARC
  5
1EA
330
1F
100
AcDbEntity
  8
1
  6
Continuous
 62
     7
370
     9
100
AcDbCircle
 10
239.8804813040839
 20
343.8046907291492
 30
0.0
 40
1.0
100
AcDbArc
 50
119.6689099311492
 51
59.6689099311531
  0
ARC
  5
1EB
330
1F
100
AcDbEntity
  8
1
  6
Continuous
 62
     7
370
     9
100
AcDbCircle
 10
237.6403755525249
 20
354.1757573099036
 30
0.0
 40
0.2
100
AcDbArc
 50
179.6688993419333
 51
239.3314744777253
  0
LINE
  5
1EC
330
1F
100
AcDbEntity
  8
1
  6
Continuous
 62
     7
370
     9
100
AcDbLine
 10
237.4403788919647
 20
354.1769130627987
 30
0.0
 11
237.443057141698
 21
354.6403693994223
 31
0.0
  0
ARC
  5
1ED
330
1F
100
AcDbEntity
  8
1
  6
Continuous
 62
     7
370
     9
100
AcDbCircle
 10
237.6430538022581
 20
354.6392136465273
 30
0.0
 40
0.2
100
AcDbArc
 50
59.33147447772562
 51
179.6688993419658
  0
LINE
  5
1EE
330
1F
100
AcDbEntity
  8
1
  6
Continuous
 62
     7
370
     9
100
AcDbLine
 10
237.5383614534358
 20
354.0037307898928
 30
0.0
 11
242.1227278935776
 21
351.2851382597642
 31
0.0
  0
ARC
  5
1EF
330
1F
100
AcDbEntity
  8
1
  6
Continuous
 62
     7
370
     9
100
AcDbCircle
 10
242.2247419926667
 20
351.457164779775
 30
0.0
 40
0.2
100
AcDbArc
 50
239.3314744777196
 51
359.6688993419328
  0
LINE
  5
1F0
330
1F
100
AcDbEntity
  8
1
  6
Continuous
 62
     7
370
     9
100
AcDbLine
 10
242.4247386532269
 20
351.4560090268799
 30
0.0
 11
242.4274169029602
 21
351.9194653635035
 31
0.0
  0
LINE
  5
1F1
330
1F
100
AcDbEntity
  8
1
  6
Continuous
 62
     7
370
     9
100
AcDbLine
 10
237.7450679013472
 20
354.8112401665381
 30
0.0
 11
242.3294343414891
 21
352.0926476364094
 31
0.0
  0
ARC
  5
1F2
330
1F
100
AcDbEntity
  8
1
  6
Continuous
 62
     7
370
     9
100
AcDbCircle
 10
242.2274202423999
 20
351.9206211163985
 30
0.0
 40
0.2
100
AcDbArc
 50
359.6688993419493
 51
59.33147447771992
  0
ARC
  5
1F3
330
1F
100
AcDbEntity
  8
1
  6
Continuous
 62
     7
370
     9
100
AcDbCircle
 10
237.6330102714732
 20
352.9012523991699
 30
0.0
 40
0.2
100
AcDbArc
 50
179.6688993419334
 51
239.3314744777196
  0
LINE
  5
1F4
330
1F
100
AcDbEntity
  8
1
  6
Continuous
 62
     7
370
     9
100
AcDbLine
 10
237.4330136109129
 20
352.902408152065
 30
0.0
 11
237.4356918606462
 21
353.3658644886887
 31
0.0
  0
ARC
  5
1F5
330
1F
100
AcDbEntity
  8
1
  6
Continuous
 62
     7
370
     9
100
AcDbCircle
 10
237.6356885212064
 20
353.3647087357936
 30
0.0
 40
0.2
100
AcDbArc
 50
59.33147447773393
 51
179.6688993419495
  0
LINE
  5
1F6
330
1F
100
AcDbEntity
  8
1
  6
Continuous
 62
     7
370
     9
100
AcDbLine
 10
237.530996172384
 20
352.7292258791591
 30
0.0
 11
242.1153626125258
 21
350.0106333490305
 31
0.0
  0
ARC
  5
1F7
330
1F
100
AcDbEntity
  8
1
  6
Continuous
 62
     7
370
     9
100
AcDbCircle
 10
242.217376711615
 20
350.1826598690413
 30
0.0
 40
0.2
100
AcDbArc
 50
239.3314744777196
 51
359.6688993419328
  0
LINE
  5
1F8
330
1F
100
AcDbEntity
  8
1
  6
Continuous
 62
     7
370
     9
100
AcDbLine
 10
242.4173733721751
 20
350.1815041161462
 30
0.0
 11
242.4200516219084
 21
350.6449604527698
 31
0.0
  0
LINE
  5
1F9
330
1F
100
AcDbEntity
  8
1
  6
Continuous
 62
     7
370
     9
100
AcDbLine
 10
237.7377026202955
 20
353.5367352558044
 30
0.0
 11
242.3220690604373
 21
350.8181427256757
 31
0.0
  0
ARC
  5
1FA
330
1F
100
AcDbEntity
  8
1
  6
Continuous
 62
     7
370
     9
100
AcDbCircle
 10
242.2200549613482
 20
350.6461162056649
 30
0.0
 40
0.2
100
AcDbArc
 50
359.6688993419331
 51
59.33147447773393
  0
ARC
  5
1FB
330
1F
100
AcDbEntity
  8
1
  6
Continuous
 62
     7
370
     9
100
AcDbCircle
 10
237.6256451785207
 20
351.6267473768908
 30
0.0
 40
0.2
100
AcDbArc
 50
179.6688993419332
 51
239.3314744777476
  0
LINE
  5
1FC
330
1F
100
AcDbEntity
  8
1
  6
Continuous
 62
     7
370
     9
100
AcDbLine
 10
237.4256485179606
 20
351.6279031297859
 30
0.0
 11
237.4283267676938
 21
352.0913594664095
 31
0.0
  0
ARC
  5
1FD
330
1F
100
AcDbEntity
  8
1
  6
Continuous
 62
     7
370
     9
100
AcDbCircle
 10
237.628323428254
 20
352.0902037135144
 30
0.0
 40
0.2
100
AcDbArc
 50
59.33147447773393
 51
179.6688993419496
  0
LINE
  5
1FE
330
1F
100
AcDbEntity
  8
1
  6
Continuous
 62
     7
370
     9
100
AcDbLine
 10
237.5236310794317
 20
351.4547208568799
 30
0.0
 11
242.1079975195734
 21
348.7361283267513
 31
0.0
  0
ARC
  5
1FF
330
1F
100
AcDbEntity
  8
1
  6
Continuous
 62
     7
370
     9
100
AcDbCircle
 10
242.2100116186625
 20
348.9081548467621
 30
0.0
 40
0.2
100
AcDbArc
 50
239.3314744777335
 51
359.6688993419331
  0
LINE
  5
200
330
1F
100
AcDbEntity
  8
1
  6
Continuous
 62
     7
370
     9
100
AcDbLine
 10
242.4100082792228
 20
348.906999093867
 30
0.0
 11
242.412686528956
 21
349.3704554304906
 31
0.0
  0
LINE
  5
201
330
1F
100
AcDbEntity
  8
1
  6
Continuous
 62
     7
370
     9
100
AcDbLine
 10
237.7303375273431
 20
352.2622302335253
 30
0.0
 11
242.3147039674849
 21
349.5436377033965
 31
0.0
  0
ARC
  5
202
330
1F
100
AcDbEntity
  8
1
  6
Continuous
 62
     7
370
     9
100
AcDbCircle
 10
242.2126898683957
 20
349.3716111833857
 30
0.0
 40
0.2
100
AcDbArc
 50
359.6688993419331
 51
59.33147447771992
  0
ARC
  5
203
330
1F
100
AcDbEntity
  8
1
  6
Continuous
 62
     7
370
     9
100
AcDbCircle
 10
237.6182798974689
 20
350.3522424661571
 30
0.0
 40
0.2
100
AcDbArc
 50
179.6688993419333
 51
239.3314744777392
  0
LINE
  5
204
330
1F
100
AcDbEntity
  8
1
  6
Continuous
 62
     7
370
     9
100
AcDbLine
 10
237.4182832369087
 20
350.3533982190522
 30
0.0
 11
237.420961486642
 21
350.8168545556758
 31
0.0
  0
ARC
  5
205
330
1F
100
AcDbEntity
  8
1
  6
Continuous
 62
     7
370
     9
100
AcDbCircle
 10
237.6209581472022
 20
350.8156988027808
 30
0.0
 40
0.2
100
AcDbArc
 50
59.33147447772562
 51
179.6688993419496
  0
ARC
  5
206
330
1F
100
AcDbEntity
  8
1
  6
Continuous
 62
     7
370
     9
100
AcDbCircle
 10
242.2026463376108
 20
347.6336499360285
 30
0.0
 40
0.2
100
AcDbArc
 50
239.3314744777196
 51
359.668899341933
  0
LINE
  5
207
330
1F
100
AcDbEntity
  8
1
  6
Continuous
 62
     7
370
     9
100
AcDbLine
 10
242.402642998171
 20
347.6324941831334
 30
0.0
 11
242.4053212479042
 21
348.095950519757
 31
0.0
  0
LINE
  5
208
330
1F
100
AcDbEntity
  8
1
  6
Continuous
 62
     7
370
     9
100
AcDbLine
 10
237.7229722462913
 20
350.9877253227916
 30
0.0
 11
242.3073386864331
 21
348.2691327926628
 31
0.0
  0
ARC
  5
209
330
1F
100
AcDbEntity
  8
1
  6
Continuous
 62
     7
370
     9
100
AcDbCircle
 10
242.205324587344
 20
348.097106272652
 30
0.0
 40
0.2
100
AcDbArc
 50
359.6688993419493
 51
59.33147447771992
  0
LINE
  5
20A
330
1F
100
AcDbEntity
  8
1
  6
Continuous
 62
     7
370
     9
100
AcDbLine
 10
239.3854939093319
 20
344.6735908839636
 30
0.0
 11
239.4108233867074
 21
349.0567171650657
 31
0.0
  0
LINE
  5
20B
330
1F
100
AcDbEntity
  8
1
  6
Continuous
 62
     7
370
     9
100
AcDbLine
 10
240.3854772136651
 20
344.6678123846333
 30
0.0
 11
240.4074247867382
 21
348.4657187889508
 31
0.0
  0
LINE
  5
20C
330
1F
100
AcDbEntity
  8
1
  6
Continuous
 62
     7
370
     9
100
AcDbLine
 10
237.5162657983799
 20
350.1802159461463
 30
0.0
 11
239.4108233867074
 21
349.0567171650657
 31
0.0
  0
LINE
  5
20D
330
1F
100
AcDbEntity
  8
1
  6
Continuous
 62
     7
370
     9
100
AcDbLine
 10
240.4074247867382
 20
348.4657187889508
 30
0.0
 11
242.1006322385216
 21
347.4616234160176
 31
0.0
  0
LINE
  5
20E
330
1F
100
AcDbEntity
  8
1
  6
Continuous
 62
     7
370
     9
100
AcDbLine
 10
237.5457266404379
 20
355.2782357563992
 30
0.0
 11
239.9385848347313
 21
353.859237843034
 31
0.0
  0
LINE
  5
20F
330
1F
100
AcDbEntity
  8
1
  6
Continuous
 62
     7
370
     9
100
AcDbLine
 10
239.9385848347313
 20
353.859237843034
 30
0.0
 11
242.1300930805797
 21
352.5596432262706
 31
0.0
  0
CIRCLE
  5
210
330
1F
100
AcDbEntity
  8
1
  6
Continuous
 62
     7
370
     9
100
AcDbCircle
 10
240.0803235921845
 20
378.3863013953647
 30
0.0
 40
2.506833707477284
  0
LINE
  5
211
330
1F
100
AcDbEntity
  8
1
  6
Continuous
 62
     7
370
     9
100
AcDbLine
 10
239.4003487557309
 20
376.7976584528541
 30
0.0
 11
240.7214847229573
 21
379.884262865125
 31
0.0
  0
ARC
  5
212
330
1F
100
AcDbEntity
  8
1
  6
Continuous
 62
     7
370
     9
100
AcDbCircle
 10
239.8810154461313
 20
343.8970781876937
 30
0.0
 40
3.413200436031886
100
AcDbArc
 50
98.09248449362367
 51
81.24533275369355
  0
LINE
  5
213
330
1F
100
AcDbEntity
  8
1
  6
DOT
 62
     7
370
     9
100
AcDbLine
 10
212.1273784007595
 20
404.5790452390196
 30
0.0
 11
227.8833276489903
 21
393.1688956972038
 31
0.0
  0
LINE
  5
214
330
1F
100
AcDbEntity
  8
1
  6
DOT
 62
     7
370
     9
100
AcDbLine
 10
196.0159646739137
 20
379.2739677145409
 30
0.0
 11
225.2273784007597
 21
363.4523538015758
 31
0.0
  0
LINE
  5
215
330
1F
100
AcDbEntity
  8
1
  6
DOT
 62
     7
370
     9
100
AcDbLine
 10
236.37389173364
 20
379.2739677145409
 30
0.0
 11
225.2273784007597
 21
379.2739677145409
 31
0.0
  0
LINE
  5
216
330
1F
100
AcDbEntity
  8
1
  6
DOT
 62
     7
370
     9
100
AcDbLine
 10
225.2273784007597
 20
379.2739677145409
 30
0.0
 11
225.2273784007597
 21
247.5790452390196
 31
0.0
  0
LINE
  5
217
330
1F
100
AcDbEntity
  8
1
  6
DOT
 62
     7
370
     9
100
AcDbLine
 10
243.4784624038158
 20
379.2739677145409
 30
0.0
 11
255.0273784007597
 21
379.2739677145409
 31
0.0
  0
LINE
  5
218
330
1F
100
AcDbEntity
  8
1
  6
DOT
 62
     7
370
     9
100
AcDbLine
 10
255.0273784007597
 20
247.5790452390196
 30
0.0
 11
255.0273784007597
 21
379.2739677145409
 31
0.0
  0
LINE
  5
219
330
1F
100
AcDbEntity
  8
1
  6
Continuous
 62
     7
370
     9
100
AcDbLine
 10
310.3528623051133
 20
340.8059967272356
 30
0.0
 11
370.2449258383781
 21
442.4438811092651
 31
0.0
  0
POLYLINE
  5
21A
330
1F
100
AcDbEntity
  8
1
  6
Continuous
 62
     7
370
     9
100
AcDb2dPolyline
 66
     1
 10
0.0
 20
0.0
 30
0.0
 70
     2
  0
VERTEX
  5
21C
330
21A
100
AcDbEntity
  8
1
  6
Continuous
 62
     7
370
     9
100
AcDbVertex
100
AcDb2dVertex
 10
370.2449258383781
 20
442.4438811092651
 30
0.0
  0
VERTEX
  5
21D
330
21A
100
AcDbEntity
  8
1
  6
Continuous
 62
     7
370
     9
100
AcDbVertex
100
AcDb2dVertex
 10
370.2772870865073
 20
442.4526090586237
 30
0.0
  0
VERTEX
  5
21E
330
21A
100
AcDbEntity
  8
1
  6
Continuous
 62
     7
370
     9
100
AcDbVertex
100
AcDb2dVertex
 10
370.3734841981902
 20
442.4785280408868
 30
0.0
  0
VERTEX
  5
21F
330
21A
100
AcDbEntity
  8
1
  6
Continuous
 62
     7
370
     9
100
AcDbVertex
100
AcDb2dVertex
 10
370.5308594979115
 20
442.5206999035076
 30
0.0
  0
VERTEX
  5
220
330
21A
100
AcDbEntity
  8
1
  6
Continuous
 62
     7
370
     9
100
AcDbVertex
100
AcDb2dVertex
 10
370.7449986505162
 20
442.5771398427268
 30
0.0
  0
VERTEX
  5
221
330
21A
100
AcDbEntity
  8
1
  6
Continuous
 62
     7
370
     9
100
AcDbVertex
100
AcDb2dVertex
 10
371.0097779972448
 20
442.644368854197
 30
0.0
  0
VERTEX
  5
222
330
21A
100
AcDbEntity
  8
1
  6
Continuous
 62
     7
370
     9
100
AcDbVertex
100
AcDb2dVertex
 10
371.3174722623623
 20
442.7171013038069
 30
0.0
  0
VERTEX
  5
223
330
21A
100
AcDbEntity
  8
1
  6
Continuous
 62
     7
370
     9
100
AcDbVertex
100
AcDb2dVertex
 10
371.6589478031063
 20
442.7882691308761
 30
0.0
  0
VERTEX
  5
224
330
21A
100
AcDbEntity
  8
1
  6
Continuous
 62
     7
370
     9
100
AcDbVertex
100
AcDb2dVertex
 10
372.0239553714825
 20
442.8495141121941
 30
0.0
  0
VERTEX
  5
225
330
21A
100
AcDbEntity
  8
1
  6
Continuous
 62
     7
370
     9
100
AcDbVertex
100
AcDb2dVertex
 10
372.4015185049317
 20
442.8921629264613
 30
0.0
  0
VERTEX
  5
226
330
21A
100
AcDbEntity
  8
1
  6
Continuous
 62
     7
370
     9
100
AcDbVertex
100
AcDb2dVertex
 10
372.7803933442967
 20
442.9085650029929
 30
0.0
  0
VERTEX
  5
227
330
21A
100
AcDbEntity
  8
1
  6
Continuous
 62
     7
370
     9
100
AcDbVertex
100
AcDb2dVertex
 10
373.1495579311809
 20
442.893554783937
 30
0.0
  0
VERTEX
  5
228
330
21A
100
AcDbEntity
  8
1
  6
Continuous
 62
     7
370
     9
100
AcDbVertex
100
AcDb2dVertex
 10
373.4986785192643
 20
442.8457299495416
 30
0.0
  0
VERTEX
  5
229
330
21A
100
AcDbEntity
  8
1
  6
Continuous
 62
     7
370
     9
100
AcDbVertex
100
AcDb2dVertex
 10
373.8185002468142
 20
442.768236585432
 30
0.0
  0
VERTEX
  5
22A
330
21A
100
AcDbEntity
  8
1
  6
Continuous
 62
     7
370
     9
100
AcDbVertex
100
AcDb2dVertex
 10
374.1011203924894
 20
442.6688262151782
 30
0.0
  0
VERTEX
  5
22B
330
21A
100
AcDbEntity
  8
1
  6
Continuous
 62
     7
370
     9
100
AcDbVertex
100
AcDb2dVertex
 10
374.3401224834344
 20
442.5590851237029
 30
0.0
  0
VERTEX
  5
22C
330
21A
100
AcDbEntity
  8
1
  6
Continuous
 62
     7
370
     9
100
AcDbVertex
100
AcDb2dVertex
 10
374.5305746095534
 20
442.452905133523
 30
0.0
  0
VERTEX
  5
22D
330
21A
100
AcDbEntity
  8
1
  6
Continuous
 62
     7
370
     9
100
AcDbVertex
100
AcDb2dVertex
 10
374.6689199689488
 20
442.3644296329499
 30
0.0
  0
VERTEX
  5
22E
330
21A
100
AcDbEntity
  8
1
  6
Continuous
 62
     7
370
     9
100
AcDbVertex
100
AcDb2dVertex
 10
374.7528064157799
 20
442.3058314872289
 30
0.0
  0
VERTEX
  5
22F
330
21A
100
AcDbEntity
  8
1
  6
Continuous
 62
     7
370
     9
100
AcDbVertex
100
AcDb2dVertex
 10
374.7809103260877
 20
442.2853312860487
 30
0.0
  0
VERTEX
  5
230
330
21A
100
AcDbEntity
  8
1
  6
Continuous
 62
     7
370
     9
100
AcDbVertex
100
AcDb2dVertex
 10
374.8089559765232
 20
442.2644309290715
 30
0.0
  0
VERTEX
  5
231
330
21A
100
AcDbEntity
  8
1
  6
Continuous
 62
     7
370
     9
100
AcDbVertex
100
AcDb2dVertex
 10
374.8919907358178
 20
442.1999744824709
 30
0.0
  0
VERTEX
  5
232
330
21A
100
AcDbEntity
  8
1
  6
Continuous
 62
     7
370
     9
100
AcDbVertex
100
AcDb2dVertex
 10
375.0268207520772
 20
442.0872513989387
 30
0.0
  0
VERTEX
  5
233
330
21A
100
AcDbEntity
  8
1
  6
Continuous
 62
     7
370
     9
100
AcDbVertex
100
AcDb2dVertex
 10
375.208475536247
 20
441.9201308909159
 30
0.0
  0
VERTEX
  5
234
330
21A
100
AcDbEntity
  8
1
  6
Continuous
 62
     7
370
     9
100
AcDbVertex
100
AcDb2dVertex
 10
375.4306613210823
 20
441.6932118845733
 30
0.0
  0
VERTEX
  5
235
330
21A
100
AcDbEntity
  8
1
  6
Continuous
 62
     7
370
     9
100
AcDbVertex
100
AcDb2dVertex
 10
375.6862631199534
 20
441.4040770185434
 30
0.0
  0
VERTEX
  5
236
330
21A
100
AcDbEntity
  8
1
  6
Continuous
 62
     7
370
     9
100
AcDbVertex
100
AcDb2dVertex
 10
375.9678013186521
 20
441.055113259914
 30
0.0
  0
VERTEX
  5
237
330
21A
100
AcDbEntity
  8
1
  6
Continuous
 62
     7
370
     9
100
AcDbVertex
100
AcDb2dVertex
 10
376.2677661597871
 20
440.6544611934776
 30
0.0
  0
VERTEX
  5
238
330
21A
100
AcDbEntity
  8
1
  6
Continuous
 62
     7
370
     9
100
AcDbVertex
100
AcDb2dVertex
 10
376.578788666672
 20
440.2158563072468
 30
0.0
  0
VERTEX
  5
239
330
21A
100
AcDbEntity
  8
1
  6
Continuous
 62
     7
370
     9
100
AcDbVertex
100
AcDb2dVertex
 10
376.8936507602321
 20
439.757380473609
 30
0.0
  0
VERTEX
  5
23A
330
21A
100
AcDbEntity
  8
1
  6
Continuous
 62
     7
370
     9
100
AcDbVertex
100
AcDb2dVertex
 10
377.2051797488398
 20
439.2993897044311
 30
0.0
  0
VERTEX
  5
23B
330
21A
100
AcDbEntity
  8
1
  6
Continuous
 62
     7
370
     9
100
AcDbVertex
100
AcDb2dVertex
 10
377.5061026682669
 20
438.8620666333208
 30
0.0
  0
VERTEX
  5
23C
330
21A
100
AcDbEntity
  8
1
  6
Continuous
 62
     7
370
     9
100
AcDbVertex
100
AcDb2dVertex
 10
377.7889467191779
 20
438.4631206206565
 30
0.0
  0
VERTEX
  5
23D
330
21A
100
AcDbEntity
  8
1
  6
Continuous
 62
     7
370
     9
100
AcDbVertex
100
AcDb2dVertex
 10
378.0460606348318
 20
438.1161086040098
 30
0.0
  0
VERTEX
  5
23E
330
21A
100
AcDbEntity
  8
1
  6
Continuous
 62
     7
370
     9
100
AcDbVertex
100
AcDb2dVertex
 10
378.2698009397043
 20
437.8296894377943
 30
0.0
  0
VERTEX
  5
23F
330
21A
100
AcDbEntity
  8
1
  6
Continuous
 62
     7
370
     9
100
AcDbVertex
100
AcDb2dVertex
 10
378.4528841907986
 20
437.607893526205
 30
0.0
  0
VERTEX
  5
240
330
21A
100
AcDbEntity
  8
1
  6
Continuous
 62
     7
370
     9
100
AcDbVertex
100
AcDb2dVertex
 10
378.5888618243138
 20
437.4512447237655
 30
0.0
  0
VERTEX
  5
241
330
21A
100
AcDbEntity
  8
1
  6
Continuous
 62
     7
370
     9
100
AcDbVertex
100
AcDb2dVertex
 10
378.6726389890584
 20
437.3583722761377
 30
0.0
  0
VERTEX
  5
242
330
21A
100
AcDbEntity
  8
1
  6
Continuous
 62
     7
370
     9
100
AcDbVertex
100
AcDb2dVertex
 10
378.7009413819883
 20
437.327644950645
 30
0.0
  0
VERTEX
  5
243
330
21A
100
AcDbEntity
  8
1
  6
Continuous
 62
     7
370
     9
100
AcDbVertex
100
AcDb2dVertex
 10
378.7293055564592
 20
437.2971829870299
 30
0.0
  0
VERTEX
  5
244
330
21A
100
AcDbEntity
  8
1
  6
Continuous
 62
     7
370
     9
100
AcDbVertex
100
AcDb2dVertex
 10
378.813986279892
 20
437.208183441739
 30
0.0
  0
VERTEX
  5
245
330
21A
100
AcDbEntity
  8
1
  6
Continuous
 62
     7
370
     9
100
AcDbVertex
100
AcDb2dVertex
 10
378.9536964323544
 20
437.0674696915874
 30
0.0
  0
VERTEX
  5
246
330
21A
100
AcDbEntity
  8
1
  6
Continuous
 62
     7
370
     9
100
AcDbVertex
100
AcDb2dVertex
 10
379.1461323681259
 20
436.8853582314621
 30
0.0
  0
VERTEX
  5
247
330
21A
100
AcDbEntity
  8
1
  6
Continuous
 62
     7
370
     9
100
AcDbVertex
100
AcDb2dVertex
 10
379.3877819673908
 20
436.6742822169655
 30
0.0
  0
VERTEX
  5
248
330
21A
100
AcDbEntity
  8
1
  6
Continuous
 62
     7
370
     9
100
AcDbVertex
100
AcDb2dVertex
 10
379.6737368351265
 20
436.4472334174906
 30
0.0
  0
VERTEX
  5
249
330
21A
100
AcDbEntity
  8
1
  6
Continuous
 62
     7
370
     9
100
AcDbVertex
100
AcDb2dVertex
 10
379.9975674914302
 20
436.2162959702773
 30
0.0
  0
VERTEX
  5
24A
330
21A
100
AcDbEntity
  8
1
  6
Continuous
 62
     7
370
     9
100
AcDbVertex
100
AcDb2dVertex
 10
380.3513113839161
 20
435.9915114669644
 30
0.0
  0
VERTEX
  5
24B
330
21A
100
AcDbEntity
  8
1
  6
Continuous
 62
     7
370
     9
100
AcDbVertex
100
AcDb2dVertex
 10
380.7256037154772
 20
435.7802338336811
 30
0.0
  0
VERTEX
  5
24C
330
21A
100
AcDbEntity
  8
1
  6
Continuous
 62
     7
370
     9
100
AcDbVertex
100
AcDb2dVertex
 10
381.1099549536407
 20
435.587023556395
 30
0.0
  0
VERTEX
  5
24D
330
21A
100
AcDbEntity
  8
1
  6
Continuous
 62
     7
370
     9
100
AcDbVertex
100
AcDb2dVertex
 10
381.4931523134896
 20
435.4140190734876
 30
0.0
  0
VERTEX
  5
24E
330
21A
100
AcDbEntity
  8
1
  6
Continuous
 62
     7
370
     9
100
AcDbVertex
100
AcDb2dVertex
 10
381.8637412645605
 20
435.2616333812143
 30
0.0
  0
VERTEX
  5
24F
330
21A
100
AcDbEntity
  8
1
  6
Continuous
 62
     7
370
     9
100
AcDbVertex
100
AcDb2dVertex
 10
382.2105315862705
 20
435.1293748711448
 30
0.0
  0
VERTEX
  5
250
330
21A
100
AcDbEntity
  8
1
  6
Continuous
 62
     7
370
     9
100
AcDbVertex
100
AcDb2dVertex
 10
382.5230726902313
 20
435.0165917409169
 30
0.0
  0
VERTEX
  5
251
330
21A
100
AcDbEntity
  8
1
  6
Continuous
 62
     7
370
     9
100
AcDbVertex
100
AcDb2dVertex
 10
382.7920540653171
 20
434.9229856694929
 30
0.0
  0
VERTEX
  5
252
330
21A
100
AcDbEntity
  8
1
  6
Continuous
 62
     7
370
     9
100
AcDbVertex
100
AcDb2dVertex
 10
383.0096054944988
 20
434.8488187352001
 30
0.0
  0
VERTEX
  5
253
330
21A
100
AcDbEntity
  8
1
  6
Continuous
 62
     7
370
     9
100
AcDbVertex
100
AcDb2dVertex
 10
383.1694932045427
 20
434.794826629335
 30
0.0
  0
VERTEX
  5
254
330
21A
100
AcDbEntity
  8
1
  6
Continuous
 62
     7
370
     9
100
AcDbVertex
100
AcDb2dVertex
 10
383.2672269982775
 20
434.7619282110012
 30
0.0
  0
VERTEX
  5
255
330
21A
100
AcDbEntity
  8
1
  6
Continuous
 62
     7
370
     9
100
AcDbVertex
100
AcDb2dVertex
 10
383.3001052530641
 20
434.7508674294094
 30
0.0
  0
SEQEND
  5
21B
330
21A
100
AcDbEntity
  8
1
  6
Continuous
370
     9
  0
POLYLINE
  5
256
330
1F
100
AcDbEntity
  8
1
  6
Continuous
 62
     7
370
     9
100
AcDb2dPolyline
 66
     1
 10
0.0
 20
0.0
 30
0.0
 70
     2
  0
VERTEX
  5
258
330
256
100
AcDbEntity
  8
1
  6
Continuous
 62
     7
370
     9
100
AcDbVertex
100
AcDb2dVertex
 10
370.9096180913377
 20
443.5718763531795
 30
0.0
  0
VERTEX
  5
259
330
256
100
AcDbEntity
  8
1
  6
Continuous
 62
     7
370
     9
100
AcDbVertex
100
AcDb2dVertex
 10
370.9419793394669
 20
443.5806043025381
 30
0.0
  0
VERTEX
  5
25A
330
256
100
AcDbEntity
  8
1
  6
Continuous
 62
     7
370
     9
100
AcDbVertex
100
AcDb2dVertex
 10
371.0381764511498
 20
443.6065232848013
 30
0.0
  0
VERTEX
  5
25B
330
256
100
AcDbEntity
  8
1
  6
Continuous
 62
     7
370
     9
100
AcDbVertex
100
AcDb2dVertex
 10
371.1955517508711
 20
443.648695147422
 30
0.0
  0
VERTEX
  5
25C
330
256
100
AcDbEntity
  8
1
  6
Continuous
 62
     7
370
     9
100
AcDbVertex
100
AcDb2dVertex
 10
371.4096909034757
 20
443.7051350866412
 30
0.0
  0
VERTEX
  5
25D
330
256
100
AcDbEntity
  8
1
  6
Continuous
 62
     7
370
     9
100
AcDbVertex
100
AcDb2dVertex
 10
371.6744702502044
 20
443.7723640981114
 30
0.0
  0
VERTEX
  5
25E
330
256
100
AcDbEntity
  8
1
  6
Continuous
 62
     7
370
     9
100
AcDbVertex
100
AcDb2dVertex
 10
371.9821645153219
 20
443.8450965477214
 30
0.0
  0
VERTEX
  5
25F
330
256
100
AcDbEntity
  8
1
  6
Continuous
 62
     7
370
     9
100
AcDbVertex
100
AcDb2dVertex
 10
372.3236400560659
 20
443.9162643747906
 30
0.0
  0
VERTEX
  5
260
330
256
100
AcDbEntity
  8
1
  6
Continuous
 62
     7
370
     9
100
AcDbVertex
100
AcDb2dVertex
 10
372.6886476244421
 20
443.9775093561086
 30
0.0
  0
VERTEX
  5
261
330
256
100
AcDbEntity
  8
1
  6
Continuous
 62
     7
370
     9
100
AcDbVertex
100
AcDb2dVertex
 10
373.0662107578913
 20
444.0201581703757
 30
0.0
  0
VERTEX
  5
262
330
256
100
AcDbEntity
  8
1
  6
Continuous
 62
     7
370
     9
100
AcDbVertex
100
AcDb2dVertex
 10
373.4450855972563
 20
444.0365602469073
 30
0.0
  0
VERTEX
  5
263
330
256
100
AcDbEntity
  8
1
  6
Continuous
 62
     7
370
     9
100
AcDbVertex
100
AcDb2dVertex
 10
373.8142501841405
 20
444.0215500278514
 30
0.0
  0
VERTEX
  5
264
330
256
100
AcDbEntity
  8
1
  6
Continuous
 62
     7
370
     9
100
AcDbVertex
100
AcDb2dVertex
 10
374.1633707722239
 20
443.9737251934561
 30
0.0
  0
VERTEX
  5
265
330
256
100
AcDbEntity
  8
1
  6
Continuous
 62
     7
370
     9
100
AcDbVertex
100
AcDb2dVertex
 10
374.4831924997737
 20
443.8962318293464
 30
0.0
  0
VERTEX
  5
266
330
256
100
AcDbEntity
  8
1
  6
Continuous
 62
     7
370
     9
100
AcDbVertex
100
AcDb2dVertex
 10
374.765812645449
 20
443.7968214590926
 30
0.0
  0
VERTEX
  5
267
330
256
100
AcDbEntity
  8
1
  6
Continuous
 62
     7
370
     9
100
AcDbVertex
100
AcDb2dVertex
 10
375.0048147363939
 20
443.6870803676173
 30
0.0
  0
VERTEX
  5
268
330
256
100
AcDbEntity
  8
1
  6
Continuous
 62
     7
370
     9
100
AcDbVertex
100
AcDb2dVertex
 10
375.1952668625129
 20
443.5809003774374
 30
0.0
  0
VERTEX
  5
269
330
256
100
AcDbEntity
  8
1
  6
Continuous
 62
     7
370
     9
100
AcDbVertex
100
AcDb2dVertex
 10
375.3336122219084
 20
443.4924248768643
 30
0.0
  0
VERTEX
  5
26A
330
256
100
AcDbEntity
  8
1
  6
Continuous
 62
     7
370
     9
100
AcDbVertex
100
AcDb2dVertex
 10
375.4174986687395
 20
443.4338267311433
 30
0.0
  0
VERTEX
  5
26B
330
256
100
AcDbEntity
  8
1
  6
Continuous
 62
     7
370
     9
100
AcDbVertex
100
AcDb2dVertex
 10
375.4456025790473
 20
443.4133265299631
 30
0.0
  0
VERTEX
  5
26C
330
256
100
AcDbEntity
  8
1
  6
Continuous
 62
     7
370
     9
100
AcDbVertex
100
AcDb2dVertex
 10
375.4736482294828
 20
443.3924261729859
 30
0.0
  0
VERTEX
  5
26D
330
256
100
AcDbEntity
  8
1
  6
Continuous
 62
     7
370
     9
100
AcDbVertex
100
AcDb2dVertex
 10
375.5566829887774
 20
443.3279697263853
 30
0.0
  0
VERTEX
  5
26E
330
256
100
AcDbEntity
  8
1
  6
Continuous
 62
     7
370
     9
100
AcDbVertex
100
AcDb2dVertex
 10
375.6915130050368
 20
443.2152466428531
 30
0.0
  0
VERTEX
  5
26F
330
256
100
AcDbEntity
  8
1
  6
Continuous
 62
     7
370
     9
100
AcDbVertex
100
AcDb2dVertex
 10
375.8731677892065
 20
443.0481261348303
 30
0.0
  0
VERTEX
  5
270
330
256
100
AcDbEntity
  8
1
  6
Continuous
 62
     7
370
     9
100
AcDbVertex
100
AcDb2dVertex
 10
376.0953535740419
 20
442.8212071284877
 30
0.0
  0
VERTEX
  5
271
330
256
100
AcDbEntity
  8
1
  6
Continuous
 62
     7
370
     9
100
AcDbVertex
100
AcDb2dVertex
 10
376.350955372913
 20
442.5320722624579
 30
0.0
  0
VERTEX
  5
272
330
256
100
AcDbEntity
  8
1
  6
Continuous
 62
     7
370
     9
100
AcDbVertex
100
AcDb2dVertex
 10
376.6324935716117
 20
442.1831085038285
 30
0.0
  0
VERTEX
  5
273
330
256
100
AcDbEntity
  8
1
  6
Continuous
 62
     7
370
     9
100
AcDbVertex
100
AcDb2dVertex
 10
376.9324584127467
 20
441.782456437392
 30
0.0
  0
VERTEX
  5
274
330
256
100
AcDbEntity
  8
1
  6
Continuous
 62
     7
370
     9
100
AcDbVertex
100
AcDb2dVertex
 10
377.2434809196316
 20
441.3438515511612
 30
0.0
  0
VERTEX
  5
275
330
256
100
AcDbEntity
  8
1
  6
Continuous
 62
     7
370
     9
100
AcDbVertex
100
AcDb2dVertex
 10
377.5583430131917
 20
440.8853757175235
 30
0.0
  0
VERTEX
  5
276
330
256
100
AcDbEntity
  8
1
  6
Continuous
 62
     7
370
     9
100
AcDbVertex
100
AcDb2dVertex
 10
377.8698720017994
 20
440.4273849483455
 30
0.0
  0
VERTEX
  5
277
330
256
100
AcDbEntity
  8
1
  6
Continuous
 62
     7
370
     9
100
AcDbVertex
100
AcDb2dVertex
 10
378.1707949212264
 20
439.9900618772352
 30
0.0
  0
VERTEX
  5
278
330
256
100
AcDbEntity
  8
1
  6
Continuous
 62
     7
370
     9
100
AcDbVertex
100
AcDb2dVertex
 10
378.4536389721375
 20
439.5911158645709
 30
0.0
  0
VERTEX
  5
279
330
256
100
AcDbEntity
  8
1
  6
Continuous
 62
     7
370
     9
100
AcDbVertex
100
AcDb2dVertex
 10
378.7107528877914
 20
439.2441038479242
 30
0.0
  0
VERTEX
  5
27A
330
256
100
AcDbEntity
  8
1
  6
Continuous
 62
     7
370
     9
100
AcDbVertex
100
AcDb2dVertex
 10
378.9344931926639
 20
438.9576846817088
 30
0.0
  0
VERTEX
  5
27B
330
256
100
AcDbEntity
  8
1
  6
Continuous
 62
     7
370
     9
100
AcDbVertex
100
AcDb2dVertex
 10
379.1175764437581
 20
438.7358887701194
 30
0.0
  0
VERTEX
  5
27C
330
256
100
AcDbEntity
  8
1
  6
Continuous
 62
     7
370
     9
100
AcDbVertex
100
AcDb2dVertex
 10
379.2535540772733
 20
438.5792399676799
 30
0.0
  0
VERTEX
  5
27D
330
256
100
AcDbEntity
  8
1
  6
Continuous
 62
     7
370
     9
100
AcDbVertex
100
AcDb2dVertex
 10
379.337331242018
 20
438.4863675200522
 30
0.0
  0
VERTEX
  5
27E
330
256
100
AcDbEntity
  8
1
  6
Continuous
 62
     7
370
     9
100
AcDbVertex
100
AcDb2dVertex
 10
379.3656336349479
 20
438.4556401945594
 30
0.0
  0
VERTEX
  5
27F
330
256
100
AcDbEntity
  8
1
  6
Continuous
 62
     7
370
     9
100
AcDbVertex
100
AcDb2dVertex
 10
379.3939978094188
 20
438.4251782309444
 30
0.0
  0
VERTEX
  5
280
330
256
100
AcDbEntity
  8
1
  6
Continuous
 62
     7
370
     9
100
AcDbVertex
100
AcDb2dVertex
 10
379.4786785328516
 20
438.3361786856535
 30
0.0
  0
VERTEX
  5
281
330
256
100
AcDbEntity
  8
1
  6
Continuous
 62
     7
370
     9
100
AcDbVertex
100
AcDb2dVertex
 10
379.618388685314
 20
438.1954649355018
 30
0.0
  0
VERTEX
  5
282
330
256
100
AcDbEntity
  8
1
  6
Continuous
 62
     7
370
     9
100
AcDbVertex
100
AcDb2dVertex
 10
379.8108246210855
 20
438.0133534753766
 30
0.0
  0
VERTEX
  5
283
330
256
100
AcDbEntity
  8
1
  6
Continuous
 62
     7
370
     9
100
AcDbVertex
100
AcDb2dVertex
 10
380.0524742203503
 20
437.8022774608799
 30
0.0
  0
VERTEX
  5
284
330
256
100
AcDbEntity
  8
1
  6
Continuous
 62
     7
370
     9
100
AcDbVertex
100
AcDb2dVertex
 10
380.3384290880861
 20
437.575228661405
 30
0.0
  0
VERTEX
  5
285
330
256
100
AcDbEntity
  8
1
  6
Continuous
 62
     7
370
     9
100
AcDbVertex
100
AcDb2dVertex
 10
380.6622597443898
 20
437.3442912141917
 30
0.0
  0
VERTEX
  5
286
330
256
100
AcDbEntity
  8
1
  6
Continuous
 62
     7
370
     9
100
AcDbVertex
100
AcDb2dVertex
 10
381.0160036368757
 20
437.1195067108788
 30
0.0
  0
VERTEX
  5
287
330
256
100
AcDbEntity
  8
1
  6
Continuous
 62
     7
370
     9
100
AcDbVertex
100
AcDb2dVertex
 10
381.3902959684368
 20
436.9082290775955
 30
0.0
  0
VERTEX
  5
288
330
256
100
AcDbEntity
  8
1
  6
Continuous
 62
     7
370
     9
100
AcDbVertex
100
AcDb2dVertex
 10
381.7746472066003
 20
436.7150188003095
 30
0.0
  0
VERTEX
  5
289
330
256
100
AcDbEntity
  8
1
  6
Continuous
 62
     7
370
     9
100
AcDbVertex
100
AcDb2dVertex
 10
382.1578445664492
 20
436.542014317402
 30
0.0
  0
VERTEX
  5
28A
330
256
100
AcDbEntity
  8
1
  6
Continuous
 62
     7
370
     9
100
AcDbVertex
100
AcDb2dVertex
 10
382.5284335175201
 20
436.3896286251288
 30
0.0
  0
VERTEX
  5
28B
330
256
100
AcDbEntity
  8
1
  6
Continuous
 62
     7
370
     9
100
AcDbVertex
100
AcDb2dVertex
 10
382.8752238392301
 20
436.2573701150592
 30
0.0
  0
VERTEX
  5
28C
330
256
100
AcDbEntity
  8
1
  6
Continuous
 62
     7
370
     9
100
AcDbVertex
100
AcDb2dVertex
 10
383.1877649431909
 20
436.1445869848313
 30
0.0
  0
VERTEX
  5
28D
330
256
100
AcDbEntity
  8
1
  6
Continuous
 62
     7
370
     9
100
AcDbVertex
100
AcDb2dVertex
 10
383.4567463182767
 20
436.0509809134073
 30
0.0
  0
VERTEX
  5
28E
330
256
100
AcDbEntity
  8
1
  6
Continuous
 62
     7
370
     9
100
AcDbVertex
100
AcDb2dVertex
 10
383.6742977474584
 20
435.9768139791145
 30
0.0
  0
VERTEX
  5
28F
330
256
100
AcDbEntity
  8
1
  6
Continuous
 62
     7
370
     9
100
AcDbVertex
100
AcDb2dVertex
 10
383.8341854575023
 20
435.9228218732495
 30
0.0
  0
VERTEX
  5
290
330
256
100
AcDbEntity
  8
1
  6
Continuous
 62
     7
370
     9
100
AcDbVertex
100
AcDb2dVertex
 10
383.9319192512371
 20
435.8899234549156
 30
0.0
  0
VERTEX
  5
291
330
256
100
AcDbEntity
  8
1
  6
Continuous
 62
     7
370
     9
100
AcDbVertex
100
AcDb2dVertex
 10
383.9647975060237
 20
435.8788626733238
 30
0.0
  0
SEQEND
  5
257
330
256
100
AcDbEntity
  8
1
  6
Continuous
370
     9
  0
CIRCLE
  5
292
330
1F
100
AcDbEntity
  8
1
  6
Continuous
 62
     7
370
     9
100
AcDbCircle
 10
401.7639205011529
 20
481.0082279922908
 30
0.0
 40
17.5
  0
LINE
  5
293
330
1F
100
AcDbEntity
  8
1
  6
Continuous
 62
     7
370
     9
100
AcDbLine
 10
370.9096183423044
 20
443.5718764208661
 30
0.0
 11
387.2277435021297
 21
471.2640215980754
 31
0.0
  0
LINE
  5
294
330
1F
100
AcDbEntity
  8
1
  6
Continuous
 62
     7
370
     9
100
AcDbLine
 10
400.2829230407029
 20
463.5710079313679
 30
0.0
 11
383.9647977826006
 21
435.8788625873808
 31
0.0
  0
LINE
  5
295
330
1F
100
AcDbEntity
  8
1
  6
Continuous
 62
     7
370
     9
100
AcDbLine
 10
328.1273784007597
 20
433.5790452390196
 30
0.0
 11
328.1273784007597
 21
370.9696629177058
 31
0.0
  0
LINE
  5
296
330
1F
100
AcDbEntity
  8
1
  6
Continuous
 62
     7
370
     9
100
AcDbLine
 10
328.1273784007597
 20
341.1217803344012
 30
0.0
 11
328.1273784007597
 21
315.055646530147
 31
0.0
  0
LINE
  5
297
330
1F
100
AcDbEntity
  8
1
  6
Continuous
 62
     7
370
     9
100
AcDbLine
 10
322.7861584066893
 20
332.0576361358163
 30
0.0
 11
383.3001052530641
 21
434.7508674294094
 31
0.0
  0
LINE
  5
298
330
1F
100
AcDbEntity
  8
1
  6
Continuous
 62
     7
370
     9
100
AcDbLine
 10
348.1273784007597
 20
375.0621318220665
 30
0.0
 11
348.1273784007597
 21
135.5790452390196
 31
0.0
  0
LINE
  5
299
330
1F
100
AcDbEntity
  8
1
  6
Continuous
 62
     7
370
     9
100
AcDbLine
 10
348.1273784007597
 20
445.5790452390196
 30
0.0
 11
348.1273784007597
 21
404.9100144053711
 31
0.0
  0
LINE
  5
29A
330
1F
100
AcDbEntity
  8
1
  6
Continuous
 62
     7
370
     9
100
AcDbLine
 10
348.1273784007597
 20
433.5790452390196
 30
0.0
 11
359.4316788371869
 21
424.0936109120964
 31
0.0
  0
LINE
  5
29B
330
1F
100
AcDbEntity
  8
1
  6
Continuous
 62
     7
370
     9
100
AcDbLine
 10
371.2008046953537
 20
414.2181417452296
 30
0.0
 11
433.1273784007597
 21
362.2555765889506
 31
0.0
  0
LINE
  5
29C
330
1F
100
AcDbEntity
  8
1
  6
Continuous
 62
     7
370
     9
100
AcDbLine
 10
371.4103448746235
 20
449.5620195463444
 30
0.0
 11
386.7138869638983
 21
440.54411524159
 31
0.0
  0
ARC
  5
29D
330
1F
100
AcDbEntity
  8
1
  6
Continuous
 62
     7
370
     9
100
AcDbCircle
 10
307.5669860506748
 20
323.637299368265
 30
0.0
 40
17.3932538209805
100
AcDbArc
 50
345.4650334356222
 51
138.7539303747803
  0
CIRCLE
  5
29E
330
1F
100
AcDbEntity
  8
1
  6
Continuous
 62
     7
370
     9
100
AcDbCircle
 10
322.5342464091631
 20
277.5790452390197
 30
0.0
 40
5.0
  0
INSERT
  5
2AC
330
1F
100
AcDbEntity
  8
0
100
AcDbBlockReference
  2
*G14
 10
0.0
 20
0.0
 30
0.0
  0
CIRCLE
  5
2AD
330
1F
100
AcDbEntity
  8
1
  6
Continuous
 62
     7
370
     9
100
AcDbCircle
 10
322.5342464091632
 20
240.7196873974395
 30
0.0
 40
5.0
  0
INSERT
  5
2BB
330
1F
100
AcDbEntity
  8
0
100
AcDbBlockReference
  2
*G16
 10
0.0
 20
0.0
 30
0.0
  0
ARC
  5
2BC
330
1F
100
AcDbEntity
  8
1
  6
Continuous
 62
     7
370
     9
100
AcDbCircle
 10
322.5342464091632
 20
313.5284995092416
 30
0.0
 40
5.0
100
AcDbArc
 50
224.0562045092216
 51
74.92473476311059
  0
LINE
  5
2BD
330
1F
100
AcDbEntity
  8
1
  6
Continuous
 62
     7
370
     9
100
AcDbLine
 10
326.0005082053685
 20
311.527250946947
 30
0.0
 11
326.0005082053685
 21
315.524753822358
 31
0.0
  0
LINE
  5
2BE
330
1F
100
AcDbEntity
  8
1
  6
Continuous
 62
     7
370
     9
100
AcDbLine
 10
326.0005082053685
 20
311.5322451961247
 30
0.0
 11
322.5342467153244
 21
309.5284995092416
 31
0.0
  0
LINE
  5
2BF
330
1F
100
AcDbEntity
  8
1
  6
Continuous
 62
     7
370
     9
100
AcDbLine
 10
319.6240046568082
 20
311.2108262395874
 30
0.0
 11
322.5342464091636
 21
309.5284995092416
 31
0.0
  0
LINE
  5
2C0
330
1F
100
AcDbEntity
  8
1
  6
Continuous
 62
     7
370
     9
100
AcDbLine
 10
323.1377123573412
 20
317.1755286798053
 30
0.0
 11
326.0005082053692
 21
315.524753822358
 31
0.0
  0
POLYLINE
  5
2C1
330
1F
100
AcDbEntity
  8
1
  6
Continuous
 62
     7
370
     9
100
AcDb2dPolyline
 66
     1
 10
0.0
 20
0.0
 30
0.0
  0
VERTEX
  5
2C3
330
2C1
100
AcDbEntity
  8
1
  6
Continuous
 62
     7
370
     9
100
AcDbVertex
100
AcDb2dVertex
 10
324.0813047064443
 20
278.2560913826422
 30
0.0
  0
VERTEX
  5
2C4
330
2C1
100
AcDbEntity
  8
1
  6
Continuous
 62
     7
370
     9
100
AcDbVertex
100
AcDb2dVertex
 10
341.0390988936353
 20
289.1843389529751
 30
0.0
  0
VERTEX
  5
2C5
330
2C1
100
AcDbEntity
  8
1
  6
Continuous
 62
     7
370
     9
100
AcDbVertex
100
AcDb2dVertex
 10
365.1439125582318
 20
289.1843389529751
 30
0.0
  0
SEQEND
  5
2C2
330
2C1
100
AcDbEntity
  8
1
  6
Continuous
370
     9
  0
TEXT
  5
2C6
330
1F
100
AcDbEntity
  8
1
  6
Continuous
 62
     7
370
     9
100
AcDbText
 10
344.1439125582318
 20
290.6894065205427
 30
0.0
 40
10.5
  1
M8-3
 41
0.5
100
AcDbText
  0
LINE
  5
2C7
330
1F
100
AcDbEntity
  8
1
  6
Continuous
 62
     7
370
     9
100
AcDbLine
 10
480.9496190799738
 20
90.75902839396713
 30
0.0
 11
476.4710476514024
 21
102.6625998225386
 31
0.0
  0
LINE
  5
2C8
330
1F
100
AcDbEntity
  8
1
  6
Continuous
 62
     7
370
     9
100
AcDbLine
 10
476.4710476514024
 20
102.6625998225386
 30
0.0
 11
480.9496190799738
 21
102.6625998225386
 31
0.0
  0
LINE
  5
2C9
330
1F
100
AcDbEntity
  8
1
  6
Continuous
 62
     7
370
     9
100
AcDbLine
 10
480.9496190799738
 20
117.3947426796815
 30
0.0
 11
480.9496190799738
 21
90.75902839396713
 31
0.0
  0
LINE
  5
2CA
330
1F
100
AcDbEntity
  8
1
  6
Continuous
 62
     7
370
     9
100
AcDbLine
 10
61.97771072489752
 20
90.75902839396713
 30
0.0
 11
66.45628215346892
 21
102.6625998225386
 31
0.0
  0
LINE
  5
2CB
330
1F
100
AcDbEntity
  8
1
  6
Continuous
 62
     7
370
     9
100
AcDbLine
 10
66.45628215346892
 20
102.6625998225386
 30
0.0
 11
61.97771072489752
 21
102.6625998225386
 31
0.0
  0
LINE
  5
2CC
330
1F
100
AcDbEntity
  8
1
  6
Continuous
 62
     7
370
     9
100
AcDbLine
 10
61.97771072489752
 20
117.3947426796815
 30
0.0
 11
61.97771072489752
 21
90.75902839396713
 31
0.0
  0
LINE
  5
2CD
330
1F
100
AcDbEntity
  8
1
  6
Continuous
 62
     7
370
     9
100
AcDbLine
 10
61.97771072489752
 20
117.3947426796815
 30
0.0
 11
480.9496190799738
 21
117.3947426796815
 31
0.0
  0
ARC
  5
2CE
330
1F
100
AcDbEntity
  8
1
  6
Continuous
 62
     7
370
     9
100
AcDbCircle
 10
49.39694672294883
 20
315.1579674329006
 30
0.0
 40
3.0
100
AcDbArc
 50
180.0000000000007
 51
269.9999999999998
  0
LINE
  5
2CF
330
1F
100
AcDbEntity
  8
1
  6
Continuous
 62
     7
370
     9
100
AcDbLine
 10
49.39694672294883
 20
312.1579674329006
 30
0.0
 11
102.9969467229489
 21
312.1579674329006
 31
0.0
  0
ARC
  5
2D0
330
1F
100
AcDbEntity
  8
1
  6
Continuous
 62
     7
370
     9
100
AcDbCircle
 10
102.9969467229489
 20
315.1579674329006
 30
0.0
 40
3.0
100
AcDbArc
 50
269.9999999999998
 51
359.9999999999986
  0
POLYLINE
  5
2D1
330
1F
100
AcDbEntity
  8
1
  6
Continuous
 62
     7
370
     9
100
AcDb2dPolyline
 66
     1
 10
0.0
 20
0.0
 30
0.0
 70
     2
  0
VERTEX
  5
2D3
330
2D1
100
AcDbEntity
  8
1
  6
Continuous
 62
     7
370
     9
100
AcDbVertex
100
AcDb2dVertex
 10
46.39694672294883
 20
398.4759111872391
 30
0.0
  0
VERTEX
  5
2D4
330
2D1
100
AcDbEntity
  8
1
  6
Continuous
 62
     7
370
     9
100
AcDbVertex
100
AcDb2dVertex
 10
46.52563136742683
 20
398.5687110763278
 30
0.0
  0
VERTEX
  5
2D5
330
2D1
100
AcDbEntity
  8
1
  6
Continuous
 62
     7
370
     9
100
AcDbVertex
100
AcDb2dVertex
 10
46.90819243036843
 20
398.8444796082161
 30
0.0
  0
VERTEX
  5
2D6
330
2D1
100
AcDbEntity
  8
1
  6
Continuous
 62
     7
370
     9
100
AcDbVertex
100
AcDb2dVertex
 10
47.53434400725345
 20
399.29483347411
 30
0.0
  0
VERTEX
  5
2D7
330
2D1
100
AcDbEntity
  8
1
  6
Continuous
 62
     7
370
     9
100
AcDbVertex
100
AcDb2dVertex
 10
48.38754552767243
 20
399.9043797126661
 30
0.0
  0
VERTEX
  5
2D8
330
2D1
100
AcDbEntity
  8
1
  6
Continuous
 62
     7
370
     9
100
AcDbVertex
100
AcDb2dVertex
 10
49.44577711932996
 20
400.6492667365725
 30
0.0
  0
VERTEX
  5
2D9
330
2D1
100
AcDbEntity
  8
1
  6
Continuous
 62
     7
370
     9
100
AcDbVertex
100
AcDb2dVertex
 10
50.68240345836067
 20
401.4963175991386
 30
0.0
  0
VERTEX
  5
2DA
330
2D1
100
AcDbEntity
  8
1
  6
Continuous
 62
     7
370
     9
100
AcDbVertex
100
AcDb2dVertex
 10
52.0669778367095
 20
402.4034880533812
 30
0.0
  0
VERTEX
  5
2DB
330
2D1
100
AcDbEntity
  8
1
  6
Continuous
 62
     7
370
     9
100
AcDbVertex
100
AcDb2dVertex
 10
53.56587916103744
 20
403.3221289548914
 30
0.0
  0
VERTEX
  5
2DC
330
2D1
100
AcDbEntity
  8
1
  6
Continuous
 62
     7
370
     9
100
AcDbVertex
100
AcDb2dVertex
 10
55.14274630646043
 20
404.2010962223109
 30
0.0
  0
VERTEX
  5
2DD
330
2D1
100
AcDbEntity
  8
1
  6
Continuous
 62
     7
370
     9
100
AcDbVertex
100
AcDb2dVertex
 10
56.75875834225128
 20
404.9922482498801
 30
0.0
  0
VERTEX
  5
2DE
330
2D1
100
AcDbEntity
  8
1
  6
Continuous
 62
     7
370
     9
100
AcDbVertex
100
AcDb2dVertex
 10
58.37288343443981
 20
405.6564287985738
 30
0.0
  0
VERTEX
  5
2DF
330
2D1
100
AcDbEntity
  8
1
  6
Continuous
 62
     7
370
     9
100
AcDbVertex
100
AcDb2dVertex
 10
59.94226317565018
 20
406.1687717363658
 30
0.0
  0
VERTEX
  5
2E0
330
2D1
100
AcDbEntity
  8
1
  6
Continuous
 62
     7
370
     9
100
AcDbVertex
100
AcDb2dVertex
 10
61.42289901094379
 20
406.522161670629
 30
0.0
  0
VERTEX
  5
2E1
330
2D1
100
AcDbEntity
  8
1
  6
Continuous
 62
     7
370
     9
100
AcDbVertex
100
AcDb2dVertex
 10
62.77076009757462
 20
406.7279601690844
 30
0.0
  0
VERTEX
  5
2E2
330
2D1
100
AcDbEntity
  8
1
  6
Continuous
 62
     7
370
     9
100
AcDbVertex
100
AcDb2dVertex
 10
63.94334571660015
 20
406.8136126284559
 30
0.0
  0
VERTEX
  5
2E3
330
2D1
100
AcDbEntity
  8
1
  6
Continuous
 62
     7
370
     9
100
AcDbVertex
100
AcDb2dVertex
 10
64.90162851090416
 20
406.8173803961984
 30
0.0
  0
VERTEX
  5
2E4
330
2D1
100
AcDbEntity
  8
1
  6
Continuous
 62
     7
370
     9
100
AcDbVertex
100
AcDb2dVertex
 10
65.61220142166181
 20
406.7810573819341
 30
0.0
  0
VERTEX
  5
2E5
330
2D1
100
AcDbEntity
  8
1
  6
Continuous
 62
     7
370
     9
100
AcDbVertex
100
AcDb2dVertex
 10
66.0493755170066
 20
406.7419896158546
 30
0.0
  0
VERTEX
  5
2E6
330
2D1
100
AcDbEntity
  8
1
  6
Continuous
 62
     7
370
     9
100
AcDbVertex
100
AcDb2dVertex
 10
66.19694672294895
 20
406.7259111872392
 30
0.0
  0
VERTEX
  5
2E7
330
2D1
100
AcDbEntity
  8
1
  6
Continuous
 62
     7
370
     9
100
AcDbVertex
100
AcDb2dVertex
 10
66.34477626447861
 20
406.7083426424931
 30
0.0
  0
VERTEX
  5
2E8
330
2D1
100
AcDbEntity
  8
1
  6
Continuous
 62
     7
370
     9
100
AcDbVertex
100
AcDb2dVertex
 10
66.7857213032707
 20
406.6474835746311
 30
0.0
  0
VERTEX
  5
2E9
330
2D1
100
AcDbEntity
  8
1
  6
Continuous
 62
     7
370
     9
100
AcDbVertex
100
AcDb2dVertex
 10
67.5118144226909
 20
406.5211563987268
 30
0.0
  0
VERTEX
  5
2EA
330
2D1
100
AcDbEntity
  8
1
  6
Continuous
 62
     7
370
     9
100
AcDbVertex
100
AcDb2dVertex
 10
68.5087665683909
 20
406.2994508502548
 30
0.0
  0
VERTEX
  5
2EB
330
2D1
100
AcDbEntity
  8
1
  6
Continuous
 62
     7
370
     9
100
AcDbVertex
100
AcDb2dVertex
 10
69.7548161674183
 20
405.9534883054479
 30
0.0
  0
VERTEX
  5
2EC
330
2D1
100
AcDbEntity
  8
1
  6
Continuous
 62
     7
370
     9
100
AcDbVertex
100
AcDb2dVertex
 10
71.21975078633427
 20
405.4645138738836
 30
0.0
  0
VERTEX
  5
2ED
330
2D1
100
AcDbEntity
  8
1
  6
Continuous
 62
     7
370
     9
100
AcDbVertex
100
AcDb2dVertex
 10
72.86453536807625
 20
404.8310788958375
 30
0.0
  0
VERTEX
  5
2EE
330
2D1
100
AcDbEntity
  8
1
  6
Continuous
 62
     7
370
     9
100
AcDbVertex
100
AcDb2dVertex
 10
74.64187639991785
 20
404.0725234086599
 30
0.0
  0
VERTEX
  5
2EF
330
2D1
100
AcDbEntity
  8
1
  6
Continuous
 62
     7
370
     9
100
AcDbVertex
100
AcDb2dVertex
 10
76.4978573938297
 20
403.2278468130539
 30
0.0
  0
VERTEX
  5
2F0
330
2D1
100
AcDbEntity
  8
1
  6
Continuous
 62
     7
370
     9
100
AcDbVertex
100
AcDb2dVertex
 10
78.37454379151157
 20
402.3501539678794
 30
0.0
  0
VERTEX
  5
2F1
330
2D1
100
AcDbEntity
  8
1
  6
Continuous
 62
     7
370
     9
100
AcDbVertex
100
AcDb2dVertex
 10
80.21323190644311
 20
401.4979188953681
 30
0.0
  0
VERTEX
  5
2F2
330
2D1
100
AcDbEntity
  8
1
  6
Continuous
 62
     7
370
     9
100
AcDbVertex
100
AcDb2dVertex
 10
81.95786113208824
 20
400.7250655326343
 30
0.0
  0
VERTEX
  5
2F3
330
2D1
100
AcDbEntity
  8
1
  6
Continuous
 62
     7
370
     9
100
AcDbVertex
100
AcDb2dVertex
 10
83.55805981219498
 20
400.0721426770524
 30
0.0
  0
VERTEX
  5
2F4
330
2D1
100
AcDbEntity
  8
1
  6
Continuous
 62
     7
370
     9
100
AcDbVertex
100
AcDb2dVertex
 10
84.97136600830065
 20
399.5606021798889
 30
0.0
  0
VERTEX
  5
2F5
330
2D1
100
AcDbEntity
  8
1
  6
Continuous
 62
     7
370
     9
100
AcDbVertex
100
AcDb2dVertex
 10
86.16433940405173
 20
399.1914407647758
 30
0.0
  0
VERTEX
  5
2F6
330
2D1
100
AcDbEntity
  8
1
  6
Continuous
 62
     7
370
     9
100
AcDbVertex
100
AcDb2dVertex
 10
87.11251919619647
 20
398.9484174988558
 30
0.0
  0
VERTEX
  5
2F7
330
2D1
100
AcDbEntity
  8
1
  6
Continuous
 62
     7
370
     9
100
AcDbVertex
100
AcDb2dVertex
 10
87.79942905307126
 20
398.8049638638257
 30
0.0
  0
VERTEX
  5
2F8
330
2D1
100
AcDbEntity
  8
1
  6
Continuous
 62
     7
370
     9
100
AcDbVertex
100
AcDb2dVertex
 10
88.21502603481557
 20
398.7330255127508
 30
0.0
  0
VERTEX
  5
2F9
330
2D1
100
AcDbEntity
  8
1
  6
Continuous
 62
     7
370
     9
100
AcDbVertex
100
AcDb2dVertex
 10
88.35408958009178
 20
398.7116254729535
 30
0.0
  0
VERTEX
  5
2FA
330
2D1
100
AcDbEntity
  8
1
  6
Continuous
 62
     7
370
     9
100
AcDbVertex
100
AcDb2dVertex
 10
88.49277454893644
 20
398.6916629936861
 30
0.0
  0
VERTEX
  5
2FB
330
2D1
100
AcDbEntity
  8
1
  6
Continuous
 62
     7
370
     9
100
AcDbVertex
100
AcDb2dVertex
 10
88.90282954297275
 20
398.6407418455777
 30
0.0
  0
VERTEX
  5
2FC
330
2D1
100
AcDbEntity
  8
1
  6
Continuous
 62
     7
370
     9
100
AcDbVertex
100
AcDb2dVertex
 10
89.5668041259385
 20
398.5840513502918
 30
0.0
  0
VERTEX
  5
2FD
330
2D1
100
AcDbEntity
  8
1
  6
Continuous
 62
     7
370
     9
100
AcDbVertex
100
AcDb2dVertex
 10
90.45735341931561
 20
398.5582137467682
 30
0.0
  0
VERTEX
  5
2FE
330
2D1
100
AcDbEntity
  8
1
  6
Continuous
 62
     7
370
     9
100
AcDbVertex
100
AcDb2dVertex
 10
91.53954477747247
 20
398.6043561318527
 30
0.0
  0
VERTEX
  5
2FF
330
2D1
100
AcDbEntity
  8
1
  6
Continuous
 62
     7
370
     9
100
AcDbVertex
100
AcDb2dVertex
 10
92.77354796473485
 20
398.7603889259484
 30
0.0
  0
VERTEX
  5
300
330
2D1
100
AcDbEntity
  8
1
  6
Continuous
 62
     7
370
     9
100
AcDbVertex
100
AcDb2dVertex
 10
94.11730636366912
 20
399.0539516363725
 30
0.0
  0
VERTEX
  5
301
330
2D1
100
AcDbEntity
  8
1
  6
Continuous
 62
     7
370
     9
100
AcDbVertex
100
AcDb2dVertex
 10
95.52883195155871
 20
399.4972987190706
 30
0.0
  0
VERTEX
  5
302
330
2D1
100
AcDbEntity
  8
1
  6
Continuous
 62
     7
370
     9
100
AcDbVertex
100
AcDb2dVertex
 10
96.96787971292451
 20
400.084955401312
 30
0.0
  0
VERTEX
  5
303
330
2D1
100
AcDbEntity
  8
1
  6
Continuous
 62
     7
370
     9
100
AcDbVertex
100
AcDb2dVertex
 10
98.39691026960278
 20
400.7943804247658
 30
0.0
  0
VERTEX
  5
304
330
2D1
100
AcDbEntity
  8
1
  6
Continuous
 62
     7
370
     9
100
AcDbVertex
100
AcDb2dVertex
 10
99.78140720522272
 20
401.5892653488277
 30
0.0
  0
VERTEX
  5
305
330
2D1
100
AcDbEntity
  8
1
  6
Continuous
 62
     7
370
     9
100
AcDbVertex
100
AcDb2dVertex
 10
101.0897425700334
 20
402.4246125196879
 30
0.0
  0
VERTEX
  5
306
330
2D1
100
AcDbEntity
  8
1
  6
Continuous
 62
     7
370
     9
100
AcDbVertex
100
AcDb2dVertex
 10
102.2928536103877
 20
403.2524678725555
 30
0.0
  0
VERTEX
  5
307
330
2D1
100
AcDbEntity
  8
1
  6
Continuous
 62
     7
370
     9
100
AcDbVertex
100
AcDb2dVertex
 10
103.3639936272397
 20
404.0271869651626
 30
0.0
  0
VERTEX
  5
308
330
2D1
100
AcDbEntity
  8
1
  6
Continuous
 62
     7
370
     9
100
AcDbVertex
100
AcDb2dVertex
 10
104.2787547547522
 20
404.7093650444759
 30
0.0
  0
VERTEX
  5
309
330
2D1
100
AcDbEntity
  8
1
  6
Continuous
 62
     7
370
     9
100
AcDbVertex
100
AcDb2dVertex
 10
105.015450420689
 20
405.2679881943178
 30
0.0
  0
VERTEX
  5
30A
330
2D1
100
AcDbEntity
  8
1
  6
Continuous
 62
     7
370
     9
100
AcDbVertex
100
AcDb2dVertex
 10
105.5558204072367
 20
405.6808481200644
 30
0.0
  0
VERTEX
  5
30B
330
2D1
100
AcDbEntity
  8
1
  6
Continuous
 62
     7
370
     9
100
AcDbVertex
100
AcDb2dVertex
 10
105.885914311822
 20
405.9336839867108
 30
0.0
  0
VERTEX
  5
30C
330
2D1
100
AcDbEntity
  8
1
  6
Continuous
 62
     7
370
     9
100
AcDbVertex
100
AcDb2dVertex
 10
105.9969467229489
 20
406.0187683300963
 30
0.0
  0
SEQEND
  5
2D2
330
2D1
100
AcDbEntity
  8
1
  6
Continuous
370
     9
  0
LINE
  5
30D
330
1F
100
AcDbEntity
  8
1
  6
Continuous
 62
     7
370
     9
100
AcDbLine
 10
46.39694672294883
 20
398.4759111872391
 30
0.0
 11
46.39694672294883
 21
315.1579674329006
 31
0.0
  0
LINE
  5
30E
330
1F
100
AcDbEntity
  8
1
  6
Continuous
 62
     7
370
     9
100
AcDbLine
 10
105.9969467229489
 20
406.0187683300963
 30
0.0
 11
105.9969467229489
 21
315.1579674329006
 31
0.0
  0
LINE
  5
30F
330
1F
100
AcDbEntity
  8
1
  6
DOT
 62
     7
370
     9
100
AcDbLine
 10
76.19694672294884
 20
362.1579674329006
 30
0.0
 11
86.19694672294884
 21
358.1579674329006
 31
0.0
  0
LINE
  5
310
330
1F
100
AcDbEntity
  8
1
  6
DOT
 62
     7
370
     9
100
AcDbLine
 10
66.19694672294884
 20
358.1579674329006
 30
0.0
 11
76.19694672294884
 21
362.1579674329006
 31
0.0
  0
LINE
  5
311
330
1F
100
AcDbEntity
  8
1
  6
Continuous
 62
     7
370
     9
100
AcDbLine
 10
66.19694672294884
 20
310.0830540443817
 30
0.0
 11
66.19694672294884
 21
301.7151969015245
 31
0.0
  0
LINE
  5
312
330
1F
100
AcDbEntity
  8
1
  6
Continuous
 62
     7
370
     9
100
AcDbLine
 10
86.19694672294884
 20
310.0830540443817
 30
0.0
 11
86.19694672294872
 21
301.7151969015245
 31
0.0
  0
LINE
  5
313
330
1F
100
AcDbEntity
  8
1
  6
Continuous
 62
     7
370
     9
100
AcDbLine
 10
86.19694672294884
 20
303.8366254729531
 30
0.0
 11
66.19694672294884
 21
303.8366254729531
 31
0.0
  0
LINE
  5
314
330
1F
100
AcDbEntity
  8
1
  6
DOT
 62
     7
370
     9
100
AcDbLine
 10
66.19694702911056
 20
318.1579674329006
 30
0.0
 11
46.39694702911049
 21
318.1579674329006
 31
0.0
  0
LINE
  5
315
330
1F
100
AcDbEntity
  8
1
  6
DOT
 62
     7
370
     9
100
AcDbLine
 10
66.19694702911056
 20
330.1579674329006
 30
0.0
 11
46.39694702911049
 21
330.1579674329006
 31
0.0
  0
POLYLINE
  5
316
330
1F
100
AcDbEntity
  8
1
  6
Continuous
 62
     7
370
     9
100
AcDb2dPolyline
 66
     1
 10
0.0
 20
0.0
 30
0.0
  0
VERTEX
  5
318
330
316
100
AcDbEntity
  8
1
  6
Continuous
 62
     7
370
     9
100
AcDbVertex
100
AcDb2dVertex
 10
50.60408988625306
 20
325.050911187239
 30
0.0
  0
VERTEX
  5
319
330
316
100
AcDbEntity
  8
1
  6
Continuous
 62
     7
370
     9
100
AcDbVertex
100
AcDb2dVertex
 10
40.46837560053871
 20
340.608054044382
 30
0.0
  0
VERTEX
  5
31A
330
316
100
AcDbEntity
  8
1
  6
Continuous
 62
     7
370
     9
100
AcDbVertex
100
AcDb2dVertex
 10
25.55408988625288
 20
340.608054044382
 30
0.0
  0
SEQEND
  5
317
330
316
100
AcDbEntity
  8
1
  6
Continuous
370
     9
  0
TEXT
  5
31B
330
1F
100
AcDbEntity
  8
1
  6
Continuous
 62
     7
370
     9
100
AcDbText
 10
25.55408988625288
 20
340.608054044382
 30
0.0
 40
10.5
  1
M5
 50
-0.0000000000001781
 41
0.5
100
AcDbText
  0
LINE
  5
31C
330
1F
100
AcDbEntity
  8
1
  6
DOT
 62
     7
370
     9
100
AcDbLine
 10
86.19694672294884
 20
324.1579674329006
 30
0.0
 11
86.19694672294884
 21
312.1579674329006
 31
0.0
  0
LINE
  5
31D
330
1F
100
AcDbEntity
  8
1
  6
DOT
 62
     7
370
     9
100
AcDbLine
 10
86.19694672294884
 20
358.1579674329006
 30
0.0
 11
86.19694672294884
 21
324.1579674329006
 31
0.0
  0
LINE
  5
31E
330
1F
100
AcDbEntity
  8
1
  6
DOT
 62
     7
370
     9
100
AcDbLine
 10
66.19694672294884
 20
358.1579674329006
 30
0.0
 11
66.19694672294884
 21
330.1579674329006
 31
0.0
  0
LINE
  5
31F
330
1F
100
AcDbEntity
  8
1
  6
DOT
 62
     7
370
     9
100
AcDbLine
 10
66.19694672294884
 20
318.1579674329006
 30
0.0
 11
66.19694672294884
 21
312.1579674329006
 31
0.0
  0
TEXT
  5
320
330
1F
100
AcDbEntity
  8
1
  6
Continuous
 62
     7
370
     9
100
AcDbText
 10
52.47881202000218
 20
289.7146097801204
 30
0.0
 40
10.5
  1
10φ+0.52
 41
0.5625
100
AcDbText
  0
TEXT
  5
321
330
1F
100
AcDbEntity
  8
1
  6
Continuous
 62
     7
370
     9
100
AcDbText
 10
52.30562977480912
 20
279.5898382806898
 30
0.0
 40
10.5
  1
　　-0
 41
0.75
100
AcDbText
  0
TEXT
  5
322
330
1F
100
AcDbEntity
  8
1
  6
Continuous
 62
     7
370
     9
100
AcDbText
 10
710.3724550181753
 20
176.0584099190968
 30
0.0
 40
12.0
  1
M8～2
 41
0.625
100
AcDbText
  0
TEXT
  5
323
330
1F
100
AcDbEntity
  8
1
  6
Continuous
 62
     7
370
     9
100
AcDbText
 10
629.6802091420875
 20
118.7689662821662
 30
0.0
 40
12.0
  1
A面
 41
0.75
100
AcDbText
  0
TEXT
  5
324
330
1F
100
AcDbEntity
  8
1
  6
Continuous
 62
     7
370
     9
100
AcDbText
 10
450.9716168246329
 20
117.4948675126197
 30
0.0
 40
12.0
  1
A面
 41
0.75
100
AcDbText
  0
LINE
  5
325
330
1F
100
AcDbEntity
  8
1
  6
Continuous
 62
     7
370
     9
100
AcDbLine
 10
167.5092682453427
 20
419.5790452390196
 30
0.0
 11
200.7528586278586
 21
419.5790452390196
 31
0.0
  0
LINE
  5
326
330
1F
100
AcDbEntity
  8
1
  6
Continuous
 62
     7
370
     9
100
AcDbLine
 10
167.5092682453427
 20
247.5790452390196
 30
0.0
 11
200.7528586278586
 21
247.5790452390196
 31
0.0
  0
LINE
  5
327
330
1F
100
AcDbEntity
  8
1
  6
Continuous
 62
     7
370
     9
100
AcDbLine
 10
167.5092682453427
 20
235.5790452390197
 30
0.0
 11
215.3404365904366
 21
235.5790452390197
 31
0.0
  0
LINE
  5
328
330
1F
100
AcDbEntity
  8
1
  6
Continuous
 62
     7
370
     9
100
AcDbLine
 10
31.98266131482439
 20
312.1579674329006
 30
0.0
 11
43.39694702911049
 21
312.1579674329006
 31
0.0
  0
LINE
  5
329
330
1F
100
AcDbEntity
  8
1
  6
Continuous
 62
     7
370
     9
100
AcDbLine
 10
31.98266131482439
 20
324.1579674329006
 30
0.0
 11
43.39694702911049
 21
324.1579674329006
 31
0.0
  0
LINE
  5
32A
330
1F
100
AcDbEntity
  8
1
  6
Continuous
 62
     7
370
     9
100
AcDbLine
 10
108.9969470291106
 20
312.1579674329006
 30
0.0
 11
120.6112327433962
 21
312.1579674329006
 31
0.0
  0
LINE
  5
32B
330
1F
100
AcDbEntity
  8
1
  6
Continuous
 62
     7
370
     9
100
AcDbLine
 10
108.9969470291106
 20
362.1579674329006
 30
0.0
 11
120.6112327433962
 21
362.1579674329006
 31
0.0
  0
LINE
  5
32C
330
1F
100
AcDbEntity
  8
1
  6
Continuous
 62
     7
370
     9
100
AcDbLine
 10
337.5982328482329
 20
487.6191721005721
 30
0.0
 11
354.0854522515538
 21
487.6191721005721
 31
0.0
  0
LINE
  5
32D
330
1F
100
AcDbEntity
  8
1
  6
Continuous
 62
     7
370
     9
100
AcDbLine
 10
354.0854522515538
 20
433.5790452390196
 30
0.0
 11
470.3028435559017
 21
433.5790452390196
 31
0.0
  0
LINE
  5
32E
330
1F
100
AcDbEntity
  8
1
  6
Continuous
 62
     7
370
     9
100
AcDbLine
 10
436.8287072981378
 20
103.5790452390194
 30
0.0
 11
470.3028435559017
 21
103.5790452390194
 31
0.0
  0
LINE
  5
32F
330
1F
100
AcDbEntity
  8
1
  6
Continuous
 62
     7
370
     9
100
AcDbLine
 10
261.0273784007596
 20
190.5790452390196
 30
0.0
 11
270.4490644490646
 21
190.5790452390196
 31
0.0
  0
LINE
  5
330
330
1F
100
AcDbEntity
  8
1
  6
Continuous
 62
     7
370
     9
100
AcDbLine
 10
261.0273784007596
 20
235.5790452390196
 30
0.0
 11
270.4490644490646
 21
235.5790452390196
 31
0.0
  0
LINE
  5
331
330
1F
100
AcDbEntity
  8
1
  6
Continuous
 62
     7
370
     9
100
AcDbLine
 10
436.8287072981378
 20
58.57904523901958
 30
0.0
 11
470.3028435559017
 21
58.57904523901958
 31
0.0
  0
LINE
  5
332
330
1F
100
AcDbEntity
  8
1
  6
Continuous
 62
     7
370
     9
100
AcDbLine
 10
120.6112327433962
 20
362.1579674329006
 30
0.0
 11
121.3876898787037
 21
359.2601899540334
 31
0.0
  0
LINE
  5
333
330
1F
100
AcDbEntity
  8
1
  6
Continuous
 62
     7
370
     9
100
AcDbLine
 10
120.6112327433962
 20
362.1579674329006
 30
0.0
 11
119.8347756080886
 21
359.2601899540334
 31
0.0
  0
LINE
  5
334
330
1F
100
AcDbEntity
  8
1
  6
Continuous
 62
     7
370
     9
100
AcDbLine
 10
121.3876898787037
 20
359.2601899540334
 30
0.0
 11
119.8347756080886
 21
359.2601899540334
 31
0.0
  0
LINE
  5
335
330
1F
100
AcDbEntity
  8
1
  6
Continuous
 62
     7
370
     9
100
AcDbLine
 10
120.6112327433962
 20
361.4335230631838
 30
0.0
 11
120.9994613110499
 21
359.9846343237502
 31
0.0
  0
LINE
  5
336
330
1F
100
AcDbEntity
  8
1
  6
Continuous
 62
     7
370
     9
100
AcDbLine
 10
120.6112327433962
 20
361.4335230631838
 30
0.0
 11
120.2230041757424
 21
359.9846343237502
 31
0.0
  0
LINE
  5
337
330
1F
100
AcDbEntity
  8
1
  6
Continuous
 62
     7
370
     9
100
AcDbLine
 10
120.9994613110499
 20
359.9846343237502
 30
0.0
 11
120.2230041757424
 21
359.9846343237502
 31
0.0
  0
POLYLINE
  5
338
330
1F
100
AcDbEntity
  8
1
  6
Continuous
 62
     7
370
     9
100
AcDb2dPolyline
 66
     1
 10
0.0
 20
0.0
 30
0.0
  0
VERTEX
  5
33A
330
338
100
AcDbEntity
  8
1
  6
Continuous
 62
     7
370
     9
100
AcDbVertex
100
AcDb2dVertex
 10
120.6112327433962
 20
362.1579674329006
 30
0.0
  0
VERTEX
  5
33B
330
338
100
AcDbEntity
  8
1
  6
Continuous
 62
     7
370
     9
100
AcDbVertex
100
AcDb2dVertex
 10
120.6112327433962
 20
357.2798856548853
 30
0.0
  0
SEQEND
  5
339
330
338
100
AcDbEntity
  8
1
  6
Continuous
370
     9
  0
LINE
  5
33C
330
1F
100
AcDbEntity
  8
1
  6
Continuous
 62
     7
370
     9
100
AcDbLine
 10
120.6112327433962
 20
312.1579674329006
 30
0.0
 11
119.8347756080886
 21
315.0557449117679
 31
0.0
  0
LINE
  5
33D
330
1F
100
AcDbEntity
  8
1
  6
Continuous
 62
     7
370
     9
100
AcDbLine
 10
120.6112327433962
 20
312.1579674329006
 30
0.0
 11
121.3876898787037
 21
315.0557449117679
 31
0.0
  0
LINE
  5
33E
330
1F
100
AcDbEntity
  8
1
  6
Continuous
 62
     7
370
     9
100
AcDbLine
 10
119.8347756080886
 20
315.0557449117679
 30
0.0
 11
121.3876898787037
 21
315.0557449117679
 31
0.0
  0
LINE
  5
33F
330
1F
100
AcDbEntity
  8
1
  6
Continuous
 62
     7
370
     9
100
AcDbLine
 10
120.6112327433962
 20
312.8824118026175
 30
0.0
 11
120.2230041757424
 21
314.3313005420511
 31
0.0
  0
LINE
  5
340
330
1F
100
AcDbEntity
  8
1
  6
Continuous
 62
     7
370
     9
100
AcDbLine
 10
120.6112327433962
 20
312.8824118026175
 30
0.0
 11
120.9994613110499
 21
314.3313005420511
 31
0.0
  0
LINE
  5
341
330
1F
100
AcDbEntity
  8
1
  6
Continuous
 62
     7
370
     9
100
AcDbLine
 10
120.2230041757424
 20
314.3313005420511
 30
0.0
 11
120.9994613110499
 21
314.3313005420511
 31
0.0
  0
POLYLINE
  5
342
330
1F
100
AcDbEntity
  8
1
  6
Continuous
 62
     7
370
     9
100
AcDb2dPolyline
 66
     1
 10
0.0
 20
0.0
 30
0.0
  0
VERTEX
  5
344
330
342
100
AcDbEntity
  8
1
  6
Continuous
 62
     7
370
     9
100
AcDbVertex
100
AcDb2dVertex
 10
120.6112327433962
 20
312.1579674329006
 30
0.0
  0
VERTEX
  5
345
330
342
100
AcDbEntity
  8
1
  6
Continuous
 62
     7
370
     9
100
AcDbVertex
100
AcDb2dVertex
 10
120.6112327433962
 20
316.0641891891889
 30
0.0
  0
SEQEND
  5
343
330
342
100
AcDbEntity
  8
1
  6
Continuous
370
     9
  0
LINE
  5
346
330
1F
100
AcDbEntity
  8
1
  6
Continuous
 62
     7
370
     9
100
AcDbLine
 10
167.5092682453427
 20
419.5790452390196
 30
0.0
 11
168.2857253806502
 21
416.6812677601524
 31
0.0
  0
LINE
  5
347
330
1F
100
AcDbEntity
  8
1
  6
Continuous
 62
     7
370
     9
100
AcDbLine
 10
167.5092682453427
 20
419.5790452390196
 30
0.0
 11
166.7328111100351
 21
416.6812677601524
 31
0.0
  0
LINE
  5
348
330
1F
100
AcDbEntity
  8
1
  6
Continuous
 62
     7
370
     9
100
AcDbLine
 10
168.2857253806502
 20
416.6812677601524
 30
0.0
 11
166.7328111100351
 21
416.6812677601524
 31
0.0
  0
LINE
  5
349
330
1F
100
AcDbEntity
  8
1
  6
Continuous
 62
     7
370
     9
100
AcDbLine
 10
167.5092682453427
 20
418.8546008693028
 30
0.0
 11
167.8974968129965
 21
417.4057121298692
 31
0.0
  0
LINE
  5
34A
330
1F
100
AcDbEntity
  8
1
  6
Continuous
 62
     7
370
     9
100
AcDbLine
 10
167.5092682453427
 20
418.8546008693028
 30
0.0
 11
167.1210396776889
 21
417.4057121298692
 31
0.0
  0
LINE
  5
34B
330
1F
100
AcDbEntity
  8
1
  6
Continuous
 62
     7
370
     9
100
AcDbLine
 10
167.8974968129965
 20
417.4057121298692
 30
0.0
 11
167.1210396776889
 21
417.4057121298692
 31
0.0
  0
POLYLINE
  5
34C
330
1F
100
AcDbEntity
  8
1
  6
Continuous
 62
     7
370
     9
100
AcDb2dPolyline
 66
     1
 10
0.0
 20
0.0
 30
0.0
  0
VERTEX
  5
34E
330
34C
100
AcDbEntity
  8
1
  6
Continuous
 62
     7
370
     9
100
AcDbVertex
100
AcDb2dVertex
 10
167.5092682453427
 20
419.5790452390196
 30
0.0
  0
VERTEX
  5
34F
330
34C
100
AcDbEntity
  8
1
  6
Continuous
 62
     7
370
     9
100
AcDbVertex
100
AcDb2dVertex
 10
167.5092682453427
 20
416.0932952182949
 30
0.0
  0
SEQEND
  5
34D
330
34C
100
AcDbEntity
  8
1
  6
Continuous
370
     9
  0
LINE
  5
350
330
1F
100
AcDbEntity
  8
1
  6
Continuous
 62
     7
370
     9
100
AcDbLine
 10
167.5092682453427
 20
247.5790452390196
 30
0.0
 11
166.7328111100351
 21
250.4768227178868
 31
0.0
  0
LINE
  5
351
330
1F
100
AcDbEntity
  8
1
  6
Continuous
 62
     7
370
     9
100
AcDbLine
 10
167.5092682453427
 20
247.5790452390196
 30
0.0
 11
168.2857253806502
 21
250.4768227178868
 31
0.0
  0
LINE
  5
352
330
1F
100
AcDbEntity
  8
1
  6
Continuous
 62
     7
370
     9
100
AcDbLine
 10
166.7328111100351
 20
250.4768227178868
 30
0.0
 11
168.2857253806502
 21
250.4768227178868
 31
0.0
  0
LINE
  5
353
330
1F
100
AcDbEntity
  8
1
  6
Continuous
 62
     7
370
     9
100
AcDbLine
 10
167.5092682453427
 20
248.3034896087364
 30
0.0
 11
167.1210396776889
 21
249.7523783481701
 31
0.0
  0
LINE
  5
354
330
1F
100
AcDbEntity
  8
1
  6
Continuous
 62
     7
370
     9
100
AcDbLine
 10
167.5092682453427
 20
248.3034896087364
 30
0.0
 11
167.8974968129965
 21
249.7523783481701
 31
0.0
  0
LINE
  5
355
330
1F
100
AcDbEntity
  8
1
  6
Continuous
 62
     7
370
     9
100
AcDbLine
 10
167.1210396776889
 20
249.7523783481701
 30
0.0
 11
167.8974968129965
 21
249.7523783481701
 31
0.0
  0
POLYLINE
  5
356
330
1F
100
AcDbEntity
  8
1
  6
Continuous
 62
     7
370
     9
100
AcDb2dPolyline
 66
     1
 10
0.0
 20
0.0
 30
0.0
  0
VERTEX
  5
358
330
356
100
AcDbEntity
  8
1
  6
Continuous
 62
     7
370
     9
100
AcDbVertex
100
AcDb2dVertex
 10
167.5092682453427
 20
247.5790452390196
 30
0.0
  0
VERTEX
  5
359
330
356
100
AcDbEntity
  8
1
  6
Continuous
 62
     7
370
     9
100
AcDbVertex
100
AcDb2dVertex
 10
167.5092682453427
 20
249.3781185031181
 30
0.0
  0
SEQEND
  5
357
330
356
100
AcDbEntity
  8
1
  6
Continuous
370
     9
  0
LINE
  5
35A
330
1F
100
AcDbEntity
  8
1
  6
Continuous
 62
     7
370
     9
100
AcDbLine
 10
167.5092682453427
 20
235.5790452390197
 30
0.0
 11
168.2857253806502
 21
232.6812677601525
 31
0.0
  0
LINE
  5
35B
330
1F
100
AcDbEntity
  8
1
  6
Continuous
 62
     7
370
     9
100
AcDbLine
 10
167.5092682453427
 20
235.5790452390197
 30
0.0
 11
166.7328111100351
 21
232.6812677601525
 31
0.0
  0
LINE
  5
35C
330
1F
100
AcDbEntity
  8
1
  6
Continuous
 62
     7
370
     9
100
AcDbLine
 10
168.2857253806502
 20
232.6812677601525
 30
0.0
 11
166.7328111100351
 21
232.6812677601525
 31
0.0
  0
LINE
  5
35D
330
1F
100
AcDbEntity
  8
1
  6
Continuous
 62
     7
370
     9
100
AcDbLine
 10
167.5092682453427
 20
234.8546008693029
 30
0.0
 11
167.8974968129965
 21
233.4057121298693
 31
0.0
  0
LINE
  5
35E
330
1F
100
AcDbEntity
  8
1
  6
Continuous
 62
     7
370
     9
100
AcDbLine
 10
167.5092682453427
 20
234.8546008693029
 30
0.0
 11
167.1210396776889
 21
233.4057121298693
 31
0.0
  0
LINE
  5
35F
330
1F
100
AcDbEntity
  8
1
  6
Continuous
 62
     7
370
     9
100
AcDbLine
 10
167.8974968129965
 20
233.4057121298693
 30
0.0
 11
167.1210396776889
 21
233.4057121298693
 31
0.0
  0
POLYLINE
  5
360
330
1F
100
AcDbEntity
  8
1
  6
Continuous
 62
     7
370
     9
100
AcDb2dPolyline
 66
     1
 10
0.0
 20
0.0
 30
0.0
  0
VERTEX
  5
362
330
360
100
AcDbEntity
  8
1
  6
Continuous
 62
     7
370
     9
100
AcDbVertex
100
AcDb2dVertex
 10
167.5092682453427
 20
235.5790452390197
 30
0.0
  0
VERTEX
  5
363
330
360
100
AcDbEntity
  8
1
  6
Continuous
 62
     7
370
     9
100
AcDbVertex
100
AcDb2dVertex
 10
167.5092682453427
 20
231.780405405405
 30
0.0
  0
SEQEND
  5
361
330
360
100
AcDbEntity
  8
1
  6
Continuous
370
     9
  0
LINE
  5
364
330
1F
100
AcDbEntity
  8
1
  6
Continuous
 62
     7
370
     9
100
AcDbLine
 10
167.5092682453427
 20
103.5790452390196
 30
0.0
 11
166.7328111100351
 21
106.4768227178868
 31
0.0
  0
LINE
  5
365
330
1F
100
AcDbEntity
  8
1
  6
Continuous
 62
     7
370
     9
100
AcDbLine
 10
167.5092682453427
 20
103.5790452390196
 30
0.0
 11
168.2857253806502
 21
106.4768227178868
 31
0.0
  0
LINE
  5
366
330
1F
100
AcDbEntity
  8
1
  6
Continuous
 62
     7
370
     9
100
AcDbLine
 10
166.7328111100351
 20
106.4768227178868
 30
0.0
 11
168.2857253806502
 21
106.4768227178868
 31
0.0
  0
LINE
  5
367
330
1F
100
AcDbEntity
  8
1
  6
Continuous
 62
     7
370
     9
100
AcDbLine
 10
167.5092682453427
 20
104.3034896087364
 30
0.0
 11
167.1210396776889
 21
105.75237834817
 31
0.0
  0
LINE
  5
368
330
1F
100
AcDbEntity
  8
1
  6
Continuous
 62
     7
370
     9
100
AcDbLine
 10
167.5092682453427
 20
104.3034896087364
 30
0.0
 11
167.8974968129965
 21
105.75237834817
 31
0.0
  0
LINE
  5
369
330
1F
100
AcDbEntity
  8
1
  6
Continuous
 62
     7
370
     9
100
AcDbLine
 10
167.1210396776889
 20
105.75237834817
 30
0.0
 11
167.8974968129965
 21
105.75237834817
 31
0.0
  0
POLYLINE
  5
36A
330
1F
100
AcDbEntity
  8
1
  6
Continuous
 62
     7
370
     9
100
AcDb2dPolyline
 66
     1
 10
0.0
 20
0.0
 30
0.0
  0
VERTEX
  5
36C
330
36A
100
AcDbEntity
  8
1
  6
Continuous
 62
     7
370
     9
100
AcDbVertex
100
AcDb2dVertex
 10
167.5092682453427
 20
103.5790452390196
 30
0.0
  0
VERTEX
  5
36D
330
36A
100
AcDbEntity
  8
1
  6
Continuous
 62
     7
370
     9
100
AcDbVertex
100
AcDb2dVertex
 10
167.5092682453427
 20
107.9017671517668
 30
0.0
  0
SEQEND
  5
36B
330
36A
100
AcDbEntity
  8
1
  6
Continuous
370
     9
  0
LINE
  5
36E
330
1F
100
AcDbEntity
  8
1
  6
Continuous
 62
     7
370
     9
100
AcDbLine
 10
470.3028435559017
 20
58.57904523901958
 30
0.0
 11
469.5263864205941
 21
61.47682271788678
 31
0.0
  0
LINE
  5
36F
330
1F
100
AcDbEntity
  8
1
  6
Continuous
 62
     7
370
     9
100
AcDbLine
 10
470.3028435559017
 20
58.57904523901958
 30
0.0
 11
471.0793006912093
 21
61.47682271788678
 31
0.0
  0
LINE
  5
370
330
1F
100
AcDbEntity
  8
1
  6
Continuous
 62
     7
370
     9
100
AcDbLine
 10
469.5263864205941
 20
61.47682271788678
 30
0.0
 11
471.0793006912093
 21
61.47682271788678
 31
0.0
  0
LINE
  5
371
330
1F
100
AcDbEntity
  8
1
  6
Continuous
 62
     7
370
     9
100
AcDbLine
 10
470.3028435559017
 20
59.30348960873638
 30
0.0
 11
469.9146149882479
 21
60.75237834816998
 31
0.0
  0
LINE
  5
372
330
1F
100
AcDbEntity
  8
1
  6
Continuous
 62
     7
370
     9
100
AcDbLine
 10
470.3028435559017
 20
59.30348960873638
 30
0.0
 11
470.6910721235554
 21
60.75237834816998
 31
0.0
  0
LINE
  5
373
330
1F
100
AcDbEntity
  8
1
  6
Continuous
 62
     7
370
     9
100
AcDbLine
 10
469.9146149882479
 20
60.75237834816998
 30
0.0
 11
470.6910721235554
 21
60.75237834816998
 31
0.0
  0
POLYLINE
  5
374
330
1F
100
AcDbEntity
  8
1
  6
Continuous
 62
     7
370
     9
100
AcDb2dPolyline
 66
     1
 10
0.0
 20
0.0
 30
0.0
  0
VERTEX
  5
376
330
374
100
AcDbEntity
  8
1
  6
Continuous
 62
     7
370
     9
100
AcDbVertex
100
AcDb2dVertex
 10
470.3028435559017
 20
58.57904523901958
 30
0.0
  0
VERTEX
  5
377
330
374
100
AcDbEntity
  8
1
  6
Continuous
 62
     7
370
     9
100
AcDbVertex
100
AcDb2dVertex
 10
470.3028435559017
 20
64.37058212058176
 30
0.0
  0
SEQEND
  5
375
330
374
100
AcDbEntity
  8
1
  6
Continuous
370
     9
  0
LINE
  5
378
330
1F
100
AcDbEntity
  8
1
  6
Continuous
 62
     7
370
     9
100
AcDbLine
 10
470.3028435559017
 20
103.5790452390194
 30
0.0
 11
471.0793006912093
 21
100.6812677601522
 31
0.0
  0
LINE
  5
379
330
1F
100
AcDbEntity
  8
1
  6
Continuous
 62
     7
370
     9
100
AcDbLine
 10
470.3028435559017
 20
103.5790452390194
 30
0.0
 11
469.5263864205941
 21
100.6812677601522
 31
0.0
  0
LINE
  5
37A
330
1F
100
AcDbEntity
  8
1
  6
Continuous
 62
     7
370
     9
100
AcDbLine
 10
471.0793006912093
 20
100.6812677601522
 30
0.0
 11
469.5263864205941
 21
100.6812677601522
 31
0.0
  0
LINE
  5
37B
330
1F
100
AcDbEntity
  8
1
  6
Continuous
 62
     7
370
     9
100
AcDbLine
 10
470.3028435559017
 20
102.8546008693026
 30
0.0
 11
470.6910721235554
 21
101.405712129869
 31
0.0
  0
LINE
  5
37C
330
1F
100
AcDbEntity
  8
1
  6
Continuous
 62
     7
370
     9
100
AcDbLine
 10
470.3028435559017
 20
102.8546008693026
 30
0.0
 11
469.9146149882479
 21
101.405712129869
 31
0.0
  0
LINE
  5
37D
330
1F
100
AcDbEntity
  8
1
  6
Continuous
 62
     7
370
     9
100
AcDbLine
 10
470.6910721235554
 20
101.405712129869
 30
0.0
 11
469.9146149882479
 21
101.405712129869
 31
0.0
  0
POLYLINE
  5
37E
330
1F
100
AcDbEntity
  8
1
  6
Continuous
 62
     7
370
     9
100
AcDb2dPolyline
 66
     1
 10
0.0
 20
0.0
 30
0.0
  0
VERTEX
  5
380
330
37E
100
AcDbEntity
  8
1
  6
Continuous
 62
     7
370
     9
100
AcDbVertex
100
AcDb2dVertex
 10
470.3028435559017
 20
103.5790452390194
 30
0.0
  0
VERTEX
  5
381
330
37E
100
AcDbEntity
  8
1
  6
Continuous
 62
     7
370
     9
100
AcDbVertex
100
AcDb2dVertex
 10
470.3028435559017
 20
97.2505197505194
 30
0.0
  0
SEQEND
  5
37F
330
37E
100
AcDbEntity
  8
1
  6
Continuous
370
     9
  0
LINE
  5
382
330
1F
100
AcDbEntity
  8
1
  6
Continuous
 62
     7
370
     9
100
AcDbLine
 10
470.3028435559017
 20
103.5790452390194
 30
0.0
 11
469.5263864205941
 21
106.4768227178866
 31
0.0
  0
LINE
  5
383
330
1F
100
AcDbEntity
  8
1
  6
Continuous
 62
     7
370
     9
100
AcDbLine
 10
470.3028435559017
 20
103.5790452390194
 30
0.0
 11
471.0793006912093
 21
106.4768227178866
 31
0.0
  0
LINE
  5
384
330
1F
100
AcDbEntity
  8
1
  6
Continuous
 62
     7
370
     9
100
AcDbLine
 10
469.5263864205941
 20
106.4768227178866
 30
0.0
 11
471.0793006912093
 21
106.4768227178866
 31
0.0
  0
LINE
  5
385
330
1F
100
AcDbEntity
  8
1
  6
Continuous
 62
     7
370
     9
100
AcDbLine
 10
470.3028435559017
 20
104.3034896087362
 30
0.0
 11
469.9146149882479
 21
105.7523783481698
 31
0.0
  0
LINE
  5
386
330
1F
100
AcDbEntity
  8
1
  6
Continuous
 62
     7
370
     9
100
AcDbLine
 10
470.3028435559017
 20
104.3034896087362
 30
0.0
 11
470.6910721235554
 21
105.7523783481698
 31
0.0
  0
LINE
  5
387
330
1F
100
AcDbEntity
  8
1
  6
Continuous
 62
     7
370
     9
100
AcDbLine
 10
469.9146149882479
 20
105.7523783481698
 30
0.0
 11
470.6910721235554
 21
105.7523783481698
 31
0.0
  0
POLYLINE
  5
388
330
1F
100
AcDbEntity
  8
1
  6
Continuous
 62
     7
370
     9
100
AcDb2dPolyline
 66
     1
 10
0.0
 20
0.0
 30
0.0
  0
VERTEX
  5
38A
330
388
100
AcDbEntity
  8
1
  6
Continuous
 62
     7
370
     9
100
AcDbVertex
100
AcDb2dVertex
 10
470.3028435559017
 20
103.5790452390194
 30
0.0
  0
VERTEX
  5
38B
330
388
100
AcDbEntity
  8
1
  6
Continuous
 62
     7
370
     9
100
AcDbVertex
100
AcDb2dVertex
 10
470.3028435559017
 20
108.3648648648645
 30
0.0
  0
SEQEND
  5
389
330
388
100
AcDbEntity
  8
1
  6
Continuous
370
     9
  0
LINE
  5
38C
330
1F
100
AcDbEntity
  8
1
  6
Continuous
 62
     7
370
     9
100
AcDbLine
 10
470.3028435559017
 20
433.5790452390196
 30
0.0
 11
471.0793006912093
 21
430.6812677601524
 31
0.0
  0
LINE
  5
38D
330
1F
100
AcDbEntity
  8
1
  6
Continuous
 62
     7
370
     9
100
AcDbLine
 10
470.3028435559017
 20
433.5790452390196
 30
0.0
 11
469.5263864205941
 21
430.6812677601524
 31
0.0
  0
LINE
  5
38E
330
1F
100
AcDbEntity
  8
1
  6
Continuous
 62
     7
370
     9
100
AcDbLine
 10
471.0793006912093
 20
430.6812677601524
 30
0.0
 11
469.5263864205941
 21
430.6812677601524
 31
0.0
  0
LINE
  5
38F
330
1F
100
AcDbEntity
  8
1
  6
Continuous
 62
     7
370
     9
100
AcDbLine
 10
470.3028435559017
 20
432.8546008693028
 30
0.0
 11
470.6910721235554
 21
431.4057121298692
 31
0.0
  0
LINE
  5
390
330
1F
100
AcDbEntity
  8
1
  6
Continuous
 62
     7
370
     9
100
AcDbLine
 10
470.3028435559017
 20
432.8546008693028
 30
0.0
 11
469.9146149882479
 21
431.4057121298692
 31
0.0
  0
LINE
  5
391
330
1F
100
AcDbEntity
  8
1
  6
Continuous
 62
     7
370
     9
100
AcDbLine
 10
470.6910721235554
 20
431.4057121298692
 30
0.0
 11
469.9146149882479
 21
431.4057121298692
 31
0.0
  0
POLYLINE
  5
392
330
1F
100
AcDbEntity
  8
1
  6
Continuous
 62
     7
370
     9
100
AcDb2dPolyline
 66
     1
 10
0.0
 20
0.0
 30
0.0
  0
VERTEX
  5
394
330
392
100
AcDbEntity
  8
1
  6
Continuous
 62
     7
370
     9
100
AcDbVertex
100
AcDb2dVertex
 10
470.3028435559017
 20
433.5790452390196
 30
0.0
  0
VERTEX
  5
395
330
392
100
AcDbEntity
  8
1
  6
Continuous
 62
     7
370
     9
100
AcDbVertex
100
AcDb2dVertex
 10
470.3028435559017
 20
424.1975051975049
 30
0.0
  0
SEQEND
  5
393
330
392
100
AcDbEntity
  8
1
  6
Continuous
370
     9
  0
LINE
  5
396
330
1F
100
AcDbEntity
  8
1
  6
Continuous
 62
     7
370
     9
100
AcDbLine
 10
354.0854522515538
 20
487.6191721005721
 30
0.0
 11
354.8619093868613
 21
484.7213946217049
 31
0.0
  0
LINE
  5
397
330
1F
100
AcDbEntity
  8
1
  6
Continuous
 62
     7
370
     9
100
AcDbLine
 10
354.0854522515538
 20
487.6191721005721
 30
0.0
 11
353.3089951162462
 21
484.7213946217049
 31
0.0
  0
LINE
  5
398
330
1F
100
AcDbEntity
  8
1
  6
Continuous
 62
     7
370
     9
100
AcDbLine
 10
354.8619093868613
 20
484.7213946217049
 30
0.0
 11
353.3089951162462
 21
484.7213946217049
 31
0.0
  0
LINE
  5
399
330
1F
100
AcDbEntity
  8
1
  6
Continuous
 62
     7
370
     9
100
AcDbLine
 10
354.0854522515538
 20
486.8947277308553
 30
0.0
 11
354.4736808192075
 21
485.4458389914217
 31
0.0
  0
LINE
  5
39A
330
1F
100
AcDbEntity
  8
1
  6
Continuous
 62
     7
370
     9
100
AcDbLine
 10
354.0854522515538
 20
486.8947277308553
 30
0.0
 11
353.6972236839
 21
485.4458389914217
 31
0.0
  0
LINE
  5
39B
330
1F
100
AcDbEntity
  8
1
  6
Continuous
 62
     7
370
     9
100
AcDbLine
 10
354.4736808192075
 20
485.4458389914217
 30
0.0
 11
353.6972236839
 21
485.4458389914217
 31
0.0
  0
POLYLINE
  5
39C
330
1F
100
AcDbEntity
  8
1
  6
Continuous
 62
     7
370
     9
100
AcDb2dPolyline
 66
     1
 10
0.0
 20
0.0
 30
0.0
  0
VERTEX
  5
39E
330
39C
100
AcDbEntity
  8
1
  6
Continuous
 62
     7
370
     9
100
AcDbVertex
100
AcDb2dVertex
 10
354.0854522515538
 20
487.6191721005721
 30
0.0
  0
VERTEX
  5
39F
330
39C
100
AcDbEntity
  8
1
  6
Continuous
 62
     7
370
     9
100
AcDbVertex
100
AcDb2dVertex
 10
354.0854522515538
 20
479.3061330561329
 30
0.0
  0
SEQEND
  5
39D
330
39C
100
AcDbEntity
  8
1
  6
Continuous
370
     9
  0
LINE
  5
3A0
330
1F
100
AcDbEntity
  8
1
  6
Continuous
 62
     7
370
     9
100
AcDbLine
 10
354.0854522515538
 20
433.5790452390196
 30
0.0
 11
353.3089951162462
 21
436.4768227178868
 31
0.0
  0
LINE
  5
3A1
330
1F
100
AcDbEntity
  8
1
  6
Continuous
 62
     7
370
     9
100
AcDbLine
 10
354.0854522515538
 20
433.5790452390196
 30
0.0
 11
354.8619093868613
 21
436.4768227178868
 31
0.0
  0
LINE
  5
3A2
330
1F
100
AcDbEntity
  8
1
  6
Continuous
 62
     7
370
     9
100
AcDbLine
 10
353.3089951162462
 20
436.4768227178868
 30
0.0
 11
354.8619093868613
 21
436.4768227178868
 31
0.0
  0
LINE
  5
3A3
330
1F
100
AcDbEntity
  8
1
  6
Continuous
 62
     7
370
     9
100
AcDbLine
 10
354.0854522515538
 20
434.3034896087364
 30
0.0
 11
353.6972236839
 21
435.75237834817
 31
0.0
  0
LINE
  5
3A4
330
1F
100
AcDbEntity
  8
1
  6
Continuous
 62
     7
370
     9
100
AcDbLine
 10
354.0854522515538
 20
434.3034896087364
 30
0.0
 11
354.4736808192075
 21
435.75237834817
 31
0.0
  0
LINE
  5
3A5
330
1F
100
AcDbEntity
  8
1
  6
Continuous
 62
     7
370
     9
100
AcDbLine
 10
353.6972236839
 20
435.75237834817
 30
0.0
 11
354.4736808192075
 21
435.75237834817
 31
0.0
  0
POLYLINE
  5
3A6
330
1F
100
AcDbEntity
  8
1
  6
Continuous
 62
     7
370
     9
100
AcDb2dPolyline
 66
     1
 10
0.0
 20
0.0
 30
0.0
  0
VERTEX
  5
3A8
330
3A6
100
AcDbEntity
  8
1
  6
Continuous
 62
     7
370
     9
100
AcDbVertex
100
AcDb2dVertex
 10
354.0854522515538
 20
433.5790452390196
 30
0.0
  0
VERTEX
  5
3A9
330
3A6
100
AcDbEntity
  8
1
  6
Continuous
 62
     7
370
     9
100
AcDbVertex
100
AcDb2dVertex
 10
354.0854522515538
 20
439.4797297297295
 30
0.0
  0
SEQEND
  5
3A7
330
3A6
100
AcDbEntity
  8
1
  6
Continuous
370
     9
  0
LINE
  5
3AA
330
1F
100
AcDbEntity
  8
1
  6
Continuous
 62
     7
370
     9
100
AcDbLine
 10
606.4482603843221
 20
231.1579674329006
 30
0.0
 11
613.1723602484474
 21
231.1579674329006
 31
0.0
  0
LINE
  5
3AB
330
1F
100
AcDbEntity
  8
1
  6
Continuous
 62
     7
370
     9
100
AcDbLine
 10
710.2761174636187
 20
312.1579674329006
 30
0.0
 11
738.3457759122747
 21
312.1579674329006
 31
0.0
  0
LINE
  5
3AC
330
1F
100
AcDbEntity
  8
1
  6
Continuous
 62
     7
370
     9
100
AcDbLine
 10
686.2370802600998
 20
424.1579674329006
 30
0.0
 11
738.3457759122745
 21
424.1579674329006
 31
0.0
  0
LINE
  5
3AD
330
1F
100
AcDbEntity
  8
1
  6
Continuous
 62
     7
370
     9
100
AcDbLine
 10
729.3527634899141
 20
231.1579674329006
 30
0.0
 11
725.1723602484474
 21
231.1579674329006
 31
0.0
  0
LINE
  5
3AE
330
1F
100
AcDbEntity
  8
1
  6
Continuous
 62
     7
370
     9
100
AcDbLine
 10
729.3527634899141
 20
231.1579674329006
 30
0.0
 11
728.5763063546066
 21
234.0557449117678
 31
0.0
  0
LINE
  5
3AF
330
1F
100
AcDbEntity
  8
1
  6
Continuous
 62
     7
370
     9
100
AcDbLine
 10
729.3527634899141
 20
231.1579674329006
 30
0.0
 11
730.1292206252216
 21
234.0557449117678
 31
0.0
  0
LINE
  5
3B0
330
1F
100
AcDbEntity
  8
1
  6
Continuous
 62
     7
370
     9
100
AcDbLine
 10
728.5763063546066
 20
234.0557449117678
 30
0.0
 11
730.1292206252216
 21
234.0557449117678
 31
0.0
  0
LINE
  5
3B1
330
1F
100
AcDbEntity
  8
1
  6
Continuous
 62
     7
370
     9
100
AcDbLine
 10
729.3527634899141
 20
231.8824118026174
 30
0.0
 11
728.9645349222603
 21
233.331300542051
 31
0.0
  0
LINE
  5
3B2
330
1F
100
AcDbEntity
  8
1
  6
Continuous
 62
     7
370
     9
100
AcDbLine
 10
729.3527634899141
 20
231.8824118026174
 30
0.0
 11
729.7409920575678
 21
233.331300542051
 31
0.0
  0
LINE
  5
3B3
330
1F
100
AcDbEntity
  8
1
  6
Continuous
 62
     7
370
     9
100
AcDbLine
 10
728.9645349222603
 20
233.331300542051
 30
0.0
 11
729.7409920575678
 21
233.331300542051
 31
0.0
  0
POLYLINE
  5
3B4
330
1F
100
AcDbEntity
  8
1
  6
Continuous
 62
     7
370
     9
100
AcDb2dPolyline
 66
     1
 10
0.0
 20
0.0
 30
0.0
  0
VERTEX
  5
3B6
330
3B4
100
AcDbEntity
  8
1
  6
Continuous
 62
     7
370
     9
100
AcDbVertex
100
AcDb2dVertex
 10
729.3527634899141
 20
231.1579674329006
 30
0.0
  0
VERTEX
  5
3B7
330
3B4
100
AcDbEntity
  8
1
  6
Continuous
 62
     7
370
     9
100
AcDbVertex
100
AcDb2dVertex
 10
729.3527634899141
 20
234.2116683991682
 30
0.0
  0
SEQEND
  5
3B5
330
3B4
100
AcDbEntity
  8
1
  6
Continuous
370
     9
  0
LINE
  5
3B8
330
1F
100
AcDbEntity
  8
1
  6
Continuous
 62
     7
370
     9
100
AcDbLine
 10
606.4482603843221
 20
231.1579674329006
 30
0.0
 11
607.2247175196296
 21
228.2601899540335
 31
0.0
  0
LINE
  5
3B9
330
1F
100
AcDbEntity
  8
1
  6
Continuous
 62
     7
370
     9
100
AcDbLine
 10
606.4482603843221
 20
231.1579674329006
 30
0.0
 11
605.6718032490146
 21
228.2601899540335
 31
0.0
  0
LINE
  5
3BA
330
1F
100
AcDbEntity
  8
1
  6
Continuous
 62
     7
370
     9
100
AcDbLine
 10
607.2247175196296
 20
228.2601899540335
 30
0.0
 11
605.6718032490146
 21
228.2601899540335
 31
0.0
  0
LINE
  5
3BB
330
1F
100
AcDbEntity
  8
1
  6
Continuous
 62
     7
370
     9
100
AcDbLine
 10
606.4482603843221
 20
230.4335230631839
 30
0.0
 11
606.8364889519759
 21
228.9846343237502
 31
0.0
  0
LINE
  5
3BC
330
1F
100
AcDbEntity
  8
1
  6
Continuous
 62
     7
370
     9
100
AcDbLine
 10
606.4482603843221
 20
230.4335230631839
 30
0.0
 11
606.0600318166684
 21
228.9846343237502
 31
0.0
  0
LINE
  5
3BD
330
1F
100
AcDbEntity
  8
1
  6
Continuous
 62
     7
370
     9
100
AcDbLine
 10
606.8364889519759
 20
228.9846343237502
 30
0.0
 11
606.0600318166684
 21
228.9846343237502
 31
0.0
  0
POLYLINE
  5
3BE
330
1F
100
AcDbEntity
  8
1
  6
Continuous
 62
     7
370
     9
100
AcDb2dPolyline
 66
     1
 10
0.0
 20
0.0
 30
0.0
  0
VERTEX
  5
3C0
330
3BE
100
AcDbEntity
  8
1
  6
Continuous
 62
     7
370
     9
100
AcDbVertex
100
AcDb2dVertex
 10
606.4482603843221
 20
231.1579674329006
 30
0.0
  0
VERTEX
  5
3C1
330
3BE
100
AcDbEntity
  8
1
  6
Continuous
 62
     7
370
     9
100
AcDbVertex
100
AcDb2dVertex
 10
606.4482603843221
 20
228.8860446985445
 30
0.0
  0
SEQEND
  5
3BF
330
3BE
100
AcDbEntity
  8
1
  6
Continuous
370
     9
  0
LINE
  5
3C2
330
1F
100
AcDbEntity
  8
1
  6
Continuous
 62
     7
370
     9
100
AcDbLine
 10
606.4482603843221
 20
91.15796743290065
 30
0.0
 11
605.6718032490146
 21
94.05574491176786
 31
0.0
  0
LINE
  5
3C3
330
1F
100
AcDbEntity
  8
1
  6
Continuous
 62
     7
370
     9
100
AcDbLine
 10
606.4482603843221
 20
91.15796743290065
 30
0.0
 11
607.2247175196296
 21
94.05574491176785
 31
0.0
  0
LINE
  5
3C4
330
1F
100
AcDbEntity
  8
1
  6
Continuous
 62
     7
370
     9
100
AcDbLine
 10
605.6718032490146
 20
94.05574491176786
 30
0.0
 11
607.2247175196296
 21
94.05574491176785
 31
0.0
  0
LINE
  5
3C5
330
1F
100
AcDbEntity
  8
1
  6
Continuous
 62
     7
370
     9
100
AcDbLine
 10
606.4482603843221
 20
91.88241180261745
 30
0.0
 11
606.0600318166684
 21
93.33130054205105
 31
0.0
  0
LINE
  5
3C6
330
1F
100
AcDbEntity
  8
1
  6
Continuous
 62
     7
370
     9
100
AcDbLine
 10
606.4482603843221
 20
91.88241180261745
 30
0.0
 11
606.8364889519759
 21
93.33130054205105
 31
0.0
  0
LINE
  5
3C7
330
1F
100
AcDbEntity
  8
1
  6
Continuous
 62
     7
370
     9
100
AcDbLine
 10
606.0600318166684
 20
93.33130054205105
 30
0.0
 11
606.8364889519759
 21
93.33130054205105
 31
0.0
  0
POLYLINE
  5
3C8
330
1F
100
AcDbEntity
  8
1
  6
Continuous
 62
     7
370
     9
100
AcDb2dPolyline
 66
     1
 10
0.0
 20
0.0
 30
0.0
  0
VERTEX
  5
3CA
330
3C8
100
AcDbEntity
  8
1
  6
Continuous
 62
     7
370
     9
100
AcDbVertex
100
AcDb2dVertex
 10
606.4482603843221
 20
91.15796743290065
 30
0.0
  0
VERTEX
  5
3CB
330
3C8
100
AcDbEntity
  8
1
  6
Continuous
 62
     7
370
     9
100
AcDbVertex
100
AcDb2dVertex
 10
606.4482603843221
 20
96.90319646569623
 30
0.0
  0
SEQEND
  5
3C9
330
3C8
100
AcDbEntity
  8
1
  6
Continuous
370
     9
  0
LINE
  5
3CC
330
1F
100
AcDbEntity
  8
1
  6
Continuous
 62
     7
370
     9
100
AcDbLine
 10
738.3457759122745
 20
424.1579674329006
 30
0.0
 11
739.122233047582
 21
421.2601899540334
 31
0.0
  0
LINE
  5
3CD
330
1F
100
AcDbEntity
  8
1
  6
Continuous
 62
     7
370
     9
100
AcDbLine
 10
738.3457759122745
 20
424.1579674329006
 30
0.0
 11
737.569318776967
 21
421.2601899540334
 31
0.0
  0
LINE
  5
3CE
330
1F
100
AcDbEntity
  8
1
  6
Continuous
 62
     7
370
     9
100
AcDbLine
 10
739.122233047582
 20
421.2601899540334
 30
0.0
 11
737.569318776967
 21
421.2601899540334
 31
0.0
  0
LINE
  5
3CF
330
1F
100
AcDbEntity
  8
1
  6
Continuous
 62
     7
370
     9
100
AcDbLine
 10
738.3457759122745
 20
423.4335230631838
 30
0.0
 11
738.7340044799282
 21
421.9846343237502
 31
0.0
  0
LINE
  5
3D0
330
1F
100
AcDbEntity
  8
1
  6
Continuous
 62
     7
370
     9
100
AcDbLine
 10
738.3457759122745
 20
423.4335230631838
 30
0.0
 11
737.9575473446207
 21
421.9846343237502
 31
0.0
  0
LINE
  5
3D1
330
1F
100
AcDbEntity
  8
1
  6
Continuous
 62
     7
370
     9
100
AcDbLine
 10
738.7340044799282
 20
421.9846343237502
 30
0.0
 11
737.9575473446207
 21
421.9846343237502
 31
0.0
  0
POLYLINE
  5
3D2
330
1F
100
AcDbEntity
  8
1
  6
Continuous
 62
     7
370
     9
100
AcDb2dPolyline
 66
     1
 10
0.0
 20
0.0
 30
0.0
  0
VERTEX
  5
3D4
330
3D2
100
AcDbEntity
  8
1
  6
Continuous
 62
     7
370
     9
100
AcDbVertex
100
AcDb2dVertex
 10
738.3457759122745
 20
424.1579674329006
 30
0.0
  0
VERTEX
  5
3D5
330
3D2
100
AcDbEntity
  8
1
  6
Continuous
 62
     7
370
     9
100
AcDbVertex
100
AcDb2dVertex
 10
738.3457759122745
 20
421.3031444906443
 30
0.0
  0
SEQEND
  5
3D3
330
3D2
100
AcDbEntity
  8
1
  6
Continuous
370
     9
  0
LINE
  5
3D6
330
1F
100
AcDbEntity
  8
1
  6
Continuous
 62
     7
370
     9
100
AcDbLine
 10
738.3457759122745
 20
312.1579674329006
 30
0.0
 11
737.569318776967
 21
315.0557449117678
 31
0.0
  0
LINE
  5
3D7
330
1F
100
AcDbEntity
  8
1
  6
Continuous
 62
     7
370
     9
100
AcDbLine
 10
738.3457759122745
 20
312.1579674329006
 30
0.0
 11
739.122233047582
 21
315.0557449117678
 31
0.0
  0
LINE
  5
3D8
330
1F
100
AcDbEntity
  8
1
  6
Continuous
 62
     7
370
     9
100
AcDbLine
 10
737.569318776967
 20
315.0557449117678
 30
0.0
 11
739.122233047582
 21
315.0557449117678
 31
0.0
  0
LINE
  5
3D9
330
1F
100
AcDbEntity
  8
1
  6
Continuous
 62
     7
370
     9
100
AcDbLine
 10
738.3457759122745
 20
312.8824118026174
 30
0.0
 11
737.9575473446207
 21
314.331300542051
 31
0.0
  0
LINE
  5
3DA
330
1F
100
AcDbEntity
  8
1
  6
Continuous
 62
     7
370
     9
100
AcDbLine
 10
738.3457759122745
 20
312.8824118026174
 30
0.0
 11
738.7340044799282
 21
314.331300542051
 31
0.0
  0
LINE
  5
3DB
330
1F
100
AcDbEntity
  8
1
  6
Continuous
 62
     7
370
     9
100
AcDbLine
 10
737.9575473446207
 20
314.331300542051
 30
0.0
 11
738.7340044799282
 21
314.331300542051
 31
0.0
  0
POLYLINE
  5
3DC
330
1F
100
AcDbEntity
  8
1
  6
Continuous
 62
     7
370
     9
100
AcDb2dPolyline
 66
     1
 10
0.0
 20
0.0
 30
0.0
  0
VERTEX
  5
3DE
330
3DC
100
AcDbEntity
  8
1
  6
Continuous
 62
     7
370
     9
100
AcDbVertex
100
AcDb2dVertex
 10
738.3457759122745
 20
312.1579674329006
 30
0.0
  0
VERTEX
  5
3DF
330
3DC
100
AcDbEntity
  8
1
  6
Continuous
 62
     7
370
     9
100
AcDbVertex
100
AcDb2dVertex
 10
738.3457759122745
 20
315.0222193347192
 30
0.0
  0
SEQEND
  5
3DD
330
3DC
100
AcDbEntity
  8
1
  6
Continuous
370
     9
  0
LINE
  5
3E0
330
1F
100
AcDbEntity
  8
1
  6
Continuous
 62
     7
370
     9
100
AcDbLine
 10
729.3527634899141
 20
312.1579674329006
 30
0.0
 11
730.1292206252216
 21
309.2601899540334
 31
0.0
  0
LINE
  5
3E1
330
1F
100
AcDbEntity
  8
1
  6
Continuous
 62
     7
370
     9
100
AcDbLine
 10
729.3527634899141
 20
312.1579674329006
 30
0.0
 11
728.5763063546066
 21
309.2601899540334
 31
0.0
  0
LINE
  5
3E2
330
1F
100
AcDbEntity
  8
1
  6
Continuous
 62
     7
370
     9
100
AcDbLine
 10
730.1292206252216
 20
309.2601899540334
 30
0.0
 11
728.5763063546066
 21
309.2601899540334
 31
0.0
  0
LINE
  5
3E3
330
1F
100
AcDbEntity
  8
1
  6
Continuous
 62
     7
370
     9
100
AcDbLine
 10
729.3527634899141
 20
311.4335230631838
 30
0.0
 11
729.7409920575678
 21
309.9846343237502
 31
0.0
  0
LINE
  5
3E4
330
1F
100
AcDbEntity
  8
1
  6
Continuous
 62
     7
370
     9
100
AcDbLine
 10
729.3527634899141
 20
311.4335230631838
 30
0.0
 11
728.9645349222603
 21
309.9846343237502
 31
0.0
  0
LINE
  5
3E5
330
1F
100
AcDbEntity
  8
1
  6
Continuous
 62
     7
370
     9
100
AcDbLine
 10
729.7409920575678
 20
309.9846343237502
 30
0.0
 11
728.9645349222603
 21
309.9846343237502
 31
0.0
  0
POLYLINE
  5
3E6
330
1F
100
AcDbEntity
  8
1
  6
Continuous
 62
     7
370
     9
100
AcDb2dPolyline
 66
     1
 10
0.0
 20
0.0
 30
0.0
  0
VERTEX
  5
3E8
330
3E6
100
AcDbEntity
  8
1
  6
Continuous
 62
     7
370
     9
100
AcDbVertex
100
AcDb2dVertex
 10
729.3527634899141
 20
312.1579674329006
 30
0.0
  0
VERTEX
  5
3E9
330
3E6
100
AcDbEntity
  8
1
  6
Continuous
 62
     7
370
     9
100
AcDbVertex
100
AcDb2dVertex
 10
729.3527634899141
 20
309.4650467775466
 30
0.0
  0
SEQEND
  5
3E7
330
3E6
100
AcDbEntity
  8
1
  6
Continuous
370
     9
  0
TEXT
  5
3EA
330
1F
100
AcDbEntity
  8
1
  6
Continuous
 62
     7
370
     9
100
AcDbText
 10
114.6189802443208
 20
330.993684434536
 30
0.0
 40
10.5
  1
25
 41
0.5
100
AcDbText
  0
LINE
  5
3EB
330
1F
100
AcDbEntity
  8
1
  6
Continuous
 62
     7
370
     9
100
AcDbLine
 10
270.4490644490646
 20
235.5790452390196
 30
0.0
 11
271.2255215843721
 21
232.6812677601524
 31
0.0
  0
LINE
  5
3EC
330
1F
100
AcDbEntity
  8
1
  6
Continuous
 62
     7
370
     9
100
AcDbLine
 10
270.4490644490646
 20
235.5790452390196
 30
0.0
 11
269.672607313757
 21
232.6812677601524
 31
0.0
  0
LINE
  5
3ED
330
1F
100
AcDbEntity
  8
1
  6
Continuous
 62
     7
370
     9
100
AcDbLine
 10
271.2255215843721
 20
232.6812677601524
 30
0.0
 11
269.672607313757
 21
232.6812677601524
 31
0.0
  0
LINE
  5
3EE
330
1F
100
AcDbEntity
  8
1
  6
Continuous
 62
     7
370
     9
100
AcDbLine
 10
270.4490644490646
 20
234.8546008693028
 30
0.0
 11
270.8372930167183
 21
233.4057121298692
 31
0.0
  0
LINE
  5
3EF
330
1F
100
AcDbEntity
  8
1
  6
Continuous
 62
     7
370
     9
100
AcDbLine
 10
270.4490644490646
 20
234.8546008693028
 30
0.0
 11
270.0608358814108
 21
233.4057121298692
 31
0.0
  0
LINE
  5
3F0
330
1F
100
AcDbEntity
  8
1
  6
Continuous
 62
     7
370
     9
100
AcDbLine
 10
270.8372930167183
 20
233.4057121298692
 30
0.0
 11
270.0608358814108
 21
233.4057121298692
 31
0.0
  0
POLYLINE
  5
3F1
330
1F
100
AcDbEntity
  8
1
  6
Continuous
 62
     7
370
     9
100
AcDb2dPolyline
 66
     1
 10
0.0
 20
0.0
 30
0.0
  0
VERTEX
  5
3F3
330
3F1
100
AcDbEntity
  8
1
  6
Continuous
 62
     7
370
     9
100
AcDbVertex
100
AcDb2dVertex
 10
270.4490644490646
 20
235.5790452390196
 30
0.0
  0
VERTEX
  5
3F4
330
3F1
100
AcDbEntity
  8
1
  6
Continuous
 62
     7
370
     9
100
AcDbVertex
100
AcDb2dVertex
 10
270.4490644490646
 20
229.9280145530144
 30
0.0
  0
SEQEND
  5
3F2
330
3F1
100
AcDbEntity
  8
1
  6
Continuous
370
     9
  0
LINE
  5
3F5
330
1F
100
AcDbEntity
  8
1
  6
Continuous
 62
     7
370
     9
100
AcDbLine
 10
270.4490644490646
 20
190.5790452390196
 30
0.0
 11
269.672607313757
 21
193.4768227178868
 31
0.0
  0
LINE
  5
3F6
330
1F
100
AcDbEntity
  8
1
  6
Continuous
 62
     7
370
     9
100
AcDbLine
 10
270.4490644490646
 20
190.5790452390196
 30
0.0
 11
271.2255215843721
 21
193.4768227178868
 31
0.0
  0
LINE
  5
3F7
330
1F
100
AcDbEntity
  8
1
  6
Continuous
 62
     7
370
     9
100
AcDbLine
 10
269.672607313757
 20
193.4768227178868
 30
0.0
 11
271.2255215843721
 21
193.4768227178868
 31
0.0
  0
LINE
  5
3F8
330
1F
100
AcDbEntity
  8
1
  6
Continuous
 62
     7
370
     9
100
AcDbLine
 10
270.4490644490646
 20
191.3034896087364
 30
0.0
 11
270.0608358814108
 21
192.75237834817
 31
0.0
  0
LINE
  5
3F9
330
1F
100
AcDbEntity
  8
1
  6
Continuous
 62
     7
370
     9
100
AcDbLine
 10
270.4490644490646
 20
191.3034896087364
 30
0.0
 11
270.8372930167183
 21
192.75237834817
 31
0.0
  0
LINE
  5
3FA
330
1F
100
AcDbEntity
  8
1
  6
Continuous
 62
     7
370
     9
100
AcDbLine
 10
270.0608358814108
 20
192.75237834817
 30
0.0
 11
270.8372930167183
 21
192.75237834817
 31
0.0
  0
POLYLINE
  5
3FB
330
1F
100
AcDbEntity
  8
1
  6
Continuous
 62
     7
370
     9
100
AcDb2dPolyline
 66
     1
 10
0.0
 20
0.0
 30
0.0
  0
VERTEX
  5
3FD
330
3FB
100
AcDbEntity
  8
1
  6
Continuous
 62
     7
370
     9
100
AcDbVertex
100
AcDb2dVertex
 10
270.4490644490646
 20
190.5790452390196
 30
0.0
  0
VERTEX
  5
3FE
330
3FB
100
AcDbEntity
  8
1
  6
Continuous
 62
     7
370
     9
100
AcDbVertex
100
AcDb2dVertex
 10
270.4490644490646
 20
196.1218814968813
 30
0.0
  0
SEQEND
  5
3FC
330
3FB
100
AcDbEntity
  8
1
  6
Continuous
370
     9
  0
TEXT
  5
3FF
330
1F
100
AcDbEntity
  8
1
  6
Continuous
 62
     7
370
     9
100
AcDbText
 10
33.25527868595692
 20
312.8170991954507
 30
0.0
 40
10.5
  1
6
 41
0.5
100
AcDbText
  0
TEXT
  5
400
330
1F
100
AcDbEntity
  8
1
  6
Continuous
 62
     7
370
     9
100
AcDbText
 10
154.7026539458324
 20
166.7097707131223
 30
0.0
 40
10.5
  1
0～220
 41
0.6
100
AcDbText
  0
TEXT
  5
401
330
1F
100
AcDbEntity
  8
1
  6
Continuous
 62
     7
370
     9
100
AcDbText
 10
161.5170157462673
 20
321.8475046008562
 30
0.0
 40
10.5
  1
172
 41
0.5
100
AcDbText
  0
TEXT
  5
402
330
1F
100
AcDbEntity
  8
1
  6
Continuous
 62
     7
370
     9
100
AcDbText
 10
264.4568119499892
 20
208.3885648919165
 30
0.0
 40
10.5
  1
45
 41
0.5
100
AcDbText
  0
TEXT
  5
403
330
1F
100
AcDbEntity
  8
1
  6
Continuous
 62
     7
370
     9
100
AcDbText
 10
464.3105910568264
 20
236.637525390877
 30
0.0
 40
10.5
  1
330
 41
0.5
100
AcDbText
  0
TEXT
  5
404
330
1F
100
AcDbEntity
  8
1
  6
Continuous
 62
     7
370
     9
100
AcDbText
 10
348.0931997524784
 20
459.8506231039749
 30
0.0
 40
10.5
  1
45
 41
0.5
100
AcDbText
  0
TEXT
  5
405
330
1F
100
AcDbEntity
  8
1
  6
Continuous
 62
     7
370
     9
100
AcDbText
 10
732.3535234131991
 20
384.3656958690474
 30
0.0
 40
10.5
  1
112
 41
0.5
100
AcDbText
  0
TEXT
  5
406
330
1F
100
AcDbEntity
  8
1
  6
Continuous
 62
     7
370
     9
100
AcDbText
 10
723.3605109908387
 20
261.1817041850557
 30
0.0
 40
10.5
  1
81
 41
0.5
100
AcDbText
  0
TEXT
  5
407
330
1F
100
AcDbEntity
  8
1
  6
Continuous
 62
     7
370
     9
100
AcDbText
 10
600.4560078852468
 20
144.481080484432
 30
0.0
 40
10.5
  1
140
 41
0.5
100
AcDbText
  0
LINE
  5
408
330
1F
100
AcDbEntity
  8
1
  6
Continuous
 62
     7
370
     9
100
AcDbLine
 10
120.6112327433962
 20
362.1579674329006
 30
0.0
 11
120.6112327433962
 21
341.493684434536
 31
0.0
  0
LINE
  5
409
330
1F
100
AcDbEntity
  8
1
  6
Continuous
 62
     7
370
     9
100
AcDbLine
 10
120.6112327433962
 20
331.8095114345113
 30
0.0
 11
120.6112327433962
 21
312.1579674329006
 31
0.0
  0
LINE
  5
40A
330
1F
100
AcDbEntity
  8
1
  6
Continuous
 62
     7
370
     9
100
AcDbLine
 10
167.5092682453427
 20
419.5790452390196
 30
0.0
 11
167.5092682453427
 21
335.514293139293
 31
0.0
  0
LINE
  5
40B
330
1F
100
AcDbEntity
  8
1
  6
Continuous
 62
     7
370
     9
100
AcDbLine
 10
167.5092682453427
 20
321.3898128898128
 30
0.0
 11
167.5092682453427
 21
247.5790452390196
 31
0.0
  0
LINE
  5
40C
330
1F
100
AcDbEntity
  8
1
  6
Continuous
 62
     7
370
     9
100
AcDbLine
 10
167.5092682453427
 20
235.5790452390197
 30
0.0
 11
167.5092682453427
 21
178.5241683991682
 31
0.0
  0
LINE
  5
40D
330
1F
100
AcDbEntity
  8
1
  6
Continuous
 62
     7
370
     9
100
AcDbLine
 10
167.5092682453427
 20
164.8627858627857
 30
0.0
 11
167.5092682453427
 21
103.5790452390196
 31
0.0
  0
LINE
  5
40E
330
1F
100
AcDbEntity
  8
1
  6
Continuous
 62
     7
370
     9
100
AcDbLine
 10
270.4490644490646
 20
190.5790452390196
 30
0.0
 11
270.4490644490646
 21
207.4677754677753
 31
0.0
  0
LINE
  5
40F
330
1F
100
AcDbEntity
  8
1
  6
Continuous
 62
     7
370
     9
100
AcDbLine
 10
270.4490644490646
 20
218.5821205821204
 30
0.0
 11
270.4490644490646
 21
235.5790452390196
 31
0.0
  0
LINE
  5
410
330
1F
100
AcDbEntity
  8
1
  6
Continuous
 62
     7
370
     9
100
AcDbLine
 10
470.3028435559017
 20
72.24324324324301
 30
0.0
 11
470.3028435559017
 21
58.57904523901958
 31
0.0
  0
LINE
  5
411
330
1F
100
AcDbEntity
  8
1
  6
Continuous
 62
     7
370
     9
100
AcDbLine
 10
470.3028435559017
 20
433.5790452390196
 30
0.0
 11
470.3028435559017
 21
254.4721933471932
 31
0.0
  0
LINE
  5
412
330
1F
100
AcDbEntity
  8
1
  6
Continuous
 62
     7
370
     9
100
AcDbLine
 10
470.3028435559017
 20
236.637525390877
 30
0.0
 11
470.3028435559017
 21
83.58913721413698
 31
0.0
  0
LINE
  5
413
330
1F
100
AcDbEntity
  8
1
  6
Continuous
 62
     7
370
     9
100
AcDbLine
 10
729.3527634899141
 20
312.1579674329006
 30
0.0
 11
729.3527634899141
 21
272.7645530145529
 31
0.0
  0
LINE
  5
414
330
1F
100
AcDbEntity
  8
1
  6
Continuous
 62
     7
370
     9
100
AcDbLine
 10
729.3527634899141
 20
263.0395010395009
 30
0.0
 11
729.3527634899141
 21
231.1579674329006
 31
0.0
  0
LINE
  5
415
330
1F
100
AcDbEntity
  8
1
  6
Continuous
 62
     7
370
     9
100
AcDbLine
 10
606.4482603843221
 20
231.1579674329006
 30
0.0
 11
606.4482603843221
 21
153.7484407484405
 31
0.0
  0
LINE
  5
416
330
1F
100
AcDbEntity
  8
1
  6
Continuous
 62
     7
370
     9
100
AcDbLine
 10
606.4482603843221
 20
144.7180353430351
 30
0.0
 11
606.4482603843221
 21
91.15796743290065
 31
0.0
  0
LINE
  5
417
330
1F
100
AcDbEntity
  8
1
  6
Continuous
 62
     7
370
     9
100
AcDbLine
 10
738.3457759122745
 20
424.1579674329006
 30
0.0
 11
738.3457759122745
 21
394.8656958690474
 31
0.0
  0
LINE
  5
418
330
1F
100
AcDbEntity
  8
1
  6
Continuous
 62
     7
370
     9
100
AcDbLine
 10
738.3457759122745
 20
382.2871621621621
 30
0.0
 11
738.3457759122745
 21
312.1579674329006
 31
0.0
  0
LINE
  5
419
330
1F
100
AcDbEntity
  8
1
  6
Continuous
 62
     7
370
     9
100
AcDbLine
 10
354.0854522515538
 20
433.5790452390196
 30
0.0
 11
354.0854522515538
 21
459.8506231039749
 31
0.0
  0
LINE
  5
41A
330
1F
100
AcDbEntity
  8
1
  6
Continuous
 62
     7
370
     9
100
AcDbLine
 10
354.0854522515538
 20
471.8965696465696
 30
0.0
 11
354.0854522515538
 21
487.6191721005721
 31
0.0
  0
DIMENSION
  5
42E
330
1F
100
AcDbEntity
  8
1
  6
Continuous
 62
     7
370
     9
100
AcDbDimension
  2
Dim1
 10
581.672360248447
 20
32.06561078915237
 30
0.0
 11
669.1723602484469
 21
37.31561078915237
 31
0.0
 70
   160
  1
<>
 71
     5
 42
-1.0
 73
     0
 74
     0
 75
     0
  3
Standard
100
AcDbAlignedDimension
 13
581.6723602484475
 23
77.96384205856228
 33
0.0
 14
756.6723602484473
 24
77.96384205856228
 34
0.0
100
AcDbRotatedDimension
1001
ACAD
1000
DSTYLE
1002
{
1070
   344
1005
0
1070
   343
1005
0
1070
   173
1070
     1
1070
   289
1070
     2
1070
   279
1070
     2
1070
   288
1070
     1
1070
    77
1070
     3
1070
   172
1070
     1
1070
   174
1070
     0
1070
    74
1070
     0
1070
    73
1070
     0
1070
   284
1070
     8
1070
    78
1070
     8
1070
   140
1040
4.0
1070
    40
1040
3.0
1070
    42
1040
2.0
1070
    44
1040
0.0
1070
    43
1040
10.0
1070
   271
1070
     2
1070
    41
1040
4.0
1002
}
  0
DIMENSION
  5
442
330
1F
100
AcDbEntity
  8
1
  6
Continuous
 62
     7
370
     9
100
AcDbDimension
  2
Dim2
 10
669.1723602484473
 20
202.4824755989367
 30
0.0
 11
644.1723602484474
 21
207.7324755989367
 31
0.0
 70
   160
  1
<>
 71
     5
 42
-1.0
 73
     0
 74
     0
 75
     0
  3
Standard
100
AcDbAlignedDimension
 13
669.1723602484474
 23
231.1579674329006
 33
0.0
 14
619.1723602484474
 24
231.1579674329006
 34
0.0
100
AcDbRotatedDimension
1001
ACAD
1000
DSTYLE
1002
{
1070
   344
1005
0
1070
   343
1005
0
1070
   173
1070
     1
1070
   289
1070
     2
1070
   279
1070
     2
1070
   288
1070
     1
1070
    77
1070
     3
1070
   172
1070
     1
1070
   174
1070
     0
1070
    74
1070
     0
1070
    73
1070
     0
1070
   284
1070
     8
1070
    78
1070
     8
1070
   140
1040
4.0
1070
    40
1040
3.0
1070
    42
1040
2.0
1070
    44
1040
0.0
1070
    43
1040
10.0
1070
   271
1070
     2
1070
    41
1040
4.0
1002
}
  0
DIMENSION
  5
456
330
1F
100
AcDbEntity
  8
1
  6
Continuous
 62
     7
370
     9
100
AcDbDimension
  2
Dim3
 10
669.1723602484473
 20
202.4824755989367
 30
0.0
 11
694.1723602484474
 21
207.7324755989367
 31
0.0
 70
   160
  1
<>
 71
     5
 42
-1.0
 73
     0
 74
     0
 75
     0
  3
Standard
100
AcDbAlignedDimension
 13
669.1723602484474
 23
231.1579674329006
 33
0.0
 14
719.1723602484474
 24
231.1579674329006
 34
0.0
100
AcDbRotatedDimension
1001
ACAD
1000
DSTYLE
1002
{
1070
   344
1005
0
1070
   343
1005
0
1070
   173
1070
     1
1070
   289
1070
     2
1070
   279
1070
     2
1070
   288
1070
     1
1070
    77
1070
     3
1070
   172
1070
     1
1070
   174
1070
     0
1070
    74
1070
     0
1070
    73
1070
     0
1070
   284
1070
     8
1070
    78
1070
     8
1070
   140
1040
4.0
1070
    40
1040
3.0
1070
    42
1040
2.0
1070
    44
1040
0.0
1070
    43
1040
10.0
1070
   271
1070
     2
1070
    41
1040
4.0
1002
}
  0
DIMENSION
  5
46A
330
1F
100
AcDbEntity
  8
1
  6
Continuous
 62
     7
370
     9
100
AcDbDimension
  2
Dim4
 10
630.1723602484474
 20
442.757320319437
 30
0.0
 11
669.1723602484474
 21
448.007320319437
 31
0.0
 70
   160
  1
<>
 71
     5
 42
-1.0
 73
     0
 74
     0
 75
     0
  3
Standard
100
AcDbAlignedDimension
 13
630.1723602484473
 23
378.7078481935773
 33
0.0
 14
708.1723602484473
 24
378.019160381548
 34
0.0
100
AcDbRotatedDimension
1001
ACAD
1000
DSTYLE
1002
{
1070
   344
1005
0
1070
   343
1005
0
1070
   173
1070
     1
1070
   289
1070
     2
1070
   279
1070
     2
1070
   288
1070
     1
1070
    77
1070
     3
1070
   172
1070
     1
1070
   174
1070
     0
1070
    74
1070
     0
1070
    73
1070
     0
1070
   284
1070
     8
1070
    78
1070
     8
1070
   140
1040
4.0
1070
    40
1040
3.0
1070
    42
1040
2.0
1070
    44
1040
0.0
1070
    43
1040
10.0
1070
   271
1070
     2
1070
    41
1040
4.0
1002
}
  0
DIMENSION
  5
47E
330
1F
100
AcDbEntity
  8
1
  6
Continuous
 62
     7
370
     9
100
AcDbDimension
  2
Dim5
 10
441.4636647493546
 20
32.06561078915313
 30
0.0
 11
271.4636647493546
 21
37.31561078915313
 31
0.0
 70
   160
  1
<>
 71
     5
 42
-1.0
 73
     0
 74
     0
 75
     0
  3
Standard
100
AcDbAlignedDimension
 13
441.4636647493548
 23
58.57904523901963
 33
0.0
 14
101.4636647493548
 24
58.57904523901963
 34
0.0
100
AcDbRotatedDimension
1001
ACAD
1000
DSTYLE
1002
{
1070
   344
1005
0
1070
   343
1005
0
1070
   173
1070
     1
1070
   289
1070
     2
1070
   279
1070
     2
1070
   288
1070
     1
1070
    77
1070
     3
1070
   172
1070
     1
1070
   174
1070
     0
1070
    74
1070
     0
1070
    73
1070
     0
1070
   284
1070
     8
1070
    78
1070
     8
1070
   140
1040
4.0
1070
    40
1040
3.0
1070
    42
1040
2.0
1070
    44
1040
0.0
1070
    43
1040
10.0
1070
   271
1070
     2
1070
    41
1040
4.0
1002
}
  0
DIMENSION
  5
492
330
1F
100
AcDbEntity
  8
1
  6
Continuous
 62
     7
370
     9
100
AcDbDimension
  2
Dim6
 10
240.1273784007592
 20
161.7725207270412
 30
0.0
 11
280.6273784007594
 21
167.0225207270412
 31
0.0
 70
   160
  1
<>
 71
     5
 42
-1.0
 73
     0
 74
     0
 75
     0
  3
Standard
100
AcDbAlignedDimension
 13
240.1273784007597
 23
221.5790452390196
 33
0.0
 14
321.1273784007597
 24
188.0597878077865
 34
0.0
100
AcDbRotatedDimension
1001
ACAD
1000
DSTYLE
1002
{
1070
   344
1005
0
1070
   343
1005
0
1070
   173
1070
     1
1070
   289
1070
     2
1070
   279
1070
     2
1070
   288
1070
     1
1070
    77
1070
     3
1070
   172
1070
     1
1070
   174
1070
     0
1070
    74
1070
     0
1070
    73
1070
     0
1070
   284
1070
     8
1070
    78
1070
     8
1070
   140
1040
4.0
1070
    40
1040
3.0
1070
    42
1040
2.0
1070
    44
1040
0.0
1070
    43
1040
10.0
1070
   271
1070
     2
1070
    41
1040
4.0
1002
}
  0
DIMENSION
  5
4A6
330
1F
100
AcDbEntity
  8
1
  6
Continuous
 62
     7
370
     9
100
AcDbDimension
  2
Dim7
 10
225.2273784007596
 20
177.7697062860473
 30
0.0
 11
240.1273784007595
 21
183.0197062860473
 31
0.0
 70
   160
  1
<>
 71
     5
 42
-1.0
 73
     0
 74
     0
 75
     0
  3
Standard
100
AcDbAlignedDimension
 13
225.2273784007597
 23
192.066290136979
 33
0.0
 14
255.0273784007596
 24
191.8357000748672
 34
0.0
100
AcDbRotatedDimension
1001
ACAD
1000
DSTYLE
1002
{
1070
   344
1005
0
1070
   343
1005
0
1070
   173
1070
     1
1070
   289
1070
     2
1070
   279
1070
     2
1070
   288
1070
     1
1070
    77
1070
     3
1070
   172
1070
     1
1070
   174
1070
     0
1070
    74
1070
     0
1070
    73
1070
     0
1070
   284
1070
     8
1070
    78
1070
     8
1070
   140
1040
4.0
1070
    40
1040
3.0
1070
    42
1040
2.0
1070
    44
1040
0.0
1070
    43
1040
10.0
1070
   271
1070
     2
1070
    41
1040
4.0
1002
}
  0
DIMENSION
  5
4BA
330
1F
100
AcDbEntity
  8
1
  6
Continuous
 62
     7
370
     9
100
AcDbDimension
  2
Dim8
 10
321.1273784007596
 20
161.7725207270412
 30
0.0
 11
324.6273784007597
 21
167.0225207270412
 31
0.0
 70
   160
  1
/2
 71
     5
 42
-1.0
 73
     0
 74
     0
 75
     0
  3
Standard
100
AcDbAlignedDimension
 13
321.1273784007597
 23
172.8984912239358
 33
0.0
 14
328.1273784007597
 24
173.820851472383
 34
0.0
100
AcDbRotatedDimension
1001
ACAD
1000
DSTYLE
1002
{
1070
   344
1005
0
1070
   343
1005
0
1070
   173
1070
     1
1070
   289
1070
     2
1070
   279
1070
     2
1070
   288
1070
     1
1070
    77
1070
     3
1070
   172
1070
     1
1070
   174
1070
     0
1070
    74
1070
     0
1070
    73
1070
     0
1070
   284
1070
     8
1070
    78
1070
     8
1070
   140
1040
4.0
1070
    40
1040
3.0
1070
    42
1040
2.0
1070
    44
1040
0.0
1070
    43
1040
10.0
1070
   271
1070
     2
1070
    41
1040
4.0
1002
}
  0
DIMENSION
  5
4CE
330
1F
100
AcDbEntity
  8
1
  6
Continuous
 62
     7
370
     9
100
AcDbDimension
  2
Dim9
 10
328.1273784007595
 20
161.7725207270412
 30
0.0
 11
338.1273784007595
 21
167.0225207270412
 31
0.0
 70
   160
  1
<>
 71
     5
 42
-1.0
 73
     0
 74
     0
 75
     0
  3
Standard
100
AcDbAlignedDimension
 13
328.1273784007597
 23
182.2373887394637
 33
0.0
 14
348.1273784007597
 24
180.5079632736252
 34
0.0
100
AcDbRotatedDimension
1001
ACAD
1000
DSTYLE
1002
{
1070
   344
1005
0
1070
   343
1005
0
1070
   173
1070
     1
1070
   289
1070
     2
1070
   279
1070
     2
1070
   288
1070
     1
1070
    77
1070
     3
1070
   172
1070
     1
1070
   174
1070
     0
1070
    74
1070
     0
1070
    73
1070
     0
1070
   284
1070
     8
1070
    78
1070
     8
1070
   140
1040
4.0
1070
    40
1040
3.0
1070
    42
1040
2.0
1070
    44
1040
0.0
1070
    43
1040
10.0
1070
   271
1070
     2
1070
    41
1040
4.0
1002
}
  0
DIMENSION
  5
4E2
330
1F
100
AcDbEntity
  8
1
  6
Continuous
 62
     7
370
     9
100
AcDbDimension
  2
Dim10
 10
348.1273784007595
 20
161.7725207270412
 30
0.0
 11
390.6273784007595
 21
167.0225207270412
 31
0.0
 70
   160
  1
<>
 71
     5
 42
-1.0
 73
     0
 74
     0
 75
     0
  3
Standard
100
AcDbAlignedDimension
 13
348.1273784007597
 23
180.1620781804575
 33
0.0
 14
433.1273784007597
 24
177.8561775593395
 34
0.0
100
AcDbRotatedDimension
1001
ACAD
1000
DSTYLE
1002
{
1070
   344
1005
0
1070
   343
1005
0
1070
   173
1070
     1
1070
   289
1070
     2
1070
   279
1070
     2
1070
   288
1070
     1
1070
    77
1070
     3
1070
   172
1070
     1
1070
   174
1070
     0
1070
    74
1070
     0
1070
    73
1070
     0
1070
   284
1070
     8
1070
    78
1070
     8
1070
   140
1040
4.0
1070
    40
1040
3.0
1070
    42
1040
2.0
1070
    44
1040
0.0
1070
    43
1040
10.0
1070
   271
1070
     2
1070
    41
1040
4.0
1002
}
  0
DIMENSION
  5
4F6
330
1F
100
AcDbEntity
  8
1
  6
Continuous
 62
     7
370
     9
100
AcDbDimension
  2
Dim11
 10
320.6012568700298
 20
266.8196739468033
 30
0.0
 11
378.7721952183931
 21
375.8779058318944
 31
0.0
 70
   160
  1
360
 71
     5
 42
-1.0
 73
     0
 74
     0
 75
     0
  3
Standard
100
AcDbAlignedDimension
 13
283.0773784007597
 23
284.3173458407019
 33
0.0
 14
410.6483498326082
 24
496.0852607061366
 34
0.0
 50
59.4904700000001
100
AcDbRotatedDimension
1001
ACAD
1000
DSTYLE
1002
{
1070
   344
1005
0
1070
   343
1005
0
1070
   173
1070
     1
1070
   289
1070
     2
1070
   279
1070
     2
1070
   288
1070
     1
1070
    77
1070
     3
1070
   172
1070
     1
1070
   174
1070
     0
1070
    74
1070
     0
1070
    73
1070
     0
1070
   284
1070
     8
1070
    78
1070
     8
1070
   140
1040
4.0
1070
    40
1040
3.0
1070
    42
1040
2.0
1070
    44
1040
0.0
1070
    43
1040
10.0
1070
   271
1070
     2
1070
    41
1040
4.0
1002
}
  0
DIMENSION
  5
50A
330
1F
100
AcDbEntity
  8
1
  6
Continuous
 62
     7
370
     9
100
AcDbDimension
  2
Dim12
 10
378.3926837668203
 20
456.2707700731633
 30
0.0
 11
387.5856023124062
 21
456.9473730803663
 31
0.0
 70
   160
  1
<>
 71
     5
 42
-1.0
 73
     0
 74
     0
 75
     0
  3
Standard
100
AcDbAlignedDimension
 13
373.6587074630067
 23
448.2371289722439
 33
0.0
 14
386.7138869638983
 24
440.54411524159
 34
0.0
 50
-30.50952999999911
100
AcDbRotatedDimension
1001
ACAD
1000
DSTYLE
1002
{
1070
   344
1005
0
1070
   343
1005
0
1070
   173
1070
     1
1070
   289
1070
     2
1070
   279
1070
     2
1070
   288
1070
     1
1070
    77
1070
     3
1070
   172
1070
     1
1070
   174
1070
     0
1070
    74
1070
     0
1070
    73
1070
     0
1070
   284
1070
     8
1070
    78
1070
     8
1070
   140
1040
4.0
1070
    40
1040
3.0
1070
    42
1040
2.0
1070
    44
1040
0.0
1070
    43
1040
10.0
1070
   271
1070
     2
1070
    41
1040
4.0
1002
}
  0
DIMENSION
  5
51E
330
1F
100
AcDbEntity
  8
1
  6
Continuous
 62
     7
370
     9
100
AcDbDimension
  2
Dim13
 10
46.39694672294831
 20
253.6294826158101
 30
0.0
 11
76.19694672294892
 21
258.87948261581
 31
0.0
 70
   160
  1
29.8φ
 71
     5
 42
-1.0
 73
     0
 74
     0
 75
     0
  3
Standard
100
AcDbAlignedDimension
 13
46.39694672294883
 23
317.5080540443818
 33
0.0
 14
105.9969467229489
 24
318.1579674329006
 34
0.0
100
AcDbRotatedDimension
1001
ACAD
1000
DSTYLE
1002
{
1070
   344
1005
0
1070
   343
1005
0
1070
   173
1070
     1
1070
   289
1070
     2
1070
   279
1070
     2
1070
   288
1070
     1
1070
    77
1070
     3
1070
   172
1070
     1
1070
   174
1070
     0
1070
    74
1070
     0
1070
    73
1070
     0
1070
   284
1070
     8
1070
    78
1070
     8
1070
   140
1040
4.0
1070
    40
1040
3.0
1070
    42
1040
2.0
1070
    44
1040
0.0
1070
    43
1040
10.0
1070
   271
1070
     2
1070
    41
1040
4.0
1002
}
  0
LINE
  5
51F
330
1F
100
AcDbEntity
  8
1
  6
Continuous
 62
     7
370
     9
100
AcDbLine
 10
66.19694672294884
 20
303.8366254729531
 30
0.0
 11
69.09472420181604
 21
304.6130826082606
 31
0.0
  0
LINE
  5
520
330
1F
100
AcDbEntity
  8
1
  6
Continuous
 62
     7
370
     9
100
AcDbLine
 10
66.19694672294884
 20
303.8366254729531
 30
0.0
 11
69.09472420181604
 21
303.0601683376455
 31
0.0
  0
LINE
  5
521
330
1F
100
AcDbEntity
  8
1
  6
Continuous
 62
     7
370
     9
100
AcDbLine
 10
69.09472420181604
 20
304.6130826082606
 30
0.0
 11
69.09472420181604
 21
303.0601683376455
 31
0.0
  0
LINE
  5
522
330
1F
100
AcDbEntity
  8
1
  6
Continuous
 62
     7
370
     9
100
AcDbLine
 10
66.92139109266564
 20
303.8366254729531
 30
0.0
 11
68.37027983209924
 21
304.2248540406068
 31
0.0
  0
LINE
  5
523
330
1F
100
AcDbEntity
  8
1
  6
Continuous
 62
     7
370
     9
100
AcDbLine
 10
66.92139109266564
 20
303.8366254729531
 30
0.0
 11
68.37027983209924
 21
303.4483969052993
 31
0.0
  0
LINE
  5
524
330
1F
100
AcDbEntity
  8
1
  6
Continuous
 62
     7
370
     9
100
AcDbLine
 10
68.37027983209924
 20
304.2248540406068
 30
0.0
 11
68.37027983209924
 21
303.4483969052993
 31
0.0
  0
POLYLINE
  5
525
330
1F
100
AcDbEntity
  8
1
  6
Continuous
 62
     7
370
     9
100
AcDb2dPolyline
 66
     1
 10
0.0
 20
0.0
 30
0.0
  0
VERTEX
  5
527
330
525
100
AcDbEntity
  8
1
  6
Continuous
 62
     7
370
     9
100
AcDbVertex
100
AcDb2dVertex
 10
66.19694672294884
 20
303.8366254729531
 30
0.0
  0
VERTEX
  5
528
330
525
100
AcDbEntity
  8
1
  6
Continuous
 62
     7
370
     9
100
AcDbVertex
100
AcDb2dVertex
 10
67.19694672294884
 20
303.8366254729531
 30
0.0
  0
SEQEND
  5
526
330
525
100
AcDbEntity
  8
1
  6
Continuous
370
     9
  0
LINE
  5
529
330
1F
100
AcDbEntity
  8
1
  6
Continuous
 62
     7
370
     9
100
AcDbLine
 10
86.19694672294878
 20
303.8366254729531
 30
0.0
 11
83.29916924408157
 21
303.0601683376455
 31
0.0
  0
LINE
  5
52A
330
1F
100
AcDbEntity
  8
1
  6
Continuous
 62
     7
370
     9
100
AcDbLine
 10
86.19694672294878
 20
303.8366254729531
 30
0.0
 11
83.29916924408158
 21
304.6130826082606
 31
0.0
  0
LINE
  5
52B
330
1F
100
AcDbEntity
  8
1
  6
Continuous
 62
     7
370
     9
100
AcDbLine
 10
83.29916924408157
 20
303.0601683376455
 30
0.0
 11
83.29916924408158
 21
304.6130826082606
 31
0.0
  0
LINE
  5
52C
330
1F
100
AcDbEntity
  8
1
  6
Continuous
 62
     7
370
     9
100
AcDbLine
 10
85.47250235323197
 20
303.8366254729531
 30
0.0
 11
84.02361361379837
 21
303.4483969052993
 31
0.0
  0
LINE
  5
52D
330
1F
100
AcDbEntity
  8
1
  6
Continuous
 62
     7
370
     9
100
AcDbLine
 10
85.47250235323197
 20
303.8366254729531
 30
0.0
 11
84.02361361379837
 21
304.2248540406069
 31
0.0
  0
LINE
  5
52E
330
1F
100
AcDbEntity
  8
1
  6
Continuous
 62
     7
370
     9
100
AcDbLine
 10
84.02361361379837
 20
303.4483969052993
 30
0.0
 11
84.02361361379837
 21
304.2248540406069
 31
0.0
  0
POLYLINE
  5
52F
330
1F
100
AcDbEntity
  8
1
  6
Continuous
 62
     7
370
     9
100
AcDb2dPolyline
 66
     1
 10
0.0
 20
0.0
 30
0.0
  0
VERTEX
  5
531
330
52F
100
AcDbEntity
  8
1
  6
Continuous
 62
     7
370
     9
100
AcDbVertex
100
AcDb2dVertex
 10
86.19694672294878
 20
303.8366254729531
 30
0.0
  0
VERTEX
  5
532
330
52F
100
AcDbEntity
  8
1
  6
Continuous
 62
     7
370
     9
100
AcDbVertex
100
AcDb2dVertex
 10
85.67307692307689
 20
303.8366254729531
 30
0.0
  0
SEQEND
  5
530
330
52F
100
AcDbEntity
  8
1
  6
Continuous
370
     9
  0
LINE
  5
533
330
1F
100
AcDbEntity
  8
1
  6
Continuous
 62
     7
370
     9
100
AcDbLine
 10
212.1273784007597
 20
247.5790452390196
 30
0.0
 11
288.7503273869608
 21
247.5790452390196
 31
0.0
  0
LINE
  5
534
330
1F
100
AcDbEntity
  8
1
  6
Continuous
 62
     7
370
     9
100
AcDbLine
 10
212.1273784007597
 20
419.5790452390196
 30
0.0
 11
212.1273784007597
 21
247.5790452390196
 31
0.0
  0
LINE
  5
535
330
1F
100
AcDbEntity
  8
1
  6
Continuous
 62
     7
370
     9
100
AcDbLine
 10
197.1273784007597
 20
409.2739677145409
 30
0.0
 11
212.1273784007597
 21
409.2739677145409
 31
0.0
  0
LINE
  5
536
330
1F
100
AcDbEntity
  8
1
  6
Continuous
 62
     7
370
     9
100
AcDbLine
 10
212.1273784007597
 20
419.5790452390196
 30
0.0
 11
268.1273784007597
 21
419.5790452390196
 31
0.0
  0
LINE
  5
537
330
1F
100
AcDbEntity
  8
1
  6
Continuous
 62
     7
370
     9
100
AcDbLine
 10
268.1273784007597
 20
419.5790452390196
 30
0.0
 11
268.1273784007597
 21
331.055646530147
 31
0.0
  0
TEXT
  5
538
330
1F
100
AcDbEntity
  8
1
  6
Continuous
 62
     7
370
     9
100
AcDbText
 10
464.3105910568264
 20
73.16403266738416
 30
0.0
 40
10.5
  1
45±1
 41
0.625
100
AcDbText
  0
VIEWPORT
  5
3B
330
1B
100
AcDbEntity
 67
     1
  8
0
100
AcDbViewport
 10
445.5
 20
315.0
 30
0.0
 40
891.0
 41
630.0
 68
     1
 69
     1
 12
445.5
 22
315.0
 13
0.0
 23
0.0
 14
0.5
 24
0.5
 15
0.5
 25
0.5
 16
0.0
 26
0.0
 36
1.0
 17
0.0
 27
0.0
 37
0.0
 42
50.0
 43
0.0
 44
0.0
 45
9.0
 50
0.0
 51
0.0
 72
   100
 90
   557152
  1

281
     0
 71
     1
 74
     0
110
0.0
120
0.0
130
0.0
111
1.0
121
0.0
131
0.0
112
0.0
122
1.0
132
0.0
 79
     0
146
0.0
170
     0
 61
     5
292
     1
282
     1
141
0.0
142
0.0
 63
   256
  0
ENDSEC
  0
SECTION
  2
OBJECTS
  0
DICTIONARY
  5
C
330
0
100
AcDbDictionary
281
     1
  3
ACAD_GROUP
350
D
  3
ACAD_LAYOUT
350
1A
  3
ACAD_MLINESTYLE
350
17
  3
ACAD_PLOTSETTINGS
350
19
  3
ACAD_PLOTSTYLENAME
350
E
  3
ACAD_TABLESTYLE
350
539
  3
ACAD_VISUALSTYLE
350
2A
  0
DICTIONARY
  5
D
102
{ACAD_REACTORS
330
C
102
}
330
C
100
AcDbDictionary
281
     1
  0
DICTIONARY
  5
1A
102
{ACAD_REACTORS
330
C
102
}
330
C
100
AcDbDictionary
281
     1
  3
Layout1
350
1E
  3
Layout2
350
26
  3
Model
350
22
  0
DICTIONARY
  5
17
102
{ACAD_REACTORS
330
C
102
}
330
C
100
AcDbDictionary
281
     1
  3
Standard
350
18
  0
DICTIONARY
  5
19
102
{ACAD_REACTORS
330
C
102
}
330
C
100
AcDbDictionary
281
     1
  0
ACDBDICTIONARYWDFLT
  5
E
102
{ACAD_REACTORS
330
C
102
}
330
C
100
AcDbDictionary
281
     1
  3
Normal
350
F
100
AcDbDictionaryWithDefault
340
F
  0
DICTIONARY
  5
539
102
{ACAD_REACTORS
330
C
102
}
330
C
100
AcDbDictionary
281
     1
  0
DICTIONARY
  5
2A
102
{ACAD_REACTORS
330
C
102
}
330
C
100
AcDbDictionary
281
     1
  3
2dWireframe
350
2F
  3
3D Hidden
350
31
  3
3dWireframe
350
30
  3
Basic
350
32
  3
Brighten
350
36
  3
ColorChange
350
3A
  3
Conceptual
350
34
  3
Dim
350
35
  3
Facepattern
350
39
  3
Flat
350
2B
  3
FlatWithEdges
350
2C
  3
Gouraud
350
2D
  3
GouraudWithEdges
350
2E
  3
Linepattern
350
38
  3
Realistic
350
33
  3
Thicken
350
37
  0
LAYOUT
  5
1E
102
{ACAD_REACTORS
330
1A
102
}
330
1A
100
AcDbPlotSettings
  1

  2
none_device
  4

  6

 40
0.0
 41
0.0
 42
0.0
 43
0.0
 44
0.0
 45
0.0
 46
0.0
 47
0.0
 48
0.0
 49
0.0
140
0.0
141
0.0
142
1.0
143
1.0
 70
   688
 72
     0
 73
     0
 74
     5
  7

 75
    16
 76
     0
 77
     2
 78
   300
147
1.0
148
0.0
149
0.0
100
AcDbLayout
  1
Layout1
 70
     1
 71
     1
 10
0.0
 20
0.0
 11
297.0
 21
210.0
 12
0.0
 22
0.0
 32
0.0
 14
0.0
 24
0.0
 34
0.0
 15
297.0
 25
210.0
 35
0.0
146
0.0
 13
0.0
 23
0.0
 33
0.0
 16
1.0
 26
0.0
 36
0.0
 17
0.0
 27
1.0
 37
0.0
 76
     0
330
1B
331
3B
  0
LAYOUT
  5
26
102
{ACAD_REACTORS
330
1A
102
}
330
1A
100
AcDbPlotSettings
  1

  2
none_device
  4

  6

 40
0.0
 41
0.0
 42
0.0
 43
0.0
 44
0.0
 45
0.0
 46
0.0
 47
0.0
 48
0.0
 49
0.0
140
0.0
141
0.0
142
1.0
143
1.0
 70
   688
 72
     0
 73
     0
 74
     5
  7

 75
    16
 76
     0
 77
     2
 78
   300
147
1.0
148
0.0
149
0.0
100
AcDbLayout
  1
Layout2
 70
     1
 71
     2
 10
0.0
 20
0.0
 11
0.0
 21
0.0
 12
0.0
 22
0.0
 32
0.0
 14
0.0
 24
0.0
 34
0.0
 15
0.0
 25
0.0
 35
0.0
146
0.0
 13
0.0
 23
0.0
 33
0.0
 16
1.0
 26
0.0
 36
0.0
 17
0.0
 27
1.0
 37
0.0
 76
     0
330
23
  0
LAYOUT
  5
22
102
{ACAD_REACTORS
330
1A
102
}
330
1A
100
AcDbPlotSettings
  1

  2
none_device
  4

  6

 40
0.0
 41
0.0
 42
0.0
 43
0.0
 44
0.0
 45
0.0
 46
0.0
 47
0.0
 48
0.0
 49
0.0
140
0.0
141
0.0
142
1.0
143
1.0
 70
  1712
 72
     0
 73
     0
 74
     0
  7

 75
     0
 76
     0
 77
     2
 78
   300
147
1.0
148
0.0
149
0.0
100
AcDbLayout
  1
Model
 70
     1
 71
     0
 10
0.0
 20
0.0
 11
891.0
 21
630.0
 12
0.0
 22
0.0
 32
0.0
 14
0.0
 24
0.0
 34
0.0
 15
891.0
 25
630.0
 35
0.0
146
0.0
 13
0.0
 23
0.0
 33
0.0
 16
1.0
 26
0.0
 36
0.0
 17
0.0
 27
1.0
 37
0.0
 76
     0
330
1F
331
29
  0
MLINESTYLE
  5
18
102
{ACAD_REACTORS
330
17
102
}
330
17
100
AcDbMlineStyle
  2
Standard
 70
     0
  3

 62
   256
 51
90.0
 52
90.0
 71
     2
 49
0.5
 62
   256
  6
BYLAYER
 49
-0.5
 62
   256
  6
BYLAYER
  0
ACDBPLACEHOLDER
  5
F
102
{ACAD_REACTORS
330
E
102
}
330
E
  0
VISUALSTYLE
  5
2F
102
{ACAD_REACTORS
330
2A
102
}
330
2A
100
AcDbVisualStyle
  2
2dWireframe
 70
     4
 71
     0
 72
     2
 73
     0
 90
        0
 40
-0.6
 41
-30.0
 62
     5
 63
     7
421
 16777215
 74
     1
 91
        4
 64
     7
 65
   257
 75
     1
175
     1
 42
1.0
 92
        0
 66
   257
 43
1.0
 76
     1
 77
     6
 78
     2
 67
     7
 79
     5
170
     0
171
     0
290
     0
174
     0
 93
        1
 44
0.0
173
     0
291
     0
 45
0.0
  0
VISUALSTYLE
  5
31
102
{ACAD_REACTORS
330
2A
102
}
330
2A
100
AcDbVisualStyle
  2
3D Hidden
 70
     6
 71
     1
 72
     2
 73
     2
 90
        0
 40
-0.6
 41
-30.0
 62
     5
 63
     7
421
 16777215
 74
     2
 91
        2
 64
     7
 65
   257
 75
     2
175
     1
 42
40.0
 92
        0
 66
   257
 43
1.0
 76
     1
 77
     6
 78
     2
 67
     7
 79
     3
170
     0
171
     0
290
     0
174
     0
 93
        1
 44
0.0
173
     0
291
     0
 45
0.0
  0
VISUALSTYLE
  5
30
102
{ACAD_REACTORS
330
2A
102
}
330
2A
100
AcDbVisualStyle
  2
3dWireframe
 70
     5
 71
     0
 72
     2
 73
     0
 90
        0
 40
-0.6
 41
-30.0
 62
     5
 63
     7
421
 16777215
 74
     1
 91
        4
 64
     7
 65
   257
 75
     1
175
     1
 42
1.0
 92
        0
 66
   257
 43
1.0
 76
     1
 77
     6
 78
     2
 67
     7
 79
     5
170
     0
171
     0
290
     0
174
     0
 93
        1
 44
0.0
173
     0
291
     0
 45
0.0
  0
VISUALSTYLE
  5
32
102
{ACAD_REACTORS
330
2A
102
}
330
2A
100
AcDbVisualStyle
  2
Basic
 70
     7
 71
     1
 72
     0
 73
     1
 90
        0
 40
-0.6
 41
-30.0
 62
     5
 63
     7
421
 16777215
 74
     0
 91
        4
 64
     7
 65
   257
 75
     1
175
     1
 42
1.0
 92
        8
 66
     7
 43
1.0
 76
     1
 77
     6
 78
     2
 67
     7
 79
     5
170
     0
171
     0
290
     0
174
     0
 93
        1
 44
0.0
173
     0
291
     1
 45
0.0
  0
VISUALSTYLE
  5
36
102
{ACAD_REACTORS
330
2A
102
}
330
2A
100
AcDbVisualStyle
  2
Brighten
 70
    12
 71
     2
 72
     2
 73
     0
 90
        0
 40
-0.6
 41
-30.0
 62
     5
 63
     7
421
 16777215
 74
     1
 91
        4
 64
     7
 65
   257
 75
     1
175
     1
 42
1.0
 92
        8
 66
     7
 43
1.0
 76
     1
 77
     6
 78
     2
 67
     7
 79
     5
170
     0
171
     0
290
     0
174
     0
 93
        1
 44
50.0
173
     0
291
     1
 45
0.0
  0
VISUALSTYLE
  5
3A
102
{ACAD_REACTORS
330
2A
102
}
330
2A
100
AcDbVisualStyle
  2
ColorChange
 70
    16
 71
     2
 72
     2
 73
     3
 90
        0
 40
-0.6
 41
-30.0
 62
     5
 63
     8
421
  8421504
 74
     1
 91
        4
 64
     7
 65
   257
 75
     1
175
     1
 42
1.0
 92
        8
 66
     8
424
  8421504
 43
1.0
 76
     1
 77
     6
 78
     2
 67
     7
 79
     5
170
     0
171
     0
290
     0
174
     0
 93
        1
 44
0.0
173
     0
291
     1
 45
0.0
  0
VISUALSTYLE
  5
34
102
{ACAD_REACTORS
330
2A
102
}
330
2A
100
AcDbVisualStyle
  2
Conceptual
 70
     9
 71
     3
 72
     2
 73
     0
 90
        0
 40
-0.6
 41
-30.0
 62
     5
 63
     7
421
 16777215
 74
     2
 91
        2
 64
     7
 65
   257
 75
     1
175
     1
 42
40.0
 92
        8
 66
     7
 43
1.0
 76
     1
 77
     6
 78
     2
 67
     7
 79
     3
170
     0
171
     0
290
     0
174
     0
 93
        1
 44
0.0
173
     0
291
     0
 45
0.0
  0
VISUALSTYLE
  5
35
102
{ACAD_REACTORS
330
2A
102
}
330
2A
100
AcDbVisualStyle
  2
Dim
 70
    11
 71
     2
 72
     2
 73
     0
 90
        0
 40
-0.6
 41
-30.0
 62
     5
 63
     7
421
 16777215
 74
     1
 91
        4
 64
     7
 65
   257
 75
     1
175
     1
 42
1.0
 92
        8
 66
     7
 43
1.0
 76
     1
 77
     6
 78
     2
 67
     7
 79
     5
170
     0
171
     0
290
     0
174
     0
 93
        1
 44
-50.0
173
     0
291
     1
 45
0.0
  0
VISUALSTYLE
  5
39
102
{ACAD_REACTORS
330
2A
102
}
330
2A
100
AcDbVisualStyle
  2
Facepattern
 70
    15
 71
     2
 72
     2
 73
     0
 90
        0
 40
-0.6
 41
-30.0
 62
     5
 63
     7
421
 16777215
 74
     1
 91
        4
 64
     7
 65
   257
 75
     1
175
     1
 42
1.0
 92
        8
 66
     7
 43
1.0
 76
     1
 77
     6
 78
     2
 67
     7
 79
     5
170
     0
171
     0
290
     0
174
     0
 93
        1
 44
0.0
173
     0
291
     1
 45
0.0
  0
VISUALSTYLE
  5
2B
102
{ACAD_REACTORS
330
2A
102
}
330
2A
100
AcDbVisualStyle
  2
Flat
 70
     0
 71
     2
 72
     1
 73
     1
 90
        2
 40
-0.6
 41
30.0
 62
     5
 63
     7
421
 16777215
 74
     0
 91
        4
 64
     7
 65
   257
 75
     1
175
     1
 42
1.0
 92
        8
 66
     7
 43
1.0
 76
     1
 77
     6
 78
     2
 67
     7
 79
     5
170
     0
171
     0
290
     0
174
     0
 93
       13
 44
0.0
173
     0
291
     1
 45
0.0
  0
VISUALSTYLE
  5
2C
102
{ACAD_REACTORS
330
2A
102
}
330
2A
100
AcDbVisualStyle
  2
FlatWithEdges
 70
     1
 71
     2
 72
     1
 73
     1
 90
        2
 40
-0.6
 41
30.0
 62
     5
 63
     7
421
 16777215
 74
     1
 91
        4
 64
     7
 65
   257
 75
     1
175
     1
 42
1.0
 92
        0
 66
   257
 43
1.0
 76
     1
 77
     6
 78
     2
 67
     7
 79
     5
170
     0
171
     0
290
     0
174
     0
 93
       13
 44
0.0
173
     0
291
     1
 45
0.0
  0
VISUALSTYLE
  5
2D
102
{ACAD_REACTORS
330
2A
102
}
330
2A
100
AcDbVisualStyle
  2
Gouraud
 70
     2
 71
     2
 72
     2
 73
     1
 90
        2
 40
-0.6
 41
30.0
 62
     5
 63
     7
421
 16777215
 74
     0
 91
        4
 64
     7
 65
   257
 75
     1
175
     1
 42
1.0
 92
        0
 66
     7
 43
1.0
 76
     1
 77
     6
 78
     2
 67
     7
 79
     5
170
     0
171
     0
290
     0
174
     0
 93
       13
 44
0.0
173
     0
291
     1
 45
0.0
  0
VISUALSTYLE
  5
2E
102
{ACAD_REACTORS
330
2A
102
}
330
2A
100
AcDbVisualStyle
  2
GouraudWithEdges
 70
     3
 71
     2
 72
     2
 73
     1
 90
        2
 40
-0.6
 41
30.0
 62
     5
 63
     7
421
 16777215
 74
     1
 91
        4
 64
     7
 65
   257
 75
     1
175
     1
 42
1.0
 92
        0
 66
   257
 43
1.0
 76
     1
 77
     6
 78
     2
 67
     7
 79
     5
170
     0
171
     0
290
     0
174
     0
 93
       13
 44
0.0
173
     0
291
     1
 45
0.0
  0
VISUALSTYLE
  5
38
102
{ACAD_REACTORS
330
2A
102
}
330
2A
100
AcDbVisualStyle
  2
Linepattern
 70
    14
 71
     2
 72
     2
 73
     0
 90
        0
 40
-0.6
 41
-30.0
 62
     5
 63
     7
421
 16777215
 74
     1
 91
        4
 64
     7
 65
   257
 75
     7
175
     7
 42
1.0
 92
        8
 66
     7
 43
1.0
 76
     1
 77
     6
 78
     2
 67
     7
 79
     5
170
     0
171
     0
290
     0
174
     0
 93
        1
 44
0.0
173
     0
291
     1
 45
0.0
  0
VISUALSTYLE
  5
33
102
{ACAD_REACTORS
330
2A
102
}
330
2A
100
AcDbVisualStyle
  2
Realistic
 70
     8
 71
     2
 72
     2
 73
     0
 90
        0
 40
-0.6
 41
-30.0
 62
     5
 63
     7
421
 16777215
 74
     1
 91
        0
 64
     7
 65
   257
 75
     1
175
     1
 42
1.0
 92
        8
 66
     8
424
  7895160
 43
1.0
 76
     1
 77
     6
 78
     2
 67
     7
 79
     5
170
     0
171
     0
290
     0
174
     0
 93
       13
 44
0.0
173
     0
291
     0
 45
0.0
  0
VISUALSTYLE
  5
37
102
{ACAD_REACTORS
330
2A
102
}
330
2A
100
AcDbVisualStyle
  2
Thicken
 70
    13
 71
     2
 72
     2
 73
     0
 90
        0
 40
-0.6
 41
-30.0
 62
     5
 63
     7
421
 16777215
 74
     1
 91
        4
 64
     7
 65
   257
 75
     1
175
     1
 42
1.0
 92
       12
 66
     7
 43
1.0
 76
     1
 77
     6
 78
     2
 67
     7
 79
     5
170
     0
171
     0
290
     0
174
     0
 93
        1
 44
0.0
173
     0
291
     1
 45
0.0
  0
ENDSEC
  0
EOF
