  0
SECTION
  2
HEADER
  9
$ACADVER
  1
AC1021
  9
$ACADMAINTVER
 70
     1
  9
$DWGCODEPAGE
  3
ANSI_932
  9
$INSBASE
 10
0.0
 20
0.0
 30
0.0
  9
$EXTMIN
 10
0.0
 20
0.0
 30
0.0
  9
$EXTMAX
 10
891.0
 20
630.0
 30
0.0
  9
$LIMMIN
 10
0.0
 20
0.0
  9
$LIMMAX
 10
891.0
 20
630.0
  9
$ORTHOMODE
 70
     0
  9
$REGENMODE
 70
     1
  9
$FILLMODE
 70
     1
  9
$QTEXTMODE
 70
     0
  9
$MIRRTEXT
 70
     1
  9
$LTSCALE
 40
0.75
  9
$ATTMODE
 70
     1
  9
$TEXTSIZE
 40
15.0
  9
$TRACEWID
 40
0.05
  9
$TEXTSTYLE
  7
Standard
  9
$CLAYER
  8
0
  9
$CELTYPE
  6
ByLayer
  9
$CECOLOR
 62
   256
  9
$CELTSCALE
 40
1.0
  9
$DISPSILH
 70
     0
  9
$DIMSCALE
 40
3.0
  9
$DIMASZ
 40
4.0
  9
$DIMEXO
 40
2.0
  9
$DIMDLI
 40
10.0
  9
$DIMRND
 40
0.0
  9
$DIMDLE
 40
0.0
  9
$DIMEXE
 40
2.0
  9
$DIMTP
 40
0.0
  9
$DIMTM
 40
0.0
  9
$DIMTXT
 40
4.0
  9
$DIMCEN
 40
0.09
  9
$DIMTSZ
 40
0.0
  9
$DIMTOL
 70
     0
  9
$DIMLIM
 70
     0
  9
$DIMTIH
 70
     0
  9
$DIMTOH
 70
     0
  9
$DIMSE1
 70
     0
  9
$DIMSE2
 70
     0
  9
$DIMTAD
 70
     3
  9
$DIMZIN
 70
     8
  9
$DIMBLK
  1

  9
$DIMASO
 70
     1
  9
$DIMSHO
 70
     1
  9
$DIMPOST
  1

  9
$DIMAPOST
  1

  9
$DIMALT
 70
     0
  9
$DIMALTD
 70
     2
  9
$DIMALTF
 40
25.4
  9
$DIMLFAC
 40
1.0
  9
$DIMTOFL
 70
     1
  9
$DIMTVP
 40
0.7
  9
$DIMTIX
 70
     0
  9
$DIMSOXD
 70
     0
  9
$DIMSAH
 70
     0
  9
$DIMBLK1
  1

  9
$DIMBLK2
  1

  9
$DIMSTYLE
  2
Standard
  9
$DIMCLRD
 70
     0
  9
$DIMCLRE
 70
     0
  9
$DIMCLRT
 70
     0
  9
$DIMTFAC
 40
0.5
  9
$DIMGAP
 40
0.09
  9
$DIMJUST
 70
     0
  9
$DIMSD1
 70
     0
  9
$DIMSD2
 70
     0
  9
$DIMTOLJ
 70
     1
  9
$DIMTZIN
 70
     8
  9
$DIMALTZ
 70
     0
  9
$DIMALTTZ
 70
     0
  9
$DIMUPT
 70
     1
  9
$DIMDEC
 70
     2
  9
$DIMTDEC
 70
     4
  9
$DIMALTU
 70
     2
  9
$DIMALTTD
 70
     2
  9
$DIMTXSTY
  7
Standard
  9
$DIMAUNIT
 70
     0
  9
$DIMADEC
 70
     0
  9
$DIMALTRND
 40
0.0
  9
$DIMAZIN
 70
     0
  9
$DIMDSEP
 70
    46
  9
$DIMATFIT
 70
     2
  9
$DIMFRAC
 70
     0
  9
$DIMLDRBLK
  1

  9
$DIMLUNIT
 70
     2
  9
$DIMLWD
 70
    -2
  9
$DIMLWE
 70
    -2
  9
$DIMTMOVE
 70
     2
  9
$DIMFXL
 40
1.0
  9
$DIMFXLON
 70
     0
  9
$DIMJOGANG
 40
0.7853981633974483
  9
$DIMTFILL
 70
     0
  9
$DIMTFILLCLR
 70
     0
  9
$DIMARCSYM
 70
     0
  9
$DIMLTYPE
  6

  9
$DIMLTEX1
  6

  9
$DIMLTEX2
  6

  9
$LUNITS
 70
     2
  9
$LUPREC
 70
     4
  9
$SKETCHINC
 40
0.1
  9
$FILLETRAD
 40
0.5
  9
$AUNITS
 70
     0
  9
$AUPREC
 70
     0
  9
$MENU
  1
.
  9
$ELEVATION
 40
0.0
  9
$PELEVATION
 40
0.0
  9
$THICKNESS
 40
0.0
  9
$LIMCHECK
 70
     0
  9
$CHAMFERA
 40
0.5
  9
$CHAMFERB
 40
0.5
  9
$CHAMFERC
 40
1.0
  9
$CHAMFERD
 40
0.0
  9
$SKPOLY
 70
     0
  9
$TDCREATE
 40
2454850.073842593
  9
$TDUCREATE
 40
2454849.698842593
  9
$TDUPDATE
 40
2454850.073842593
  9
$TDUUPDATE
 40
2454849.698842593
  9
$TDINDWG
 40
0.0000000116
  9
$TDUSRTIMER
 40
0.0000000116
  9
$USRTIMER
 70
     1
  9
$ANGBASE
 50
0.0
  9
$ANGDIR
 70
     0
  9
$PDMODE
 70
     0
  9
$PDSIZE
 40
0.0
  9
$PLINEWID
 40
0.0
  9
$SPLFRAME
 70
     0
  9
$SPLINETYPE
 70
     6
  9
$SPLINESEGS
 70
     8
  9
$HANDSEED
  5
4C4
  9
$SURFTAB1
 70
     6
  9
$SURFTAB2
 70
     6
  9
$SURFTYPE
 70
     6
  9
$SURFU
 70
     6
  9
$SURFV
 70
     6
  9
$UCSBASE
  2

  9
$UCSNAME
  2

  9
$UCSORG
 10
0.0
 20
0.0
 30
0.0
  9
$UCSXDIR
 10
1.0
 20
0.0
 30
0.0
  9
$UCSYDIR
 10
0.0
 20
1.0
 30
0.0
  9
$UCSORTHOREF
  2

  9
$UCSORTHOVIEW
 70
     0
  9
$UCSORGTOP
 10
0.0
 20
0.0
 30
0.0
  9
$UCSORGBOTTOM
 10
0.0
 20
0.0
 30
0.0
  9
$UCSORGLEFT
 10
0.0
 20
0.0
 30
0.0
  9
$UCSORGRIGHT
 10
0.0
 20
0.0
 30
0.0
  9
$UCSORGFRONT
 10
0.0
 20
0.0
 30
0.0
  9
$UCSORGBACK
 10
0.0
 20
0.0
 30
0.0
  9
$PUCSBASE
  2

  9
$PUCSNAME
  2

  9
$PUCSORG
 10
0.0
 20
0.0
 30
0.0
  9
$PUCSXDIR
 10
1.0
 20
0.0
 30
0.0
  9
$PUCSYDIR
 10
0.0
 20
1.0
 30
0.0
  9
$PUCSORTHOREF
  2

  9
$PUCSORTHOVIEW
 70
     0
  9
$PUCSORGTOP
 10
0.0
 20
0.0
 30
0.0
  9
$PUCSORGBOTTOM
 10
0.0
 20
0.0
 30
0.0
  9
$PUCSORGLEFT
 10
0.0
 20
0.0
 30
0.0
  9
$PUCSORGRIGHT
 10
0.0
 20
0.0
 30
0.0
  9
$PUCSORGFRONT
 10
0.0
 20
0.0
 30
0.0
  9
$PUCSORGBACK
 10
0.0
 20
0.0
 30
0.0
  9
$USERI1
 70
     0
  9
$USERI2
 70
     0
  9
$USERI3
 70
     0
  9
$USERI4
 70
     0
  9
$USERI5
 70
     0
  9
$USERR1
 40
0.0
  9
$USERR2
 40
0.0
  9
$USERR3
 40
0.0
  9
$USERR4
 40
0.0
  9
$USERR5
 40
0.0
  9
$WORLDVIEW
 70
     1
  9
$SHADEDGE
 70
     3
  9
$SHADEDIF
 70
    70
  9
$TILEMODE
 70
     1
  9
$MAXACTVP
 70
    64
  9
$PINSBASE
 10
0.0
 20
0.0
 30
0.0
  9
$PLIMCHECK
 70
     0
  9
$PEXTMIN
 10
0.0
 20
0.0
 30
0.0
  9
$PEXTMAX
 10
297.0
 20
210.0
 30
0.0
  9
$PLIMMIN
 10
0.0
 20
0.0
  9
$PLIMMAX
 10
297.0
 20
210.0
  9
$UNITMODE
 70
     0
  9
$VISRETAIN
 70
     1
  9
$PLINEGEN
 70
     0
  9
$PSLTSCALE
 70
     1
  9
$TREEDEPTH
 70
  3020
  9
$CMLSTYLE
  2
Standard
  9
$CMLJUST
 70
     0
  9
$CMLSCALE
 40
1.0
  9
$PROXYGRAPHICS
 70
     1
  9
$MEASUREMENT
 70
     1
  9
$CELWEIGHT
370
    -1
  9
$ENDCAPS
280
     0
  9
$JOINSTYLE
280
     0
  9
$LWDISPLAY
290
     0
  9
$INSUNITS
 70
     4
  9
$HYPERLINKBASE
  1

  9
$STYLESHEET
  1

  9
$XEDIT
290
     1
  9
$CEPSNTYPE
380
     0
  9
$PSTYLEMODE
290
     1
  9
$FINGERPRINTGUID
  2
{5E8D5E29-6BD4-4A0F-9AF6-B10D3F907674}
  9
$VERSIONGUID
  2
{FAEB1C32-E019-11D5-929B-00C0DF256EC4}
  9
$EXTNAMES
290
     1
  9
$PSVPSCALE
 40
0.0
  9
$OLESTARTUP
290
     0
  9
$SORTENTS
280
   127
  9
$INDEXCTL
280
     0
  9
$HIDETEXT
280
     1
  9
$XCLIPFRAME
290
     0
  9
$HALOGAP
280
     0
  9
$OBSCOLOR
 70
   257
  9
$OBSLTYPE
280
     0
  9
$INTERSECTIONDISPLAY
280
     0
  9
$INTERSECTIONCOLOR
 70
   257
  9
$DIMASSOC
280
     1
  9
$PROJECTNAME
  1

  9
$CAMERADISPLAY
290
     0
  9
$LENSLENGTH
 40
50.0
  9
$CAMERAHEIGHT
 40
0.0
  9
$STEPSPERSEC
 40
2.0
  9
$STEPSIZE
 40
6.0
  9
$3DDWFPREC
 40
2.0
  9
$PSOLWIDTH
 40
0.25
  9
$PSOLHEIGHT
 40
4.0
  9
$LOFTANG1
 40
1.570796326794897
  9
$LOFTANG2
 40
1.570796326794897
  9
$LOFTMAG1
 40
0.0
  9
$LOFTMAG2
 40
0.0
  9
$LOFTPARAM
 70
     7
  9
$LOFTNORMALS
280
     1
  9
$LATITUDE
 40
37.795
  9
$LONGITUDE
 40
-122.394
  9
$NORTHDIRECTION
 40
0.0
  9
$TIMEZONE
 70
 -8000
  9
$LIGHTGLYPHDISPLAY
280
     1
  9
$TILEMODELIGHTSYNCH
280
     1
  9
$SOLIDHIST
280
     1
  9
$SHOWHIST
280
     1
  9
$DWFFRAME
280
     2
  9
$DGNFRAME
280
     2
  9
$REALWORLDSCALE
290
     1
  9
$INTERFERECOLOR
 62
   256
  9
$CSHADOW
280
     0
  9
$SHADOWPLANELOCATION
 40
0.0
  0
ENDSEC
  0
SECTION
  2
CLASSES
  0
CLASS
  1
ACDBDICTIONARYWDFLT
  2
AcDbDictionaryWithDefault
  3
ObjectDBX Classes
 90
        0
 91
        3
280
     0
281
     0
  0
CLASS
  1
VISUALSTYLE
  2
AcDbVisualStyle
  3
ObjectDBX Classes
 90
     4095
 91
        3
280
     0
281
     0
  0
ENDSEC
  0
SECTION
  2
TABLES
  0
TABLE
  2
VPORT
  5
8
330
0
100
AcDbSymbolTable
 70
     1
  0
VPORT
  5
29
330
8
100
AcDbSymbolTableRecord
100
AcDbViewportTableRecord
  2
*Active
 70
     0
 10
0.0
 20
0.0
 11
1.0
 21
1.0
 12
10.42990654205607
 22
4.5
 13
0.0
 23
0.0
 14
0.5
 24
0.5
 15
0.5
 25
0.5
 16
0.0
 26
0.0
 36
1.0
 17
0.0
 27
0.0
 37
0.0
 40
9.0
 41
1.972972972850329
 42
50.0
 43
0.0
 44
0.0
 50
0.0
 51
0.0
 71
     0
 72
   100
 73
     1
 74
     3
 75
     0
 76
     0
 77
     0
 78
     0
281
     0
 65
     1
110
0.0
120
0.0
130
0.0
111
1.0
121
0.0
131
0.0
112
0.0
122
1.0
132
0.0
 79
     0
146
0.0
 60
     3
 61
     5
292
     1
282
     1
141
0.0
142
0.0
 63
   256
  0
ENDTAB
  0
TABLE
  2
LTYPE
  5
5
330
0
100
AcDbSymbolTable
 70
     9
  0
LTYPE
  5
14
330
5
100
AcDbSymbolTableRecord
100
AcDbLinetypeTableRecord
  2
ByBlock
 70
     0
  3

 72
    65
 73
     0
 40
0.0
  0
LTYPE
  5
15
330
5
100
AcDbSymbolTableRecord
100
AcDbLinetypeTableRecord
  2
ByLayer
 70
     0
  3

 72
    65
 73
     0
 40
0.0
  0
LTYPE
  5
16
330
5
100
AcDbSymbolTableRecord
100
AcDbLinetypeTableRecord
  2
Continuous
 70
     0
  3
Solid line
 72
    65
 73
     0
 40
0.0
  0
LTYPE
  5
79
330
5
100
AcDbSymbolTableRecord
100
AcDbLinetypeTableRecord
  2
DOT
 70
     0
  3
DOT
 72
    65
 73
     2
 40
4.0
 49
6.0
 74
     0
 49
-2.0
 74
     0
  0
LTYPE
  5
7A
330
5
100
AcDbSymbolTableRecord
100
AcDbLinetypeTableRecord
  2
HIDDEN
 70
     0
  3
HIDDEN
 72
    65
 73
     2
 40
4.2
 49
8.4
 74
     0
 49
-4.2
 74
     0
  0
LTYPE
  5
7B
330
5
100
AcDbSymbolTableRecord
100
AcDbLinetypeTableRecord
  2
DASHDOT
 70
     0
  3
DASHDOT
 72
    65
 73
     4
 40
14.5
 49
30.0
 74
     0
 49
-9.0
 74
     0
 49
2.5
 74
     0
 49
-9.0
 74
     0
  0
LTYPE
  5
7C
330
5
100
AcDbSymbolTableRecord
100
AcDbLinetypeTableRecord
  2
PHANTOM
 70
     0
  3
PHANTOM
 72
    65
 73
     6
 40
12.0
 49
30.0
 74
     0
 49
-9.0
 74
     0
 49
2.5
 74
     0
 49
-5.0
 74
     0
 49
2.5
 74
     0
 49
-9.0
 74
     0
  0
LTYPE
  5
7D
330
5
100
AcDbSymbolTableRecord
100
AcDbLinetypeTableRecord
  2
ACAD_ISO14W100
 70
     0
  3
ACAD_ISO14W100
 72
    65
 73
     8
 40
1.5
 49
12.0
 74
     0
 49
-3.0
 74
     0
 49
0.5
 74
     0
 49
-3.0
 74
     0
 49
0.5
 74
     0
 49
-3.0
 74
     0
 49
0.5
 74
     0
 49
-3.0
 74
     0
  0
LTYPE
  5
7E
330
5
100
AcDbSymbolTableRecord
100
AcDbLinetypeTableRecord
  2
ACAD_ISO06W100
 70
     0
  3
ACAD_ISO06W100
 72
    65
 73
     8
 40
13.5
 49
24.0
 74
     0
 49
-3.0
 74
     0
 49
0.5
 74
     0
 49
-3.0
 74
     0
 49
0.5
 74
     0
 49
-3.0
 74
     0
 49
0.5
 74
     0
 49
-3.0
 74
     0
  0
LTYPE
  5
7F
330
5
100
AcDbSymbolTableRecord
100
AcDbLinetypeTableRecord
  2
ACAD_ISO11W100
 70
     0
  3
ACAD_ISO11W100
 72
    65
 73
     6
 40
15.5
 49
12.0
 74
     0
 49
-3.0
 74
     0
 49
12.0
 74
     0
 49
-3.0
 74
     0
 49
0.5
 74
     0
 49
-3.0
 74
     0
  0
LTYPE
  5
80
330
5
100
AcDbSymbolTableRecord
100
AcDbLinetypeTableRecord
  2
ACAD_ISO13W100
 70
     0
  3
ACAD_ISO13W100
 72
    65
 73
     8
 40
13.0
 49
12.0
 74
     0
 49
-3.0
 74
     0
 49
12.0
 74
     0
 49
-3.0
 74
     0
 49
0.5
 74
     0
 49
-3.0
 74
     0
 49
0.5
 74
     0
 49
-3.0
 74
     0
  0
ENDTAB
  0
TABLE
  2
LAYER
  5
2
330
0
100
AcDbSymbolTable
 70
    22
  0
LAYER
  5
10
330
2
100
AcDbSymbolTableRecord
100
AcDbLayerTableRecord
  2
0
 70
     0
 62
     7
  6
Continuous
370
    -3
390
F
347
0
  0
LAYER
  5
81
330
2
100
AcDbSymbolTableRecord
100
AcDbLayerTableRecord
  2
1
 70
     0
 62
     7
  6
Continuous
370
    -3
390
F
347
0
  0
LAYER
  5
82
330
2
100
AcDbSymbolTableRecord
100
AcDbLayerTableRecord
  2
2
 70
     0
 62
   134
  6
Continuous
370
    -3
390
F
347
0
  0
LAYER
  5
83
330
2
100
AcDbSymbolTableRecord
100
AcDbLayerTableRecord
  2
3
 70
     0
 62
   214
  6
Continuous
370
    -3
390
F
347
0
  0
LAYER
  5
84
330
2
100
AcDbSymbolTableRecord
100
AcDbLayerTableRecord
  2
4
 70
     0
 62
    54
  6
Continuous
370
    -3
390
F
347
0
  0
LAYER
  5
85
330
2
100
AcDbSymbolTableRecord
100
AcDbLayerTableRecord
  2
5
 70
     0
 62
    94
  6
Continuous
370
    -3
390
F
347
0
  0
LAYER
  5
86
330
2
100
AcDbSymbolTableRecord
100
AcDbLayerTableRecord
  2
6
 70
     0
 62
    14
  6
Continuous
370
    -3
390
F
347
0
  0
LAYER
  5
87
330
2
100
AcDbSymbolTableRecord
100
AcDbLayerTableRecord
  2
7
 70
     0
 62
     4
  6
Continuous
370
    -3
390
F
347
0
  0
LAYER
  5
88
330
2
100
AcDbSymbolTableRecord
100
AcDbLayerTableRecord
  2
8
 70
     0
 62
     6
  6
Continuous
370
    -3
390
F
347
0
  0
LAYER
  5
89
330
2
100
AcDbSymbolTableRecord
100
AcDbLayerTableRecord
  2
9
 70
     0
 62
     2
  6
Continuous
370
    -3
390
F
347
0
  0
LAYER
  5
8A
330
2
100
AcDbSymbolTableRecord
100
AcDbLayerTableRecord
  2
10
 70
     0
 62
     3
  6
Continuous
370
    -3
390
F
347
0
  0
LAYER
  5
8B
330
2
100
AcDbSymbolTableRecord
100
AcDbLayerTableRecord
  2
11
 70
     0
 62
   251
  6
Continuous
370
    -3
390
F
347
0
  0
LAYER
  5
8C
330
2
100
AcDbSymbolTableRecord
100
AcDbLayerTableRecord
  2
12
 70
     0
 62
   136
  6
Continuous
370
    -3
390
F
347
0
  0
LAYER
  5
8D
330
2
100
AcDbSymbolTableRecord
100
AcDbLayerTableRecord
  2
13
 70
     0
 62
   216
  6
Continuous
370
    -3
390
F
347
0
  0
LAYER
  5
8E
330
2
100
AcDbSymbolTableRecord
100
AcDbLayerTableRecord
  2
14
 70
     0
 62
    56
  6
Continuous
370
    -3
390
F
347
0
  0
LAYER
  5
8F
330
2
100
AcDbSymbolTableRecord
100
AcDbLayerTableRecord
  2
15
 70
     0
 62
    96
  6
Continuous
370
    -3
390
F
347
0
  0
LAYER
  5
90
330
2
100
AcDbSymbolTableRecord
100
AcDbLayerTableRecord
  2
16
 70
     0
 62
    16
  6
Continuous
370
    -3
390
F
347
0
  0
LAYER
  5
91
330
2
100
AcDbSymbolTableRecord
100
AcDbLayerTableRecord
  2
17
 70
     0
 62
   132
  6
Continuous
370
    -3
390
F
347
0
  0
LAYER
  5
92
330
2
100
AcDbSymbolTableRecord
100
AcDbLayerTableRecord
  2
18
 70
     0
 62
   212
  6
Continuous
370
    -3
390
F
347
0
  0
LAYER
  5
93
330
2
100
AcDbSymbolTableRecord
100
AcDbLayerTableRecord
  2
19
 70
     0
 62
    52
  6
Continuous
370
    -3
390
F
347
0
  0
LAYER
  5
94
330
2
100
AcDbSymbolTableRecord
100
AcDbLayerTableRecord
  2
20
 70
     0
 62
   250
  6
Continuous
370
    -3
390
F
347
0
  0
LAYER
  5
95
330
2
100
AcDbSymbolTableRecord
100
AcDbLayerTableRecord
  2
21
 70
     0
 62
     7
  6
Continuous
370
    -3
390
F
347
0
  0
ENDTAB
  0
TABLE
  2
STYLE
  5
3
330
0
100
AcDbSymbolTable
 70
     2
  0
STYLE
  5
11
330
3
100
AcDbSymbolTableRecord
100
AcDbTextStyleTableRecord
  2
Standard
 70
     0
 40
0.0
 41
1.0
 50
0.0
 71
     0
 42
0.2
  3
txt
  4
bigfont
  0
STYLE
  5
3D
330
3
100
AcDbSymbolTableRecord
100
AcDbTextStyleTableRecord
  2
T_STANDARD
 70
     4
 40
10.0
 41
1.0
 50
0.0
 71
     0
 42
10.0
  3
txt
  4
bigfont
  0
ENDTAB
  0
TABLE
  2
VIEW
  5
6
330
0
100
AcDbSymbolTable
 70
     0
  0
ENDTAB
  0
TABLE
  2
UCS
  5
7
330
0
100
AcDbSymbolTable
 70
     0
  0
ENDTAB
  0
TABLE
  2
APPID
  5
9
330
0
100
AcDbSymbolTable
 70
     2
  0
APPID
  5
12
330
9
100
AcDbSymbolTableRecord
100
AcDbRegAppTableRecord
  2
ACAD
 70
     0
  0
APPID
  5
3C
330
9
100
AcDbSymbolTableRecord
100
AcDbRegAppTableRecord
  2
ODA
 70
     0
  0
ENDTAB
  0
TABLE
  2
DIMSTYLE
  5
A
330
0
100
AcDbSymbolTable
 70
     1
100
AcDbDimStyleTable
  0
DIMSTYLE
105
27
102
{ACAD_REACTORS
330
24A
330
2C6
330
2DA
330
2EE
330
302
330
316
330
32A
330
33E
330
352
330
366
330
37A
102
}
330
A
100
AcDbSymbolTableRecord
100
AcDbDimStyleTableRecord
  2
Standard
 70
     0
340
11
  0
ENDTAB
  0
TABLE
  2
BLOCK_RECORD
  5
1
330
0
100
AcDbSymbolTable
 70
    26
  0
BLOCK_RECORD
  5
1F
330
1
100
AcDbSymbolTableRecord
100
AcDbBlockTableRecord
  2
*Model_Space
340
22
 70
     0
280
     1
281
     0
  0
BLOCK_RECORD
  5
1B
330
1
100
AcDbSymbolTableRecord
100
AcDbBlockTableRecord
  2
*Paper_Space
340
1E
 70
     0
280
     1
281
     0
  0
BLOCK_RECORD
  5
23
330
1
100
AcDbSymbolTableRecord
100
AcDbBlockTableRecord
  2
*Paper_Space0
340
26
 70
     0
280
     1
281
     0
  0
BLOCK_RECORD
  5
3E
330
1
100
AcDbSymbolTableRecord
100
AcDbBlockTableRecord
  2
_ORIGIN
340
0
 70
     0
280
     1
281
     0
  0
BLOCK_RECORD
  5
43
330
1
100
AcDbSymbolTableRecord
100
AcDbBlockTableRecord
  2
_DOTBLANK
340
0
 70
     0
280
     1
281
     0
  0
BLOCK_RECORD
  5
48
330
1
100
AcDbSymbolTableRecord
100
AcDbBlockTableRecord
  2
_DOT
340
0
 70
     0
280
     1
281
     0
  0
BLOCK_RECORD
  5
4D
330
1
100
AcDbSymbolTableRecord
100
AcDbBlockTableRecord
  2
_OPEN
340
0
 70
     0
280
     1
281
     0
  0
BLOCK_RECORD
  5
53
330
1
100
AcDbSymbolTableRecord
100
AcDbBlockTableRecord
  2
_CLOSED
340
0
 70
     0
280
     1
281
     0
  0
BLOCK_RECORD
  5
5A
330
1
100
AcDbSymbolTableRecord
100
AcDbBlockTableRecord
  2
_CLOSEDBLANK
340
0
 70
     0
280
     1
281
     0
  0
BLOCK_RECORD
  5
60
330
1
100
AcDbSymbolTableRecord
100
AcDbBlockTableRecord
  2
_BOXBLANK
340
0
 70
     0
280
     1
281
     0
  0
BLOCK_RECORD
  5
68
330
1
100
AcDbSymbolTableRecord
100
AcDbBlockTableRecord
  2
_BOXFILLED
340
0
 70
     0
280
     1
281
     0
  0
BLOCK_RECORD
  5
6D
330
1
100
AcDbSymbolTableRecord
100
AcDbBlockTableRecord
  2
_INTEGRAL
340
0
 70
     0
280
     1
281
     0
  0
BLOCK_RECORD
  5
72
330
1
100
AcDbSymbolTableRecord
100
AcDbBlockTableRecord
  2
_OBLIQUE
340
0
 70
     0
280
     1
281
     0
  0
BLOCK_RECORD
  5
76
330
1
100
AcDbSymbolTableRecord
100
AcDbBlockTableRecord
  2
_NONE
340
0
 70
     0
280
     1
281
     0
  0
BLOCK_RECORD
  5
11C
330
1
100
AcDbSymbolTableRecord
100
AcDbBlockTableRecord
  2
*G12
340
0
102
{BLKREFS
331
126
102
}
 70
     0
280
     1
281
     0
  0
BLOCK_RECORD
  5
12E
330
1
100
AcDbSymbolTableRecord
100
AcDbBlockTableRecord
  2
*G13
340
0
102
{BLKREFS
331
140
102
}
 70
     0
280
     1
281
     0
  0
BLOCK_RECORD
  5
241
330
1
100
AcDbSymbolTableRecord
100
AcDbBlockTableRecord
  2
Dim1
340
0
 70
     0
280
     1
281
     0
  0
BLOCK_RECORD
  5
2B3
330
1
100
AcDbSymbolTableRecord
100
AcDbBlockTableRecord
  2
Dim2
340
0
 70
     0
280
     1
281
     0
  0
BLOCK_RECORD
  5
2C7
330
1
100
AcDbSymbolTableRecord
100
AcDbBlockTableRecord
  2
Dim3
340
0
 70
     0
280
     1
281
     0
  0
BLOCK_RECORD
  5
2DB
330
1
100
AcDbSymbolTableRecord
100
AcDbBlockTableRecord
  2
Dim4
340
0
 70
     0
280
     1
281
     0
  0
BLOCK_RECORD
  5
2EF
330
1
100
AcDbSymbolTableRecord
100
AcDbBlockTableRecord
  2
Dim5
340
0
 70
     0
280
     1
281
     0
  0
BLOCK_RECORD
  5
303
330
1
100
AcDbSymbolTableRecord
100
AcDbBlockTableRecord
  2
Dim6
340
0
 70
     0
280
     1
281
     0
  0
BLOCK_RECORD
  5
317
330
1
100
AcDbSymbolTableRecord
100
AcDbBlockTableRecord
  2
Dim7
340
0
 70
     0
280
     1
281
     0
  0
BLOCK_RECORD
  5
32B
330
1
100
AcDbSymbolTableRecord
100
AcDbBlockTableRecord
  2
Dim8
340
0
 70
     0
280
     1
281
     0
  0
BLOCK_RECORD
  5
33F
330
1
100
AcDbSymbolTableRecord
100
AcDbBlockTableRecord
  2
Dim9
340
0
 70
     0
280
     1
281
     0
  0
BLOCK_RECORD
  5
353
330
1
100
AcDbSymbolTableRecord
100
AcDbBlockTableRecord
  2
Dim10
340
0
 70
     0
280
     1
281
     0
  0
BLOCK_RECORD
  5
367
330
1
100
AcDbSymbolTableRecord
100
AcDbBlockTableRecord
  2
Dim11
340
0
 70
     0
280
     1
281
     0
  0
BLOCK_RECORD
  5
4A0
330
1
100
AcDbSymbolTableRecord
100
AcDbBlockTableRecord
  2
*G25
340
0
102
{BLKREFS
331
4BA
102
}
 70
     0
280
     1
281
     0
  0
ENDTAB
  0
ENDSEC
  0
SECTION
  2
BLOCKS
  0
BLOCK
  5
20
330
1F
100
AcDbEntity
  8
0
100
AcDbBlockBegin
  2
*Model_Space
 70
     0
 71
     0
 10
0.0
 20
0.0
 30
0.0
  3
*Model_Space
  1

  0
ENDBLK
  5
21
330
1F
100
AcDbEntity
  8
0
100
AcDbBlockEnd
  0
BLOCK
  5
1C
330
1B
100
AcDbEntity
 67
     1
  8
0
100
AcDbBlockBegin
  2
*Paper_Space
 70
     0
 71
     0
 10
0.0
 20
0.0
 30
0.0
  3
*Paper_Space
  1

  0
ENDBLK
  5
1D
330
1B
100
AcDbEntity
 67
     1
  8
0
100
AcDbBlockEnd
  0
BLOCK
  5
24
330
23
100
AcDbEntity
  8
0
100
AcDbBlockBegin
  2
*Paper_Space0
 70
     0
 71
     0
 10
0.0
 20
0.0
 30
0.0
  3
*Paper_Space0
  1

  0
ENDBLK
  5
25
330
23
100
AcDbEntity
  8
0
100
AcDbBlockEnd
  0
BLOCK
  5
41
330
3E
100
AcDbEntity
  8
0
100
AcDbBlockBegin
  2
_ORIGIN
 70
     0
 71
     0
 10
0.0
 20
0.0
 30
0.0
  3
_ORIGIN
  1

  0
CIRCLE
  5
3F
330
3E
100
AcDbEntity
  8
0
100
AcDbCircle
 10
0.0
 20
0.0
 30
0.0
 40
0.5
  0
LINE
  5
40
330
3E
100
AcDbEntity
  8
0
100
AcDbLine
 10
0.0
 20
0.0
 30
0.0
 11
-1.0
 21
0.0
 31
0.0
  0
ENDBLK
  5
42
330
3E
100
AcDbEntity
  8
0
100
AcDbBlockEnd
  0
BLOCK
  5
46
330
43
100
AcDbEntity
  8
0
100
AcDbBlockBegin
  2
_DOTBLANK
 70
     0
 71
     0
 10
0.0
 20
0.0
 30
0.0
  3
_DOTBLANK
  1

  0
CIRCLE
  5
44
330
43
100
AcDbEntity
  8
0
100
AcDbCircle
 10
0.0
 20
0.0
 30
0.0
 40
0.5
  0
LINE
  5
45
330
43
100
AcDbEntity
  8
0
100
AcDbLine
 10
-0.5
 20
0.0
 30
0.0
 11
-1.0
 21
0.0
 31
0.0
  0
ENDBLK
  5
47
330
43
100
AcDbEntity
  8
0
100
AcDbBlockEnd
  0
BLOCK
  5
4B
330
48
100
AcDbEntity
  8
0
100
AcDbBlockBegin
  2
_DOT
 70
     0
 71
     0
 10
0.0
 20
0.0
 30
0.0
  3
_DOT
  1

  0
LWPOLYLINE
  5
49
330
48
100
AcDbEntity
  8
0
100
AcDbPolyline
 90
        2
 70
     1
 43
0.5
 10
-0.25
 20
0.0
 42
1.0
 10
0.25
 20
0.0
 42
1.0
  0
LINE
  5
4A
330
48
100
AcDbEntity
  8
0
100
AcDbLine
 10
-0.5
 20
0.0
 30
0.0
 11
-1.0
 21
0.0
 31
0.0
  0
ENDBLK
  5
4C
330
48
100
AcDbEntity
  8
0
100
AcDbBlockEnd
  0
BLOCK
  5
51
330
4D
100
AcDbEntity
  8
0
100
AcDbBlockBegin
  2
_OPEN
 70
     0
 71
     0
 10
0.0
 20
0.0
 30
0.0
  3
_OPEN
  1

  0
LINE
  5
4E
330
4D
100
AcDbEntity
  8
0
100
AcDbLine
 10
-1.0
 20
0.1666666666666667
 30
0.0
 11
0.0
 21
0.0
 31
0.0
  0
LINE
  5
4F
330
4D
100
AcDbEntity
  8
0
100
AcDbLine
 10
-1.0
 20
-0.1666666666666667
 30
0.0
 11
0.0
 21
0.0
 31
0.0
  0
LINE
  5
50
330
4D
100
AcDbEntity
  8
0
100
AcDbLine
 10
0.0
 20
0.0
 30
0.0
 11
-1.0
 21
0.0
 31
0.0
  0
ENDBLK
  5
52
330
4D
100
AcDbEntity
  8
0
100
AcDbBlockEnd
  0
BLOCK
  5
58
330
53
100
AcDbEntity
  8
0
100
AcDbBlockBegin
  2
_CLOSED
 70
     0
 71
     0
 10
0.0
 20
0.0
 30
0.0
  3
_CLOSED
  1

  0
LINE
  5
54
330
53
100
AcDbEntity
  8
0
100
AcDbLine
 10
-1.0
 20
0.1666666666666667
 30
0.0
 11
0.0
 21
0.0
 31
0.0
  0
LINE
  5
55
330
53
100
AcDbEntity
  8
0
100
AcDbLine
 10
0.0
 20
0.0
 30
0.0
 11
-1.0
 21
-0.1666666666666667
 31
0.0
  0
LINE
  5
56
330
53
100
AcDbEntity
  8
0
100
AcDbLine
 10
-1.0
 20
0.1666666666666667
 30
0.0
 11
-1.0
 21
-0.1666666666666667
 31
0.0
  0
LINE
  5
57
330
53
100
AcDbEntity
  8
0
100
AcDbLine
 10
0.0
 20
0.0
 30
0.0
 11
-1.0
 21
0.0
 31
0.0
  0
ENDBLK
  5
59
330
53
100
AcDbEntity
  8
0
100
AcDbBlockEnd
  0
BLOCK
  5
5E
330
5A
100
AcDbEntity
  8
0
100
AcDbBlockBegin
  2
_CLOSEDBLANK
 70
     0
 71
     0
 10
0.0
 20
0.0
 30
0.0
  3
_CLOSEDBLANK
  1

  0
LINE
  5
5B
330
5A
100
AcDbEntity
  8
0
100
AcDbLine
 10
-1.0
 20
0.1666666666666667
 30
0.0
 11
0.0
 21
0.0
 31
0.0
  0
LINE
  5
5C
330
5A
100
AcDbEntity
  8
0
100
AcDbLine
 10
0.0
 20
0.0
 30
0.0
 11
-1.0
 21
-0.1666666666666667
 31
0.0
  0
LINE
  5
5D
330
5A
100
AcDbEntity
  8
0
100
AcDbLine
 10
-1.0
 20
0.1666666666666667
 30
0.0
 11
-1.0
 21
-0.1666666666666667
 31
0.0
  0
ENDBLK
  5
5F
330
5A
100
AcDbEntity
  8
0
100
AcDbBlockEnd
  0
BLOCK
  5
66
330
60
100
AcDbEntity
  8
0
100
AcDbBlockBegin
  2
_BOXBLANK
 70
     0
 71
     0
 10
0.0
 20
0.0
 30
0.0
  3
_BOXBLANK
  1

  0
LINE
  5
61
330
60
100
AcDbEntity
  8
0
100
AcDbLine
 10
-0.5
 20
-0.5
 30
0.0
 11
0.5
 21
-0.5
 31
0.0
  0
LINE
  5
62
330
60
100
AcDbEntity
  8
0
100
AcDbLine
 10
0.5
 20
-0.5
 30
0.0
 11
0.5
 21
0.5
 31
0.0
  0
LINE
  5
63
330
60
100
AcDbEntity
  8
0
100
AcDbLine
 10
0.5
 20
0.5
 30
0.0
 11
-0.5
 21
0.5
 31
0.0
  0
LINE
  5
64
330
60
100
AcDbEntity
  8
0
100
AcDbLine
 10
-0.5
 20
0.5
 30
0.0
 11
-0.5
 21
-0.5
 31
0.0
  0
LINE
  5
65
330
60
100
AcDbEntity
  8
0
100
AcDbLine
 10
-0.5
 20
0.0
 30
0.0
 11
-1.0
 21
0.0
 31
0.0
  0
ENDBLK
  5
67
330
60
100
AcDbEntity
  8
0
100
AcDbBlockEnd
  0
BLOCK
  5
6B
330
68
100
AcDbEntity
  8
0
100
AcDbBlockBegin
  2
_BOXFILLED
 70
     0
 71
     0
 10
0.0
 20
0.0
 30
0.0
  3
_BOXFILLED
  1

  0
SOLID
  5
69
330
68
100
AcDbEntity
  8
0
100
AcDbTrace
 10
-0.5
 20
0.5
 30
0.0
 11
0.5
 21
0.5
 31
0.0
 12
-0.5
 22
-0.5
 32
0.0
 13
0.5
 23
-0.5
 33
0.0
  0
LINE
  5
6A
330
68
100
AcDbEntity
  8
0
100
AcDbLine
 10
-0.5
 20
0.0
 30
0.0
 11
-1.0
 21
0.0
 31
0.0
  0
ENDBLK
  5
6C
330
68
100
AcDbEntity
  8
0
100
AcDbBlockEnd
  0
BLOCK
  5
70
330
6D
100
AcDbEntity
  8
0
100
AcDbBlockBegin
  2
_INTEGRAL
 70
     0
 71
     0
 10
0.0
 20
0.0
 30
0.0
  3
_INTEGRAL
  1

  0
ARC
  5
6E
330
6D
100
AcDbEntity
  8
0
100
AcDbCircle
 10
0.444888
 20
-0.0913346
 30
0.0
 40
0.4541666
100
AcDbArc
 50
84.16951033439696
 51
265.6909581978302
  0
ARC
  5
6F
330
6D
100
AcDbEntity
  8
0
100
AcDbCircle
 10
-0.444888
 20
0.0913346
 30
0.0
 40
0.4541666
100
AcDbArc
 50
317.4098226892151
 51
138.9312705526484
  0
ENDBLK
  5
71
330
6D
100
AcDbEntity
  8
0
100
AcDbBlockEnd
  0
BLOCK
  5
74
330
72
100
AcDbEntity
  8
0
100
AcDbBlockBegin
  2
_OBLIQUE
 70
     0
 71
     0
 10
0.0
 20
0.0
 30
0.0
  3
_OBLIQUE
  1

  0
LINE
  5
73
330
72
100
AcDbEntity
  8
0
100
AcDbLine
 10
-0.5
 20
-0.5
 30
0.0
 11
0.5
 21
0.5
 31
0.0
  0
ENDBLK
  5
75
330
72
100
AcDbEntity
  8
0
100
AcDbBlockEnd
  0
BLOCK
  5
77
330
76
100
AcDbEntity
  8
0
100
AcDbBlockBegin
  2
_NONE
 70
     0
 71
     0
 10
0.0
 20
0.0
 30
0.0
  3
_NONE
  1

  0
ENDBLK
  5
78
330
76
100
AcDbEntity
  8
0
100
AcDbBlockEnd
  0
BLOCK
  5
11D
330
11C
100
AcDbEntity
  8
0
100
AcDbBlockBegin
  2
*G12
 70
     1
 71
     0
 10
0.0
 20
0.0
 30
0.0
  3
*G12
  1

  0
LINE
  5
11F
330
11C
100
AcDbEntity
  8
1
  6
Continuous
 62
     7
370
     9
100
AcDbLine
 10
240.1107103924139
 20
430.3361725147436
 30
0.0
 11
241.1283727433276
 21
431.3538348656573
 31
0.0
  0
LINE
  5
120
330
11C
100
AcDbEntity
  8
1
  6
Continuous
 62
     7
370
     9
100
AcDbLine
 10
236.7165978427184
 20
430.3361725147436
 30
0.0
 11
241.1283727433276
 21
434.7479474153527
 31
0.0
  0
LINE
  5
121
330
11C
100
AcDbEntity
  8
1
  6
Continuous
 62
     7
370
     9
100
AcDbLine
 10
233.7283727433276
 20
430.7420599650482
 30
0.0
 11
241.1283727433276
 21
438.1420599650482
 31
0.0
  0
LINE
  5
122
330
11C
100
AcDbEntity
  8
1
  6
Continuous
 62
     7
370
     9
100
AcDbLine
 10
233.7283727433276
 20
434.1361725147437
 30
0.0
 11
241.1283727433276
 21
441.5361725147437
 31
0.0
  0
LINE
  5
123
330
11C
100
AcDbEntity
  8
1
  6
Continuous
 62
     7
370
     9
100
AcDbLine
 10
233.7283727433276
 20
437.5302850644392
 30
0.0
 11
241.1283727433276
 21
444.9302850644391
 31
0.0
  0
LINE
  5
124
330
11C
100
AcDbEntity
  8
1
  6
Continuous
 62
     7
370
     9
100
AcDbLine
 10
233.7283727433276
 20
440.9243976141345
 30
0.0
 11
238.1401476439366
 21
445.3361725147436
 31
0.0
  0
LINE
  5
125
330
11C
100
AcDbEntity
  8
1
  6
Continuous
 62
     7
370
     9
100
AcDbLine
 10
233.7283727433276
 20
444.31851016383
 30
0.0
 11
234.7460350942412
 21
445.3361725147436
 31
0.0
  0
ENDBLK
  5
11E
330
11C
100
AcDbEntity
  8
0
100
AcDbBlockEnd
  0
BLOCK
  5
12F
330
12E
100
AcDbEntity
  8
0
100
AcDbBlockBegin
  2
*G13
 70
     1
 71
     0
 10
0.0
 20
0.0
 30
0.0
  3
*G13
  1

  0
LINE
  5
131
330
12E
100
AcDbEntity
  8
1
  6
Continuous
 62
     7
370
     9
100
AcDbLine
 10
239.0997084228279
 20
361.1612681780082
 30
0.0
 11
241.1283727433276
 21
363.1899324985079
 31
0.0
  0
LINE
  5
132
330
12E
100
AcDbEntity
  8
1
  6
Continuous
 62
     7
370
     9
100
AcDbLine
 10
235.7055958731324
 20
361.1612681780082
 30
0.0
 11
241.1283727433276
 21
366.5840450482033
 31
0.0
  0
LINE
  5
133
330
12E
100
AcDbEntity
  8
1
  6
Continuous
 62
     7
370
     9
100
AcDbLine
 10
233.7283727433276
 20
362.5781575978988
 30
0.0
 11
241.1283727433276
 21
369.9781575978988
 31
0.0
  0
LINE
  5
134
330
12E
100
AcDbEntity
  8
1
  6
Continuous
 62
     7
370
     9
100
AcDbLine
 10
233.7283727433276
 20
365.9722701475943
 30
0.0
 11
241.1283727433276
 21
373.3722701475943
 31
0.0
  0
LINE
  5
135
330
12E
100
AcDbEntity
  8
1
  6
Continuous
 62
     7
370
     9
100
AcDbLine
 10
233.7283727433276
 20
369.3663826972897
 30
0.0
 11
241.1283727433276
 21
376.7663826972897
 31
0.0
  0
LINE
  5
136
330
12E
100
AcDbEntity
  8
1
  6
Continuous
 62
     7
370
     9
100
AcDbLine
 10
233.7283727433276
 20
372.7604952469852
 30
0.0
 11
241.1283727433276
 21
380.1604952469851
 31
0.0
  0
LINE
  5
137
330
12E
100
AcDbEntity
  8
1
  6
Continuous
 62
     7
370
     9
100
AcDbLine
 10
233.7283727433276
 20
376.1546077966806
 30
0.0
 11
241.1283727433276
 21
383.5546077966806
 31
0.0
  0
LINE
  5
138
330
12E
100
AcDbEntity
  8
1
  6
Continuous
 62
     7
370
     9
100
AcDbLine
 10
233.7283727433276
 20
379.5487203463761
 30
0.0
 11
241.1283727433276
 21
386.948720346376
 31
0.0
  0
LINE
  5
139
330
12E
100
AcDbEntity
  8
1
  6
Continuous
 62
     7
370
     9
100
AcDbLine
 10
233.7283727433276
 20
382.9428328960715
 30
0.0
 11
241.1283727433276
 21
390.3428328960715
 31
0.0
  0
LINE
  5
13A
330
12E
100
AcDbEntity
  8
1
  6
Continuous
 62
     7
370
     9
100
AcDbLine
 10
233.7283727433276
 20
386.336945445767
 30
0.0
 11
241.1283727433276
 21
393.7369454457669
 31
0.0
  0
LINE
  5
13B
330
12E
100
AcDbEntity
  8
1
  6
Continuous
 62
     7
370
     9
100
AcDbLine
 10
233.7283727433276
 20
389.7310579954624
 30
0.0
 11
241.1283727433276
 21
397.1310579954624
 31
0.0
  0
LINE
  5
13C
330
12E
100
AcDbEntity
  8
1
  6
Continuous
 62
     7
370
     9
100
AcDbLine
 10
233.7283727433276
 20
393.1251705451578
 30
0.0
 11
241.1283727433276
 21
400.5251705451578
 31
0.0
  0
LINE
  5
13D
330
12E
100
AcDbEntity
  8
1
  6
Continuous
 62
     7
370
     9
100
AcDbLine
 10
233.7283727433276
 20
396.5192830948533
 30
0.0
 11
241.1283727433276
 21
403.9192830948533
 31
0.0
  0
LINE
  5
13E
330
12E
100
AcDbEntity
  8
1
  6
Continuous
 62
     7
370
     9
100
AcDbLine
 10
233.7283727433276
 20
399.9133956445488
 30
0.0
 11
239.1511496135225
 21
405.3361725147436
 31
0.0
  0
LINE
  5
13F
330
12E
100
AcDbEntity
  8
1
  6
Continuous
 62
     7
370
     9
100
AcDbLine
 10
233.7283727433276
 20
403.3075081942442
 30
0.0
 11
235.757037063827
 21
405.3361725147436
 31
0.0
  0
ENDBLK
  5
130
330
12E
100
AcDbEntity
  8
0
100
AcDbBlockEnd
  0
BLOCK
  5
242
330
241
100
AcDbEntity
  8
0
100
AcDbBlockBegin
  2
Dim1
 70
     0
 71
     0
 10
0.0
 20
0.0
 30
0.0
  3
Dim1
  1

  0
LINE
  5
244
330
241
100
AcDbEntity
  8
1
  6
Continuous
 62
     7
370
     9
100
AcDbLine
 10
240.6283727433276
 20
462.7498251476981
 30
0.0
 11
252.6283727433276
 21
462.7498251476981
 31
0.0
  0
LINE
  5
245
330
241
100
AcDbEntity
  8
1
  6
Continuous
 62
     7
370
     9
100
AcDbLine
 10
240.6283727433276
 20
462.7498251476981
 30
0.0
 11
240.6283727433276
 21
458.4285543576773
 31
0.0
  0
LINE
  5
246
330
241
100
AcDbEntity
  8
1
  6
Continuous
 62
     7
370
     9
100
AcDbLine
 10
252.6283727433276
 20
462.7498251476981
 30
0.0
 11
252.6283727433276
 21
457.0392612183842
 31
0.0
  0
CIRCLE
  5
247
330
241
100
AcDbEntity
  8
1
  6
Continuous
 62
     7
370
     9
100
AcDbCircle
 10
240.6283727433276
 20
462.7498251476981
 30
0.0
 40
0.8999999999999999
  0
CIRCLE
  5
248
330
241
100
AcDbEntity
  8
1
  6
Continuous
 62
     7
370
     9
100
AcDbCircle
 10
252.6283727433276
 20
462.7498251476981
 30
0.0
 40
0.8999999999999999
  0
MTEXT
  5
249
330
241
100
AcDbEntity
  8
1
  6
Continuous
 62
     7
370
     9
100
AcDbMText
 10
246.982755420254
 20
466.4998251476981
 30
0.0
 40
7.5
 41
0.0
 46
0.0
 71
     8
 72
     1
  1
12φ
 73
     1
 44
1.0
  0
ENDBLK
  5
243
330
241
100
AcDbEntity
  8
0
100
AcDbBlockEnd
  0
BLOCK
  5
2B4
330
2B3
100
AcDbEntity
  8
0
100
AcDbBlockBegin
  2
Dim2
 70
     0
 71
     0
 10
0.0
 20
0.0
 30
0.0
  3
Dim2
  1

  0
LINE
  5
2B6
330
2B3
100
AcDbEntity
  8
1
  6
Continuous
 62
     7
370
     9
100
AcDbLine
 10
107.4798076923065
 20
58.45394904323426
 30
0.0
 11
397.4798076923066
 21
58.45394904323426
 31
0.0
  0
LINE
  5
2B7
330
2B3
100
AcDbEntity
  8
1
  6
Continuous
 62
     7
370
     9
100
AcDbLine
 10
107.4798076923065
 20
58.45394904323426
 30
0.0
 11
107.4798076923066
 21
65.33617251474361
 31
0.0
  0
LINE
  5
2B8
330
2B3
100
AcDbEntity
  8
1
  6
Continuous
 62
     7
370
     9
100
AcDbLine
 10
397.4798076923066
 20
58.45394904323426
 30
0.0
 11
397.4798076923066
 21
61.33617251474361
 31
0.0
  0
LINE
  5
2B9
330
2B3
100
AcDbEntity
  8
1
  6
Continuous
 62
     7
370
     9
100
AcDbLine
 10
107.4798076923065
 20
58.45394904323426
 30
0.0
 11
110.3775851711737
 21
59.23040617854182
 31
0.0
  0
LINE
  5
2BA
330
2B3
100
AcDbEntity
  8
1
  6
Continuous
 62
     7
370
     9
100
AcDbLine
 10
107.4798076923065
 20
58.45394904323426
 30
0.0
 11
110.3775851711737
 21
57.6774919079267
 31
0.0
  0
LINE
  5
2BB
330
2B3
100
AcDbEntity
  8
1
  6
Continuous
 62
     7
370
     9
100
AcDbLine
 10
110.3775851711737
 20
59.23040617854182
 30
0.0
 11
110.3775851711737
 21
57.6774919079267
 31
0.0
  0
LINE
  5
2BC
330
2B3
100
AcDbEntity
  8
1
  6
Continuous
 62
     7
370
     9
100
AcDbLine
 10
108.2042520620233
 20
58.45394904323426
 30
0.0
 11
109.6531408014569
 21
58.84217761088804
 31
0.0
  0
LINE
  5
2BD
330
2B3
100
AcDbEntity
  8
1
  6
Continuous
 62
     7
370
     9
100
AcDbLine
 10
108.2042520620233
 20
58.45394904323426
 30
0.0
 11
109.6531408014569
 21
58.06572047558048
 31
0.0
  0
LINE
  5
2BE
330
2B3
100
AcDbEntity
  8
1
  6
Continuous
 62
     7
370
     9
100
AcDbLine
 10
109.6531408014569
 20
58.84217761088804
 30
0.0
 11
109.6531408014569
 21
58.06572047558048
 31
0.0
  0
LINE
  5
2BF
330
2B3
100
AcDbEntity
  8
1
  6
Continuous
 62
     7
370
     9
100
AcDbLine
 10
397.4798076923066
 20
58.45394904323426
 30
0.0
 11
394.5820302134393
 21
57.67749190792671
 31
0.0
  0
LINE
  5
2C0
330
2B3
100
AcDbEntity
  8
1
  6
Continuous
 62
     7
370
     9
100
AcDbLine
 10
397.4798076923066
 20
58.45394904323426
 30
0.0
 11
394.5820302134393
 21
59.23040617854183
 31
0.0
  0
LINE
  5
2C1
330
2B3
100
AcDbEntity
  8
1
  6
Continuous
 62
     7
370
     9
100
AcDbLine
 10
394.5820302134393
 20
57.67749190792671
 30
0.0
 11
394.5820302134393
 21
59.23040617854183
 31
0.0
  0
LINE
  5
2C2
330
2B3
100
AcDbEntity
  8
1
  6
Continuous
 62
     7
370
     9
100
AcDbLine
 10
396.7553633225897
 20
58.45394904323426
 30
0.0
 11
395.3064745831562
 21
58.06572047558048
 31
0.0
  0
LINE
  5
2C3
330
2B3
100
AcDbEntity
  8
1
  6
Continuous
 62
     7
370
     9
100
AcDbLine
 10
396.7553633225897
 20
58.45394904323426
 30
0.0
 11
395.3064745831562
 21
58.84217761088804
 31
0.0
  0
LINE
  5
2C4
330
2B3
100
AcDbEntity
  8
1
  6
Continuous
 62
     7
370
     9
100
AcDbLine
 10
395.3064745831562
 20
58.06572047558048
 30
0.0
 11
395.3064745831562
 21
58.84217761088804
 31
0.0
  0
MTEXT
  5
2C5
330
2B3
100
AcDbEntity
  8
1
  6
Continuous
 62
     7
370
     9
100
AcDbMText
 10
252.4798076923065
 20
63.70394904323423
 30
0.0
 40
10.5
 41
0.0
 46
0.0
 71
     8
 72
     1
  1
290
 73
     1
 44
1.0
  0
ENDBLK
  5
2B5
330
2B3
100
AcDbEntity
  8
0
100
AcDbBlockEnd
  0
BLOCK
  5
2C8
330
2C7
100
AcDbEntity
  8
0
100
AcDbBlockBegin
  2
Dim3
 70
     0
 71
     0
 10
0.0
 20
0.0
 30
0.0
  3
Dim3
  1

  0
LINE
  5
2CA
330
2C7
100
AcDbEntity
  8
1
  6
Continuous
 62
     7
370
     9
100
AcDbLine
 10
170.308379120878
 20
176.5554384533147
 30
0.0
 11
185.308379120878
 21
176.5554384533147
 31
0.0
  0
LINE
  5
2CB
330
2C7
100
AcDbEntity
  8
1
  6
Continuous
 62
     7
370
     9
100
AcDbLine
 10
170.308379120878
 20
176.5554384533147
 30
0.0
 11
170.308379120878
 21
173.7971224449985
 31
0.0
  0
LINE
  5
2CC
330
2C7
100
AcDbEntity
  8
1
  6
Continuous
 62
     7
370
     9
100
AcDbLine
 10
185.308379120878
 20
176.5554384533147
 30
0.0
 11
185.308379120878
 21
175.6495132973893
 31
0.0
  0
LINE
  5
2CD
330
2C7
100
AcDbEntity
  8
1
  6
Continuous
 62
     7
370
     9
100
AcDbLine
 10
170.308379120878
 20
176.5554384533147
 30
0.0
 11
167.4106016420108
 21
175.7789813180071
 31
0.0
  0
LINE
  5
2CE
330
2C7
100
AcDbEntity
  8
1
  6
Continuous
 62
     7
370
     9
100
AcDbLine
 10
170.308379120878
 20
176.5554384533147
 30
0.0
 11
167.4106016420108
 21
177.3318955886222
 31
0.0
  0
LINE
  5
2CF
330
2C7
100
AcDbEntity
  8
1
  6
Continuous
 62
     7
370
     9
100
AcDbLine
 10
167.4106016420108
 20
175.7789813180071
 30
0.0
 11
167.4106016420108
 21
177.3318955886222
 31
0.0
  0
LINE
  5
2D0
330
2C7
100
AcDbEntity
  8
1
  6
Continuous
 62
     7
370
     9
100
AcDbLine
 10
169.5839347511613
 20
176.5554384533147
 30
0.0
 11
168.1350460117276
 21
176.1672098856609
 31
0.0
  0
LINE
  5
2D1
330
2C7
100
AcDbEntity
  8
1
  6
Continuous
 62
     7
370
     9
100
AcDbLine
 10
169.5839347511613
 20
176.5554384533147
 30
0.0
 11
168.1350460117276
 21
176.9436670209684
 31
0.0
  0
LINE
  5
2D2
330
2C7
100
AcDbEntity
  8
1
  6
Continuous
 62
     7
370
     9
100
AcDbLine
 10
168.1350460117276
 20
176.1672098856609
 30
0.0
 11
168.1350460117276
 21
176.9436670209684
 31
0.0
  0
LINE
  5
2D3
330
2C7
100
AcDbEntity
  8
1
  6
Continuous
 62
     7
370
     9
100
AcDbLine
 10
185.308379120878
 20
176.5554384533147
 30
0.0
 11
188.2061565997452
 21
177.3318955886222
 31
0.0
  0
LINE
  5
2D4
330
2C7
100
AcDbEntity
  8
1
  6
Continuous
 62
     7
370
     9
100
AcDbLine
 10
185.308379120878
 20
176.5554384533147
 30
0.0
 11
188.2061565997452
 21
175.7789813180071
 31
0.0
  0
LINE
  5
2D5
330
2C7
100
AcDbEntity
  8
1
  6
Continuous
 62
     7
370
     9
100
AcDbLine
 10
188.2061565997452
 20
177.3318955886222
 30
0.0
 11
188.2061565997452
 21
175.7789813180071
 31
0.0
  0
LINE
  5
2D6
330
2C7
100
AcDbEntity
  8
1
  6
Continuous
 62
     7
370
     9
100
AcDbLine
 10
186.0328234905948
 20
176.5554384533147
 30
0.0
 11
187.4817122300284
 21
176.9436670209684
 31
0.0
  0
LINE
  5
2D7
330
2C7
100
AcDbEntity
  8
1
  6
Continuous
 62
     7
370
     9
100
AcDbLine
 10
186.0328234905948
 20
176.5554384533147
 30
0.0
 11
187.4817122300284
 21
176.1672098856609
 31
0.0
  0
LINE
  5
2D8
330
2C7
100
AcDbEntity
  8
1
  6
Continuous
 62
     7
370
     9
100
AcDbLine
 10
187.4817122300284
 20
176.9436670209684
 30
0.0
 11
187.4817122300284
 21
176.1672098856609
 31
0.0
  0
MTEXT
  5
2D9
330
2C7
100
AcDbEntity
  8
1
  6
Continuous
 62
     7
370
     9
100
AcDbMText
 10
177.808379120878
 20
181.8054384533146
 30
0.0
 40
10.5
 41
0.0
 46
0.0
 71
     8
 72
     1
  1
15
 73
     1
 44
1.0
  0
ENDBLK
  5
2C9
330
2C7
100
AcDbEntity
  8
0
100
AcDbBlockEnd
  0
BLOCK
  5
2DC
330
2DB
100
AcDbEntity
  8
0
100
AcDbBlockBegin
  2
Dim4
 70
     0
 71
     0
 10
0.0
 20
0.0
 30
0.0
  3
Dim4
  1

  0
LINE
  5
2DE
330
2DB
100
AcDbEntity
  8
1
  6
Continuous
 62
     7
370
     9
100
AcDbLine
 10
273.308379120878
 20
176.5554384533147
 30
0.0
 11
193.308379120878
 21
176.5554384533147
 31
0.0
  0
LINE
  5
2DF
330
2DB
100
AcDbEntity
  8
1
  6
Continuous
 62
     7
370
     9
100
AcDbLine
 10
273.308379120878
 20
176.5554384533147
 30
0.0
 11
273.308379120878
 21
175.5337388691147
 31
0.0
  0
LINE
  5
2E0
330
2DB
100
AcDbEntity
  8
1
  6
Continuous
 62
     7
370
     9
100
AcDbLine
 10
193.308379120878
 20
176.5554384533147
 30
0.0
 11
193.308379120878
 21
182.9433022786781
 31
0.0
  0
LINE
  5
2E1
330
2DB
100
AcDbEntity
  8
1
  6
Continuous
 62
     7
370
     9
100
AcDbLine
 10
273.308379120878
 20
176.5554384533147
 30
0.0
 11
270.4106016420108
 21
175.7789813180071
 31
0.0
  0
LINE
  5
2E2
330
2DB
100
AcDbEntity
  8
1
  6
Continuous
 62
     7
370
     9
100
AcDbLine
 10
273.308379120878
 20
176.5554384533147
 30
0.0
 11
270.4106016420108
 21
177.3318955886222
 31
0.0
  0
LINE
  5
2E3
330
2DB
100
AcDbEntity
  8
1
  6
Continuous
 62
     7
370
     9
100
AcDbLine
 10
270.4106016420108
 20
175.7789813180071
 30
0.0
 11
270.4106016420108
 21
177.3318955886222
 31
0.0
  0
LINE
  5
2E4
330
2DB
100
AcDbEntity
  8
1
  6
Continuous
 62
     7
370
     9
100
AcDbLine
 10
272.5839347511612
 20
176.5554384533147
 30
0.0
 11
271.1350460117276
 21
176.1672098856609
 31
0.0
  0
LINE
  5
2E5
330
2DB
100
AcDbEntity
  8
1
  6
Continuous
 62
     7
370
     9
100
AcDbLine
 10
272.5839347511612
 20
176.5554384533147
 30
0.0
 11
271.1350460117276
 21
176.9436670209684
 31
0.0
  0
LINE
  5
2E6
330
2DB
100
AcDbEntity
  8
1
  6
Continuous
 62
     7
370
     9
100
AcDbLine
 10
271.1350460117276
 20
176.1672098856609
 30
0.0
 11
271.1350460117276
 21
176.9436670209684
 31
0.0
  0
LINE
  5
2E7
330
2DB
100
AcDbEntity
  8
1
  6
Continuous
 62
     7
370
     9
100
AcDbLine
 10
193.308379120878
 20
176.5554384533147
 30
0.0
 11
196.2061565997452
 21
177.3318955886222
 31
0.0
  0
LINE
  5
2E8
330
2DB
100
AcDbEntity
  8
1
  6
Continuous
 62
     7
370
     9
100
AcDbLine
 10
193.308379120878
 20
176.5554384533147
 30
0.0
 11
196.2061565997452
 21
175.7789813180071
 31
0.0
  0
LINE
  5
2E9
330
2DB
100
AcDbEntity
  8
1
  6
Continuous
 62
     7
370
     9
100
AcDbLine
 10
196.2061565997452
 20
177.3318955886222
 30
0.0
 11
196.2061565997452
 21
175.7789813180071
 31
0.0
  0
LINE
  5
2EA
330
2DB
100
AcDbEntity
  8
1
  6
Continuous
 62
     7
370
     9
100
AcDbLine
 10
194.0328234905948
 20
176.5554384533147
 30
0.0
 11
195.4817122300284
 21
176.9436670209684
 31
0.0
  0
LINE
  5
2EB
330
2DB
100
AcDbEntity
  8
1
  6
Continuous
 62
     7
370
     9
100
AcDbLine
 10
194.0328234905948
 20
176.5554384533147
 30
0.0
 11
195.4817122300284
 21
176.1672098856609
 31
0.0
  0
LINE
  5
2EC
330
2DB
100
AcDbEntity
  8
1
  6
Continuous
 62
     7
370
     9
100
AcDbLine
 10
195.4817122300284
 20
176.9436670209684
 30
0.0
 11
195.4817122300284
 21
176.1672098856609
 31
0.0
  0
MTEXT
  5
2ED
330
2DB
100
AcDbEntity
  8
1
  6
Continuous
 62
     7
370
     9
100
AcDbMText
 10
233.308379120878
 20
181.8054384533146
 30
0.0
 40
10.5
 41
0.0
 46
0.0
 71
     8
 72
     1
  1
80
 73
     1
 44
1.0
  0
ENDBLK
  5
2DD
330
2DB
100
AcDbEntity
  8
0
100
AcDbBlockEnd
  0
BLOCK
  5
2F0
330
2EF
100
AcDbEntity
  8
0
100
AcDbBlockBegin
  2
Dim5
 70
     0
 71
     0
 10
0.0
 20
0.0
 30
0.0
  3
Dim5
  1

  0
LINE
  5
2F2
330
2EF
100
AcDbEntity
  8
1
  6
Continuous
 62
     7
370
     9
100
AcDbLine
 10
193.3083791208781
 20
176.5554384533147
 30
0.0
 11
185.3083791208781
 21
176.5554384533147
 31
0.0
  0
LINE
  5
2F3
330
2EF
100
AcDbEntity
  8
1
  6
Continuous
 62
     7
370
     9
100
AcDbLine
 10
193.3083791208781
 20
176.5554384533147
 30
0.0
 11
193.3083791208781
 21
176.1878448982208
 31
0.0
  0
LINE
  5
2F4
330
2EF
100
AcDbEntity
  8
1
  6
Continuous
 62
     7
370
     9
100
AcDbLine
 10
185.3083791208781
 20
176.5554384533147
 30
0.0
 11
185.3083791208781
 21
173.1777097630857
 31
0.0
  0
LINE
  5
2F5
330
2EF
100
AcDbEntity
  8
1
  6
Continuous
 62
     7
370
     9
100
AcDbLine
 10
193.3083791208781
 20
176.5554384533147
 30
0.0
 11
196.2061565997453
 21
177.3318955886222
 31
0.0
  0
LINE
  5
2F6
330
2EF
100
AcDbEntity
  8
1
  6
Continuous
 62
     7
370
     9
100
AcDbLine
 10
193.3083791208781
 20
176.5554384533147
 30
0.0
 11
196.2061565997453
 21
175.7789813180071
 31
0.0
  0
LINE
  5
2F7
330
2EF
100
AcDbEntity
  8
1
  6
Continuous
 62
     7
370
     9
100
AcDbLine
 10
196.2061565997453
 20
177.3318955886222
 30
0.0
 11
196.2061565997453
 21
175.7789813180071
 31
0.0
  0
LINE
  5
2F8
330
2EF
100
AcDbEntity
  8
1
  6
Continuous
 62
     7
370
     9
100
AcDbLine
 10
194.0328234905949
 20
176.5554384533147
 30
0.0
 11
195.4817122300285
 21
176.9436670209684
 31
0.0
  0
LINE
  5
2F9
330
2EF
100
AcDbEntity
  8
1
  6
Continuous
 62
     7
370
     9
100
AcDbLine
 10
194.0328234905949
 20
176.5554384533147
 30
0.0
 11
195.4817122300285
 21
176.1672098856609
 31
0.0
  0
LINE
  5
2FA
330
2EF
100
AcDbEntity
  8
1
  6
Continuous
 62
     7
370
     9
100
AcDbLine
 10
195.4817122300285
 20
176.9436670209684
 30
0.0
 11
195.4817122300285
 21
176.1672098856609
 31
0.0
  0
LINE
  5
2FB
330
2EF
100
AcDbEntity
  8
1
  6
Continuous
 62
     7
370
     9
100
AcDbLine
 10
185.3083791208781
 20
176.5554384533147
 30
0.0
 11
182.4106016420109
 21
175.7789813180071
 31
0.0
  0
LINE
  5
2FC
330
2EF
100
AcDbEntity
  8
1
  6
Continuous
 62
     7
370
     9
100
AcDbLine
 10
185.3083791208781
 20
176.5554384533147
 30
0.0
 11
182.4106016420109
 21
177.3318955886222
 31
0.0
  0
LINE
  5
2FD
330
2EF
100
AcDbEntity
  8
1
  6
Continuous
 62
     7
370
     9
100
AcDbLine
 10
182.4106016420109
 20
175.7789813180071
 30
0.0
 11
182.4106016420109
 21
177.3318955886222
 31
0.0
  0
LINE
  5
2FE
330
2EF
100
AcDbEntity
  8
1
  6
Continuous
 62
     7
370
     9
100
AcDbLine
 10
184.5839347511613
 20
176.5554384533147
 30
0.0
 11
183.1350460117277
 21
176.1672098856609
 31
0.0
  0
LINE
  5
2FF
330
2EF
100
AcDbEntity
  8
1
  6
Continuous
 62
     7
370
     9
100
AcDbLine
 10
184.5839347511613
 20
176.5554384533147
 30
0.0
 11
183.1350460117277
 21
176.9436670209684
 31
0.0
  0
LINE
  5
300
330
2EF
100
AcDbEntity
  8
1
  6
Continuous
 62
     7
370
     9
100
AcDbLine
 10
183.1350460117277
 20
176.1672098856609
 30
0.0
 11
183.1350460117277
 21
176.9436670209684
 31
0.0
  0
MTEXT
  5
301
330
2EF
100
AcDbEntity
  8
1
  6
Continuous
 62
     7
370
     9
100
AcDbMText
 10
189.3083791208781
 20
181.8054384533146
 30
0.0
 40
10.5
 41
0.0
 46
0.0
 71
     8
 72
     1
  1
8
 73
     1
 44
1.0
  0
ENDBLK
  5
2F1
330
2EF
100
AcDbEntity
  8
0
100
AcDbBlockEnd
  0
BLOCK
  5
304
330
303
100
AcDbEntity
  8
0
100
AcDbBlockBegin
  2
Dim6
 70
     0
 71
     0
 10
0.0
 20
0.0
 30
0.0
  3
Dim6
  1

  0
LINE
  5
306
330
303
100
AcDbEntity
  8
1
  6
Continuous
 62
     7
370
     9
100
AcDbLine
 10
170.308379120878
 20
176.5554384533147
 30
0.0
 11
122.308379120878
 21
176.5554384533147
 31
0.0
  0
LINE
  5
307
330
303
100
AcDbEntity
  8
1
  6
Continuous
 62
     7
370
     9
100
AcDbLine
 10
170.308379120878
 20
176.5554384533147
 30
0.0
 11
170.308379120878
 21
176.5757087235843
 31
0.0
  0
LINE
  5
308
330
303
100
AcDbEntity
  8
1
  6
Continuous
 62
     7
370
     9
100
AcDbLine
 10
122.308379120878
 20
176.5554384533147
 30
0.0
 11
122.308379120878
 21
175.41796444084
 31
0.0
  0
LINE
  5
309
330
303
100
AcDbEntity
  8
1
  6
Continuous
 62
     7
370
     9
100
AcDbLine
 10
170.308379120878
 20
176.5554384533147
 30
0.0
 11
167.4106016420108
 21
175.7789813180071
 31
0.0
  0
LINE
  5
30A
330
303
100
AcDbEntity
  8
1
  6
Continuous
 62
     7
370
     9
100
AcDbLine
 10
170.308379120878
 20
176.5554384533147
 30
0.0
 11
167.4106016420108
 21
177.3318955886222
 31
0.0
  0
LINE
  5
30B
330
303
100
AcDbEntity
  8
1
  6
Continuous
 62
     7
370
     9
100
AcDbLine
 10
167.4106016420108
 20
175.7789813180071
 30
0.0
 11
167.4106016420108
 21
177.3318955886222
 31
0.0
  0
LINE
  5
30C
330
303
100
AcDbEntity
  8
1
  6
Continuous
 62
     7
370
     9
100
AcDbLine
 10
169.5839347511613
 20
176.5554384533147
 30
0.0
 11
168.1350460117276
 21
176.1672098856609
 31
0.0
  0
LINE
  5
30D
330
303
100
AcDbEntity
  8
1
  6
Continuous
 62
     7
370
     9
100
AcDbLine
 10
169.5839347511613
 20
176.5554384533147
 30
0.0
 11
168.1350460117276
 21
176.9436670209684
 31
0.0
  0
LINE
  5
30E
330
303
100
AcDbEntity
  8
1
  6
Continuous
 62
     7
370
     9
100
AcDbLine
 10
168.1350460117276
 20
176.1672098856609
 30
0.0
 11
168.1350460117276
 21
176.9436670209684
 31
0.0
  0
LINE
  5
30F
330
303
100
AcDbEntity
  8
1
  6
Continuous
 62
     7
370
     9
100
AcDbLine
 10
122.308379120878
 20
176.5554384533147
 30
0.0
 11
125.2061565997452
 21
177.3318955886222
 31
0.0
  0
LINE
  5
310
330
303
100
AcDbEntity
  8
1
  6
Continuous
 62
     7
370
     9
100
AcDbLine
 10
122.308379120878
 20
176.5554384533147
 30
0.0
 11
125.2061565997452
 21
175.7789813180071
 31
0.0
  0
LINE
  5
311
330
303
100
AcDbEntity
  8
1
  6
Continuous
 62
     7
370
     9
100
AcDbLine
 10
125.2061565997452
 20
177.3318955886222
 30
0.0
 11
125.2061565997452
 21
175.7789813180071
 31
0.0
  0
LINE
  5
312
330
303
100
AcDbEntity
  8
1
  6
Continuous
 62
     7
370
     9
100
AcDbLine
 10
123.0328234905949
 20
176.5554384533147
 30
0.0
 11
124.4817122300284
 21
176.9436670209684
 31
0.0
  0
LINE
  5
313
330
303
100
AcDbEntity
  8
1
  6
Continuous
 62
     7
370
     9
100
AcDbLine
 10
123.0328234905949
 20
176.5554384533147
 30
0.0
 11
124.4817122300284
 21
176.1672098856609
 31
0.0
  0
LINE
  5
314
330
303
100
AcDbEntity
  8
1
  6
Continuous
 62
     7
370
     9
100
AcDbLine
 10
124.4817122300284
 20
176.9436670209684
 30
0.0
 11
124.4817122300284
 21
176.1672098856609
 31
0.0
  0
MTEXT
  5
315
330
303
100
AcDbEntity
  8
1
  6
Continuous
 62
     7
370
     9
100
AcDbMText
 10
146.308379120878
 20
181.8054384533146
 30
0.0
 40
10.5
 41
0.0
 46
0.0
 71
     8
 72
     1
  1
48
 73
     1
 44
1.0
  0
ENDBLK
  5
305
330
303
100
AcDbEntity
  8
0
100
AcDbBlockEnd
  0
BLOCK
  5
318
330
317
100
AcDbEntity
  8
0
100
AcDbBlockBegin
  2
Dim7
 70
     0
 71
     0
 10
0.0
 20
0.0
 30
0.0
  3
Dim7
  1

  0
LINE
  5
31A
330
317
100
AcDbEntity
  8
1
  6
Continuous
 62
     7
370
     9
100
AcDbLine
 10
192.3083791208782
 20
412.3879488483216
 30
0.0
 11
122.3083791208782
 21
412.3879488483216
 31
0.0
  0
LINE
  5
31B
330
317
100
AcDbEntity
  8
1
  6
Continuous
 62
     7
370
     9
100
AcDbLine
 10
192.3083791208782
 20
412.3879488483216
 30
0.0
 11
192.3083791208781
 21
373.3361725147436
 31
0.0
  0
LINE
  5
31C
330
317
100
AcDbEntity
  8
1
  6
Continuous
 62
     7
370
     9
100
AcDbLine
 10
122.3083791208782
 20
412.3879488483216
 30
0.0
 11
122.3083791208781
 21
373.3361725147437
 31
0.0
  0
LINE
  5
31D
330
317
100
AcDbEntity
  8
1
  6
Continuous
 62
     7
370
     9
100
AcDbLine
 10
192.3083791208782
 20
412.3879488483216
 30
0.0
 11
189.410601642011
 21
411.6114917130141
 31
0.0
  0
LINE
  5
31E
330
317
100
AcDbEntity
  8
1
  6
Continuous
 62
     7
370
     9
100
AcDbLine
 10
192.3083791208782
 20
412.3879488483216
 30
0.0
 11
189.410601642011
 21
413.1644059836292
 31
0.0
  0
LINE
  5
31F
330
317
100
AcDbEntity
  8
1
  6
Continuous
 62
     7
370
     9
100
AcDbLine
 10
189.410601642011
 20
411.6114917130141
 30
0.0
 11
189.410601642011
 21
413.1644059836292
 31
0.0
  0
LINE
  5
320
330
317
100
AcDbEntity
  8
1
  6
Continuous
 62
     7
370
     9
100
AcDbLine
 10
191.5839347511614
 20
412.3879488483216
 30
0.0
 11
190.1350460117278
 21
411.9997202806679
 31
0.0
  0
LINE
  5
321
330
317
100
AcDbEntity
  8
1
  6
Continuous
 62
     7
370
     9
100
AcDbLine
 10
191.5839347511614
 20
412.3879488483216
 30
0.0
 11
190.1350460117278
 21
412.7761774159754
 31
0.0
  0
LINE
  5
322
330
317
100
AcDbEntity
  8
1
  6
Continuous
 62
     7
370
     9
100
AcDbLine
 10
190.1350460117278
 20
411.9997202806679
 30
0.0
 11
190.1350460117278
 21
412.7761774159754
 31
0.0
  0
LINE
  5
323
330
317
100
AcDbEntity
  8
1
  6
Continuous
 62
     7
370
     9
100
AcDbLine
 10
122.3083791208782
 20
412.3879488483216
 30
0.0
 11
125.2061565997454
 21
413.1644059836292
 31
0.0
  0
LINE
  5
324
330
317
100
AcDbEntity
  8
1
  6
Continuous
 62
     7
370
     9
100
AcDbLine
 10
122.3083791208782
 20
412.3879488483216
 30
0.0
 11
125.2061565997454
 21
411.6114917130141
 31
0.0
  0
LINE
  5
325
330
317
100
AcDbEntity
  8
1
  6
Continuous
 62
     7
370
     9
100
AcDbLine
 10
125.2061565997454
 20
413.1644059836292
 30
0.0
 11
125.2061565997454
 21
411.6114917130141
 31
0.0
  0
LINE
  5
326
330
317
100
AcDbEntity
  8
1
  6
Continuous
 62
     7
370
     9
100
AcDbLine
 10
123.032823490595
 20
412.3879488483216
 30
0.0
 11
124.4817122300286
 21
412.7761774159754
 31
0.0
  0
LINE
  5
327
330
317
100
AcDbEntity
  8
1
  6
Continuous
 62
     7
370
     9
100
AcDbLine
 10
123.032823490595
 20
412.3879488483216
 30
0.0
 11
124.4817122300286
 21
411.9997202806679
 31
0.0
  0
LINE
  5
328
330
317
100
AcDbEntity
  8
1
  6
Continuous
 62
     7
370
     9
100
AcDbLine
 10
124.4817122300286
 20
412.7761774159754
 30
0.0
 11
124.4817122300286
 21
411.9997202806679
 31
0.0
  0
MTEXT
  5
329
330
317
100
AcDbEntity
  8
1
  6
Continuous
 62
     7
370
     9
100
AcDbMText
 10
157.3083791208781
 20
417.6379488483216
 30
0.0
 40
10.5
 41
0.0
 46
0.0
 71
     8
 72
     1
  1
70
 73
     1
 44
1.0
  0
ENDBLK
  5
319
330
317
100
AcDbEntity
  8
0
100
AcDbBlockEnd
  0
BLOCK
  5
32C
330
32B
100
AcDbEntity
  8
0
100
AcDbBlockBegin
  2
Dim8
 70
     0
 71
     0
 10
0.0
 20
0.0
 30
0.0
  3
Dim8
  1

  0
LINE
  5
32E
330
32B
100
AcDbEntity
  8
1
  6
Continuous
 62
     7
370
     9
100
AcDbLine
 10
420.2655906593383
 20
227.1653850394966
 30
0.0
 11
479.8655906593383
 21
227.1653850394966
 31
0.0
  0
LINE
  5
32F
330
32B
100
AcDbEntity
  8
1
  6
Continuous
 62
     7
370
     9
100
AcDbLine
 10
420.2655906593383
 20
227.1653850394966
 30
0.0
 11
420.2655906593387
 21
285.0439564680684
 31
0.0
  0
LINE
  5
330
330
32B
100
AcDbEntity
  8
1
  6
Continuous
 62
     7
370
     9
100
AcDbLine
 10
479.8655906593383
 20
227.1653850394966
 30
0.0
 11
479.8655906593388
 21
285.6938698565872
 31
0.0
  0
LINE
  5
331
330
32B
100
AcDbEntity
  8
1
  6
Continuous
 62
     7
370
     9
100
AcDbLine
 10
420.2655906593383
 20
227.1653850394966
 30
0.0
 11
423.1633681382055
 21
227.9418421748042
 31
0.0
  0
LINE
  5
332
330
32B
100
AcDbEntity
  8
1
  6
Continuous
 62
     7
370
     9
100
AcDbLine
 10
420.2655906593383
 20
227.1653850394966
 30
0.0
 11
423.1633681382055
 21
226.3889279041891
 31
0.0
  0
LINE
  5
333
330
32B
100
AcDbEntity
  8
1
  6
Continuous
 62
     7
370
     9
100
AcDbLine
 10
423.1633681382055
 20
227.9418421748042
 30
0.0
 11
423.1633681382055
 21
226.3889279041891
 31
0.0
  0
LINE
  5
334
330
32B
100
AcDbEntity
  8
1
  6
Continuous
 62
     7
370
     9
100
AcDbLine
 10
420.9900350290551
 20
227.1653850394966
 30
0.0
 11
422.4389237684887
 21
227.5536136071504
 31
0.0
  0
LINE
  5
335
330
32B
100
AcDbEntity
  8
1
  6
Continuous
 62
     7
370
     9
100
AcDbLine
 10
420.9900350290551
 20
227.1653850394966
 30
0.0
 11
422.4389237684887
 21
226.7771564718429
 31
0.0
  0
LINE
  5
336
330
32B
100
AcDbEntity
  8
1
  6
Continuous
 62
     7
370
     9
100
AcDbLine
 10
422.4389237684887
 20
227.5536136071504
 30
0.0
 11
422.4389237684887
 21
226.7771564718429
 31
0.0
  0
LINE
  5
337
330
32B
100
AcDbEntity
  8
1
  6
Continuous
 62
     7
370
     9
100
AcDbLine
 10
479.8655906593383
 20
227.1653850394966
 30
0.0
 11
476.9678131804711
 21
226.3889279041891
 31
0.0
  0
LINE
  5
338
330
32B
100
AcDbEntity
  8
1
  6
Continuous
 62
     7
370
     9
100
AcDbLine
 10
479.8655906593383
 20
227.1653850394966
 30
0.0
 11
476.9678131804711
 21
227.9418421748042
 31
0.0
  0
LINE
  5
339
330
32B
100
AcDbEntity
  8
1
  6
Continuous
 62
     7
370
     9
100
AcDbLine
 10
476.9678131804711
 20
226.3889279041891
 30
0.0
 11
476.9678131804711
 21
227.9418421748042
 31
0.0
  0
LINE
  5
33A
330
32B
100
AcDbEntity
  8
1
  6
Continuous
 62
     7
370
     9
100
AcDbLine
 10
479.1411462896215
 20
227.1653850394966
 30
0.0
 11
477.6922575501879
 21
226.7771564718429
 31
0.0
  0
LINE
  5
33B
330
32B
100
AcDbEntity
  8
1
  6
Continuous
 62
     7
370
     9
100
AcDbLine
 10
479.1411462896215
 20
227.1653850394966
 30
0.0
 11
477.6922575501879
 21
227.5536136071504
 31
0.0
  0
LINE
  5
33C
330
32B
100
AcDbEntity
  8
1
  6
Continuous
 62
     7
370
     9
100
AcDbLine
 10
477.6922575501879
 20
226.7771564718429
 30
0.0
 11
477.6922575501879
 21
227.5536136071504
 31
0.0
  0
MTEXT
  5
33D
330
32B
100
AcDbEntity
  8
1
  6
Continuous
 62
     7
370
     9
100
AcDbMText
 10
450.0655906593388
 20
232.4153850394966
 30
0.0
 40
10.5
 41
0.0
 46
0.0
 71
     8
 72
     1
  1
29.8φ
 73
     1
 44
1.0
  0
ENDBLK
  5
32D
330
32B
100
AcDbEntity
  8
0
100
AcDbBlockEnd
  0
BLOCK
  5
340
330
33F
100
AcDbEntity
  8
0
100
AcDbBlockBegin
  2
Dim9
 70
     0
 71
     0
 10
0.0
 20
0.0
 30
0.0
  3
Dim9
  1

  0
LINE
  5
342
330
33F
100
AcDbEntity
  8
1
  6
Continuous
 62
     7
370
     9
100
AcDbLine
 10
610.6455921310817
 20
62.28607774645267
 30
0.0
 11
785.645592131081
 21
62.28607774645267
 31
0.0
  0
LINE
  5
343
330
33F
100
AcDbEntity
  8
1
  6
Continuous
 62
     7
370
     9
100
AcDbLine
 10
610.6455921310817
 20
62.28607774645267
 30
0.0
 11
610.6455921310821
 21
112.9150947086246
 31
0.0
  0
LINE
  5
344
330
33F
100
AcDbEntity
  8
1
  6
Continuous
 62
     7
370
     9
100
AcDbLine
 10
785.645592131081
 20
62.28607774645267
 30
0.0
 11
785.6455921310815
 21
112.9150947086246
 31
0.0
  0
LINE
  5
345
330
33F
100
AcDbEntity
  8
1
  6
Continuous
 62
     7
370
     9
100
AcDbLine
 10
610.6455921310817
 20
62.28607774645267
 30
0.0
 11
613.5433696099489
 21
63.06253488176023
 31
0.0
  0
LINE
  5
346
330
33F
100
AcDbEntity
  8
1
  6
Continuous
 62
     7
370
     9
100
AcDbLine
 10
610.6455921310817
 20
62.28607774645267
 30
0.0
 11
613.5433696099489
 21
61.50962061114511
 31
0.0
  0
LINE
  5
347
330
33F
100
AcDbEntity
  8
1
  6
Continuous
 62
     7
370
     9
100
AcDbLine
 10
613.5433696099489
 20
63.06253488176023
 30
0.0
 11
613.5433696099489
 21
61.50962061114511
 31
0.0
  0
LINE
  5
348
330
33F
100
AcDbEntity
  8
1
  6
Continuous
 62
     7
370
     9
100
AcDbLine
 10
611.3700365007985
 20
62.28607774645267
 30
0.0
 11
612.8189252402321
 21
62.67430631410645
 31
0.0
  0
LINE
  5
349
330
33F
100
AcDbEntity
  8
1
  6
Continuous
 62
     7
370
     9
100
AcDbLine
 10
611.3700365007985
 20
62.28607774645267
 30
0.0
 11
612.8189252402321
 21
61.89784917879889
 31
0.0
  0
LINE
  5
34A
330
33F
100
AcDbEntity
  8
1
  6
Continuous
 62
     7
370
     9
100
AcDbLine
 10
612.8189252402321
 20
62.67430631410645
 30
0.0
 11
612.8189252402321
 21
61.89784917879889
 31
0.0
  0
LINE
  5
34B
330
33F
100
AcDbEntity
  8
1
  6
Continuous
 62
     7
370
     9
100
AcDbLine
 10
785.645592131081
 20
62.28607774645267
 30
0.0
 11
782.7478146522138
 21
61.50962061114512
 31
0.0
  0
LINE
  5
34C
330
33F
100
AcDbEntity
  8
1
  6
Continuous
 62
     7
370
     9
100
AcDbLine
 10
785.645592131081
 20
62.28607774645267
 30
0.0
 11
782.7478146522138
 21
63.06253488176024
 31
0.0
  0
LINE
  5
34D
330
33F
100
AcDbEntity
  8
1
  6
Continuous
 62
     7
370
     9
100
AcDbLine
 10
782.7478146522138
 20
61.50962061114512
 30
0.0
 11
782.7478146522138
 21
63.06253488176024
 31
0.0
  0
LINE
  5
34E
330
33F
100
AcDbEntity
  8
1
  6
Continuous
 62
     7
370
     9
100
AcDbLine
 10
784.9211477613642
 20
62.28607774645267
 30
0.0
 11
783.4722590219305
 21
61.89784917879889
 31
0.0
  0
LINE
  5
34F
330
33F
100
AcDbEntity
  8
1
  6
Continuous
 62
     7
370
     9
100
AcDbLine
 10
784.9211477613642
 20
62.28607774645267
 30
0.0
 11
783.4722590219305
 21
62.67430631410645
 31
0.0
  0
LINE
  5
350
330
33F
100
AcDbEntity
  8
1
  6
Continuous
 62
     7
370
     9
100
AcDbLine
 10
783.4722590219305
 20
61.89784917879889
 30
0.0
 11
783.4722590219305
 21
62.67430631410645
 31
0.0
  0
MTEXT
  5
351
330
33F
100
AcDbEntity
  8
1
  6
Continuous
 62
     7
370
     9
100
AcDbMText
 10
698.1455921310813
 20
67.53607774645263
 30
0.0
 40
10.5
 41
0.0
 46
0.0
 71
     8
 72
     1
  1
175
 73
     1
 44
1.0
  0
ENDBLK
  5
341
330
33F
100
AcDbEntity
  8
0
100
AcDbBlockEnd
  0
BLOCK
  5
354
330
353
100
AcDbEntity
  8
0
100
AcDbBlockBegin
  2
Dim10
 70
     0
 71
     0
 10
0.0
 20
0.0
 30
0.0
  3
Dim10
  1

  0
LINE
  5
356
330
353
100
AcDbEntity
  8
1
  6
Continuous
 62
     7
370
     9
100
AcDbLine
 10
648.1455921310813
 20
192.6480839834583
 30
0.0
 11
698.1455921310813
 21
192.6480839834583
 31
0.0
  0
LINE
  5
357
330
353
100
AcDbEntity
  8
1
  6
Continuous
 62
     7
370
     9
100
AcDbLine
 10
648.1455921310813
 20
192.6480839834583
 30
0.0
 11
648.1455921310818
 21
236.9150947086246
 31
0.0
  0
LINE
  5
358
330
353
100
AcDbEntity
  8
1
  6
Continuous
 62
     7
370
     9
100
AcDbLine
 10
698.1455921310813
 20
192.6480839834583
 30
0.0
 11
698.1455921310818
 21
236.9150947086246
 31
0.0
  0
LINE
  5
359
330
353
100
AcDbEntity
  8
1
  6
Continuous
 62
     7
370
     9
100
AcDbLine
 10
648.1455921310813
 20
192.6480839834583
 30
0.0
 11
651.0433696099485
 21
193.4245411187658
 31
0.0
  0
LINE
  5
35A
330
353
100
AcDbEntity
  8
1
  6
Continuous
 62
     7
370
     9
100
AcDbLine
 10
648.1455921310813
 20
192.6480839834583
 30
0.0
 11
651.0433696099485
 21
191.8716268481507
 31
0.0
  0
LINE
  5
35B
330
353
100
AcDbEntity
  8
1
  6
Continuous
 62
     7
370
     9
100
AcDbLine
 10
651.0433696099485
 20
193.4245411187658
 30
0.0
 11
651.0433696099485
 21
191.8716268481507
 31
0.0
  0
LINE
  5
35C
330
353
100
AcDbEntity
  8
1
  6
Continuous
 62
     7
370
     9
100
AcDbLine
 10
648.8700365007982
 20
192.6480839834583
 30
0.0
 11
650.3189252402318
 21
193.036312551112
 31
0.0
  0
LINE
  5
35D
330
353
100
AcDbEntity
  8
1
  6
Continuous
 62
     7
370
     9
100
AcDbLine
 10
648.8700365007982
 20
192.6480839834583
 30
0.0
 11
650.3189252402318
 21
192.2598554158045
 31
0.0
  0
LINE
  5
35E
330
353
100
AcDbEntity
  8
1
  6
Continuous
 62
     7
370
     9
100
AcDbLine
 10
650.3189252402318
 20
193.036312551112
 30
0.0
 11
650.3189252402318
 21
192.2598554158045
 31
0.0
  0
LINE
  5
35F
330
353
100
AcDbEntity
  8
1
  6
Continuous
 62
     7
370
     9
100
AcDbLine
 10
698.1455921310813
 20
192.6480839834583
 30
0.0
 11
695.2478146522142
 21
191.8716268481507
 31
0.0
  0
LINE
  5
360
330
353
100
AcDbEntity
  8
1
  6
Continuous
 62
     7
370
     9
100
AcDbLine
 10
698.1455921310813
 20
192.6480839834583
 30
0.0
 11
695.2478146522142
 21
193.4245411187658
 31
0.0
  0
LINE
  5
361
330
353
100
AcDbEntity
  8
1
  6
Continuous
 62
     7
370
     9
100
AcDbLine
 10
695.2478146522142
 20
191.8716268481507
 30
0.0
 11
695.2478146522142
 21
193.4245411187658
 31
0.0
  0
LINE
  5
362
330
353
100
AcDbEntity
  8
1
  6
Continuous
 62
     7
370
     9
100
AcDbLine
 10
697.4211477613645
 20
192.6480839834583
 30
0.0
 11
695.9722590219309
 21
192.2598554158045
 31
0.0
  0
LINE
  5
363
330
353
100
AcDbEntity
  8
1
  6
Continuous
 62
     7
370
     9
100
AcDbLine
 10
697.4211477613645
 20
192.6480839834583
 30
0.0
 11
695.9722590219309
 21
193.036312551112
 31
0.0
  0
LINE
  5
364
330
353
100
AcDbEntity
  8
1
  6
Continuous
 62
     7
370
     9
100
AcDbLine
 10
695.9722590219309
 20
192.2598554158045
 30
0.0
 11
695.9722590219309
 21
193.036312551112
 31
0.0
  0
MTEXT
  5
365
330
353
100
AcDbEntity
  8
1
  6
Continuous
 62
     7
370
     9
100
AcDbMText
 10
673.1455921310813
 20
197.8980839834582
 30
0.0
 40
10.5
 41
0.0
 46
0.0
 71
     8
 72
     1
  1
50
 73
     1
 44
1.0
  0
ENDBLK
  5
355
330
353
100
AcDbEntity
  8
0
100
AcDbBlockEnd
  0
BLOCK
  5
368
330
367
100
AcDbEntity
  8
0
100
AcDbBlockBegin
  2
Dim11
 70
     0
 71
     0
 10
0.0
 20
0.0
 30
0.0
  3
Dim11
  1

  0
LINE
  5
36A
330
367
100
AcDbEntity
  8
1
  6
Continuous
 62
     7
370
     9
100
AcDbLine
 10
698.1455921310813
 20
192.6480839834583
 30
0.0
 11
748.1455921310815
 21
192.6480839834583
 31
0.0
  0
LINE
  5
36B
330
367
100
AcDbEntity
  8
1
  6
Continuous
 62
     7
370
     9
100
AcDbLine
 10
698.1455921310813
 20
192.6480839834583
 30
0.0
 11
698.1455921310818
 21
236.9150947086246
 31
0.0
  0
LINE
  5
36C
330
367
100
AcDbEntity
  8
1
  6
Continuous
 62
     7
370
     9
100
AcDbLine
 10
748.1455921310815
 20
192.6480839834583
 30
0.0
 11
748.1455921310819
 21
236.9150947086246
 31
0.0
  0
LINE
  5
36D
330
367
100
AcDbEntity
  8
1
  6
Continuous
 62
     7
370
     9
100
AcDbLine
 10
698.1455921310813
 20
192.6480839834583
 30
0.0
 11
701.0433696099485
 21
193.4245411187658
 31
0.0
  0
LINE
  5
36E
330
367
100
AcDbEntity
  8
1
  6
Continuous
 62
     7
370
     9
100
AcDbLine
 10
698.1455921310813
 20
192.6480839834583
 30
0.0
 11
701.0433696099485
 21
191.8716268481507
 31
0.0
  0
LINE
  5
36F
330
367
100
AcDbEntity
  8
1
  6
Continuous
 62
     7
370
     9
100
AcDbLine
 10
701.0433696099485
 20
193.4245411187658
 30
0.0
 11
701.0433696099485
 21
191.8716268481507
 31
0.0
  0
LINE
  5
370
330
367
100
AcDbEntity
  8
1
  6
Continuous
 62
     7
370
     9
100
AcDbLine
 10
698.8700365007982
 20
192.6480839834583
 30
0.0
 11
700.3189252402318
 21
193.036312551112
 31
0.0
  0
LINE
  5
371
330
367
100
AcDbEntity
  8
1
  6
Continuous
 62
     7
370
     9
100
AcDbLine
 10
698.8700365007982
 20
192.6480839834583
 30
0.0
 11
700.3189252402318
 21
192.2598554158045
 31
0.0
  0
LINE
  5
372
330
367
100
AcDbEntity
  8
1
  6
Continuous
 62
     7
370
     9
100
AcDbLine
 10
700.3189252402318
 20
193.036312551112
 30
0.0
 11
700.3189252402318
 21
192.2598554158045
 31
0.0
  0
LINE
  5
373
330
367
100
AcDbEntity
  8
1
  6
Continuous
 62
     7
370
     9
100
AcDbLine
 10
748.1455921310815
 20
192.6480839834583
 30
0.0
 11
745.2478146522143
 21
191.8716268481507
 31
0.0
  0
LINE
  5
374
330
367
100
AcDbEntity
  8
1
  6
Continuous
 62
     7
370
     9
100
AcDbLine
 10
748.1455921310815
 20
192.6480839834583
 30
0.0
 11
745.2478146522143
 21
193.4245411187658
 31
0.0
  0
LINE
  5
375
330
367
100
AcDbEntity
  8
1
  6
Continuous
 62
     7
370
     9
100
AcDbLine
 10
745.2478146522143
 20
191.8716268481507
 30
0.0
 11
745.2478146522143
 21
193.4245411187658
 31
0.0
  0
LINE
  5
376
330
367
100
AcDbEntity
  8
1
  6
Continuous
 62
     7
370
     9
100
AcDbLine
 10
747.4211477613646
 20
192.6480839834583
 30
0.0
 11
745.972259021931
 21
192.2598554158045
 31
0.0
  0
LINE
  5
377
330
367
100
AcDbEntity
  8
1
  6
Continuous
 62
     7
370
     9
100
AcDbLine
 10
747.4211477613646
 20
192.6480839834583
 30
0.0
 11
745.972259021931
 21
193.036312551112
 31
0.0
  0
LINE
  5
378
330
367
100
AcDbEntity
  8
1
  6
Continuous
 62
     7
370
     9
100
AcDbLine
 10
745.972259021931
 20
192.2598554158045
 30
0.0
 11
745.972259021931
 21
193.036312551112
 31
0.0
  0
MTEXT
  5
379
330
367
100
AcDbEntity
  8
1
  6
Continuous
 62
     7
370
     9
100
AcDbMText
 10
723.1455921310815
 20
197.8980839834582
 30
0.0
 40
10.5
 41
0.0
 46
0.0
 71
     8
 72
     1
  1
50
 73
     1
 44
1.0
  0
ENDBLK
  5
369
330
367
100
AcDbEntity
  8
0
100
AcDbBlockEnd
  0
BLOCK
  5
4A1
330
4A0
100
AcDbEntity
  8
0
100
AcDbBlockBegin
  2
*G25
 70
     1
 71
     0
 10
0.0
 20
0.0
 30
0.0
  3
*G25
  1

  0
LINE
  5
4A3
330
4A0
100
AcDbEntity
  8
1
  6
Continuous
 62
     7
370
     9
100
AcDbLine
 10
713.4774266791902
 20
323.9150947086246
 30
0.0
 11
714.3236537502453
 21
324.7613217796797
 31
0.0
  0
LINE
  5
4A4
330
4A0
100
AcDbEntity
  8
1
  6
Continuous
 62
     7
370
     9
100
AcDbLine
 10
709.2347859920709
 20
323.9150947086246
 30
0.0
 11
711.9527167780784
 21
326.6330254946321
 31
0.0
  0
LINE
  5
4A5
330
4A0
100
AcDbEntity
  8
1
  6
Continuous
 62
     7
370
     9
100
AcDbLine
 10
717.2347859920709
 20
331.9150947086246
 30
0.0
 11
719.3955921310824
 21
334.0759008476361
 31
0.0
  0
LINE
  5
4A6
330
4A0
100
AcDbEntity
  8
1
  6
Continuous
 62
     7
370
     9
100
AcDbLine
 10
704.9921453049516
 20
323.9150947086246
 30
0.0
 11
709.5817798059114
 21
328.5047292095845
 31
0.0
  0
LINE
  5
4A7
330
4A0
100
AcDbEntity
  8
1
  6
Continuous
 62
     7
370
     9
100
AcDbLine
 10
712.9921453049516
 20
331.9150947086246
 30
0.0
 11
719.3955921310824
 21
338.3185415347554
 31
0.0
  0
LINE
  5
4A8
330
4A0
100
AcDbEntity
  8
1
  6
Continuous
 62
     7
370
     9
100
AcDbLine
 10
700.7495046178323
 20
323.9150947086246
 30
0.0
 11
707.2108428337446
 21
330.376432924537
 31
0.0
  0
LINE
  5
4A9
330
4A0
100
AcDbEntity
  8
1
  6
Continuous
 62
     7
370
     9
100
AcDbLine
 10
708.7495046178323
 20
331.9150947086246
 30
0.0
 11
719.3955921310824
 21
342.5611822218747
 31
0.0
  0
LINE
  5
4AA
330
4A0
100
AcDbEntity
  8
1
  6
Continuous
 62
     7
370
     9
100
AcDbLine
 10
696.5068639307129
 20
323.9150947086246
 30
0.0
 11
719.3955921310824
 21
346.8038229089941
 31
0.0
  0
LINE
  5
4AB
330
4A0
100
AcDbEntity
  8
1
  6
Continuous
 62
     7
370
     9
100
AcDbLine
 10
692.2642232435936
 20
323.9150947086246
 30
0.0
 11
719.3955921310824
 21
351.0464635961134
 31
0.0
  0
LINE
  5
4AC
330
4A0
100
AcDbEntity
  8
1
  6
Continuous
 62
     7
370
     9
100
AcDbLine
 10
688.0215825564743
 20
323.9150947086246
 30
0.0
 11
719.3955921310824
 21
355.2891042832327
 31
0.0
  0
LINE
  5
4AD
330
4A0
100
AcDbEntity
  8
1
  6
Continuous
 62
     7
370
     9
100
AcDbLine
 10
683.778941869355
 20
323.9150947086246
 30
0.0
 11
719.3955921310824
 21
359.531744970352
 31
0.0
  0
LINE
  5
4AE
330
4A0
100
AcDbEntity
  8
1
  6
Continuous
 62
     7
370
     9
100
AcDbLine
 10
687.5363011822357
 20
331.9150947086246
 30
0.0
 11
719.3955921310824
 21
363.7743856574713
 31
0.0
  0
LINE
  5
4AF
330
4A0
100
AcDbEntity
  8
1
  6
Continuous
 62
     7
370
     9
100
AcDbLine
 10
683.2936604951163
 20
331.9150947086246
 30
0.0
 11
719.3955921310824
 21
368.0170263445906
 31
0.0
  0
LINE
  5
4B0
330
4A0
100
AcDbEntity
  8
1
  6
Continuous
 62
     7
370
     9
100
AcDbLine
 10
679.051019807997
 20
331.9150947086246
 30
0.0
 11
718.8367679491586
 21
371.7008428497862
 31
0.0
  0
LINE
  5
4B1
330
4A0
100
AcDbEntity
  8
1
  6
Continuous
 62
     7
370
     9
100
AcDbLine
 10
676.221166110674
 20
333.3278816984209
 30
0.0
 11
716.5766096956178
 21
373.6833252833647
 31
0.0
  0
LINE
  5
4B2
330
4A0
100
AcDbEntity
  8
1
  6
Continuous
 62
     7
370
     9
100
AcDbLine
 10
676.221166110674
 20
337.5705223855402
 30
0.0
 11
714.316451442077
 21
375.6658077169432
 31
0.0
  0
LINE
  5
4B3
330
4A0
100
AcDbEntity
  8
1
  6
Continuous
 62
     7
370
     9
100
AcDbLine
 10
676.221166110674
 20
341.8131630726596
 30
0.0
 11
712.0562931885362
 21
377.6482901505217
 31
0.0
  0
LINE
  5
4B4
330
4A0
100
AcDbEntity
  8
1
  6
Continuous
 62
     7
370
     9
100
AcDbLine
 10
676.221166110674
 20
346.0558037597789
 30
0.0
 11
709.7961349349954
 21
379.6307725841003
 31
0.0
  0
LINE
  5
4B5
330
4A0
100
AcDbEntity
  8
1
  6
Continuous
 62
     7
370
     9
100
AcDbLine
 10
676.221166110674
 20
350.2984444468982
 30
0.0
 11
707.5359766814546
 21
381.6132550176789
 31
0.0
  0
LINE
  5
4B6
330
4A0
100
AcDbEntity
  8
1
  6
Continuous
 62
     7
370
     9
100
AcDbLine
 10
676.221166110674
 20
354.5410851340175
 30
0.0
 11
705.2592958750728
 21
383.5792148984164
 31
0.0
  0
LINE
  5
4B7
330
4A0
100
AcDbEntity
  8
1
  6
Continuous
 62
     7
370
     9
100
AcDbLine
 10
676.221166110674
 20
358.7837258211368
 30
0.0
 11
702.5248975197178
 21
385.0874572301807
 31
0.0
  0
LINE
  5
4B8
330
4A0
100
AcDbEntity
  8
1
  6
Continuous
 62
     7
370
     9
100
AcDbLine
 10
676.221166110674
 20
363.0263665082562
 30
0.0
 11
699.0739315061028
 21
385.8791319036849
 31
0.0
  0
LINE
  5
4B9
330
4A0
100
AcDbEntity
  8
1
  6
Continuous
 62
     7
370
     9
100
AcDbLine
 10
676.221166110674
 20
367.2690071953755
 30
0.0
 11
694.2000786702321
 21
385.2479197549335
 31
0.0
  0
ENDBLK
  5
4A2
330
4A0
100
AcDbEntity
  8
0
100
AcDbBlockEnd
  0
ENDSEC
  0
SECTION
  2
ENTITIES
  0
LINE
  5
96
330
1F
100
AcDbEntity
  8
1
  6
Continuous
 62
     7
370
     9
100
AcDbLine
 10
110.3083791208781
 20
105.3361725147436
 30
0.0
 11
394.308379120878
 21
105.3361725147436
 31
0.0
  0
ARC
  5
97
330
1F
100
AcDbEntity
  8
1
  6
Continuous
 62
     7
370
     9
100
AcDbCircle
 10
160.3083791208781
 20
137.3361725147436
 30
0.0
 40
10.0
100
AcDbArc
 50
269.9999999999998
 51
0.0
  0
CIRCLE
  5
98
330
1F
100
AcDbEntity
  8
1
  6
Continuous
 62
     7
370
     9
100
AcDbCircle
 10
145.3083791208781
 20
237.8361725147436
 30
0.0
 40
15.0
  0
CIRCLE
  5
99
330
1F
100
AcDbEntity
  8
1
  6
Continuous
 62
     7
370
     9
100
AcDbCircle
 10
145.3083791208781
 20
292.8361725147436
 30
0.0
 40
15.0
  0
LINE
  5
9A
330
1F
100
AcDbEntity
  8
1
  6
Continuous
 62
     7
370
     9
100
AcDbLine
 10
193.3083791208781
 20
105.3361725147436
 30
0.0
 11
193.3083791208781
 21
267.3361725147436
 31
0.0
  0
LINE
  5
9B
330
1F
100
AcDbEntity
  8
1
  6
Continuous
 62
     7
370
     9
100
AcDbLine
 10
288.2083791208781
 20
267.3361725147436
 30
0.0
 11
288.2083791208781
 21
255.3361725147436
 31
0.0
  0
LINE
  5
9C
330
1F
100
AcDbEntity
  8
1
  6
Continuous
 62
     7
370
     9
100
AcDbLine
 10
258.4083791208781
 20
255.3361725147436
 30
0.0
 11
288.2083791208781
 21
255.3361725147436
 31
0.0
  0
LINE
  5
9D
330
1F
100
AcDbEntity
  8
1
  6
Continuous
 62
     7
370
     9
100
AcDbLine
 10
258.4083791208781
 20
267.3361725147436
 30
0.0
 11
258.4083791208781
 21
255.3361725147436
 31
0.0
  0
CIRCLE
  5
9E
330
1F
100
AcDbEntity
  8
1
  6
Continuous
 62
     7
370
     9
100
AcDbCircle
 10
250.6804726277878
 20
305.4206003454845
 30
0.0
 40
6.766360663147364
  0
ARC
  5
9F
330
1F
100
AcDbEntity
  8
1
  6
Continuous
 62
     7
370
     9
100
AcDbCircle
 10
243.7912056370643
 20
295.2516947077233
 30
0.0
 40
2.189282579637978
100
AcDbArc
 50
284.6285765214034
 51
186.7524556348344
  0
ARC
  5
A0
330
1F
100
AcDbEntity
  8
1
  6
Continuous
 62
     7
370
     9
100
AcDbCircle
 10
250.7074190787855
 20
305.3868803279564
 30
0.0
 40
13.80724075137259
100
AcDbArc
 50
207.2026477749557
 51
228.824119275359
  0
ARC
  5
A1
330
1F
100
AcDbEntity
  8
1
  6
Continuous
 62
     7
370
     9
100
AcDbCircle
 10
239.2964088000219
 20
300.8763548213304
 30
0.0
 40
2.000000000007503
100
AcDbArc
 50
244.2438443937204
 51
158.8917860722156
  0
ARC
  5
A2
330
1F
100
AcDbEntity
  8
1
  6
Continuous
 62
     7
370
     9
100
AcDbCircle
 10
250.7074190787855
 20
305.3868803279564
 30
0.0
 40
13.80724075137259
100
AcDbArc
 50
243.132076097887
 51
195.9329826909786
  0
CIRCLE
  5
A3
330
1F
100
AcDbEntity
  8
1
  6
Continuous
 62
     7
370
     9
100
AcDbCircle
 10
219.453666634611
 20
292.1505728154314
 30
0.0
 40
1.244475302647463
  0
LINE
  5
A4
330
1F
100
AcDbEntity
  8
1
  6
Continuous
 62
     7
370
     9
100
AcDbLine
 10
230.1142929283535
 20
300.5229678795667
 30
0.0
 11
238.0973996428445
 21
300.0033459246167
 31
0.0
  0
ARC
  5
A5
330
1F
100
AcDbEntity
  8
1
  6
Continuous
 62
     7
370
     9
100
AcDbCircle
 10
229.8544819504544
 20
296.5314145158042
 30
0.0
 40
4.0
100
AcDbArc
 50
86.27586013335862
 51
112.8409109934254
  0
LINE
  5
A6
330
1F
100
AcDbEntity
  8
1
  6
Continuous
 62
     7
370
     9
100
AcDbLine
 10
232.8918380665861
 20
293.9286336679605
 30
0.0
 11
238.0973995969358
 21
300.0033459276049
 31
0.0
  0
ARC
  5
A7
330
1F
100
AcDbEntity
  8
1
  6
Continuous
 62
     7
370
     9
100
AcDbCircle
 10
229.8544819340049
 20
296.5314144354996
 30
0.0
 40
4.0
100
AcDbArc
 50
292.8409109934254
 51
319.4059631107276
  0
LINE
  5
A8
330
1F
100
AcDbEntity
  8
1
  6
Continuous
 62
     7
370
     9
100
AcDbLine
 10
224.2153908876521
 20
289.8158767402019
 30
0.0
 11
231.4071768418937
 21
292.8450695624558
 31
0.0
  0
ARC
  5
A9
330
1F
100
AcDbEntity
  8
1
  6
Continuous
 62
     7
370
     9
100
AcDbCircle
 10
222.6626959797633
 20
293.5022216132457
 30
0.0
 40
4.0
100
AcDbArc
 50
285.6304815694522
 51
292.8409109934254
  0
LINE
  5
AA
330
1F
100
AcDbEntity
  8
1
  6
Continuous
 62
     7
370
     9
100
AcDbLine
 10
221.1100010456254
 20
297.1885665486095
 30
0.0
 11
228.3017870425656
 21
300.217759388848
 31
0.0
  0
ARC
  5
AB
330
1F
100
AcDbEntity
  8
1
  6
Continuous
 62
     7
370
     9
100
AcDbCircle
 10
222.6626959535141
 20
293.5022216755656
 30
0.0
 40
4.0
100
AcDbArc
 50
112.8409109934254
 51
120.0513404173995
  0
ARC
  5
AC
330
1F
100
AcDbEntity
  8
1
  6
Continuous
 62
     7
370
     9
100
AcDbCircle
 10
202.8696220319136
 20
287.6610415206197
 30
0.0
 40
0.2
100
AcDbArc
 50
112.8409109934228
 51
172.5034861292178
  0
LINE
  5
AD
330
1F
100
AcDbEntity
  8
1
  6
Continuous
 62
     7
370
     9
100
AcDbLine
 10
202.7919872865191
 20
287.8453587642719
 30
0.0
 11
203.2191093908599
 21
288.0252633416504
 31
0.0
  0
ARC
  5
AE
330
1F
100
AcDbEntity
  8
1
  6
Continuous
 62
     7
370
     9
100
AcDbCircle
 10
203.2967441362543
 20
287.8409460979983
 30
0.0
 40
0.2
100
AcDbArc
 50
352.5034861292174
 51
112.8409109934291
  0
ARC
  5
AF
330
1F
100
AcDbEntity
  8
1
  6
Continuous
 62
     7
370
     9
100
AcDbCircle
 10
202.1742602386695
 20
282.3767598306578
 30
0.0
 40
0.2
100
AcDbArc
 50
172.5034861292178
 51
292.8409109934225
  0
LINE
  5
B0
330
1F
100
AcDbEntity
  8
1
  6
Continuous
 62
     7
370
     9
100
AcDbLine
 10
202.2518949840639
 20
282.1924425870056
 30
0.0
 11
202.6790170884046
 21
282.3723471643842
 31
0.0
  0
LINE
  5
B1
330
1F
100
AcDbEntity
  8
1
  6
Continuous
 62
     7
370
     9
100
AcDbLine
 10
203.4950346965205
 20
287.8148529243826
 30
0.0
 11
202.7996729032763
 21
282.5305712344207
 31
0.0
  0
ARC
  5
B2
330
1F
100
AcDbEntity
  8
1
  6
Continuous
 62
     7
370
     9
100
AcDbCircle
 10
202.6013823430102
 20
282.5566644080363
 30
0.0
 40
0.2
100
AcDbArc
 50
292.8409109934225
 51
352.5034861292174
  0
ARC
  5
B3
330
1F
100
AcDbEntity
  8
1
  6
Continuous
 62
     7
370
     9
100
AcDbCircle
 10
204.0442078564441
 20
288.1557791242452
 30
0.0
 40
0.2
100
AcDbArc
 50
112.8409109934228
 51
172.5034861292178
  0
LINE
  5
B4
330
1F
100
AcDbEntity
  8
1
  6
Continuous
 62
     7
370
     9
100
AcDbLine
 10
203.9665731110497
 20
288.3400963678973
 30
0.0
 11
204.3936952153904
 21
288.5200009452759
 31
0.0
  0
ARC
  5
B5
330
1F
100
AcDbEntity
  8
1
  6
Continuous
 62
     7
370
     9
100
AcDbCircle
 10
204.4713299607848
 20
288.3356837016237
 30
0.0
 40
0.2
100
AcDbArc
 50
352.5034861292174
 51
112.8409109934291
  0
LINE
  5
B6
330
1F
100
AcDbEntity
  8
1
  6
Continuous
 62
     7
370
     9
100
AcDbLine
 10
203.8459172961779
 20
288.1818722978608
 30
0.0
 11
203.1505555029338
 21
282.8975906078989
 31
0.0
  0
ARC
  5
B7
330
1F
100
AcDbEntity
  8
1
  6
Continuous
 62
     7
370
     9
100
AcDbCircle
 10
203.3488460632
 20
282.8714974342833
 30
0.0
 40
0.2
100
AcDbArc
 50
172.5034861292178
 51
292.8409109934225
  0
LINE
  5
B8
330
1F
100
AcDbEntity
  8
1
  6
Continuous
 62
     7
370
     9
100
AcDbLine
 10
203.4264808085944
 20
282.6871801906311
 30
0.0
 11
203.8536029129351
 21
282.8670847680096
 31
0.0
  0
LINE
  5
B9
330
1F
100
AcDbEntity
  8
1
  6
Continuous
 62
     7
370
     9
100
AcDbLine
 10
204.669620521051
 20
288.3095905280081
 30
0.0
 11
203.9742587278068
 21
283.0253088380462
 31
0.0
  0
ARC
  5
BA
330
1F
100
AcDbEntity
  8
1
  6
Continuous
 62
     7
370
     9
100
AcDbCircle
 10
203.7759681675407
 20
283.0514020116618
 30
0.0
 40
0.2
100
AcDbArc
 50
292.8409109934225
 51
352.5034861292174
  0
ARC
  5
BB
330
1F
100
AcDbEntity
  8
1
  6
Continuous
 62
     7
370
     9
100
AcDbCircle
 10
205.2187936809746
 20
288.6505167278706
 30
0.0
 40
0.2
100
AcDbArc
 50
112.8409109934228
 51
172.5034861292178
  0
LINE
  5
BC
330
1F
100
AcDbEntity
  8
1
  6
Continuous
 62
     7
370
     9
100
AcDbLine
 10
205.1411589355802
 20
288.8348339715228
 30
0.0
 11
205.5682810399209
 21
289.0147385489013
 31
0.0
  0
ARC
  5
BD
330
1F
100
AcDbEntity
  8
1
  6
Continuous
 62
     7
370
     9
100
AcDbCircle
 10
205.6459157853153
 20
288.8304213052492
 30
0.0
 40
0.2
100
AcDbArc
 50
352.5034861292174
 51
112.8409109934291
  0
LINE
  5
BE
330
1F
100
AcDbEntity
  8
1
  6
Continuous
 62
     7
370
     9
100
AcDbLine
 10
205.0205031207084
 20
288.6766099014862
 30
0.0
 11
204.3251413274643
 21
283.3923282115244
 31
0.0
  0
ARC
  5
BF
330
1F
100
AcDbEntity
  8
1
  6
Continuous
 62
     7
370
     9
100
AcDbCircle
 10
204.5234318877305
 20
283.3662350379088
 30
0.0
 40
0.2
100
AcDbArc
 50
172.5034861292178
 51
292.8409109934225
  0
LINE
  5
C0
330
1F
100
AcDbEntity
  8
1
  6
Continuous
 62
     7
370
     9
100
AcDbLine
 10
204.6010666331249
 20
283.1819177942566
 30
0.0
 11
205.0281887374656
 21
283.3618223716351
 31
0.0
  0
LINE
  5
C1
330
1F
100
AcDbEntity
  8
1
  6
Continuous
 62
     7
370
     9
100
AcDbLine
 10
205.8442063455815
 20
288.8043281316336
 30
0.0
 11
205.1488445523374
 21
283.5200464416717
 31
0.0
  0
ARC
  5
C2
330
1F
100
AcDbEntity
  8
1
  6
Continuous
 62
     7
370
     9
100
AcDbCircle
 10
204.9505539920712
 20
283.5461396152873
 30
0.0
 40
0.2
100
AcDbArc
 50
292.8409109934225
 51
352.5034861292174
  0
ARC
  5
C3
330
1F
100
AcDbEntity
  8
1
  6
Continuous
 62
     7
370
     9
100
AcDbCircle
 10
206.3933795197707
 20
289.1452544399048
 30
0.0
 40
0.2
100
AcDbArc
 50
112.8409109934228
 51
172.5034861292178
  0
LINE
  5
C4
330
1F
100
AcDbEntity
  8
1
  6
Continuous
 62
     7
370
     9
100
AcDbLine
 10
206.3157447743762
 20
289.329571683557
 30
0.0
 11
206.742866878717
 21
289.5094762609355
 31
0.0
  0
ARC
  5
C5
330
1F
100
AcDbEntity
  8
1
  6
Continuous
 62
     7
370
     9
100
AcDbCircle
 10
206.8205016241114
 20
289.3251590172834
 30
0.0
 40
0.2
100
AcDbArc
 50
352.5034861292174
 51
112.8409109934291
  0
LINE
  5
C6
330
1F
100
AcDbEntity
  8
1
  6
Continuous
 62
     7
370
     9
100
AcDbLine
 10
206.1950889595045
 20
289.1713476135204
 30
0.0
 11
205.4997271662604
 21
283.8870659235586
 31
0.0
  0
ARC
  5
C7
330
1F
100
AcDbEntity
  8
1
  6
Continuous
 62
     7
370
     9
100
AcDbCircle
 10
205.6980177265266
 20
283.860972749943
 30
0.0
 40
0.2
100
AcDbArc
 50
172.5034861292178
 51
292.8409109934225
  0
LINE
  5
C8
330
1F
100
AcDbEntity
  8
1
  6
Continuous
 62
     7
370
     9
100
AcDbLine
 10
205.775652471921
 20
283.6766555062908
 30
0.0
 11
206.2027745762617
 21
283.8565600836693
 31
0.0
  0
LINE
  5
C9
330
1F
100
AcDbEntity
  8
1
  6
Continuous
 62
     7
370
     9
100
AcDbLine
 10
207.0187921843776
 20
289.2990658436678
 30
0.0
 11
206.3234303911334
 21
284.0147841537059
 31
0.0
  0
ARC
  5
CA
330
1F
100
AcDbEntity
  8
1
  6
Continuous
 62
     7
370
     9
100
AcDbCircle
 10
206.1251398308673
 20
284.0408773273215
 30
0.0
 40
0.2
100
AcDbArc
 50
292.8409109934225
 51
352.5034861292174
  0
ARC
  5
CB
330
1F
100
AcDbEntity
  8
1
  6
Continuous
 62
     7
370
     9
100
AcDbCircle
 10
207.5679653300356
 20
289.6399919351217
 30
0.0
 40
0.2
100
AcDbArc
 50
112.8409109934228
 51
172.5034861292178
  0
LINE
  5
CC
330
1F
100
AcDbEntity
  8
1
  6
Continuous
 62
     7
370
     9
100
AcDbLine
 10
207.4903305846412
 20
289.8243091787738
 30
0.0
 11
207.9174526889819
 21
290.0042137561524
 31
0.0
  0
ARC
  5
CD
330
1F
100
AcDbEntity
  8
1
  6
Continuous
 62
     7
370
     9
100
AcDbCircle
 10
207.9950874343764
 20
289.8198965125002
 30
0.0
 40
0.2
100
AcDbArc
 50
352.5034861292174
 51
112.8409109934291
  0
LINE
  5
CE
330
1F
100
AcDbEntity
  8
1
  6
Continuous
 62
     7
370
     9
100
AcDbLine
 10
207.3696747697695
 20
289.6660851087373
 30
0.0
 11
206.6743129765254
 21
284.3818034187754
 31
0.0
  0
ARC
  5
CF
330
1F
100
AcDbEntity
  8
1
  6
Continuous
 62
     7
370
     9
100
AcDbCircle
 10
206.8726035367915
 20
284.3557102451598
 30
0.0
 40
0.2
100
AcDbArc
 50
172.5034861292178
 51
292.8409109934225
  0
LINE
  5
D0
330
1F
100
AcDbEntity
  8
1
  6
Continuous
 62
     7
370
     9
100
AcDbLine
 10
206.9502382821859
 20
284.1713930015076
 30
0.0
 11
207.3773603865266
 21
284.3512975788861
 31
0.0
  0
LINE
  5
D1
330
1F
100
AcDbEntity
  8
1
  6
Continuous
 62
     7
370
     9
100
AcDbLine
 10
208.1933779946425
 20
289.7938033388846
 30
0.0
 11
207.4980162013984
 21
284.5095216489227
 31
0.0
  0
ARC
  5
D2
330
1F
100
AcDbEntity
  8
1
  6
Continuous
 62
     7
370
     9
100
AcDbCircle
 10
207.2997256411322
 20
284.5356148225383
 30
0.0
 40
0.2
100
AcDbArc
 50
292.8409109934225
 51
352.5034861292174
  0
ARC
  5
D3
330
1F
100
AcDbEntity
  8
1
  6
Continuous
 62
     7
370
     9
100
AcDbCircle
 10
208.7425511545661
 20
290.1347295387471
 30
0.0
 40
0.2
100
AcDbArc
 50
112.8409109934228
 51
172.5034861292178
  0
LINE
  5
D4
330
1F
100
AcDbEntity
  8
1
  6
Continuous
 62
     7
370
     9
100
AcDbLine
 10
208.6649164091717
 20
290.3190467823993
 30
0.0
 11
209.0920385135124
 21
290.4989513597778
 31
0.0
  0
ARC
  5
D5
330
1F
100
AcDbEntity
  8
1
  6
Continuous
 62
     7
370
     9
100
AcDbCircle
 10
209.1696732589069
 20
290.3146341161257
 30
0.0
 40
0.2
100
AcDbArc
 50
352.5034861292174
 51
112.8409109934291
  0
LINE
  5
D6
330
1F
100
AcDbEntity
  8
1
  6
Continuous
 62
     7
370
     9
100
AcDbLine
 10
208.5442605943
 20
290.1608227123627
 30
0.0
 11
207.8488988010559
 21
284.8765410224009
 31
0.0
  0
ARC
  5
D7
330
1F
100
AcDbEntity
  8
1
  6
Continuous
 62
     7
370
     9
100
AcDbCircle
 10
208.047189361322
 20
284.8504478487852
 30
0.0
 40
0.2
100
AcDbArc
 50
172.5034861292016
 51
292.8409109934225
  0
LINE
  5
D8
330
1F
100
AcDbEntity
  8
1
  6
Continuous
 62
     7
370
     9
100
AcDbLine
 10
208.1248241067164
 20
284.666130605133
 30
0.0
 11
208.5519462110572
 21
284.8460351825116
 31
0.0
  0
LINE
  5
D9
330
1F
100
AcDbEntity
  8
1
  6
Continuous
 62
     7
370
     9
100
AcDbLine
 10
209.367963819173
 20
290.2885409425101
 30
0.0
 11
208.6726020259289
 21
285.0042592525481
 31
0.0
  0
ARC
  5
DA
330
1F
100
AcDbEntity
  8
1
  6
Continuous
 62
     7
370
     9
100
AcDbCircle
 10
208.4743114656627
 20
285.0303524261638
 30
0.0
 40
0.2
100
AcDbArc
 50
292.8409109934161
 51
352.5034861292013
  0
ARC
  5
DB
330
1F
100
AcDbEntity
  8
1
  6
Continuous
 62
     7
370
     9
100
AcDbCircle
 10
209.9171369648311
 20
290.6294670339639
 30
0.0
 40
0.2
100
AcDbArc
 50
112.8409109934228
 51
172.5034861292178
  0
LINE
  5
DC
330
1F
100
AcDbEntity
  8
1
  6
Continuous
 62
     7
370
     9
100
AcDbLine
 10
209.8395022194366
 20
290.8137842776161
 30
0.0
 11
210.2666243237774
 21
290.9936888549946
 31
0.0
  0
ARC
  5
DD
330
1F
100
AcDbEntity
  8
1
  6
Continuous
 62
     7
370
     9
100
AcDbCircle
 10
210.3442590691718
 20
290.8093716113425
 30
0.0
 40
0.2
100
AcDbArc
 50
352.5034861292174
 51
112.8409109934291
  0
LINE
  5
DE
330
1F
100
AcDbEntity
  8
1
  6
Continuous
 62
     7
370
     9
100
AcDbLine
 10
209.7188464045649
 20
290.6555602075795
 30
0.0
 11
209.0234846113208
 21
285.3712785176177
 31
0.0
  0
ARC
  5
DF
330
1F
100
AcDbEntity
  8
1
  6
Continuous
 62
     7
370
     9
100
AcDbCircle
 10
209.221775171587
 20
285.3451853440021
 30
0.0
 40
0.2
100
AcDbArc
 50
172.5034861292178
 51
292.8409109934225
  0
LINE
  5
E0
330
1F
100
AcDbEntity
  8
1
  6
Continuous
 62
     7
370
     9
100
AcDbLine
 10
209.2994099169814
 20
285.1608681003499
 30
0.0
 11
209.7265320213221
 21
285.3407726777284
 31
0.0
  0
LINE
  5
E1
330
1F
100
AcDbEntity
  8
1
  6
Continuous
 62
     7
370
     9
100
AcDbLine
 10
210.542549629438
 20
290.7832784377269
 30
0.0
 11
209.8471878361938
 21
285.498996747765
 31
0.0
  0
ARC
  5
E2
330
1F
100
AcDbEntity
  8
1
  6
Continuous
 62
     7
370
     9
100
AcDbCircle
 10
209.6488972759277
 20
285.5250899213806
 30
0.0
 40
0.2
100
AcDbArc
 50
292.8409109934225
 51
352.5034861292174
  0
ARC
  5
E3
330
1F
100
AcDbEntity
  8
1
  6
Continuous
 62
     7
370
     9
100
AcDbCircle
 10
211.0917227893615
 20
291.1242046375893
 30
0.0
 40
0.2
100
AcDbArc
 50
112.8409109934228
 51
172.5034861292178
  0
LINE
  5
E4
330
1F
100
AcDbEntity
  8
1
  6
Continuous
 62
     7
370
     9
100
AcDbLine
 10
211.0140880439671
 20
291.3085218812415
 30
0.0
 11
211.4412101483079
 21
291.48842645862
 31
0.0
  0
ARC
  5
E5
330
1F
100
AcDbEntity
  8
1
  6
Continuous
 62
     7
370
     9
100
AcDbCircle
 10
211.5188448937023
 20
291.3041092149679
 30
0.0
 40
0.2
100
AcDbArc
 50
352.5034861292174
 51
112.8409109934291
  0
LINE
  5
E6
330
1F
100
AcDbEntity
  8
1
  6
Continuous
 62
     7
370
     9
100
AcDbLine
 10
210.8934322290954
 20
291.150297811205
 30
0.0
 11
210.1980704358513
 21
285.8660161212431
 31
0.0
  0
ARC
  5
E7
330
1F
100
AcDbEntity
  8
1
  6
Continuous
 62
     7
370
     9
100
AcDbCircle
 10
210.3963609961174
 20
285.8399229476275
 30
0.0
 40
0.2
100
AcDbArc
 50
172.5034861292016
 51
292.8409109934225
  0
LINE
  5
E8
330
1F
100
AcDbEntity
  8
1
  6
Continuous
 62
     7
370
     9
100
AcDbLine
 10
210.4739957415119
 20
285.6556057039753
 30
0.0
 11
210.9011178458526
 21
285.8355102813538
 31
0.0
  0
LINE
  5
E9
330
1F
100
AcDbEntity
  8
1
  6
Continuous
 62
     7
370
     9
100
AcDbLine
 10
211.7171354539684
 20
291.2780160413523
 30
0.0
 11
211.0217736607243
 21
285.9937343513904
 31
0.0
  0
ARC
  5
EA
330
1F
100
AcDbEntity
  8
1
  6
Continuous
 62
     7
370
     9
100
AcDbCircle
 10
210.8234831004582
 20
286.0198275250061
 30
0.0
 40
0.2
100
AcDbArc
 50
292.8409109934161
 51
352.5034861292013
  0
ARC
  5
EB
330
1F
100
AcDbEntity
  8
1
  6
Continuous
 62
     7
370
     9
100
AcDbCircle
 10
212.266308662095
 20
291.6189426075251
 30
0.0
 40
0.2
100
AcDbArc
 50
112.8409109934228
 51
172.5034861292178
  0
LINE
  5
EC
330
1F
100
AcDbEntity
  8
1
  6
Continuous
 62
     7
370
     9
100
AcDbLine
 10
212.1886739167006
 20
291.8032598511772
 30
0.0
 11
212.6157960210413
 21
291.9831644285558
 31
0.0
  0
ARC
  5
ED
330
1F
100
AcDbEntity
  8
1
  6
Continuous
 62
     7
370
     9
100
AcDbCircle
 10
212.6934307664358
 20
291.7988471849037
 30
0.0
 40
0.2
100
AcDbArc
 50
352.5034861292174
 51
112.8409109934291
  0
LINE
  5
EE
330
1F
100
AcDbEntity
  8
1
  6
Continuous
 62
     7
370
     9
100
AcDbLine
 10
212.0680181018289
 20
291.6450357811407
 30
0.0
 11
211.3726563085848
 21
286.3607540911789
 31
0.0
  0
ARC
  5
EF
330
1F
100
AcDbEntity
  8
1
  6
Continuous
 62
     7
370
     9
100
AcDbCircle
 10
211.5709468688509
 20
286.3346609175632
 30
0.0
 40
0.2
100
AcDbArc
 50
172.5034861292016
 51
292.8409109934225
  0
LINE
  5
F0
330
1F
100
AcDbEntity
  8
1
  6
Continuous
 62
     7
370
     9
100
AcDbLine
 10
211.6485816142453
 20
286.150343673911
 30
0.0
 11
212.0757037185861
 21
286.3302482512896
 31
0.0
  0
LINE
  5
F1
330
1F
100
AcDbEntity
  8
1
  6
Continuous
 62
     7
370
     9
100
AcDbLine
 10
212.8917213267019
 20
291.772754011288
 30
0.0
 11
212.1963595334578
 21
286.4884723213261
 31
0.0
  0
ARC
  5
F2
330
1F
100
AcDbEntity
  8
1
  6
Continuous
 62
     7
370
     9
100
AcDbCircle
 10
211.9980689731916
 20
286.5145654949418
 30
0.0
 40
0.2
100
AcDbArc
 50
292.8409109934161
 51
352.5034861292013
  0
ARC
  5
F3
330
1F
100
AcDbEntity
  8
1
  6
Continuous
 62
     7
370
     9
100
AcDbCircle
 10
213.44089447236
 20
292.1136801027419
 30
0.0
 40
0.2
100
AcDbArc
 50
112.8409109934228
 51
172.5034861292178
  0
LINE
  5
F4
330
1F
100
AcDbEntity
  8
1
  6
Continuous
 62
     7
370
     9
100
AcDbLine
 10
213.3632597269655
 20
292.2979973463941
 30
0.0
 11
213.7903818313063
 21
292.4779019237726
 31
0.0
  0
ARC
  5
F5
330
1F
100
AcDbEntity
  8
1
  6
Continuous
 62
     7
370
     9
100
AcDbCircle
 10
213.8680165767007
 20
292.2935846801205
 30
0.0
 40
0.2
100
AcDbArc
 50
352.5034861292174
 51
112.8409109934291
  0
LINE
  5
F6
330
1F
100
AcDbEntity
  8
1
  6
Continuous
 62
     7
370
     9
100
AcDbLine
 10
213.2426039120938
 20
292.1397732763575
 30
0.0
 11
212.5472421188497
 21
286.8554915863957
 31
0.0
  0
ARC
  5
F7
330
1F
100
AcDbEntity
  8
1
  6
Continuous
 62
     7
370
     9
100
AcDbCircle
 10
212.7455326791159
 20
286.8293984127801
 30
0.0
 40
0.2
100
AcDbArc
 50
172.5034861292178
 51
292.8409109934225
  0
LINE
  5
F8
330
1F
100
AcDbEntity
  8
1
  6
Continuous
 62
     7
370
     9
100
AcDbLine
 10
212.8231674245103
 20
286.6450811691279
 30
0.0
 11
213.250289528851
 21
286.8249857465064
 31
0.0
  0
ARC
  5
F9
330
1F
100
AcDbEntity
  8
1
  6
Continuous
 62
     7
370
     9
100
AcDbCircle
 10
213.1726547834566
 20
287.0093029901586
 30
0.0
 40
0.2
100
AcDbArc
 50
292.8409109934225
 51
352.5034861292174
  0
LINE
  5
FA
330
1F
100
AcDbEntity
  8
1
  6
Continuous
 62
     7
370
     9
100
AcDbLine
 10
201.3402072958483
 20
283.9786094801444
 30
0.0
 11
202.2327972795077
 21
284.3545699423884
 31
0.0
  0
LINE
  5
FB
330
1F
100
AcDbEntity
  8
1
  6
Continuous
 62
     7
370
     9
100
AcDbLine
 10
200.9520333985519
 20
284.9001956266645
 30
0.0
 11
202.3839628867347
 21
285.5033268315105
 31
0.0
  0
LINE
  5
FC
330
1F
100
AcDbEntity
  8
1
  6
Continuous
 62
     7
370
     9
100
AcDbLine
 10
213.6583139089636
 20
289.1670175297746
 30
0.0
 11
215.3400785649393
 21
289.8753797442529
 31
0.0
  0
LINE
  5
FD
330
1F
100
AcDbEntity
  8
1
  6
Continuous
 62
     7
370
     9
100
AcDbLine
 10
213.9814705761254
 20
293.10093137619
 30
0.0
 11
220.6595927163038
 21
296.9645297815951
 31
0.0
  0
LINE
  5
FE
330
1F
100
AcDbEntity
  8
1
  6
Continuous
 62
     7
370
     9
100
AcDbLine
 10
213.9814705761254
 20
293.10093137619
 30
0.0
 11
216.3105129642076
 21
287.5714140043041
 31
0.0
  0
LINE
  5
FF
330
1F
100
AcDbEntity
  8
1
  6
Continuous
 62
     7
370
     9
100
AcDbLine
 10
216.3105129642076
 20
287.5714140043041
 30
0.0
 11
223.7404247342864
 21
289.650144156642
 31
0.0
  0
LINE
  5
100
330
1F
100
AcDbEntity
  8
1
  6
Continuous
 62
     7
370
     9
100
AcDbLine
 10
213.8094795161906
 20
290.315774418897
 30
0.0
 11
214.951904837967
 21
290.7969659625143
 31
0.0
  0
ARC
  5
101
330
1F
100
AcDbEntity
  8
1
  6
Continuous
 62
     7
370
     9
100
AcDbCircle
 10
200.3480033325381
 20
284.1032340972596
 30
0.0
 40
1.0
100
AcDbArc
 50
52.84092158263355
 51
352.8409215826341
  0
LINE
  5
102
330
1F
100
AcDbEntity
  8
1
  6
Continuous
 62
     7
370
     9
100
AcDbLine
 10
202.6713314716474
 20
287.6871346942353
 30
0.0
 11
202.3839628867347
 21
285.5033268315105
 31
0.0
  0
LINE
  5
103
330
1F
100
AcDbEntity
  8
1
  6
Continuous
 62
     7
370
     9
100
AcDbLine
 10
202.2327972795077
 20
284.3545699423884
 30
0.0
 11
201.9759696784033
 21
282.4028530042734
 31
0.0
  0
LINE
  5
104
330
1F
100
AcDbEntity
  8
1
  6
Continuous
 62
     7
370
     9
100
AcDbLine
 10
214.0663071369669
 20
292.2674915065049
 30
0.0
 11
213.8094795161906
 21
290.315774418897
 31
0.0
  0
LINE
  5
105
330
1F
100
AcDbEntity
  8
1
  6
Continuous
 62
     7
370
     9
100
AcDbLine
 10
213.6583139089636
 20
289.1670175297746
 30
0.0
 11
213.3709453437227
 21
286.983209816543
 31
0.0
  0
LINE
  5
106
330
1F
100
AcDbEntity
  8
1
  6
Continuous
 62
     7
370
     9
100
AcDbLine
 10
208.3083791208781
 20
343.3361725147436
 30
0.0
 11
208.3083791208781
 21
302.3361725147436
 31
0.0
  0
LINE
  5
107
330
1F
100
AcDbEntity
  8
1
  6
Continuous
 62
     7
370
     9
100
AcDbLine
 10
208.3083791208781
 20
278.3361725147436
 30
0.0
 11
208.3083791208781
 21
267.3361725147436
 31
0.0
  0
ARC
  5
108
330
1F
100
AcDbEntity
  8
1
  6
Continuous
 62
     7
370
     9
100
AcDbCircle
 10
208.3083791208781
 20
290.3361725147436
 30
0.0
 40
12.0
100
AcDbArc
 50
89.9999999999977
 51
269.9999999999998
  0
ARC
  5
109
330
1F
100
AcDbEntity
  8
1
  6
Continuous
 62
     7
370
     9
100
AcDbCircle
 10
292.5489674127224
 20
408.3361725147436
 30
0.0
 40
3.0
100
AcDbArc
 50
270.0000000000007
 51
11.30993247402
  0
LINE
  5
10A
330
1F
100
AcDbEntity
  8
1
  6
Continuous
 62
     7
370
     9
100
AcDbLine
 10
295.4907094397952
 20
408.9245209201582
 30
0.0
 11
292.6907094397952
 21
422.9245209201582
 31
0.0
  0
ARC
  5
10B
330
1F
100
AcDbEntity
  8
1
  6
Continuous
 62
     7
370
     9
100
AcDbCircle
 10
289.7489674127224
 20
422.3361725147436
 30
0.0
 40
3.0
100
AcDbArc
 50
11.30993247402
 51
89.99999999999991
  0
LINE
  5
10C
330
1F
100
AcDbEntity
  8
1
  6
Continuous
 62
     7
370
     9
100
AcDbLine
 10
242.9283727433276
 20
430.3361725147436
 30
0.0
 11
242.9283727433276
 21
425.3361725147436
 31
0.0
  0
LINE
  5
10D
330
1F
100
AcDbEntity
  8
1
  6
Continuous
 62
     7
370
     9
100
AcDbLine
 10
233.9283727433276
 20
430.3361725147436
 30
0.0
 11
233.9283727433276
 21
425.3361725147436
 31
0.0
  0
LINE
  5
10E
330
1F
100
AcDbEntity
  8
1
  6
Continuous
 62
     7
370
     9
100
AcDbLine
 10
233.9283727433276
 20
361.1612681780082
 30
0.0
 11
233.9283727433276
 21
356.1612681780082
 31
0.0
  0
LINE
  5
10F
330
1F
100
AcDbEntity
  8
1
  6
Continuous
 62
     7
370
     9
100
AcDbLine
 10
242.9283727433276
 20
361.1612681780082
 30
0.0
 11
242.9283727433276
 21
356.3612681780083
 31
0.0
  0
ARC
  5
110
330
1F
100
AcDbEntity
  8
1
  6
Continuous
 62
     7
370
     9
100
AcDbCircle
 10
242.7283727433276
 20
356.3612681780082
 30
0.0
 40
0.2
100
AcDbArc
 50
269.9999999999834
 51
0.0000000000325689
  0
LINE
  5
111
330
1F
100
AcDbEntity
  8
1
  6
Continuous
 62
     7
370
     9
100
AcDbLine
 10
224.8925985468605
 20
408.9245209201582
 30
0.0
 11
227.6925985468605
 21
422.9245209201582
 31
0.0
  0
LINE
  5
112
330
1F
100
AcDbEntity
  8
1
  6
Continuous
 62
     7
370
     9
100
AcDbLine
 10
230.6343405739333
 20
425.3361725147436
 30
0.0
 11
289.7489674127224
 21
425.3361725147436
 31
0.0
  0
ARC
  5
113
330
1F
100
AcDbEntity
  8
1
  6
Continuous
 62
     7
370
     9
100
AcDbCircle
 10
230.6343405739333
 20
422.3361725147436
 30
0.0
 40
3.0
100
AcDbArc
 50
89.99999999999991
 51
168.6900675259801
  0
LINE
  5
114
330
1F
100
AcDbEntity
  8
1
  6
Continuous
 62
     7
370
     9
100
AcDbLine
 10
227.8343405739333
 20
405.3361725147436
 30
0.0
 11
292.5489674127225
 21
405.3361725147436
 31
0.0
  0
ARC
  5
115
330
1F
100
AcDbEntity
  8
1
  6
Continuous
 62
     7
370
     9
100
AcDbCircle
 10
227.8343405739333
 20
408.3361725147436
 30
0.0
 40
3.0
100
AcDbArc
 50
168.69006752598
 51
270.0000000000007
  0
LINE
  5
116
330
1F
100
AcDbEntity
  8
1
  6
Continuous
 62
     7
370
     9
100
AcDbLine
 10
240.9283730494892
 20
430.3361725147436
 30
0.0
 11
240.9283730494892
 21
425.3361725147436
 31
0.0
  0
LINE
  5
117
330
1F
100
AcDbEntity
  8
1
  6
Continuous
 62
     7
370
     9
100
AcDbLine
 10
231.9283727433276
 20
430.3361725147436
 30
0.0
 11
231.9283727433276
 21
425.3361725147436
 31
0.0
  0
LINE
  5
118
330
1F
100
AcDbEntity
  8
1
  6
Continuous
 62
     7
370
     9
100
AcDbLine
 10
231.9283727433276
 20
430.3361725147436
 30
0.0
 11
242.9283727433276
 21
430.3361725147436
 31
0.0
  0
LINE
  5
119
330
1F
100
AcDbEntity
  8
1
  6
Continuous
 62
     7
370
     9
100
AcDbLine
 10
233.7283727433276
 20
430.3361725147436
 30
0.0
 11
233.7283727433276
 21
445.3361725147436
 31
0.0
  0
LINE
  5
11A
330
1F
100
AcDbEntity
  8
1
  6
Continuous
 62
     7
370
     9
100
AcDbLine
 10
233.7283727433276
 20
445.3361725147436
 30
0.0
 11
241.1283727433276
 21
445.3361725147436
 31
0.0
  0
LINE
  5
11B
330
1F
100
AcDbEntity
  8
1
  6
Continuous
 62
     7
370
     9
100
AcDbLine
 10
241.1283727433276
 20
430.3361725147436
 30
0.0
 11
241.1283727433276
 21
445.3361725147436
 31
0.0
  0
INSERT
  5
126
330
1F
100
AcDbEntity
  8
0
100
AcDbBlockReference
  2
*G12
 10
0.0
 20
0.0
 30
0.0
  0
LINE
  5
127
330
1F
100
AcDbEntity
  8
1
  6
Continuous
 62
     7
370
     9
100
AcDbLine
 10
240.9283730494892
 20
361.1612681780082
 30
0.0
 11
240.9283730494892
 21
356.1612681780082
 31
0.0
  0
LINE
  5
128
330
1F
100
AcDbEntity
  8
1
  6
Continuous
 62
     7
370
     9
100
AcDbLine
 10
231.9283727433276
 20
361.1612681780082
 30
0.0
 11
242.9283727433276
 21
361.1612681780082
 31
0.0
  0
LINE
  5
129
330
1F
100
AcDbEntity
  8
1
  6
Continuous
 62
     7
370
     9
100
AcDbLine
 10
231.9283727433276
 20
361.1612681780082
 30
0.0
 11
231.9283727433276
 21
356.3612681780083
 31
0.0
  0
LINE
  5
12A
330
1F
100
AcDbEntity
  8
1
  6
Continuous
 62
     7
370
     9
100
AcDbLine
 10
232.1283727433276
 20
356.1612681780082
 30
0.0
 11
242.7283727433276
 21
356.1612681780082
 31
0.0
  0
ARC
  5
12B
330
1F
100
AcDbEntity
  8
1
  6
Continuous
 62
     7
370
     9
100
AcDbCircle
 10
232.1283727433276
 20
356.3612681780082
 30
0.0
 40
0.2
100
AcDbArc
 50
179.9999999999674
 51
270.000000000016
  0
LINE
  5
12C
330
1F
100
AcDbEntity
  8
1
  6
Continuous
 62
     7
370
     9
100
AcDbLine
 10
233.7283727433276
 20
405.3361725147436
 30
0.0
 11
233.7283727433276
 21
361.1612681780082
 31
0.0
  0
LINE
  5
12D
330
1F
100
AcDbEntity
  8
1
  6
Continuous
 62
     7
370
     9
100
AcDbLine
 10
241.1283727433276
 20
405.3361725147436
 30
0.0
 11
241.1283727433276
 21
361.1612681780082
 31
0.0
  0
INSERT
  5
140
330
1F
100
AcDbEntity
  8
0
100
AcDbBlockReference
  2
*G13
 10
0.0
 20
0.0
 30
0.0
  0
LINE
  5
141
330
1F
100
AcDbEntity
  8
1
  6
Continuous
 62
     7
370
     9
100
AcDbLine
 10
252.6283727433276
 20
405.3361725147436
 30
0.0
 11
252.6283727433276
 21
343.3361725147436
 31
0.0
  0
LINE
  5
142
330
1F
100
AcDbEntity
  8
1
  6
Continuous
 62
     7
370
     9
100
AcDbLine
 10
240.6283727433276
 20
356.1612681780082
 30
0.0
 11
240.6283727433276
 21
343.3361725147436
 31
0.0
  0
LINE
  5
143
330
1F
100
AcDbEntity
  8
1
  6
Continuous
 62
     7
370
     9
100
AcDbLine
 10
259.4083791208781
 20
426.3361725147436
 30
0.0
 11
259.4083791208781
 21
431.9361725147436
 31
0.0
  0
ARC
  5
144
330
1F
100
AcDbEntity
  8
1
  6
Continuous
 62
     7
370
     9
100
AcDbCircle
 10
259.808379120878
 20
431.9361725147436
 30
0.0
 40
0.4
100
AcDbArc
 50
89.99999999999991
 51
179.9999999999998
  0
LINE
  5
145
330
1F
100
AcDbEntity
  8
1
  6
Continuous
 62
     7
370
     9
100
AcDbLine
 10
259.808379120878
 20
432.3361725147436
 30
0.0
 11
286.808379120878
 21
432.3361725147436
 31
0.0
  0
LINE
  5
146
330
1F
100
AcDbEntity
  8
1
  6
Continuous
 62
     7
370
     9
100
AcDbLine
 10
287.2083791208781
 20
431.9361725147435
 30
0.0
 11
287.2083791208781
 21
426.3361725147436
 31
0.0
  0
ARC
  5
147
330
1F
100
AcDbEntity
  8
1
  6
Continuous
 62
     7
370
     9
100
AcDbCircle
 10
286.8083791208781
 20
431.9361725147436
 30
0.0
 40
0.4
100
AcDbArc
 50
359.9999999999834
 51
90.00000000000813
  0
LINE
  5
148
330
1F
100
AcDbEntity
  8
1
  6
Continuous
 62
     7
370
     9
100
AcDbLine
 10
258.4083791208781
 20
425.3361725147436
 30
0.0
 11
258.4083791208781
 21
426.3361725147436
 31
0.0
  0
LINE
  5
149
330
1F
100
AcDbEntity
  8
1
  6
Continuous
 62
     7
370
     9
100
AcDbLine
 10
258.4083791208781
 20
426.3361725147436
 30
0.0
 11
288.2083791208781
 21
426.3361725147436
 31
0.0
  0
LINE
  5
14A
330
1F
100
AcDbEntity
  8
1
  6
Continuous
 62
     7
370
     9
100
AcDbLine
 10
288.2083791208781
 20
425.3361725147436
 30
0.0
 11
288.2083791208781
 21
426.3361725147436
 31
0.0
  0
LINE
  5
14B
330
1F
100
AcDbEntity
  8
1
  6
Continuous
 62
     7
370
     9
100
AcDbLine
 10
263.4083791208781
 20
432.3361725147436
 30
0.0
 11
263.4083791208781
 21
426.3361725147436
 31
0.0
  0
LINE
  5
14C
330
1F
100
AcDbEntity
  8
1
  6
Continuous
 62
     7
370
     9
100
AcDbLine
 10
283.2083791208781
 20
432.3361725147436
 30
0.0
 11
283.2083791208781
 21
426.3361725147436
 31
0.0
  0
LINE
  5
14D
330
1F
100
AcDbEntity
  8
1
  6
Continuous
 62
     7
370
     9
100
AcDbLine
 10
262.9083791208781
 20
432.3361725147436
 30
0.0
 11
262.9083791208781
 21
435.3361725147436
 31
0.0
  0
LINE
  5
14E
330
1F
100
AcDbEntity
  8
1
  6
Continuous
 62
     7
370
     9
100
AcDbLine
 10
262.9083791208781
 20
435.3361725147436
 30
0.0
 11
283.7083791208781
 21
435.3361725147436
 31
0.0
  0
LINE
  5
14F
330
1F
100
AcDbEntity
  8
1
  6
Continuous
 62
     7
370
     9
100
AcDbLine
 10
283.7083791208781
 20
432.3361725147436
 30
0.0
 11
283.7083791208781
 21
435.3361725147436
 31
0.0
  0
LINE
  5
150
330
1F
100
AcDbEntity
  8
1
  6
Continuous
 62
     7
370
     9
100
AcDbLine
 10
258.5116635596542
 20
340.3361725147436
 30
0.0
 11
288.243806416797
 21
340.3361725147436
 31
0.0
  0
LINE
  5
151
330
1F
100
AcDbEntity
  8
1
  6
Continuous
 62
     7
370
     9
100
AcDbLine
 10
258.4083791208781
 20
343.3361725147436
 30
0.0
 11
258.4083791208781
 21
340.3361725147436
 31
0.0
  0
LINE
  5
152
330
1F
100
AcDbEntity
  8
1
  6
Continuous
 62
     7
370
     9
100
AcDbLine
 10
288.2083791208781
 20
340.3361725147436
 30
0.0
 11
288.2083791208781
 21
343.3361725147436
 31
0.0
  0
LINE
  5
153
330
1F
100
AcDbEntity
  8
1
  6
Continuous
 62
     7
370
     9
100
AcDbLine
 10
257.4083791208781
 20
343.3361725147436
 30
0.0
 11
257.4083791208781
 21
344.3361725147436
 31
0.0
  0
LINE
  5
154
330
1F
100
AcDbEntity
  8
1
  6
Continuous
 62
     7
370
     9
100
AcDbLine
 10
257.4083791208781
 20
344.3361725147436
 30
0.0
 11
289.2083791208781
 21
344.3361725147436
 31
0.0
  0
LINE
  5
155
330
1F
100
AcDbEntity
  8
1
  6
Continuous
 62
     7
370
     9
100
AcDbLine
 10
289.2083791208781
 20
343.3361725147436
 30
0.0
 11
289.2083791208781
 21
344.3361725147436
 31
0.0
  0
ARC
  5
156
330
1F
100
AcDbEntity
  8
1
  6
Continuous
 62
     7
370
     9
100
AcDbCircle
 10
257.9083791208781
 20
389.9980089607345
 30
0.0
 40
0.7107986038943181
100
AcDbArc
 50
110.00000000003
 51
269.9999999999998
  0
LINE
  5
157
330
1F
100
AcDbEntity
  8
1
  6
Continuous
 62
     7
370
     9
100
AcDbLine
 10
257.6652716804981
 20
390.6659411636788
 30
0.0
 11
288.708379120878
 21
396.1396785704488
 31
0.0
  0
LINE
  5
158
330
1F
100
AcDbEntity
  8
1
  6
Continuous
 62
     7
370
     9
100
AcDbLine
 10
257.9083791203859
 20
389.2872103596315
 30
0.0
 11
288.9514863830716
 21
394.7609477350691
 31
0.0
  0
ARC
  5
159
330
1F
100
AcDbEntity
  8
1
  6
Continuous
 62
     7
370
     9
100
AcDbCircle
 10
288.7083791208781
 20
395.4288799841467
 30
0.0
 40
0.710798586302019
100
AcDbArc
 50
289.9999852311853
 51
90.00000000000458
  0
ARC
  5
15A
330
1F
100
AcDbEntity
  8
1
  6
Continuous
 62
     7
370
     9
100
AcDbCircle
 10
257.9083791208781
 20
372.1207370120136
 30
0.0
 40
0.7107986038943181
100
AcDbArc
 50
110.0000000000269
 51
269.9999999999998
  0
LINE
  5
15B
330
1F
100
AcDbEntity
  8
1
  6
Continuous
 62
     7
370
     9
100
AcDbLine
 10
257.6652716804981
 20
372.788669214958
 30
0.0
 11
288.708379120878
 21
378.262406621728
 31
0.0
  0
LINE
  5
15C
330
1F
100
AcDbEntity
  8
1
  6
Continuous
 62
     7
370
     9
100
AcDbLine
 10
257.9083791203859
 20
371.4099384109108
 30
0.0
 11
288.9514863830716
 21
376.8836757863484
 31
0.0
  0
ARC
  5
15D
330
1F
100
AcDbEntity
  8
1
  6
Continuous
 62
     7
370
     9
100
AcDbCircle
 10
288.7083791208781
 20
377.551608035426
 30
0.0
 40
0.710798586302019
100
AcDbArc
 50
289.9999852311822
 51
90.00000000000458
  0
ARC
  5
15E
330
1F
100
AcDbEntity
  8
1
  6
Continuous
 62
     7
370
     9
100
AcDbCircle
 10
257.9083791208781
 20
356.8707370120138
 30
0.0
 40
0.7107986038943181
100
AcDbArc
 50
110.00000000003
 51
269.9999999999998
  0
LINE
  5
15F
330
1F
100
AcDbEntity
  8
1
  6
Continuous
 62
     7
370
     9
100
AcDbLine
 10
257.6652716804981
 20
357.5386692149581
 30
0.0
 11
288.708379120878
 21
363.0124066217281
 31
0.0
  0
LINE
  5
160
330
1F
100
AcDbEntity
  8
1
  6
Continuous
 62
     7
370
     9
100
AcDbLine
 10
257.9083791203859
 20
356.1599384109108
 30
0.0
 11
288.9514863830716
 21
361.6336757863484
 31
0.0
  0
ARC
  5
161
330
1F
100
AcDbEntity
  8
1
  6
Continuous
 62
     7
370
     9
100
AcDbCircle
 10
288.7083791208781
 20
362.301608035426
 30
0.0
 40
0.710798586302019
100
AcDbArc
 50
289.9999852311853
 51
90.00000000000458
  0
LINE
  5
162
330
1F
100
AcDbEntity
  8
1
  6
Continuous
 62
     7
370
     9
100
AcDbLine
 10
258.4083791208781
 20
390.796971054983
 30
0.0
 11
258.4083791208781
 21
405.3361725147436
 31
0.0
  0
LINE
  5
163
330
1F
100
AcDbEntity
  8
1
  6
Continuous
 62
     7
370
     9
100
AcDbLine
 10
288.2083791208781
 20
396.0515150800946
 30
0.0
 11
288.2083791208781
 21
405.3361725147436
 31
0.0
  0
LINE
  5
164
330
1F
100
AcDbEntity
  8
1
  6
Continuous
 62
     7
370
     9
100
AcDbLine
 10
288.2083791208781
 20
378.1742431313738
 30
0.0
 11
288.2083791208781
 21
394.629917875184
 31
0.0
  0
LINE
  5
165
330
1F
100
AcDbEntity
  8
1
  6
Continuous
 62
     7
370
     9
100
AcDbLine
 10
258.4083791208781
 20
372.9196991062623
 30
0.0
 11
258.4083791208781
 21
389.3753738500725
 31
0.0
  0
LINE
  5
166
330
1F
100
AcDbEntity
  8
1
  6
Continuous
 62
     7
370
     9
100
AcDbLine
 10
258.4083791208781
 20
344.3361725147436
 30
0.0
 11
258.4083791208781
 21
356.2481019013518
 31
0.0
  0
LINE
  5
167
330
1F
100
AcDbEntity
  8
1
  6
Continuous
 62
     7
370
     9
100
AcDbLine
 10
258.4083791208781
 20
357.6696991062623
 30
0.0
 11
258.4083791208781
 21
371.4981019013517
 31
0.0
  0
LINE
  5
168
330
1F
100
AcDbEntity
  8
1
  6
Continuous
 62
     7
370
     9
100
AcDbLine
 10
288.2083791208781
 20
344.3361725147436
 30
0.0
 11
288.2083791208781
 21
361.5026459264633
 31
0.0
  0
LINE
  5
169
330
1F
100
AcDbEntity
  8
1
  6
Continuous
 62
     7
370
     9
100
AcDbLine
 10
288.2083791208781
 20
362.9242431313739
 30
0.0
 11
288.2083791208781
 21
376.7526459264633
 31
0.0
  0
LINE
  5
16A
330
1F
100
AcDbEntity
  8
1
  6
Continuous
 62
     7
370
     9
100
AcDbLine
 10
287.2083791208781
 20
394.4535908944757
 30
0.0
 11
287.2083791208781
 21
377.9979161506654
 31
0.0
  0
LINE
  5
16B
330
1F
100
AcDbEntity
  8
1
  6
Continuous
 62
     7
370
     9
100
AcDbLine
 10
287.2083791208781
 20
395.8751880993861
 30
0.0
 11
287.2083791208781
 21
405.3361725147436
 31
0.0
  0
LINE
  5
16C
330
1F
100
AcDbEntity
  8
1
  6
Continuous
 62
     7
370
     9
100
AcDbLine
 10
287.2083791208781
 20
376.5763189457548
 30
0.0
 11
287.2083791208781
 21
362.7479161506654
 31
0.0
  0
LINE
  5
16D
330
1F
100
AcDbEntity
  8
1
  6
Continuous
 62
     7
370
     9
100
AcDbLine
 10
287.2083791208781
 20
361.326318945755
 30
0.0
 11
287.2083791208781
 21
344.3361725147436
 31
0.0
  0
LINE
  5
16E
330
1F
100
AcDbEntity
  8
1
  6
Continuous
 62
     7
370
     9
100
AcDbLine
 10
287.2083791208781
 20
343.3361725147436
 30
0.0
 11
287.2083791208781
 21
340.3361725147436
 31
0.0
  0
CIRCLE
  5
16F
330
1F
100
AcDbEntity
  8
1
  6
Continuous
 62
     7
370
     9
100
AcDbCircle
 10
246.6283727433276
 20
487.8361725147436
 30
0.0
 40
17.5
  0
LINE
  5
170
330
1F
100
AcDbEntity
  8
1
  6
Continuous
 62
     7
370
     9
100
AcDbLine
 10
240.6283727433276
 20
461.2633089943343
 30
0.0
 11
240.6283727433276
 21
471.39689029197
 31
0.0
  0
LINE
  5
171
330
1F
100
AcDbEntity
  8
1
  6
Continuous
 62
     7
370
     9
100
AcDbLine
 10
240.6283727433276
 20
445.3361725147436
 30
0.0
 11
240.6283727433276
 21
460.3377975432119
 31
0.0
  0
LINE
  5
172
330
1F
100
AcDbEntity
  8
1
  6
Continuous
 62
     7
370
     9
100
AcDbLine
 10
252.6283727433276
 20
459.6543810447036
 30
0.0
 11
252.6283727433276
 21
425.3361725147436
 31
0.0
  0
LINE
  5
173
330
1F
100
AcDbEntity
  8
1
  6
Continuous
 62
     7
370
     9
100
AcDbLine
 10
252.6283727433276
 20
460.579892495826
 30
0.0
 11
252.6283727433276
 21
471.39689029197
 31
0.0
  0
POLYLINE
  5
174
330
1F
100
AcDbEntity
  8
1
  6
Continuous
 62
     7
370
     9
100
AcDb2dPolyline
 66
     1
 10
0.0
 20
0.0
 30
0.0
 70
     2
  0
VERTEX
  5
176
330
174
100
AcDbEntity
  8
1
  6
Continuous
 62
     7
370
     9
100
AcDbVertex
100
AcDb2dVertex
 10
240.6283727433276
 20
460.3377975432119
 30
0.0
  0
VERTEX
  5
177
330
174
100
AcDbEntity
  8
1
  6
Continuous
 62
     7
370
     9
100
AcDbVertex
100
AcDb2dVertex
 10
240.6587697230931
 20
460.3506766078877
 30
0.0
  0
VERTEX
  5
178
330
174
100
AcDbEntity
  8
1
  6
Continuous
 62
     7
370
     9
100
AcDbVertex
100
AcDb2dVertex
 10
240.7491317986555
 20
460.3889475309237
 30
0.0
  0
VERTEX
  5
179
330
174
100
AcDbEntity
  8
1
  6
Continuous
 62
     7
370
     9
100
AcDbVertex
100
AcDb2dVertex
 10
240.8969966012927
 20
460.4514372717458
 30
0.0
  0
VERTEX
  5
17A
330
174
100
AcDbEntity
  8
1
  6
Continuous
 62
     7
370
     9
100
AcDbVertex
100
AcDb2dVertex
 10
241.0983396928255
 20
460.5359751804767
 30
0.0
  0
VERTEX
  5
17B
330
174
100
AcDbEntity
  8
1
  6
Continuous
 62
     7
370
     9
100
AcDbVertex
100
AcDb2dVertex
 10
241.3476897095213
 20
460.6391719876119
 30
0.0
  0
VERTEX
  5
17C
330
174
100
AcDbEntity
  8
1
  6
Continuous
 62
     7
370
     9
100
AcDbVertex
100
AcDb2dVertex
 10
241.6382819647453
 20
460.7562847407615
 30
0.0
  0
VERTEX
  5
17D
330
174
100
AcDbEntity
  8
1
  6
Continuous
 62
     7
370
     9
100
AcDbVertex
100
AcDb2dVertex
 10
241.9622442556253
 20
460.8812791676233
 30
0.0
  0
VERTEX
  5
17E
330
174
100
AcDbEntity
  8
1
  6
Continuous
 62
     7
370
     9
100
AcDbVertex
100
AcDb2dVertex
 10
242.310808392156
 20
461.007161542548
 30
0.0
  0
VERTEX
  5
17F
330
174
100
AcDbEntity
  8
1
  6
Continuous
 62
     7
370
     9
100
AcDbVertex
100
AcDb2dVertex
 10
242.6745413774078
 20
461.1265867371171
 30
0.0
  0
VERTEX
  5
180
330
174
100
AcDbEntity
  8
1
  6
Continuous
 62
     7
370
     9
100
AcDbVertex
100
AcDb2dVertex
 10
243.043590932365
 20
461.2326736893325
 30
0.0
  0
VERTEX
  5
181
330
174
100
AcDbEntity
  8
1
  6
Continuous
 62
     7
370
     9
100
AcDbVertex
100
AcDb2dVertex
 10
243.4079408280628
 20
461.3198932882391
 30
0.0
  0
VERTEX
  5
182
330
174
100
AcDbEntity
  8
1
  6
Continuous
 62
     7
370
     9
100
AcDbVertex
100
AcDb2dVertex
 10
243.7576719336664
 20
461.3848544478502
 30
0.0
  0
VERTEX
  5
183
330
174
100
AcDbEntity
  8
1
  6
Continuous
 62
     7
370
     9
100
AcDbVertex
100
AcDb2dVertex
 10
244.0832247930398
 20
461.4268137987166
 30
0.0
  0
VERTEX
  5
184
330
174
100
AcDbEntity
  8
1
  6
Continuous
 62
     7
370
     9
100
AcDbVertex
100
AcDb2dVertex
 10
244.375658853401
 20
461.447775754095
 30
0.0
  0
VERTEX
  5
185
330
174
100
AcDbEntity
  8
1
  6
Continuous
 62
     7
370
     9
100
AcDbVertex
100
AcDb2dVertex
 10
244.6269023237129
 20
461.4521254725552
 30
0.0
  0
VERTEX
  5
186
330
174
100
AcDbEntity
  8
1
  6
Continuous
 62
     7
370
     9
100
AcDbVertex
100
AcDb2dVertex
 10
244.8299853322613
 20
461.4458316175355
 30
0.0
  0
VERTEX
  5
187
330
174
100
AcDbEntity
  8
1
  6
Continuous
 62
     7
370
     9
100
AcDbVertex
100
AcDb2dVertex
 10
244.9792479683074
 20
461.4353479505342
 30
0.0
  0
VERTEX
  5
188
330
174
100
AcDbEntity
  8
1
  6
Continuous
 62
     7
370
     9
100
AcDbVertex
100
AcDb2dVertex
 10
245.0705143167325
 20
461.4264116227105
 30
0.0
  0
VERTEX
  5
189
330
174
100
AcDbEntity
  8
1
  6
Continuous
 62
     7
370
     9
100
AcDbVertex
100
AcDb2dVertex
 10
245.1012240168186
 20
461.422965231617
 30
0.0
  0
VERTEX
  5
18A
330
174
100
AcDbEntity
  8
1
  6
Continuous
 62
     7
370
     9
100
AcDbVertex
100
AcDb2dVertex
 10
245.1319378420036
 20
461.4192953158279
 30
0.0
  0
VERTEX
  5
18B
330
174
100
AcDbEntity
  8
1
  6
Continuous
 62
     7
370
     9
100
AcDbVertex
100
AcDb2dVertex
 10
245.2232572275179
 20
461.4070857900649
 30
0.0
  0
VERTEX
  5
18C
330
174
100
AcDbEntity
  8
1
  6
Continuous
 62
     7
370
     9
100
AcDbVertex
100
AcDb2dVertex
 10
245.3726812403584
 20
461.3830481067058
 30
0.0
  0
VERTEX
  5
18D
330
174
100
AcDbEntity
  8
1
  6
Continuous
 62
     7
370
     9
100
AcDbVertex
100
AcDb2dVertex
 10
245.5759465985878
 20
461.3426656299751
 30
0.0
  0
VERTEX
  5
18E
330
174
100
AcDbEntity
  8
1
  6
Continuous
 62
     7
370
     9
100
AcDbVertex
100
AcDb2dVertex
 10
245.8269508761616
 20
461.2814059421796
 30
0.0
  0
VERTEX
  5
18F
330
174
100
AcDbEntity
  8
1
  6
Continuous
 62
     7
370
     9
100
AcDbVertex
100
AcDb2dVertex
 10
246.1177568760009
 20
461.1960062641573
 30
0.0
  0
VERTEX
  5
190
330
174
100
AcDbEntity
  8
1
  6
Continuous
 62
     7
370
     9
100
AcDbVertex
100
AcDb2dVertex
 10
246.4387492602553
 20
461.0855381460958
 30
0.0
  0
VERTEX
  5
191
330
174
100
AcDbEntity
  8
1
  6
Continuous
 62
     7
370
     9
100
AcDbVertex
100
AcDb2dVertex
 10
246.7789885715807
 20
460.952010342025
 30
0.0
  0
VERTEX
  5
192
330
174
100
AcDbEntity
  8
1
  6
Continuous
 62
     7
370
     9
100
AcDbVertex
100
AcDb2dVertex
 10
247.1267648936303
 20
460.800376720122
 30
0.0
  0
VERTEX
  5
193
330
174
100
AcDbEntity
  8
1
  6
Continuous
 62
     7
370
     9
100
AcDbVertex
100
AcDb2dVertex
 10
247.4703038957725
 20
460.6379533232545
 30
0.0
  0
VERTEX
  5
194
330
174
100
AcDbEntity
  8
1
  6
Continuous
 62
     7
370
     9
100
AcDbVertex
100
AcDb2dVertex
 10
247.7985343596926
 20
460.4733826932655
 30
0.0
  0
VERTEX
  5
195
330
174
100
AcDbEntity
  8
1
  6
Continuous
 62
     7
370
     9
100
AcDbVertex
100
AcDb2dVertex
 10
248.1018000517727
 20
460.3153827985873
 30
0.0
  0
VERTEX
  5
196
330
174
100
AcDbEntity
  8
1
  6
Continuous
 62
     7
370
     9
100
AcDbVertex
100
AcDb2dVertex
 10
248.372397721016
 20
460.171559438138
 30
0.0
  0
VERTEX
  5
197
330
174
100
AcDbEntity
  8
1
  6
Continuous
 62
     7
370
     9
100
AcDbVertex
100
AcDb2dVertex
 10
248.6048489594044
 20
460.0475359240202
 30
0.0
  0
VERTEX
  5
198
330
174
100
AcDbEntity
  8
1
  6
Continuous
 62
     7
370
     9
100
AcDbVertex
100
AcDb2dVertex
 10
248.795862072958
 20
459.9465692983726
 30
0.0
  0
VERTEX
  5
199
330
174
100
AcDbEntity
  8
1
  6
Continuous
 62
     7
370
     9
100
AcDbVertex
100
AcDb2dVertex
 10
248.9440008380787
 20
459.8696996448664
 30
0.0
  0
VERTEX
  5
19A
330
174
100
AcDbEntity
  8
1
  6
Continuous
 62
     7
370
     9
100
AcDbVertex
100
AcDb2dVertex
 10
249.0491366504621
 20
459.8163484975689
 30
0.0
  0
VERTEX
  5
19B
330
174
100
AcDbEntity
  8
1
  6
Continuous
 62
     7
370
     9
100
AcDbVertex
100
AcDb2dVertex
 10
249.1118055418929
 20
459.7851757893676
 30
0.0
  0
VERTEX
  5
19C
330
174
100
AcDbEntity
  8
1
  6
Continuous
 62
     7
370
     9
100
AcDbVertex
100
AcDb2dVertex
 10
249.13261130496
 20
459.7749479277014
 30
0.0
  0
VERTEX
  5
19D
330
174
100
AcDbEntity
  8
1
  6
Continuous
 62
     7
370
     9
100
AcDbVertex
100
AcDb2dVertex
 10
249.153277032941
 20
459.7648536612261
 30
0.0
  0
VERTEX
  5
19E
330
174
100
AcDbEntity
  8
1
  6
Continuous
 62
     7
370
     9
100
AcDbVertex
100
AcDb2dVertex
 10
249.2138908748777
 20
459.735630698598
 30
0.0
  0
VERTEX
  5
19F
330
174
100
AcDbEntity
  8
1
  6
Continuous
 62
     7
370
     9
100
AcDbVertex
100
AcDb2dVertex
 10
249.3104818440942
 20
459.6903013893193
 30
0.0
  0
VERTEX
  5
1A0
330
174
100
AcDbEntity
  8
1
  6
Continuous
 62
     7
370
     9
100
AcDbVertex
100
AcDb2dVertex
 10
249.4369955792189
 20
459.6334077208685
 30
0.0
  0
VERTEX
  5
1A1
330
174
100
AcDbEntity
  8
1
  6
Continuous
 62
     7
370
     9
100
AcDbVertex
100
AcDb2dVertex
 10
249.5860322767355
 20
459.570362625565
 30
0.0
  0
VERTEX
  5
1A2
330
174
100
AcDbEntity
  8
1
  6
Continuous
 62
     7
370
     9
100
AcDbVertex
100
AcDb2dVertex
 10
249.7496873420474
 20
459.5067101919884
 30
0.0
  0
VERTEX
  5
1A3
330
174
100
AcDbEntity
  8
1
  6
Continuous
 62
     7
370
     9
100
AcDbVertex
100
AcDb2dVertex
 10
249.9203517694476
 20
459.4474210073604
 30
0.0
  0
VERTEX
  5
1A4
330
174
100
AcDbEntity
  8
1
  6
Continuous
 62
     7
370
     9
100
AcDbVertex
100
AcDb2dVertex
 10
250.0913463802583
 20
459.3963353306131
 30
0.0
  0
VERTEX
  5
1A5
330
174
100
AcDbEntity
  8
1
  6
Continuous
 62
     7
370
     9
100
AcDbVertex
100
AcDb2dVertex
 10
250.2573056785561
 20
459.3558319885136
 30
0.0
  0
VERTEX
  5
1A6
330
174
100
AcDbEntity
  8
1
  6
Continuous
 62
     7
370
     9
100
AcDbVertex
100
AcDb2dVertex
 10
250.41428325628
 20
459.3267530489999
 30
0.0
  0
VERTEX
  5
1A7
330
174
100
AcDbEntity
  8
1
  6
Continuous
 62
     7
370
     9
100
AcDbVertex
100
AcDb2dVertex
 10
250.5596084986027
 20
459.308564234928
 30
0.0
  0
VERTEX
  5
1A8
330
174
100
AcDbEntity
  8
1
  6
Continuous
 62
     7
370
     9
100
AcDbVertex
100
AcDb2dVertex
 10
250.6915710175985
 20
459.2996894888782
 30
0.0
  0
VERTEX
  5
1A9
330
174
100
AcDbEntity
  8
1
  6
Continuous
 62
     7
370
     9
100
AcDbVertex
100
AcDb2dVertex
 10
250.8090350501373
 20
459.2979334283069
 30
0.0
  0
VERTEX
  5
1AA
330
174
100
AcDbEntity
  8
1
  6
Continuous
 62
     7
370
     9
100
AcDbVertex
100
AcDb2dVertex
 10
250.911086505814
 20
459.3009017054358
 30
0.0
  0
VERTEX
  5
1AB
330
174
100
AcDbEntity
  8
1
  6
Continuous
 62
     7
370
     9
100
AcDbVertex
100
AcDb2dVertex
 10
250.9967920859038
 20
459.3063455197551
 30
0.0
  0
VERTEX
  5
1AC
330
174
100
AcDbEntity
  8
1
  6
Continuous
 62
     7
370
     9
100
AcDbVertex
100
AcDb2dVertex
 10
251.0651101050669
 20
459.3123871237718
 30
0.0
  0
VERTEX
  5
1AD
330
174
100
AcDbEntity
  8
1
  6
Continuous
 62
     7
370
     9
100
AcDbVertex
100
AcDb2dVertex
 10
251.1149471686111
 20
459.317619436492
 30
0.0
  0
VERTEX
  5
1AE
330
174
100
AcDbEntity
  8
1
  6
Continuous
 62
     7
370
     9
100
AcDbVertex
100
AcDb2dVertex
 10
251.1453154263059
 20
459.3211053091063
 30
0.0
  0
VERTEX
  5
1AF
330
174
100
AcDbEntity
  8
1
  6
Continuous
 62
     7
370
     9
100
AcDbVertex
100
AcDb2dVertex
 10
251.1555214698366
 20
459.3223225812887
 30
0.0
  0
VERTEX
  5
1B0
330
174
100
AcDbEntity
  8
1
  6
Continuous
 62
     7
370
     9
100
AcDbVertex
100
AcDb2dVertex
 10
251.1657240806185
 20
459.3235611608526
 30
0.0
  0
VERTEX
  5
1B1
330
174
100
AcDbEntity
  8
1
  6
Continuous
 62
     7
370
     9
100
AcDbVertex
100
AcDb2dVertex
 10
251.1960344591968
 20
459.3273669014831
 30
0.0
  0
VERTEX
  5
1B2
330
174
100
AcDbEntity
  8
1
  6
Continuous
 62
     7
370
     9
100
AcDbVertex
100
AcDb2dVertex
 10
251.2455716897309
 20
459.333985821137
 30
0.0
  0
VERTEX
  5
1B3
330
174
100
AcDbEntity
  8
1
  6
Continuous
 62
     7
370
     9
100
AcDbVertex
100
AcDb2dVertex
 10
251.3129047546504
 20
459.3437529349624
 30
0.0
  0
VERTEX
  5
1B4
330
174
100
AcDbEntity
  8
1
  6
Continuous
 62
     7
370
     9
100
AcDbVertex
100
AcDb2dVertex
 10
251.396105053299
 20
459.3569959681894
 30
0.0
  0
VERTEX
  5
1B5
330
174
100
AcDbEntity
  8
1
  6
Continuous
 62
     7
370
     9
100
AcDbVertex
100
AcDb2dVertex
 10
251.4928140184417
 20
459.3739294111568
 30
0.0
  0
VERTEX
  5
1B6
330
174
100
AcDbEntity
  8
1
  6
Continuous
 62
     7
370
     9
100
AcDbVertex
100
AcDb2dVertex
 10
251.6003211430918
 20
459.39456018167
 30
0.0
  0
VERTEX
  5
1B7
330
174
100
AcDbEntity
  8
1
  6
Continuous
 62
     7
370
     9
100
AcDbVertex
100
AcDb2dVertex
 10
251.7156478322401
 20
459.4186233479161
 30
0.0
  0
VERTEX
  5
1B8
330
174
100
AcDbEntity
  8
1
  6
Continuous
 62
     7
370
     9
100
AcDbVertex
100
AcDb2dVertex
 10
251.8356332221808
 20
459.4455598125222
 30
0.0
  0
VERTEX
  5
1B9
330
174
100
AcDbEntity
  8
1
  6
Continuous
 62
     7
370
     9
100
AcDbVertex
100
AcDb2dVertex
 10
251.9570192330253
 20
459.4745391095562
 30
0.0
  0
VERTEX
  5
1BA
330
174
100
AcDbEntity
  8
1
  6
Continuous
 62
     7
370
     9
100
AcDbVertex
100
AcDb2dVertex
 10
252.0765333355665
 20
459.5045215146132
 30
0.0
  0
VERTEX
  5
1BB
330
174
100
AcDbEntity
  8
1
  6
Continuous
 62
     7
370
     9
100
AcDbVertex
100
AcDb2dVertex
 10
252.190968521218
 20
459.5343464868506
 30
0.0
  0
VERTEX
  5
1BC
330
174
100
AcDbEntity
  8
1
  6
Continuous
 62
     7
370
     9
100
AcDbVertex
100
AcDb2dVertex
 10
252.2972605345112
 20
459.5628305478127
 30
0.0
  0
VERTEX
  5
1BD
330
174
100
AcDbEntity
  8
1
  6
Continuous
 62
     7
370
     9
100
AcDbVertex
100
AcDb2dVertex
 10
252.3925624566069
 20
459.5888577398103
 30
0.0
  0
VERTEX
  5
1BE
330
174
100
AcDbEntity
  8
1
  6
Continuous
 62
     7
370
     9
100
AcDbVertex
100
AcDb2dVertex
 10
252.4743162554647
 20
459.611449531837
 30
0.0
  0
VERTEX
  5
1BF
330
174
100
AcDbEntity
  8
1
  6
Continuous
 62
     7
370
     9
100
AcDbVertex
100
AcDb2dVertex
 10
252.5403201145472
 20
459.6298073311548
 30
0.0
  0
VERTEX
  5
1C0
330
174
100
AcDbEntity
  8
1
  6
Continuous
 62
     7
370
     9
100
AcDbVertex
100
AcDb2dVertex
 10
252.588789473275
 20
459.6433279289227
 30
0.0
  0
VERTEX
  5
1C1
330
174
100
AcDbEntity
  8
1
  6
Continuous
 62
     7
370
     9
100
AcDbVertex
100
AcDb2dVertex
 10
252.6184090345575
 20
459.6515984363743
 30
0.0
  0
VERTEX
  5
1C2
330
174
100
AcDbEntity
  8
1
  6
Continuous
 62
     7
370
     9
100
AcDbVertex
100
AcDb2dVertex
 10
252.6283727433276
 20
459.6543810447035
 30
0.0
  0
SEQEND
  5
175
330
174
100
AcDbEntity
  8
1
  6
Continuous
370
     9
  0
POLYLINE
  5
1C3
330
1F
100
AcDbEntity
  8
1
  6
Continuous
 62
     7
370
     9
100
AcDb2dPolyline
 66
     1
 10
0.0
 20
0.0
 30
0.0
 70
     2
  0
VERTEX
  5
1C5
330
1C3
100
AcDbEntity
  8
1
  6
Continuous
 62
     7
370
     9
100
AcDbVertex
100
AcDb2dVertex
 10
240.6283727433276
 20
461.2633089943343
 30
0.0
  0
VERTEX
  5
1C6
330
1C3
100
AcDbEntity
  8
1
  6
Continuous
 62
     7
370
     9
100
AcDbVertex
100
AcDb2dVertex
 10
240.6587697230931
 20
461.2761880590101
 30
0.0
  0
VERTEX
  5
1C7
330
1C3
100
AcDbEntity
  8
1
  6
Continuous
 62
     7
370
     9
100
AcDbVertex
100
AcDb2dVertex
 10
240.7491317986555
 20
461.3144589820461
 30
0.0
  0
VERTEX
  5
1C8
330
1C3
100
AcDbEntity
  8
1
  6
Continuous
 62
     7
370
     9
100
AcDbVertex
100
AcDb2dVertex
 10
240.8969966012927
 20
461.3769487228682
 30
0.0
  0
VERTEX
  5
1C9
330
1C3
100
AcDbEntity
  8
1
  6
Continuous
 62
     7
370
     9
100
AcDbVertex
100
AcDb2dVertex
 10
241.0983396928255
 20
461.461486631599
 30
0.0
  0
VERTEX
  5
1CA
330
1C3
100
AcDbEntity
  8
1
  6
Continuous
 62
     7
370
     9
100
AcDbVertex
100
AcDb2dVertex
 10
241.3476897095213
 20
461.5646834387343
 30
0.0
  0
VERTEX
  5
1CB
330
1C3
100
AcDbEntity
  8
1
  6
Continuous
 62
     7
370
     9
100
AcDbVertex
100
AcDb2dVertex
 10
241.6382819647453
 20
461.6817961918838
 30
0.0
  0
VERTEX
  5
1CC
330
1C3
100
AcDbEntity
  8
1
  6
Continuous
 62
     7
370
     9
100
AcDbVertex
100
AcDb2dVertex
 10
241.9622442556253
 20
461.8067906187457
 30
0.0
  0
VERTEX
  5
1CD
330
1C3
100
AcDbEntity
  8
1
  6
Continuous
 62
     7
370
     9
100
AcDbVertex
100
AcDb2dVertex
 10
242.310808392156
 20
461.9326729936703
 30
0.0
  0
VERTEX
  5
1CE
330
1C3
100
AcDbEntity
  8
1
  6
Continuous
 62
     7
370
     9
100
AcDbVertex
100
AcDb2dVertex
 10
242.6745413774078
 20
462.0520981882394
 30
0.0
  0
VERTEX
  5
1CF
330
1C3
100
AcDbEntity
  8
1
  6
Continuous
 62
     7
370
     9
100
AcDbVertex
100
AcDb2dVertex
 10
243.043590932365
 20
462.1581851404549
 30
0.0
  0
VERTEX
  5
1D0
330
1C3
100
AcDbEntity
  8
1
  6
Continuous
 62
     7
370
     9
100
AcDbVertex
100
AcDb2dVertex
 10
243.4079408280628
 20
462.2454047393615
 30
0.0
  0
VERTEX
  5
1D1
330
1C3
100
AcDbEntity
  8
1
  6
Continuous
 62
     7
370
     9
100
AcDbVertex
100
AcDb2dVertex
 10
243.7576719336664
 20
462.3103658989725
 30
0.0
  0
VERTEX
  5
1D2
330
1C3
100
AcDbEntity
  8
1
  6
Continuous
 62
     7
370
     9
100
AcDbVertex
100
AcDb2dVertex
 10
244.0832247930398
 20
462.352325249839
 30
0.0
  0
VERTEX
  5
1D3
330
1C3
100
AcDbEntity
  8
1
  6
Continuous
 62
     7
370
     9
100
AcDbVertex
100
AcDb2dVertex
 10
244.375658853401
 20
462.3732872052174
 30
0.0
  0
VERTEX
  5
1D4
330
1C3
100
AcDbEntity
  8
1
  6
Continuous
 62
     7
370
     9
100
AcDbVertex
100
AcDb2dVertex
 10
244.6269023237129
 20
462.3776369236775
 30
0.0
  0
VERTEX
  5
1D5
330
1C3
100
AcDbEntity
  8
1
  6
Continuous
 62
     7
370
     9
100
AcDbVertex
100
AcDb2dVertex
 10
244.8299853322613
 20
462.3713430686578
 30
0.0
  0
VERTEX
  5
1D6
330
1C3
100
AcDbEntity
  8
1
  6
Continuous
 62
     7
370
     9
100
AcDbVertex
100
AcDb2dVertex
 10
244.9792479683074
 20
462.3608594016565
 30
0.0
  0
VERTEX
  5
1D7
330
1C3
100
AcDbEntity
  8
1
  6
Continuous
 62
     7
370
     9
100
AcDbVertex
100
AcDb2dVertex
 10
245.0705143167325
 20
462.3519230738328
 30
0.0
  0
VERTEX
  5
1D8
330
1C3
100
AcDbEntity
  8
1
  6
Continuous
 62
     7
370
     9
100
AcDbVertex
100
AcDb2dVertex
 10
245.1012240168186
 20
462.3484766827393
 30
0.0
  0
VERTEX
  5
1D9
330
1C3
100
AcDbEntity
  8
1
  6
Continuous
 62
     7
370
     9
100
AcDbVertex
100
AcDb2dVertex
 10
245.1319378420036
 20
462.3448067669502
 30
0.0
  0
VERTEX
  5
1DA
330
1C3
100
AcDbEntity
  8
1
  6
Continuous
 62
     7
370
     9
100
AcDbVertex
100
AcDb2dVertex
 10
245.2232572275179
 20
462.3325972411872
 30
0.0
  0
VERTEX
  5
1DB
330
1C3
100
AcDbEntity
  8
1
  6
Continuous
 62
     7
370
     9
100
AcDbVertex
100
AcDb2dVertex
 10
245.3726812403584
 20
462.3085595578282
 30
0.0
  0
VERTEX
  5
1DC
330
1C3
100
AcDbEntity
  8
1
  6
Continuous
 62
     7
370
     9
100
AcDbVertex
100
AcDb2dVertex
 10
245.5759465985878
 20
462.2681770810975
 30
0.0
  0
VERTEX
  5
1DD
330
1C3
100
AcDbEntity
  8
1
  6
Continuous
 62
     7
370
     9
100
AcDbVertex
100
AcDb2dVertex
 10
245.8269508761616
 20
462.2069173933019
 30
0.0
  0
VERTEX
  5
1DE
330
1C3
100
AcDbEntity
  8
1
  6
Continuous
 62
     7
370
     9
100
AcDbVertex
100
AcDb2dVertex
 10
246.1177568760009
 20
462.1215177152797
 30
0.0
  0
VERTEX
  5
1DF
330
1C3
100
AcDbEntity
  8
1
  6
Continuous
 62
     7
370
     9
100
AcDbVertex
100
AcDb2dVertex
 10
246.4387492602553
 20
462.0110495972182
 30
0.0
  0
VERTEX
  5
1E0
330
1C3
100
AcDbEntity
  8
1
  6
Continuous
 62
     7
370
     9
100
AcDbVertex
100
AcDb2dVertex
 10
246.7789885715807
 20
461.8775217931474
 30
0.0
  0
VERTEX
  5
1E1
330
1C3
100
AcDbEntity
  8
1
  6
Continuous
 62
     7
370
     9
100
AcDbVertex
100
AcDb2dVertex
 10
247.1267648936303
 20
461.7258881712443
 30
0.0
  0
VERTEX
  5
1E2
330
1C3
100
AcDbEntity
  8
1
  6
Continuous
 62
     7
370
     9
100
AcDbVertex
100
AcDb2dVertex
 10
247.4703038957725
 20
461.5634647743768
 30
0.0
  0
VERTEX
  5
1E3
330
1C3
100
AcDbEntity
  8
1
  6
Continuous
 62
     7
370
     9
100
AcDbVertex
100
AcDb2dVertex
 10
247.7985343596926
 20
461.3988941443878
 30
0.0
  0
VERTEX
  5
1E4
330
1C3
100
AcDbEntity
  8
1
  6
Continuous
 62
     7
370
     9
100
AcDbVertex
100
AcDb2dVertex
 10
248.1018000517727
 20
461.2408942497097
 30
0.0
  0
VERTEX
  5
1E5
330
1C3
100
AcDbEntity
  8
1
  6
Continuous
 62
     7
370
     9
100
AcDbVertex
100
AcDb2dVertex
 10
248.372397721016
 20
461.0970708892604
 30
0.0
  0
VERTEX
  5
1E6
330
1C3
100
AcDbEntity
  8
1
  6
Continuous
 62
     7
370
     9
100
AcDbVertex
100
AcDb2dVertex
 10
248.6048489594044
 20
460.9730473751425
 30
0.0
  0
VERTEX
  5
1E7
330
1C3
100
AcDbEntity
  8
1
  6
Continuous
 62
     7
370
     9
100
AcDbVertex
100
AcDb2dVertex
 10
248.795862072958
 20
460.872080749495
 30
0.0
  0
VERTEX
  5
1E8
330
1C3
100
AcDbEntity
  8
1
  6
Continuous
 62
     7
370
     9
100
AcDbVertex
100
AcDb2dVertex
 10
248.9440008380787
 20
460.7952110959887
 30
0.0
  0
VERTEX
  5
1E9
330
1C3
100
AcDbEntity
  8
1
  6
Continuous
 62
     7
370
     9
100
AcDbVertex
100
AcDb2dVertex
 10
249.0491366504621
 20
460.7418599486913
 30
0.0
  0
VERTEX
  5
1EA
330
1C3
100
AcDbEntity
  8
1
  6
Continuous
 62
     7
370
     9
100
AcDbVertex
100
AcDb2dVertex
 10
249.1118055418929
 20
460.71068724049
 30
0.0
  0
VERTEX
  5
1EB
330
1C3
100
AcDbEntity
  8
1
  6
Continuous
 62
     7
370
     9
100
AcDbVertex
100
AcDb2dVertex
 10
249.13261130496
 20
460.7004593788237
 30
0.0
  0
VERTEX
  5
1EC
330
1C3
100
AcDbEntity
  8
1
  6
Continuous
 62
     7
370
     9
100
AcDbVertex
100
AcDb2dVertex
 10
249.153277032941
 20
460.6903651123485
 30
0.0
  0
VERTEX
  5
1ED
330
1C3
100
AcDbEntity
  8
1
  6
Continuous
 62
     7
370
     9
100
AcDbVertex
100
AcDb2dVertex
 10
249.2138908748777
 20
460.6611421497204
 30
0.0
  0
VERTEX
  5
1EE
330
1C3
100
AcDbEntity
  8
1
  6
Continuous
 62
     7
370
     9
100
AcDbVertex
100
AcDb2dVertex
 10
249.3104818440942
 20
460.6158128404417
 30
0.0
  0
VERTEX
  5
1EF
330
1C3
100
AcDbEntity
  8
1
  6
Continuous
 62
     7
370
     9
100
AcDbVertex
100
AcDb2dVertex
 10
249.4369955792189
 20
460.5589191719909
 30
0.0
  0
VERTEX
  5
1F0
330
1C3
100
AcDbEntity
  8
1
  6
Continuous
 62
     7
370
     9
100
AcDbVertex
100
AcDb2dVertex
 10
249.5860322767355
 20
460.4958740766874
 30
0.0
  0
VERTEX
  5
1F1
330
1C3
100
AcDbEntity
  8
1
  6
Continuous
 62
     7
370
     9
100
AcDbVertex
100
AcDb2dVertex
 10
249.7496873420474
 20
460.4322216431107
 30
0.0
  0
VERTEX
  5
1F2
330
1C3
100
AcDbEntity
  8
1
  6
Continuous
 62
     7
370
     9
100
AcDbVertex
100
AcDb2dVertex
 10
249.9203517694476
 20
460.3729324584828
 30
0.0
  0
VERTEX
  5
1F3
330
1C3
100
AcDbEntity
  8
1
  6
Continuous
 62
     7
370
     9
100
AcDbVertex
100
AcDb2dVertex
 10
250.0913463802583
 20
460.3218467817355
 30
0.0
  0
VERTEX
  5
1F4
330
1C3
100
AcDbEntity
  8
1
  6
Continuous
 62
     7
370
     9
100
AcDbVertex
100
AcDb2dVertex
 10
250.2573056785561
 20
460.281343439636
 30
0.0
  0
VERTEX
  5
1F5
330
1C3
100
AcDbEntity
  8
1
  6
Continuous
 62
     7
370
     9
100
AcDbVertex
100
AcDb2dVertex
 10
250.41428325628
 20
460.2522645001223
 30
0.0
  0
VERTEX
  5
1F6
330
1C3
100
AcDbEntity
  8
1
  6
Continuous
 62
     7
370
     9
100
AcDbVertex
100
AcDb2dVertex
 10
250.5596084986027
 20
460.2340756860503
 30
0.0
  0
VERTEX
  5
1F7
330
1C3
100
AcDbEntity
  8
1
  6
Continuous
 62
     7
370
     9
100
AcDbVertex
100
AcDb2dVertex
 10
250.6915710175985
 20
460.2252009400006
 30
0.0
  0
VERTEX
  5
1F8
330
1C3
100
AcDbEntity
  8
1
  6
Continuous
 62
     7
370
     9
100
AcDbVertex
100
AcDb2dVertex
 10
250.8090350501373
 20
460.2234448794292
 30
0.0
  0
VERTEX
  5
1F9
330
1C3
100
AcDbEntity
  8
1
  6
Continuous
 62
     7
370
     9
100
AcDbVertex
100
AcDb2dVertex
 10
250.911086505814
 20
460.2264131565582
 30
0.0
  0
VERTEX
  5
1FA
330
1C3
100
AcDbEntity
  8
1
  6
Continuous
 62
     7
370
     9
100
AcDbVertex
100
AcDb2dVertex
 10
250.9967920859038
 20
460.2318569708775
 30
0.0
  0
VERTEX
  5
1FB
330
1C3
100
AcDbEntity
  8
1
  6
Continuous
 62
     7
370
     9
100
AcDbVertex
100
AcDb2dVertex
 10
251.0651101050669
 20
460.2378985748941
 30
0.0
  0
VERTEX
  5
1FC
330
1C3
100
AcDbEntity
  8
1
  6
Continuous
 62
     7
370
     9
100
AcDbVertex
100
AcDb2dVertex
 10
251.1149471686111
 20
460.2431308876144
 30
0.0
  0
VERTEX
  5
1FD
330
1C3
100
AcDbEntity
  8
1
  6
Continuous
 62
     7
370
     9
100
AcDbVertex
100
AcDb2dVertex
 10
251.1453154263059
 20
460.2466167602287
 30
0.0
  0
VERTEX
  5
1FE
330
1C3
100
AcDbEntity
  8
1
  6
Continuous
 62
     7
370
     9
100
AcDbVertex
100
AcDb2dVertex
 10
251.1555214698366
 20
460.247834032411
 30
0.0
  0
VERTEX
  5
1FF
330
1C3
100
AcDbEntity
  8
1
  6
Continuous
 62
     7
370
     9
100
AcDbVertex
100
AcDb2dVertex
 10
251.1657240806185
 20
460.249072611975
 30
0.0
  0
VERTEX
  5
200
330
1C3
100
AcDbEntity
  8
1
  6
Continuous
 62
     7
370
     9
100
AcDbVertex
100
AcDb2dVertex
 10
251.1960344591968
 20
460.2528783526054
 30
0.0
  0
VERTEX
  5
201
330
1C3
100
AcDbEntity
  8
1
  6
Continuous
 62
     7
370
     9
100
AcDbVertex
100
AcDb2dVertex
 10
251.2455716897309
 20
460.2594972722594
 30
0.0
  0
VERTEX
  5
202
330
1C3
100
AcDbEntity
  8
1
  6
Continuous
 62
     7
370
     9
100
AcDbVertex
100
AcDb2dVertex
 10
251.3129047546504
 20
460.2692643860847
 30
0.0
  0
VERTEX
  5
203
330
1C3
100
AcDbEntity
  8
1
  6
Continuous
 62
     7
370
     9
100
AcDbVertex
100
AcDb2dVertex
 10
251.396105053299
 20
460.2825074193118
 30
0.0
  0
VERTEX
  5
204
330
1C3
100
AcDbEntity
  8
1
  6
Continuous
 62
     7
370
     9
100
AcDbVertex
100
AcDb2dVertex
 10
251.4928140184417
 20
460.2994408622792
 30
0.0
  0
VERTEX
  5
205
330
1C3
100
AcDbEntity
  8
1
  6
Continuous
 62
     7
370
     9
100
AcDbVertex
100
AcDb2dVertex
 10
251.6003211430918
 20
460.3200716327923
 30
0.0
  0
VERTEX
  5
206
330
1C3
100
AcDbEntity
  8
1
  6
Continuous
 62
     7
370
     9
100
AcDbVertex
100
AcDb2dVertex
 10
251.7156478322401
 20
460.3441347990384
 30
0.0
  0
VERTEX
  5
207
330
1C3
100
AcDbEntity
  8
1
  6
Continuous
 62
     7
370
     9
100
AcDbVertex
100
AcDb2dVertex
 10
251.8356332221808
 20
460.3710712636446
 30
0.0
  0
VERTEX
  5
208
330
1C3
100
AcDbEntity
  8
1
  6
Continuous
 62
     7
370
     9
100
AcDbVertex
100
AcDb2dVertex
 10
251.9570192330253
 20
460.4000505606786
 30
0.0
  0
VERTEX
  5
209
330
1C3
100
AcDbEntity
  8
1
  6
Continuous
 62
     7
370
     9
100
AcDbVertex
100
AcDb2dVertex
 10
252.0765333355665
 20
460.4300329657356
 30
0.0
  0
VERTEX
  5
20A
330
1C3
100
AcDbEntity
  8
1
  6
Continuous
 62
     7
370
     9
100
AcDbVertex
100
AcDb2dVertex
 10
252.190968521218
 20
460.459857937973
 30
0.0
  0
VERTEX
  5
20B
330
1C3
100
AcDbEntity
  8
1
  6
Continuous
 62
     7
370
     9
100
AcDbVertex
100
AcDb2dVertex
 10
252.2972605345112
 20
460.4883419989351
 30
0.0
  0
VERTEX
  5
20C
330
1C3
100
AcDbEntity
  8
1
  6
Continuous
 62
     7
370
     9
100
AcDbVertex
100
AcDb2dVertex
 10
252.3925624566069
 20
460.5143691909327
 30
0.0
  0
VERTEX
  5
20D
330
1C3
100
AcDbEntity
  8
1
  6
Continuous
 62
     7
370
     9
100
AcDbVertex
100
AcDb2dVertex
 10
252.4743162554647
 20
460.5369609829594
 30
0.0
  0
VERTEX
  5
20E
330
1C3
100
AcDbEntity
  8
1
  6
Continuous
 62
     7
370
     9
100
AcDbVertex
100
AcDb2dVertex
 10
252.5403201145472
 20
460.5553187822772
 30
0.0
  0
VERTEX
  5
20F
330
1C3
100
AcDbEntity
  8
1
  6
Continuous
 62
     7
370
     9
100
AcDbVertex
100
AcDb2dVertex
 10
252.588789473275
 20
460.5688393800451
 30
0.0
  0
VERTEX
  5
210
330
1C3
100
AcDbEntity
  8
1
  6
Continuous
 62
     7
370
     9
100
AcDbVertex
100
AcDb2dVertex
 10
252.6184090345575
 20
460.5771098874967
 30
0.0
  0
VERTEX
  5
211
330
1C3
100
AcDbEntity
  8
1
  6
Continuous
 62
     7
370
     9
100
AcDbVertex
100
AcDb2dVertex
 10
252.6283727433276
 20
460.5798924958259
 30
0.0
  0
SEQEND
  5
1C4
330
1C3
100
AcDbEntity
  8
1
  6
Continuous
370
     9
  0
LINE
  5
212
330
1F
100
AcDbEntity
  8
1
  6
DOT
 62
     7
370
     9
100
AcDbLine
 10
258.4083791208781
 20
255.3361725147436
 30
0.0
 11
258.4083791208781
 21
215.3361725147436
 31
0.0
  0
LINE
  5
213
330
1F
100
AcDbEntity
  8
1
  6
DOT
 62
     7
370
     9
100
AcDbLine
 10
258.683857437205
 20
215.3361725147436
 30
0.0
 11
288.2083791208781
 21
215.3361725147436
 31
0.0
  0
LINE
  5
214
330
1F
100
AcDbEntity
  8
1
  6
DOT
 62
     7
370
     9
100
AcDbLine
 10
288.2083791208781
 20
255.3361725147436
 30
0.0
 11
288.2083791208781
 21
215.3361725147436
 31
0.0
  0
CIRCLE
  5
215
330
1F
100
AcDbEntity
  8
1
  6
Continuous
 62
     7
370
     9
100
AcDbCircle
 10
698.1455921310817
 20
242.9150947086246
 30
0.0
 40
10.0
  0
CIRCLE
  5
216
330
1F
100
AcDbEntity
  8
1
  6
Continuous
 62
     7
370
     9
100
AcDbCircle
 10
648.1455921310819
 20
242.9150947086246
 30
0.0
 40
4.0
  0
CIRCLE
  5
217
330
1F
100
AcDbEntity
  8
1
  6
Continuous
 62
     7
370
     9
100
AcDbCircle
 10
748.1455921310819
 20
242.9150947086247
 30
0.0
 40
4.0
  0
ARC
  5
218
330
1F
100
AcDbEntity
  8
1
  6
Continuous
 62
     7
370
     9
100
AcDbCircle
 10
616.6455921310819
 20
118.9150947086246
 30
0.0
 40
6.0
100
AcDbArc
 50
179.9999999999998
 51
269.9999999999998
  0
LINE
  5
219
330
1F
100
AcDbEntity
  8
1
  6
Continuous
 62
     7
370
     9
100
AcDbLine
 10
616.6455921310819
 20
112.9150947086246
 30
0.0
 11
779.6455921310817
 21
112.9150947086246
 31
0.0
  0
ARC
  5
21A
330
1F
100
AcDbEntity
  8
1
  6
Continuous
 62
     7
370
     9
100
AcDbCircle
 10
779.6455921310817
 20
118.9150947086246
 30
0.0
 40
6.0
100
AcDbArc
 50
269.9999999999998
 51
359.9999999999991
  0
LINE
  5
21B
330
1F
100
AcDbEntity
  8
1
  6
Continuous
 62
     7
370
     9
100
AcDbLine
 10
610.6455921310819
 20
321.0313456237052
 30
0.0
 11
610.6455921310819
 21
118.9150947086246
 31
0.0
  0
ARC
  5
21C
330
1F
100
AcDbEntity
  8
1
  6
Continuous
 62
     7
370
     9
100
AcDbCircle
 10
616.6455921310819
 20
321.0313456237051
 30
0.0
 40
6.0
100
AcDbArc
 50
128.6598082540894
 51
179.9999999999989
  0
LINE
  5
21D
330
1F
100
AcDbEntity
  8
1
  6
Continuous
 62
     7
370
     9
100
AcDbLine
 10
785.6455921310817
 20
118.9150947086246
 30
0.0
 11
785.6455921310817
 21
321.0313456237051
 31
0.0
  0
ARC
  5
21E
330
1F
100
AcDbEntity
  8
1
  6
Continuous
 62
     7
370
     9
100
AcDbCircle
 10
779.6455921310817
 20
321.0313456237051
 30
0.0
 40
6.0
100
AcDbArc
 50
0.0
 51
51.34019174590991
  0
ARC
  5
21F
330
1F
100
AcDbEntity
  8
1
  6
Continuous
 62
     7
370
     9
100
AcDbCircle
 10
698.1455921310826
 20
373.9150947086246
 30
0.0
 40
20.0
100
AcDbArc
 50
51.34019174591022
 51
128.6598082540903
  0
LINE
  5
220
330
1F
100
AcDbEntity
  8
1
  6
Continuous
 62
     7
370
     9
100
AcDbLine
 10
612.8974218457554
 20
325.7165584803634
 30
0.0
 11
685.651696068621
 21
389.5324748083856
 31
0.0
  0
LINE
  5
221
330
1F
100
AcDbEntity
  8
1
  6
Continuous
 62
     7
370
     9
100
AcDbLine
 10
783.3937627225698
 20
325.7165584803634
 30
0.0
 11
710.6394884997042
 21
389.5324748083856
 31
0.0
  0
ARC
  5
222
330
1F
100
AcDbEntity
  8
1
  6
Continuous
 62
     7
370
     9
100
AcDbCircle
 10
616.6455921310819
 20
321.0313456237051
 30
0.0
 40
-2.0
100
AcDbArc
 50
0.0
 51
308.6598082540887
  0
ARC
  5
223
330
1F
100
AcDbEntity
  8
1
  6
Continuous
 62
     7
370
     9
100
AcDbCircle
 10
698.1455921310826
 20
373.9150947086246
 30
0.0
 40
12.0
100
AcDbArc
 50
45.39350902488503
 51
134.6065075010766
  0
ARC
  5
224
330
1F
100
AcDbEntity
  8
1
  6
Continuous
 62
     7
370
     9
100
AcDbCircle
 10
779.6455921310817
 20
321.0313456237051
 30
0.0
 40
-2.0
100
AcDbArc
 50
231.3401917459105
 51
179.9999999999998
  0
ARC
  5
225
330
1F
100
AcDbEntity
  8
1
  6
Continuous
 62
     7
370
     9
100
AcDbCircle
 10
779.6455921310817
 20
118.9150947086246
 30
0.0
 40
-2.0
100
AcDbArc
 50
179.9999999999998
 51
89.99999999999991
  0
ARC
  5
226
330
1F
100
AcDbEntity
  8
1
  6
Continuous
 62
     7
370
     9
100
AcDbCircle
 10
616.6455921310819
 20
118.9150947086246
 30
0.0
 40
-2.0
100
AcDbArc
 50
89.99999999999991
 51
0.0
  0
LINE
  5
227
330
1F
100
AcDbEntity
  8
1
  6
Continuous
 62
     7
370
     9
100
AcDbLine
 10
620.6890921467659
 20
321.9095249891664
 30
0.0
 11
689.7187851093688
 21
382.458450221466
 31
0.0
  0
ARC
  5
228
330
1F
100
AcDbEntity
  8
1
  6
Continuous
 62
     7
370
     9
100
AcDbCircle
 10
624.6455921310819
 20
317.398858976912
 30
0.0
 40
6.0
100
AcDbArc
 50
131.2553994397221
 51
179.9999999999998
  0
LINE
  5
229
330
1F
100
AcDbEntity
  8
1
  6
Continuous
 62
     7
370
     9
100
AcDbLine
 10
706.5723966886151
 20
382.4584526520301
 30
0.0
 11
775.6020921249869
 21
321.9095249902205
 31
0.0
  0
ARC
  5
22A
330
1F
100
AcDbEntity
  8
1
  6
Continuous
 62
     7
370
     9
100
AcDbCircle
 10
771.6455921310817
 20
317.3988589863773
 30
0.0
 40
6.0
100
AcDbArc
 50
359.9999999999986
 51
48.74460043847192
  0
LINE
  5
22B
330
1F
100
AcDbEntity
  8
1
  6
Continuous
 62
     7
370
     9
100
AcDbLine
 10
777.6455921310817
 20
317.3988589863772
 30
0.0
 11
777.6455921310817
 21
126.9150947086246
 31
0.0
  0
ARC
  5
22C
330
1F
100
AcDbEntity
  8
1
  6
Continuous
 62
     7
370
     9
100
AcDbCircle
 10
771.6455921310817
 20
126.9150947086246
 30
0.0
 40
6.0
100
AcDbArc
 50
269.9999999999998
 51
359.9999999999991
  0
LINE
  5
22D
330
1F
100
AcDbEntity
  8
1
  6
Continuous
 62
     7
370
     9
100
AcDbLine
 10
771.6455921310817
 20
120.9150947086246
 30
0.0
 11
624.6455921310819
 21
120.9150947086246
 31
0.0
  0
LINE
  5
22E
330
1F
100
AcDbEntity
  8
1
  6
Continuous
 62
     7
370
     9
100
AcDbLine
 10
618.6455921310819
 20
126.9150947086246
 30
0.0
 11
618.6455921310819
 21
317.398858976912
 31
0.0
  0
ARC
  5
22F
330
1F
100
AcDbEntity
  8
1
  6
Continuous
 62
     7
370
     9
100
AcDbCircle
 10
624.6455921310819
 20
126.9150947086246
 30
0.0
 40
6.0
100
AcDbArc
 50
179.9999999999998
 51
269.9999999999998
  0
LINE
  5
230
330
1F
100
AcDbEntity
  8
1
  6
Continuous
 62
     7
370
     9
100
AcDbLine
 10
686.8955921310824
 20
323.9150947086246
 30
0.0
 11
709.3955921310824
 21
323.9150947086246
 31
0.0
  0
LINE
  5
231
330
1F
100
AcDbEntity
  8
1
  6
Continuous
 62
     7
370
     9
100
AcDbLine
 10
680.221166110674
 20
323.9150947086246
 30
0.0
 11
715.3955921310824
 21
323.9150947086246
 31
0.0
  0
LINE
  5
232
330
1F
100
AcDbEntity
  8
1
  6
Continuous
 62
     7
370
     9
100
AcDbLine
 10
147.3083791208781
 20
67.33617251474361
 30
0.0
 11
143.308379120878
 21
71.33617251474361
 31
0.0
  0
LINE
  5
233
330
1F
100
AcDbEntity
  8
1
  6
Continuous
 62
     7
370
     9
100
AcDbLine
 10
199.7122694269999
 20
67.33617251474361
 30
0.0
 11
203.7122694269999
 21
71.33617251474361
 31
0.0
  0
LINE
  5
234
330
1F
100
AcDbEntity
  8
1
  6
Continuous
 62
     7
370
     9
100
AcDbLine
 10
342.9775755494497
 20
67.3361725147436
 30
0.0
 11
338.9775755494496
 21
71.33617251474361
 31
0.0
  0
LINE
  5
235
330
1F
100
AcDbEntity
  8
1
  6
Continuous
 62
     7
370
     9
100
AcDbLine
 10
203.7122694269999
 20
71.33617251474361
 30
0.0
 11
338.9775755494496
 21
71.33617251474361
 31
0.0
  0
LINE
  5
236
330
1F
100
AcDbEntity
  8
1
  6
Continuous
 62
     7
370
     9
100
AcDbLine
 10
147.3083791208781
 20
67.33617251474361
 30
0.0
 11
199.7122694269999
 21
67.33617251474361
 31
0.0
  0
LINE
  5
237
330
1F
100
AcDbEntity
  8
1
  6
Continuous
 62
     7
370
     9
100
AcDbLine
 10
143.308379120878
 20
71.33617251474361
 30
0.0
 11
107.4798076923066
 21
71.33617251474361
 31
0.0
  0
LINE
  5
238
330
1F
100
AcDbEntity
  8
1
  6
Continuous
 62
     7
370
     9
100
AcDbLine
 10
343.5515551412865
 20
67.33617251474361
 30
0.0
 11
397.4798076923066
 21
67.33617251474361
 31
0.0
  0
LINE
  5
239
330
1F
100
AcDbEntity
  8
1
  6
Continuous
 62
     7
370
     9
100
AcDbLine
 10
110.3083791208781
 20
105.3361725147436
 30
0.0
 11
107.4798076923066
 21
71.33617251474361
 31
0.0
  0
LINE
  5
23A
330
1F
100
AcDbEntity
  8
1
  6
Continuous
 62
     7
370
     9
100
AcDbLine
 10
394.308379120878
 20
105.3361725147436
 30
0.0
 11
397.4798076923066
 21
67.33617251474361
 31
0.0
  0
LINE
  5
23B
330
1F
100
AcDbEntity
  8
1
  6
Continuous
 62
     7
370
     9
100
AcDbLine
 10
170.3083791208781
 20
367.3361725147436
 30
0.0
 11
170.3083791208781
 21
137.3361725147436
 31
0.0
  0
LINE
  5
23C
330
1F
100
AcDbEntity
  8
1
  6
Continuous
 62
     7
370
     9
100
AcDbLine
 10
185.3083791208781
 20
367.3361725147436
 30
0.0
 11
185.3083791208781
 21
105.3361725147436
 31
0.0
  0
LINE
  5
23D
330
1F
100
AcDbEntity
  8
1
  6
Continuous
 62
     7
370
     9
100
AcDbLine
 10
129.3083791208781
 20
127.3361725147436
 30
0.0
 11
160.3083791208781
 21
127.3361725147436
 31
0.0
  0
ARC
  5
23E
330
1F
100
AcDbEntity
  8
1
  6
Continuous
 62
     7
370
     9
100
AcDbCircle
 10
129.3083791208781
 20
120.3361725147436
 30
0.0
 40
7.0
100
AcDbArc
 50
89.99999999999991
 51
179.9999999999998
  0
LINE
  5
23F
330
1F
100
AcDbEntity
  8
1
  6
Continuous
 62
     7
370
     9
100
AcDbLine
 10
170.3083791208781
 20
367.3361725147436
 30
0.0
 11
122.3083791208781
 21
322.2161725147436
 31
0.0
  0
LINE
  5
240
330
1F
100
AcDbEntity
  8
1
  6
Continuous
 62
     7
370
     9
100
AcDbLine
 10
122.3083791208781
 20
322.2161725147436
 30
0.0
 11
122.3083791208781
 21
105.3361725147436
 31
0.0
  0
DIMENSION
  5
24A
330
1F
100
AcDbEntity
  8
1
  6
Continuous
 62
     7
370
     9
100
AcDbDimension
  2
Dim1
 10
240.6283727433276
 20
462.7498251476981
 30
0.0
 11
246.982755420254
 21
466.4998251476981
 31
0.0
 70
   160
  1
<>
 71
     5
 42
-1.0
 73
     0
 74
     0
 75
     0
  3
Standard
100
AcDbAlignedDimension
 13
240.6283727433276
 23
464.4285543576773
 33
0.0
 14
252.6283727433276
 24
463.0392612183842
 34
0.0
100
AcDbRotatedDimension
1001
ACAD
1000
DSTYLE
1002
{
1070
   344
1005
3E
1070
   343
1005
3E
1070
   173
1070
     1
1070
   289
1070
     2
1070
   279
1070
     2
1070
   288
1070
     1
1070
    77
1070
     3
1070
   172
1070
     1
1070
   174
1070
     0
1070
    74
1070
     0
1070
    73
1070
     0
1070
   284
1070
     8
1070
    78
1070
     8
1070
   140
1040
4.0
1070
    40
1040
3.0
1070
    42
1040
2.0
1070
    44
1040
0.0
1070
    43
1040
10.0
1070
   271
1070
     2
1070
    41
1040
4.0
1002
}
  0
LINE
  5
24B
330
1F
100
AcDbEntity
  8
1
  6
Continuous
 62
     7
370
     9
100
AcDbLine
 10
170.3083791208781
 20
367.3361725147436
 30
0.0
 11
192.3083791208781
 21
367.3361725147436
 31
0.0
  0
LINE
  5
24C
330
1F
100
AcDbEntity
  8
1
  6
Continuous
 62
     7
370
     9
100
AcDbLine
 10
192.3083791208781
 20
343.3361725147436
 30
0.0
 11
192.3083791208781
 21
367.3361725147436
 31
0.0
  0
CIRCLE
  5
24D
330
1F
100
AcDbEntity
  8
1
  6
Continuous
 62
     7
370
     9
100
AcDbCircle
 10
289.7308841211364
 20
305.3759236113548
 30
0.0
 40
5.719397362525598
  0
LINE
  5
24E
330
1F
100
AcDbEntity
  8
1
  6
Continuous
 62
     7
370
     9
100
AcDbLine
 10
289.7308841211359
 20
309.5168771449937
 30
0.0
 11
286.1562607695574
 21
307.5298963771783
 31
0.0
  0
LINE
  5
24F
330
1F
100
AcDbEntity
  8
1
  6
Continuous
 62
     7
370
     9
100
AcDbLine
 10
286.1562607695574
 20
307.5298963771783
 30
0.0
 11
286.1562607695574
 21
303.0860488689344
 31
0.0
  0
LINE
  5
250
330
1F
100
AcDbEntity
  8
1
  6
Continuous
 62
     7
370
     9
100
AcDbLine
 10
286.1562607695574
 20
303.0860488689344
 30
0.0
 11
289.7308841211359
 21
301.0990681011189
 31
0.0
  0
LINE
  5
251
330
1F
100
AcDbEntity
  8
1
  6
Continuous
 62
     7
370
     9
100
AcDbLine
 10
289.7308844272986
 20
309.5168771449937
 30
0.0
 11
293.305507778877
 21
307.5298963771783
 31
0.0
  0
LINE
  5
252
330
1F
100
AcDbEntity
  8
1
  6
Continuous
 62
     7
370
     9
100
AcDbLine
 10
293.305507778877
 20
307.5298963771783
 30
0.0
 11
293.305507778877
 21
303.0860488689344
 31
0.0
  0
LINE
  5
253
330
1F
100
AcDbEntity
  8
1
  6
Continuous
 62
     7
370
     9
100
AcDbLine
 10
293.305507778877
 20
303.0860488689344
 30
0.0
 11
289.7308844272986
 21
301.0990681011189
 31
0.0
  0
ARC
  5
254
330
1F
100
AcDbEntity
  8
1
  6
Continuous
 62
     7
370
     9
100
AcDbCircle
 10
423.2655906593388
 20
288.6938698565872
 30
0.0
 40
3.0
100
AcDbArc
 50
180.0000000000007
 51
269.9999999999998
  0
LINE
  5
255
330
1F
100
AcDbEntity
  8
1
  6
Continuous
 62
     7
370
     9
100
AcDbLine
 10
423.2655906593388
 20
285.6938698565872
 30
0.0
 11
476.8655906593389
 21
285.6938698565872
 31
0.0
  0
ARC
  5
256
330
1F
100
AcDbEntity
  8
1
  6
Continuous
 62
     7
370
     9
100
AcDbCircle
 10
476.8655906593389
 20
288.6938698565872
 30
0.0
 40
3.0
100
AcDbArc
 50
269.9999999999998
 51
359.9999999999986
  0
POLYLINE
  5
257
330
1F
100
AcDbEntity
  8
1
  6
Continuous
 62
     7
370
     9
100
AcDb2dPolyline
 66
     1
 10
0.0
 20
0.0
 30
0.0
 70
     2
  0
VERTEX
  5
259
330
257
100
AcDbEntity
  8
1
  6
Continuous
 62
     7
370
     9
100
AcDbVertex
100
AcDb2dVertex
 10
420.2655906593388
 20
372.0118136109257
 30
0.0
  0
VERTEX
  5
25A
330
257
100
AcDbEntity
  8
1
  6
Continuous
 62
     7
370
     9
100
AcDbVertex
100
AcDb2dVertex
 10
420.3942753038168
 20
372.1046135000144
 30
0.0
  0
VERTEX
  5
25B
330
257
100
AcDbEntity
  8
1
  6
Continuous
 62
     7
370
     9
100
AcDbVertex
100
AcDb2dVertex
 10
420.7768363667584
 20
372.3803820319027
 30
0.0
  0
VERTEX
  5
25C
330
257
100
AcDbEntity
  8
1
  6
Continuous
 62
     7
370
     9
100
AcDbVertex
100
AcDb2dVertex
 10
421.4029879436434
 20
372.8307358977966
 30
0.0
  0
VERTEX
  5
25D
330
257
100
AcDbEntity
  8
1
  6
Continuous
 62
     7
370
     9
100
AcDbVertex
100
AcDb2dVertex
 10
422.2561894640624
 20
373.4402821363527
 30
0.0
  0
VERTEX
  5
25E
330
257
100
AcDbEntity
  8
1
  6
Continuous
 62
     7
370
     9
100
AcDbVertex
100
AcDb2dVertex
 10
423.3144210557199
 20
374.1851691602591
 30
0.0
  0
VERTEX
  5
25F
330
257
100
AcDbEntity
  8
1
  6
Continuous
 62
     7
370
     9
100
AcDbVertex
100
AcDb2dVertex
 10
424.5510473947506
 20
375.0322200228251
 30
0.0
  0
VERTEX
  5
260
330
257
100
AcDbEntity
  8
1
  6
Continuous
 62
     7
370
     9
100
AcDbVertex
100
AcDb2dVertex
 10
425.9356217730995
 20
375.9393904770678
 30
0.0
  0
VERTEX
  5
261
330
257
100
AcDbEntity
  8
1
  6
Continuous
 62
     7
370
     9
100
AcDbVertex
100
AcDb2dVertex
 10
427.4345230974274
 20
376.8580313785779
 30
0.0
  0
VERTEX
  5
262
330
257
100
AcDbEntity
  8
1
  6
Continuous
 62
     7
370
     9
100
AcDbVertex
100
AcDb2dVertex
 10
429.0113902428504
 20
377.7369986459974
 30
0.0
  0
VERTEX
  5
263
330
257
100
AcDbEntity
  8
1
  6
Continuous
 62
     7
370
     9
100
AcDbVertex
100
AcDb2dVertex
 10
430.6274022786412
 20
378.5281506735666
 30
0.0
  0
VERTEX
  5
264
330
257
100
AcDbEntity
  8
1
  6
Continuous
 62
     7
370
     9
100
AcDbVertex
100
AcDb2dVertex
 10
432.2415273708298
 20
379.1923312222603
 30
0.0
  0
VERTEX
  5
265
330
257
100
AcDbEntity
  8
1
  6
Continuous
 62
     7
370
     9
100
AcDbVertex
100
AcDb2dVertex
 10
433.8109071120401
 20
379.7046741600523
 30
0.0
  0
VERTEX
  5
266
330
257
100
AcDbEntity
  8
1
  6
Continuous
 62
     7
370
     9
100
AcDbVertex
100
AcDb2dVertex
 10
435.2915429473338
 20
380.0580640943155
 30
0.0
  0
VERTEX
  5
267
330
257
100
AcDbEntity
  8
1
  6
Continuous
 62
     7
370
     9
100
AcDbVertex
100
AcDb2dVertex
 10
436.6394040339646
 20
380.2638625927709
 30
0.0
  0
VERTEX
  5
268
330
257
100
AcDbEntity
  8
1
  6
Continuous
 62
     7
370
     9
100
AcDbVertex
100
AcDb2dVertex
 10
437.8119896529901
 20
380.3495150521424
 30
0.0
  0
VERTEX
  5
269
330
257
100
AcDbEntity
  8
1
  6
Continuous
 62
     7
370
     9
100
AcDbVertex
100
AcDb2dVertex
 10
438.7702724472941
 20
380.3532828198848
 30
0.0
  0
VERTEX
  5
26A
330
257
100
AcDbEntity
  8
1
  6
Continuous
 62
     7
370
     9
100
AcDbVertex
100
AcDb2dVertex
 10
439.4808453580517
 20
380.3169598056206
 30
0.0
  0
VERTEX
  5
26B
330
257
100
AcDbEntity
  8
1
  6
Continuous
 62
     7
370
     9
100
AcDbVertex
100
AcDb2dVertex
 10
439.9180194533965
 20
380.2778920395411
 30
0.0
  0
VERTEX
  5
26C
330
257
100
AcDbEntity
  8
1
  6
Continuous
 62
     7
370
     9
100
AcDbVertex
100
AcDb2dVertex
 10
440.0655906593389
 20
380.2618136109257
 30
0.0
  0
VERTEX
  5
26D
330
257
100
AcDbEntity
  8
1
  6
Continuous
 62
     7
370
     9
100
AcDbVertex
100
AcDb2dVertex
 10
440.2134202008686
 20
380.2442450661796
 30
0.0
  0
VERTEX
  5
26E
330
257
100
AcDbEntity
  8
1
  6
Continuous
 62
     7
370
     9
100
AcDbVertex
100
AcDb2dVertex
 10
440.6543652396607
 20
380.1833859983176
 30
0.0
  0
VERTEX
  5
26F
330
257
100
AcDbEntity
  8
1
  6
Continuous
 62
     7
370
     9
100
AcDbVertex
100
AcDb2dVertex
 10
441.3804583590809
 20
380.0570588224133
 30
0.0
  0
VERTEX
  5
270
330
257
100
AcDbEntity
  8
1
  6
Continuous
 62
     7
370
     9
100
AcDbVertex
100
AcDb2dVertex
 10
442.3774105047809
 20
379.8353532739413
 30
0.0
  0
VERTEX
  5
271
330
257
100
AcDbEntity
  8
1
  6
Continuous
 62
     7
370
     9
100
AcDbVertex
100
AcDb2dVertex
 10
443.6234601038083
 20
379.4893907291344
 30
0.0
  0
VERTEX
  5
272
330
257
100
AcDbEntity
  8
1
  6
Continuous
 62
     7
370
     9
100
AcDbVertex
100
AcDb2dVertex
 10
445.0883947227243
 20
379.0004162975701
 30
0.0
  0
VERTEX
  5
273
330
257
100
AcDbEntity
  8
1
  6
Continuous
 62
     7
370
     9
100
AcDbVertex
100
AcDb2dVertex
 10
446.7331793044662
 20
378.366981319524
 30
0.0
  0
VERTEX
  5
274
330
257
100
AcDbEntity
  8
1
  6
Continuous
 62
     7
370
     9
100
AcDbVertex
100
AcDb2dVertex
 10
448.5105203363078
 20
377.6084258323464
 30
0.0
  0
VERTEX
  5
275
330
257
100
AcDbEntity
  8
1
  6
Continuous
 62
     7
370
     9
100
AcDbVertex
100
AcDb2dVertex
 10
450.3665013302197
 20
376.7637492367405
 30
0.0
  0
VERTEX
  5
276
330
257
100
AcDbEntity
  8
1
  6
Continuous
 62
     7
370
     9
100
AcDbVertex
100
AcDb2dVertex
 10
452.2431877279016
 20
375.8860563915658
 30
0.0
  0
VERTEX
  5
277
330
257
100
AcDbEntity
  8
1
  6
Continuous
 62
     7
370
     9
100
AcDbVertex
100
AcDb2dVertex
 10
454.0818758428331
 20
375.0338213190547
 30
0.0
  0
VERTEX
  5
278
330
257
100
AcDbEntity
  8
1
  6
Continuous
 62
     7
370
     9
100
AcDbVertex
100
AcDb2dVertex
 10
455.8265050684782
 20
374.2609679563208
 30
0.0
  0
VERTEX
  5
279
330
257
100
AcDbEntity
  8
1
  6
Continuous
 62
     7
370
     9
100
AcDbVertex
100
AcDb2dVertex
 10
457.4267037485849
 20
373.6080451007388
 30
0.0
  0
VERTEX
  5
27A
330
257
100
AcDbEntity
  8
1
  6
Continuous
 62
     7
370
     9
100
AcDbVertex
100
AcDb2dVertex
 10
458.8400099446906
 20
373.0965046035754
 30
0.0
  0
VERTEX
  5
27B
330
257
100
AcDbEntity
  8
1
  6
Continuous
 62
     7
370
     9
100
AcDbVertex
100
AcDb2dVertex
 10
460.0329833404417
 20
372.7273431884623
 30
0.0
  0
VERTEX
  5
27C
330
257
100
AcDbEntity
  8
1
  6
Continuous
 62
     7
370
     9
100
AcDbVertex
100
AcDb2dVertex
 10
460.9811631325865
 20
372.4843199225422
 30
0.0
  0
VERTEX
  5
27D
330
257
100
AcDbEntity
  8
1
  6
Continuous
 62
     7
370
     9
100
AcDbVertex
100
AcDb2dVertex
 10
461.6680729894612
 20
372.3408662875121
 30
0.0
  0
VERTEX
  5
27E
330
257
100
AcDbEntity
  8
1
  6
Continuous
 62
     7
370
     9
100
AcDbVertex
100
AcDb2dVertex
 10
462.0836699712055
 20
372.2689279364372
 30
0.0
  0
VERTEX
  5
27F
330
257
100
AcDbEntity
  8
1
  6
Continuous
 62
     7
370
     9
100
AcDbVertex
100
AcDb2dVertex
 10
462.2227335164818
 20
372.24752789664
 30
0.0
  0
VERTEX
  5
280
330
257
100
AcDbEntity
  8
1
  6
Continuous
 62
     7
370
     9
100
AcDbVertex
100
AcDb2dVertex
 10
462.3614184853265
 20
372.2275654173726
 30
0.0
  0
VERTEX
  5
281
330
257
100
AcDbEntity
  8
1
  6
Continuous
 62
     7
370
     9
100
AcDbVertex
100
AcDb2dVertex
 10
462.7714734793627
 20
372.1766442692642
 30
0.0
  0
VERTEX
  5
282
330
257
100
AcDbEntity
  8
1
  6
Continuous
 62
     7
370
     9
100
AcDbVertex
100
AcDb2dVertex
 10
463.4354480623285
 20
372.1199537739783
 30
0.0
  0
VERTEX
  5
283
330
257
100
AcDbEntity
  8
1
  6
Continuous
 62
     7
370
     9
100
AcDbVertex
100
AcDb2dVertex
 10
464.3259973557056
 20
372.0941161704546
 30
0.0
  0
VERTEX
  5
284
330
257
100
AcDbEntity
  8
1
  6
Continuous
 62
     7
370
     9
100
AcDbVertex
100
AcDb2dVertex
 10
465.4081887138624
 20
372.1402585555392
 30
0.0
  0
VERTEX
  5
285
330
257
100
AcDbEntity
  8
1
  6
Continuous
 62
     7
370
     9
100
AcDbVertex
100
AcDb2dVertex
 10
466.6421919011248
 20
372.2962913496349
 30
0.0
  0
VERTEX
  5
286
330
257
100
AcDbEntity
  8
1
  6
Continuous
 62
     7
370
     9
100
AcDbVertex
100
AcDb2dVertex
 10
467.9859503000591
 20
372.5898540600589
 30
0.0
  0
VERTEX
  5
287
330
257
100
AcDbEntity
  8
1
  6
Continuous
 62
     7
370
     9
100
AcDbVertex
100
AcDb2dVertex
 10
469.3974758879487
 20
373.0332011427571
 30
0.0
  0
VERTEX
  5
288
330
257
100
AcDbEntity
  8
1
  6
Continuous
 62
     7
370
     9
100
AcDbVertex
100
AcDb2dVertex
 10
470.8365236493145
 20
373.6208578249984
 30
0.0
  0
VERTEX
  5
289
330
257
100
AcDbEntity
  8
1
  6
Continuous
 62
     7
370
     9
100
AcDbVertex
100
AcDb2dVertex
 10
472.2655542059927
 20
374.3302828484523
 30
0.0
  0
VERTEX
  5
28A
330
257
100
AcDbEntity
  8
1
  6
Continuous
 62
     7
370
     9
100
AcDbVertex
100
AcDb2dVertex
 10
473.6500511416127
 20
375.1251677725142
 30
0.0
  0
VERTEX
  5
28B
330
257
100
AcDbEntity
  8
1
  6
Continuous
 62
     7
370
     9
100
AcDbVertex
100
AcDb2dVertex
 10
474.9583865064234
 20
375.9605149433744
 30
0.0
  0
VERTEX
  5
28C
330
257
100
AcDbEntity
  8
1
  6
Continuous
 62
     7
370
     9
100
AcDbVertex
100
AcDb2dVertex
 10
476.1614975467776
 20
376.788370296242
 30
0.0
  0
VERTEX
  5
28D
330
257
100
AcDbEntity
  8
1
  6
Continuous
 62
     7
370
     9
100
AcDbVertex
100
AcDb2dVertex
 10
477.2326375636296
 20
377.5630893888491
 30
0.0
  0
VERTEX
  5
28E
330
257
100
AcDbEntity
  8
1
  6
Continuous
 62
     7
370
     9
100
AcDbVertex
100
AcDb2dVertex
 10
478.1473986911421
 20
378.2452674681624
 30
0.0
  0
VERTEX
  5
28F
330
257
100
AcDbEntity
  8
1
  6
Continuous
 62
     7
370
     9
100
AcDbVertex
100
AcDb2dVertex
 10
478.8840943570789
 20
378.8038906180044
 30
0.0
  0
VERTEX
  5
290
330
257
100
AcDbEntity
  8
1
  6
Continuous
 62
     7
370
     9
100
AcDbVertex
100
AcDb2dVertex
 10
479.4244643436267
 20
379.2167505437508
 30
0.0
  0
VERTEX
  5
291
330
257
100
AcDbEntity
  8
1
  6
Continuous
 62
     7
370
     9
100
AcDbVertex
100
AcDb2dVertex
 10
479.754558248212
 20
379.4695864103974
 30
0.0
  0
VERTEX
  5
292
330
257
100
AcDbEntity
  8
1
  6
Continuous
 62
     7
370
     9
100
AcDbVertex
100
AcDb2dVertex
 10
479.8655906593389
 20
379.5546707537829
 30
0.0
  0
SEQEND
  5
258
330
257
100
AcDbEntity
  8
1
  6
Continuous
370
     9
  0
LINE
  5
293
330
1F
100
AcDbEntity
  8
1
  6
Continuous
 62
     7
370
     9
100
AcDbLine
 10
420.2655906593388
 20
372.0118136109257
 30
0.0
 11
420.2655906593388
 21
288.6938698565872
 31
0.0
  0
LINE
  5
294
330
1F
100
AcDbEntity
  8
1
  6
Continuous
 62
     7
370
     9
100
AcDbLine
 10
479.8655906593389
 20
379.5546707537829
 30
0.0
 11
479.8655906593389
 21
288.6938698565872
 31
0.0
  0
LINE
  5
295
330
1F
100
AcDbEntity
  8
1
  6
DOT
 62
     7
370
     9
100
AcDbLine
 10
460.0655906593388
 20
291.6938698565872
 30
0.0
 11
460.0655906593388
 21
285.6938698565872
 31
0.0
  0
LINE
  5
296
330
1F
100
AcDbEntity
  8
1
  6
DOT
 62
     7
370
     9
100
AcDbLine
 10
460.0655906593388
 20
291.6938698565872
 30
0.0
 11
479.8655906593389
 21
291.6938698565872
 31
0.0
  0
LINE
  5
297
330
1F
100
AcDbEntity
  8
1
  6
DOT
 62
     7
370
     9
100
AcDbLine
 10
460.0655906593388
 20
303.6938698565872
 30
0.0
 11
479.8655906593389
 21
303.6938698565872
 31
0.0
  0
LINE
  5
298
330
1F
100
AcDbEntity
  8
1
  6
DOT
 62
     7
370
     9
100
AcDbLine
 10
460.0655906593388
 20
331.6938698565871
 30
0.0
 11
460.0655906593388
 21
303.6938698565872
 31
0.0
  0
LINE
  5
299
330
1F
100
AcDbEntity
  8
1
  6
DOT
 62
     7
370
     9
100
AcDbLine
 10
450.0655906593388
 20
335.6938698565871
 30
0.0
 11
460.0655906593388
 21
331.6938698565871
 31
0.0
  0
LINE
  5
29A
330
1F
100
AcDbEntity
  8
1
  6
DOT
 62
     7
370
     9
100
AcDbLine
 10
440.0655906593388
 20
331.6938698565871
 30
0.0
 11
450.0655906593388
 21
335.6938698565871
 31
0.0
  0
LINE
  5
29B
330
1F
100
AcDbEntity
  8
1
  6
DOT
 62
     7
370
     9
100
AcDbLine
 10
440.0655906593388
 20
331.6938698565871
 30
0.0
 11
440.0655906593388
 21
285.6938698565872
 31
0.0
  0
LINE
  5
29C
330
1F
100
AcDbEntity
  8
1
  6
Continuous
 62
     7
370
     9
100
AcDbLine
 10
440.0655906593388
 20
283.6189564680683
 30
0.0
 11
440.0655906593388
 21
275.251099325211
 31
0.0
  0
LINE
  5
29D
330
1F
100
AcDbEntity
  8
1
  6
Continuous
 62
     7
370
     9
100
AcDbLine
 10
460.0655906593388
 20
283.6189564680683
 30
0.0
 11
460.0655906593387
 21
275.2510993252111
 31
0.0
  0
LINE
  5
29E
330
1F
100
AcDbEntity
  8
1
  6
Continuous
 62
     7
370
     9
100
AcDbLine
 10
460.0655906593388
 20
277.3725278966397
 30
0.0
 11
440.0655906593388
 21
277.3725278966397
 31
0.0
  0
POLYLINE
  5
29F
330
1F
100
AcDbEntity
  8
1
  6
Continuous
 62
     7
370
     9
100
AcDb2dPolyline
 66
     1
 10
0.0
 20
0.0
 30
0.0
  0
VERTEX
  5
2A1
330
29F
100
AcDbEntity
  8
1
  6
Continuous
 62
     7
370
     9
100
AcDbVertex
100
AcDb2dVertex
 10
475.6584478021963
 20
298.5868136109256
 30
0.0
  0
VERTEX
  5
2A2
330
29F
100
AcDbEntity
  8
1
  6
Continuous
 62
     7
370
     9
100
AcDbVertex
100
AcDb2dVertex
 10
485.7941620879106
 20
314.1439564680686
 30
0.0
  0
VERTEX
  5
2A3
330
29F
100
AcDbEntity
  8
1
  6
Continuous
 62
     7
370
     9
100
AcDbVertex
100
AcDb2dVertex
 10
500.7084478021964
 20
314.1439564680686
 30
0.0
  0
SEQEND
  5
2A0
330
29F
100
AcDbEntity
  8
1
  6
Continuous
370
     9
  0
TEXT
  5
2A4
330
1F
100
AcDbEntity
  8
1
  6
Continuous
 62
     7
370
     9
100
AcDbText
 10
490.2084478021965
 20
314.1439564680686
 30
0.0
 40
10.5
  1
M5
 41
0.5
100
AcDbText
  0
TEXT
  5
2A5
330
1F
100
AcDbEntity
  8
1
  6
Continuous
 62
     7
370
     9
100
AcDbText
 10
427.7651184752779
 20
260.5106618066483
 30
0.0
 40
10.5
  1
10φ+0.02
 41
0.5625
100
AcDbText
  0
TEXT
  5
2A6
330
1F
100
AcDbEntity
  8
1
  6
Continuous
 62
     7
370
     9
100
AcDbText
 10
427.8558877938153
 20
250.8772154034405
 30
0.0
 40
10.5
  1
　　-0
 41
0.75
100
AcDbText
  0
POLYLINE
  5
2A7
330
1F
100
AcDbEntity
  8
1
  6
Continuous
 62
     7
370
     9
100
AcDb2dPolyline
 66
     1
 10
0.0
 20
0.0
 30
0.0
  0
VERTEX
  5
2A9
330
2A7
100
AcDbEntity
  8
1
  6
Continuous
 62
     7
370
     9
100
AcDbVertex
100
AcDb2dVertex
 10
698.1455921310818
 20
242.9150947086246
 30
0.0
  0
VERTEX
  5
2AA
330
2A7
100
AcDbEntity
  8
1
  6
Continuous
 62
     7
370
     9
100
AcDbVertex
100
AcDb2dVertex
 10
710.1383557321027
 20
258.4722375657676
 30
0.0
  0
VERTEX
  5
2AB
330
2A7
100
AcDbEntity
  8
1
  6
Continuous
 62
     7
370
     9
100
AcDbVertex
100
AcDb2dVertex
 10
732.6788962726432
 20
258.4722375657676
 30
0.0
  0
SEQEND
  5
2A8
330
2A7
100
AcDbEntity
  8
1
  6
Continuous
370
     9
  0
TEXT
  5
2AC
330
1F
100
AcDbEntity
  8
1
  6
Continuous
 62
     7
370
     9
100
AcDbText
 10
711.6788962726432
 20
258.4722375657676
 30
0.0
 40
10.5
  1
20φ
 41
0.6666666666666666
100
AcDbText
  0
POLYLINE
  5
2AD
330
1F
100
AcDbEntity
  8
1
  6
Continuous
 62
     7
370
     9
100
AcDb2dPolyline
 66
     1
 10
0.0
 20
0.0
 30
0.0
  0
VERTEX
  5
2AF
330
2AD
100
AcDbEntity
  8
1
  6
Continuous
 62
     7
370
     9
100
AcDbVertex
100
AcDb2dVertex
 10
748.1455921310818
 20
242.9150947086246
 30
0.0
  0
VERTEX
  5
2B0
330
2AD
100
AcDbEntity
  8
1
  6
Continuous
 62
     7
370
     9
100
AcDbVertex
100
AcDb2dVertex
 10
759.6898110335577
 20
223.444081904456
 30
0.0
  0
VERTEX
  5
2B1
330
2AD
100
AcDbEntity
  8
1
  6
Continuous
 62
     7
370
     9
100
AcDbVertex
100
AcDb2dVertex
 10
790.7705921310817
 20
223.444081904456
 30
0.0
  0
SEQEND
  5
2AE
330
2AD
100
AcDbEntity
  8
1
  6
Continuous
370
     9
  0
TEXT
  5
2B2
330
1F
100
AcDbEntity
  8
1
  6
Continuous
 62
     7
370
     9
100
AcDbText
 10
764.5205921310817
 20
223.444081904456
 30
0.0
 40
10.5
  1
M8～2
 41
0.625
100
AcDbText
  0
DIMENSION
  5
2C6
330
1F
100
AcDbEntity
  8
1
  6
Continuous
 62
     7
370
     9
100
AcDbDimension
  2
Dim2
 10
107.4798076923065
 20
58.45394904323426
 30
0.0
 11
252.4798076923065
 21
63.70394904323423
 31
0.0
 70
   160
  1
<>
 71
     5
 42
-1.0
 73
     0
 74
     0
 75
     0
  3
Standard
100
AcDbAlignedDimension
 13
107.4798076923066
 23
71.33617251474361
 33
0.0
 14
397.4798076923066
 24
67.33617251474361
 34
0.0
100
AcDbRotatedDimension
1001
ACAD
1000
DSTYLE
1002
{
1070
   344
1005
0
1070
   343
1005
0
1070
   173
1070
     1
1070
   289
1070
     2
1070
   279
1070
     2
1070
   288
1070
     1
1070
    77
1070
     3
1070
   172
1070
     1
1070
   174
1070
     0
1070
    74
1070
     0
1070
    73
1070
     0
1070
   284
1070
     8
1070
    78
1070
     8
1070
   140
1040
4.0
1070
    40
1040
3.0
1070
    42
1040
2.0
1070
    44
1040
0.0
1070
    43
1040
10.0
1070
   271
1070
     2
1070
    41
1040
4.0
1002
}
  0
DIMENSION
  5
2DA
330
1F
100
AcDbEntity
  8
1
  6
Continuous
 62
     7
370
     9
100
AcDbDimension
  2
Dim3
 10
170.308379120878
 20
176.5554384533147
 30
0.0
 11
177.808379120878
 21
181.8054384533146
 31
0.0
 70
   160
  1
<>
 71
     5
 42
-1.0
 73
     0
 74
     0
 75
     0
  3
Standard
100
AcDbAlignedDimension
 13
170.3083791208781
 23
179.7971224449985
 33
0.0
 14
185.3083791208781
 24
181.6495132973893
 34
0.0
100
AcDbRotatedDimension
1001
ACAD
1000
DSTYLE
1002
{
1070
   344
1005
0
1070
   343
1005
0
1070
   173
1070
     1
1070
   289
1070
     2
1070
   279
1070
     2
1070
   288
1070
     1
1070
    77
1070
     3
1070
   172
1070
     1
1070
   174
1070
     0
1070
    74
1070
     0
1070
    73
1070
     0
1070
   284
1070
     8
1070
    78
1070
     8
1070
   140
1040
4.0
1070
    40
1040
3.0
1070
    42
1040
2.0
1070
    44
1040
0.0
1070
    43
1040
10.0
1070
   271
1070
     2
1070
    41
1040
4.0
1002
}
  0
DIMENSION
  5
2EE
330
1F
100
AcDbEntity
  8
1
  6
Continuous
 62
     7
370
     9
100
AcDbDimension
  2
Dim4
 10
273.308379120878
 20
176.5554384533147
 30
0.0
 11
233.308379120878
 21
181.8054384533146
 31
0.0
 70
   160
  1
<>
 71
     5
 42
-1.0
 73
     0
 74
     0
 75
     0
  3
Standard
100
AcDbAlignedDimension
 13
273.308379120878
 23
181.5337388691147
 33
0.0
 14
193.3083791208781
 24
188.9433022786781
 34
0.0
100
AcDbRotatedDimension
1001
ACAD
1000
DSTYLE
1002
{
1070
   344
1005
0
1070
   343
1005
0
1070
   173
1070
     1
1070
   289
1070
     2
1070
   279
1070
     2
1070
   288
1070
     1
1070
    77
1070
     3
1070
   172
1070
     1
1070
   174
1070
     0
1070
    74
1070
     0
1070
    73
1070
     0
1070
   284
1070
     8
1070
    78
1070
     8
1070
   140
1040
4.0
1070
    40
1040
3.0
1070
    42
1040
2.0
1070
    44
1040
0.0
1070
    43
1040
10.0
1070
   271
1070
     2
1070
    41
1040
4.0
1002
}
  0
DIMENSION
  5
302
330
1F
100
AcDbEntity
  8
1
  6
Continuous
 62
     7
370
     9
100
AcDbDimension
  2
Dim5
 10
193.3083791208781
 20
176.5554384533147
 30
0.0
 11
189.3083791208781
 21
181.8054384533146
 31
0.0
 70
   160
  1
<>
 71
     5
 42
-1.0
 73
     0
 74
     0
 75
     0
  3
Standard
100
AcDbAlignedDimension
 13
193.3083791208781
 23
170.1878448982208
 33
0.0
 14
185.3083791208781
 24
167.1777097630857
 34
0.0
100
AcDbRotatedDimension
1001
ACAD
1000
DSTYLE
1002
{
1070
   344
1005
0
1070
   343
1005
0
1070
   173
1070
     1
1070
   289
1070
     2
1070
   279
1070
     2
1070
   288
1070
     1
1070
    77
1070
     3
1070
   172
1070
     1
1070
   174
1070
     0
1070
    74
1070
     0
1070
    73
1070
     0
1070
   284
1070
     8
1070
    78
1070
     8
1070
   140
1040
4.0
1070
    40
1040
3.0
1070
    42
1040
2.0
1070
    44
1040
0.0
1070
    43
1040
10.0
1070
   271
1070
     2
1070
    41
1040
4.0
1002
}
  0
DIMENSION
  5
316
330
1F
100
AcDbEntity
  8
1
  6
Continuous
 62
     7
370
     9
100
AcDbDimension
  2
Dim6
 10
170.308379120878
 20
176.5554384533147
 30
0.0
 11
146.308379120878
 21
181.8054384533146
 31
0.0
 70
   160
  1
<>
 71
     5
 42
-1.0
 73
     0
 74
     0
 75
     0
  3
Standard
100
AcDbAlignedDimension
 13
170.3083791208781
 23
182.5757087235843
 33
0.0
 14
122.3083791208781
 24
181.41796444084
 34
0.0
100
AcDbRotatedDimension
1001
ACAD
1000
DSTYLE
1002
{
1070
   344
1005
0
1070
   343
1005
0
1070
   173
1070
     1
1070
   289
1070
     2
1070
   279
1070
     2
1070
   288
1070
     1
1070
    77
1070
     3
1070
   172
1070
     1
1070
   174
1070
     0
1070
    74
1070
     0
1070
    73
1070
     0
1070
   284
1070
     8
1070
    78
1070
     8
1070
   140
1040
4.0
1070
    40
1040
3.0
1070
    42
1040
2.0
1070
    44
1040
0.0
1070
    43
1040
10.0
1070
   271
1070
     2
1070
    41
1040
4.0
1002
}
  0
DIMENSION
  5
32A
330
1F
100
AcDbEntity
  8
1
  6
Continuous
 62
     7
370
     9
100
AcDbDimension
  2
Dim7
 10
192.3083791208782
 20
412.3879488483216
 30
0.0
 11
157.3083791208781
 21
417.6379488483216
 31
0.0
 70
   160
  1
<>
 71
     5
 42
-1.0
 73
     0
 74
     0
 75
     0
  3
Standard
100
AcDbAlignedDimension
 13
192.3083791208781
 23
367.3361725147436
 33
0.0
 14
122.3083791208781
 24
367.3361725147437
 34
0.0
100
AcDbRotatedDimension
1001
ACAD
1000
DSTYLE
1002
{
1070
   344
1005
0
1070
   343
1005
0
1070
   173
1070
     1
1070
   289
1070
     2
1070
   279
1070
     2
1070
   288
1070
     1
1070
    77
1070
     3
1070
   172
1070
     1
1070
   174
1070
     0
1070
    74
1070
     0
1070
    73
1070
     0
1070
   284
1070
     8
1070
    78
1070
     8
1070
   140
1040
4.0
1070
    40
1040
3.0
1070
    42
1040
2.0
1070
    44
1040
0.0
1070
    43
1040
10.0
1070
   271
1070
     2
1070
    41
1040
4.0
1002
}
  0
DIMENSION
  5
33E
330
1F
100
AcDbEntity
  8
1
  6
Continuous
 62
     7
370
     9
100
AcDbDimension
  2
Dim8
 10
420.2655906593383
 20
227.1653850394966
 30
0.0
 11
450.0655906593388
 21
232.4153850394966
 31
0.0
 70
   160
  1
29.8φ
 71
     5
 42
-1.0
 73
     0
 74
     0
 75
     0
  3
Standard
100
AcDbAlignedDimension
 13
420.2655906593388
 23
291.0439564680684
 33
0.0
 14
479.8655906593389
 24
291.6938698565872
 34
0.0
100
AcDbRotatedDimension
1001
ACAD
1000
DSTYLE
1002
{
1070
   344
1005
0
1070
   343
1005
0
1070
   173
1070
     1
1070
   289
1070
     2
1070
   279
1070
     2
1070
   288
1070
     1
1070
    77
1070
     3
1070
   172
1070
     1
1070
   174
1070
     0
1070
    74
1070
     0
1070
    73
1070
     0
1070
   284
1070
     8
1070
    78
1070
     8
1070
   140
1040
4.0
1070
    40
1040
3.0
1070
    42
1040
2.0
1070
    44
1040
0.0
1070
    43
1040
10.0
1070
   271
1070
     2
1070
    41
1040
4.0
1002
}
  0
DIMENSION
  5
352
330
1F
100
AcDbEntity
  8
1
  6
Continuous
 62
     7
370
     9
100
AcDbDimension
  2
Dim9
 10
610.6455921310817
 20
62.28607774645267
 30
0.0
 11
698.1455921310813
 21
67.53607774645263
 31
0.0
 70
   160
  1
<>
 71
     5
 42
-1.0
 73
     0
 74
     0
 75
     0
  3
Standard
100
AcDbAlignedDimension
 13
610.6455921310821
 23
118.9150947086246
 33
0.0
 14
785.6455921310815
 24
118.9150947086246
 34
0.0
100
AcDbRotatedDimension
1001
ACAD
1000
DSTYLE
1002
{
1070
   344
1005
0
1070
   343
1005
0
1070
   173
1070
     1
1070
   289
1070
     2
1070
   279
1070
     2
1070
   288
1070
     1
1070
    77
1070
     3
1070
   172
1070
     1
1070
   174
1070
     0
1070
    74
1070
     0
1070
    73
1070
     0
1070
   284
1070
     8
1070
    78
1070
     8
1070
   140
1040
4.0
1070
    40
1040
3.0
1070
    42
1040
2.0
1070
    44
1040
0.0
1070
    43
1040
10.0
1070
   271
1070
     2
1070
    41
1040
4.0
1002
}
  0
DIMENSION
  5
366
330
1F
100
AcDbEntity
  8
1
  6
Continuous
 62
     7
370
     9
100
AcDbDimension
  2
Dim10
 10
648.1455921310813
 20
192.6480839834583
 30
0.0
 11
673.1455921310813
 21
197.8980839834582
 31
0.0
 70
   160
  1
<>
 71
     5
 42
-1.0
 73
     0
 74
     0
 75
     0
  3
Standard
100
AcDbAlignedDimension
 13
648.1455921310818
 23
242.9150947086246
 33
0.0
 14
698.1455921310818
 24
242.9150947086246
 34
0.0
100
AcDbRotatedDimension
1001
ACAD
1000
DSTYLE
1002
{
1070
   344
1005
0
1070
   343
1005
0
1070
   173
1070
     1
1070
   289
1070
     2
1070
   279
1070
     2
1070
   288
1070
     1
1070
    77
1070
     3
1070
   172
1070
     1
1070
   174
1070
     0
1070
    74
1070
     0
1070
    73
1070
     0
1070
   284
1070
     8
1070
    78
1070
     8
1070
   140
1040
4.0
1070
    40
1040
3.0
1070
    42
1040
2.0
1070
    44
1040
0.0
1070
    43
1040
10.0
1070
   271
1070
     2
1070
    41
1040
4.0
1002
}
  0
DIMENSION
  5
37A
330
1F
100
AcDbEntity
  8
1
  6
Continuous
 62
     7
370
     9
100
AcDbDimension
  2
Dim11
 10
698.1455921310813
 20
192.6480839834583
 30
0.0
 11
723.1455921310815
 21
197.8980839834582
 31
0.0
 70
   160
  1
<>
 71
     5
 42
-1.0
 73
     0
 74
     0
 75
     0
  3
Standard
100
AcDbAlignedDimension
 13
698.1455921310818
 23
242.9150947086246
 33
0.0
 14
748.1455921310819
 24
242.9150947086246
 34
0.0
100
AcDbRotatedDimension
1001
ACAD
1000
DSTYLE
1002
{
1070
   344
1005
0
1070
   343
1005
0
1070
   173
1070
     1
1070
   289
1070
     2
1070
   279
1070
     2
1070
   288
1070
     1
1070
    77
1070
     3
1070
   172
1070
     1
1070
   174
1070
     0
1070
    74
1070
     0
1070
    73
1070
     0
1070
   284
1070
     8
1070
    78
1070
     8
1070
   140
1040
4.0
1070
    40
1040
3.0
1070
    42
1040
2.0
1070
    44
1040
0.0
1070
    43
1040
10.0
1070
   271
1070
     2
1070
    41
1040
4.0
1002
}
  0
LINE
  5
37B
330
1F
100
AcDbEntity
  8
1
  6
Continuous
 62
     7
370
     9
100
AcDbLine
 10
164.3083791208781
 20
367.3361725147436
 30
0.0
 11
63.24873774873754
 21
367.3361725147436
 31
0.0
  0
LINE
  5
37C
330
1F
100
AcDbEntity
  8
1
  6
Continuous
 62
     7
370
     9
100
AcDbLine
 10
63.24873774873754
 20
67.33617251474362
 30
0.0
 11
92.15644490644428
 21
67.33617251474362
 31
0.0
  0
LINE
  5
37D
330
1F
100
AcDbEntity
  8
1
  6
Continuous
 62
     7
370
     9
100
AcDbLine
 10
294.2083791208781
 20
255.3361725147436
 30
0.0
 11
343.7701774576757
 21
255.3361725147436
 31
0.0
  0
LINE
  5
37E
330
1F
100
AcDbEntity
  8
1
  6
Continuous
 62
     7
370
     9
100
AcDbLine
 10
294.2083791208781
 20
215.3361725147436
 30
0.0
 11
312.8584051084037
 21
215.3361725147436
 31
0.0
  0
LINE
  5
37F
330
1F
100
AcDbEntity
  8
1
  6
Continuous
 62
     7
370
     9
100
AcDbLine
 10
302.8815340065327
 20
267.3361725147432
 30
0.0
 11
328.0248552123537
 21
267.3361725147432
 31
0.0
  0
LINE
  5
380
330
1F
100
AcDbEntity
  8
1
  6
Continuous
 62
     7
370
     9
100
AcDbLine
 10
405.6513049450532
 20
335.6938698565872
 30
0.0
 11
414.2655906593388
 21
335.6938698565872
 31
0.0
  0
LINE
  5
381
330
1F
100
AcDbEntity
  8
1
  6
Continuous
 62
     7
370
     9
100
AcDbLine
 10
405.6513049450532
 20
285.6938698565872
 30
0.0
 11
414.2655906593388
 21
285.6938698565872
 31
0.0
  0
LINE
  5
382
330
1F
100
AcDbEntity
  8
1
  6
Continuous
 62
     7
370
     9
100
AcDbLine
 10
482.8655906593389
 20
285.6938698565872
 30
0.0
 11
494.2798763736249
 21
285.6938698565872
 31
0.0
  0
LINE
  5
383
330
1F
100
AcDbEntity
  8
1
  6
Continuous
 62
     7
370
     9
100
AcDbLine
 10
483.2424636174628
 20
297.6938698565871
 30
0.0
 11
494.2798763736249
 21
297.6938698565871
 31
0.0
  0
LINE
  5
384
330
1F
100
AcDbEntity
  8
1
  6
Continuous
 62
     7
370
     9
100
AcDbLine
 10
674.221166110674
 20
323.9150947086246
 30
0.0
 11
602.0050397237873
 21
323.9150947086246
 31
0.0
  0
LINE
  5
385
330
1F
100
AcDbEntity
  8
1
  6
Continuous
 62
     7
370
     9
100
AcDbLine
 10
602.0050397237873
 20
393.9150947086246
 30
0.0
 11
677.9750519750505
 21
393.9150947086246
 31
0.0
  0
LINE
  5
386
330
1F
100
AcDbEntity
  8
1
  6
Continuous
 62
     7
370
     9
100
AcDbLine
 10
662.9023889961361
 20
242.9150947086246
 30
0.0
 11
677.0488565488552
 21
242.9150947086246
 31
0.0
  0
LINE
  5
387
330
1F
100
AcDbEntity
  8
1
  6
Continuous
 62
     7
370
     9
100
AcDbLine
 10
639.7475033412506
 20
242.9150947086246
 30
0.0
 11
642.1455921310818
 21
242.9150947086246
 31
0.0
  0
LINE
  5
388
330
1F
100
AcDbEntity
  8
1
  6
Continuous
 62
     7
370
     9
100
AcDbLine
 10
282.4097304722289
 20
305.4439954679581
 30
0.0
 11
271.6068087318076
 21
305.4439954679581
 31
0.0
  0
LINE
  5
389
330
1F
100
AcDbEntity
  8
1
  6
Continuous
 62
     7
370
     9
100
AcDbLine
 10
256.5561330561318
 20
487.7852467092042
 30
0.0
 11
282.4097304722289
 21
487.7852467092042
 31
0.0
  0
LINE
  5
38A
330
1F
100
AcDbEntity
  8
1
  6
Continuous
 62
     7
370
     9
100
AcDbLine
 10
404.7474012473997
 20
105.3361725147436
 30
0.0
 11
426.9760914760899
 21
105.3361725147436
 31
0.0
  0
LINE
  5
38B
330
1F
100
AcDbEntity
  8
1
  6
Continuous
 62
     7
370
     9
100
AcDbLine
 10
404.7474012473997
 20
67.33617251474361
 30
0.0
 11
426.9760914760899
 21
67.33617251474361
 31
0.0
  0
LINE
  5
38C
330
1F
100
AcDbEntity
  8
1
  6
Continuous
 62
     7
370
     9
100
AcDbLine
 10
282.4097304722289
 20
305.4439954679581
 30
0.0
 11
282.4097304722289
 21
452.4464656964651
 31
0.0
  0
LINE
  5
38D
330
1F
100
AcDbEntity
  8
1
  6
Continuous
 62
     7
370
     9
100
AcDbLine
 10
282.4097304722289
 20
463.641112266112
 30
0.0
 11
282.4097304722289
 21
487.7852467092042
 31
0.0
  0
LINE
  5
38E
330
1F
100
AcDbEntity
  8
1
  6
Continuous
 62
     7
370
     9
100
AcDbLine
 10
63.24873774873754
 20
367.3361725147436
 30
0.0
 11
63.24873774873754
 21
236.0285862785867
 31
0.0
  0
LINE
  5
38F
330
1F
100
AcDbEntity
  8
1
  6
Continuous
 62
     7
370
     9
100
AcDbLine
 10
63.24873774873754
 20
225.5285862785867
 30
0.0
 11
63.24873774873754
 21
67.33617251474362
 31
0.0
  0
LINE
  5
390
330
1F
100
AcDbEntity
  8
1
  6
Continuous
 62
     7
370
     9
100
AcDbLine
 10
328.0248552123537
 20
343.3361725147436
 30
0.0
 11
328.0248552123537
 21
303.7920997920996
 31
0.0
  0
LINE
  5
391
330
1F
100
AcDbEntity
  8
1
  6
Continuous
 62
     7
370
     9
100
AcDbLine
 10
328.0248552123537
 20
293.1408523908525
 30
0.0
 11
328.0248552123537
 21
255.3361725147436
 31
0.0
  0
LINE
  5
392
330
1F
100
AcDbEntity
  8
1
  6
Continuous
 62
     7
370
     9
100
AcDbLine
 10
312.8584051084037
 20
255.3361725147436
 30
0.0
 11
312.8584051084037
 21
240.6595634095637
 31
0.0
  0
LINE
  5
393
330
1F
100
AcDbEntity
  8
1
  6
Continuous
 62
     7
370
     9
100
AcDbLine
 10
312.8584051084037
 20
229.0018191268192
 30
0.0
 11
312.8584051084037
 21
215.3361725147436
 31
0.0
  0
LINE
  5
394
330
1F
100
AcDbEntity
  8
1
  6
Continuous
 62
     7
370
     9
100
AcDbLine
 10
343.7701774576757
 20
255.3361725147434
 30
0.0
 11
343.7701774576757
 21
176.6717775467778
 31
0.0
  0
LINE
  5
395
330
1F
100
AcDbEntity
  8
1
  6
Continuous
 62
     7
370
     9
100
AcDbLine
 10
343.7701774576757
 20
162.7788461538465
 30
0.0
 11
343.7701774576757
 21
105.3361725147436
 31
0.0
  0
LINE
  5
396
330
1F
100
AcDbEntity
  8
1
  6
Continuous
 62
     7
370
     9
100
AcDbLine
 10
405.6513049450532
 20
335.6938698565872
 30
0.0
 11
405.6513049450532
 21
316.9903846153844
 31
0.0
  0
LINE
  5
397
330
1F
100
AcDbEntity
  8
1
  6
Continuous
 62
     7
370
     9
100
AcDbLine
 10
405.6513049450532
 20
299.8557692307691
 30
0.0
 11
405.6513049450532
 21
285.6938698565872
 31
0.0
  0
LINE
  5
398
330
1F
100
AcDbEntity
  8
1
  6
Continuous
 62
     7
370
     9
100
AcDbLine
 10
426.9760914760899
 20
67.33617251474361
 30
0.0
 11
426.9760914760899
 21
80.57900207900266
 31
0.0
  0
LINE
  5
399
330
1F
100
AcDbEntity
  8
1
  6
Continuous
 62
     7
370
     9
100
AcDbLine
 10
426.9760914760899
 20
91.07900207900266
 30
0.0
 11
426.9760914760899
 21
105.3361725147436
 31
0.0
  0
LINE
  5
39A
330
1F
100
AcDbEntity
  8
1
  6
Continuous
 62
     7
370
     9
100
AcDbLine
 10
639.7475033412506
 20
242.9150947086246
 30
0.0
 11
639.7475033412506
 21
168.6478690228692
 31
0.0
  0
LINE
  5
39B
330
1F
100
AcDbEntity
  8
1
  6
Continuous
 62
     7
370
     9
100
AcDbLine
 10
639.7475033412506
 20
158.1478690228692
 30
0.0
 11
639.7475033412506
 21
120.9150947086246
 31
0.0
  0
LINE
  5
39C
330
1F
100
AcDbEntity
  8
1
  6
Continuous
 62
     7
370
     9
100
AcDbLine
 10
662.9023889961361
 20
323.9150947086246
 30
0.0
 11
662.9023889961361
 21
288.1270790020789
 31
0.0
  0
LINE
  5
39D
330
1F
100
AcDbEntity
  8
1
  6
Continuous
 62
     7
370
     9
100
AcDbLine
 10
662.9023889961361
 20
277.6270790020789
 30
0.0
 11
662.9023889961361
 21
242.9150947086246
 31
0.0
  0
LINE
  5
39E
330
1F
100
AcDbEntity
  8
1
  6
Continuous
 62
     7
370
     9
100
AcDbLine
 10
602.0050397237873
 20
393.9150947086246
 30
0.0
 11
602.0050397237873
 21
362.6858108108105
 31
0.0
  0
LINE
  5
39F
330
1F
100
AcDbEntity
  8
1
  6
Continuous
 62
     7
370
     9
100
AcDbLine
 10
602.0050397237873
 20
351.7227130977128
 30
0.0
 11
602.0050397237873
 21
323.9150947086246
 31
0.0
  0
LINE
  5
3A0
330
1F
100
AcDbEntity
  8
1
  6
Continuous
 62
     7
370
     9
100
AcDbLine
 10
602.0050397237873
 20
393.9150947086246
 30
0.0
 11
602.7814968590948
 21
391.0173172297574
 31
0.0
  0
LINE
  5
3A1
330
1F
100
AcDbEntity
  8
1
  6
Continuous
 62
     7
370
     9
100
AcDbLine
 10
602.0050397237873
 20
393.9150947086246
 30
0.0
 11
601.2285825884798
 21
391.0173172297574
 31
0.0
  0
LINE
  5
3A2
330
1F
100
AcDbEntity
  8
1
  6
Continuous
 62
     7
370
     9
100
AcDbLine
 10
602.7814968590948
 20
391.0173172297574
 30
0.0
 11
601.2285825884798
 21
391.0173172297574
 31
0.0
  0
LINE
  5
3A3
330
1F
100
AcDbEntity
  8
1
  6
Continuous
 62
     7
370
     9
100
AcDbLine
 10
602.0050397237873
 20
393.1906503389078
 30
0.0
 11
602.393268291441
 21
391.7417615994742
 31
0.0
  0
LINE
  5
3A4
330
1F
100
AcDbEntity
  8
1
  6
Continuous
 62
     7
370
     9
100
AcDbLine
 10
602.0050397237873
 20
393.1906503389078
 30
0.0
 11
601.6168111561335
 21
391.7417615994742
 31
0.0
  0
LINE
  5
3A5
330
1F
100
AcDbEntity
  8
1
  6
Continuous
 62
     7
370
     9
100
AcDbLine
 10
602.393268291441
 20
391.7417615994742
 30
0.0
 11
601.6168111561335
 21
391.7417615994742
 31
0.0
  0
POLYLINE
  5
3A6
330
1F
100
AcDbEntity
  8
1
  6
Continuous
 62
     7
370
     9
100
AcDb2dPolyline
 66
     1
 10
0.0
 20
0.0
 30
0.0
  0
VERTEX
  5
3A8
330
3A6
100
AcDbEntity
  8
1
  6
Continuous
 62
     7
370
     9
100
AcDbVertex
100
AcDb2dVertex
 10
602.0050397237873
 20
393.9150947086246
 30
0.0
  0
VERTEX
  5
3A9
330
3A6
100
AcDbEntity
  8
1
  6
Continuous
 62
     7
370
     9
100
AcDbVertex
100
AcDb2dVertex
 10
602.0050397237873
 20
391.7806652806648
 30
0.0
  0
SEQEND
  5
3A7
330
3A6
100
AcDbEntity
  8
1
  6
Continuous
370
     9
  0
LINE
  5
3AA
330
1F
100
AcDbEntity
  8
1
  6
Continuous
 62
     7
370
     9
100
AcDbLine
 10
602.0050397237873
 20
323.9150947086246
 30
0.0
 11
601.2285825884798
 21
326.8128721874918
 31
0.0
  0
LINE
  5
3AB
330
1F
100
AcDbEntity
  8
1
  6
Continuous
 62
     7
370
     9
100
AcDbLine
 10
602.0050397237873
 20
323.9150947086246
 30
0.0
 11
602.7814968590948
 21
326.8128721874918
 31
0.0
  0
LINE
  5
3AC
330
1F
100
AcDbEntity
  8
1
  6
Continuous
 62
     7
370
     9
100
AcDbLine
 10
601.2285825884798
 20
326.8128721874918
 30
0.0
 11
602.7814968590948
 21
326.8128721874918
 31
0.0
  0
LINE
  5
3AD
330
1F
100
AcDbEntity
  8
1
  6
Continuous
 62
     7
370
     9
100
AcDbLine
 10
602.0050397237873
 20
324.6395390783414
 30
0.0
 11
601.6168111561335
 21
326.088427817775
 31
0.0
  0
LINE
  5
3AE
330
1F
100
AcDbEntity
  8
1
  6
Continuous
 62
     7
370
     9
100
AcDbLine
 10
602.0050397237873
 20
324.6395390783414
 30
0.0
 11
602.393268291441
 21
326.088427817775
 31
0.0
  0
LINE
  5
3AF
330
1F
100
AcDbEntity
  8
1
  6
Continuous
 62
     7
370
     9
100
AcDbLine
 10
601.6168111561335
 20
326.088427817775
 30
0.0
 11
602.393268291441
 21
326.088427817775
 31
0.0
  0
POLYLINE
  5
3B0
330
1F
100
AcDbEntity
  8
1
  6
Continuous
 62
     7
370
     9
100
AcDb2dPolyline
 66
     1
 10
0.0
 20
0.0
 30
0.0
  0
VERTEX
  5
3B2
330
3B0
100
AcDbEntity
  8
1
  6
Continuous
 62
     7
370
     9
100
AcDbVertex
100
AcDb2dVertex
 10
602.0050397237873
 20
323.9150947086246
 30
0.0
  0
VERTEX
  5
3B3
330
3B0
100
AcDbEntity
  8
1
  6
Continuous
 62
     7
370
     9
100
AcDbVertex
100
AcDb2dVertex
 10
602.0050397237873
 20
326.4838877338875
 30
0.0
  0
SEQEND
  5
3B1
330
3B0
100
AcDbEntity
  8
1
  6
Continuous
370
     9
  0
LINE
  5
3B4
330
1F
100
AcDbEntity
  8
1
  6
Continuous
 62
     7
370
     9
100
AcDbLine
 10
662.9023889961361
 20
323.9150947086246
 30
0.0
 11
663.6788461314436
 21
321.0173172297574
 31
0.0
  0
LINE
  5
3B5
330
1F
100
AcDbEntity
  8
1
  6
Continuous
 62
     7
370
     9
100
AcDbLine
 10
662.9023889961361
 20
323.9150947086246
 30
0.0
 11
662.1259318608286
 21
321.0173172297574
 31
0.0
  0
LINE
  5
3B6
330
1F
100
AcDbEntity
  8
1
  6
Continuous
 62
     7
370
     9
100
AcDbLine
 10
663.6788461314436
 20
321.0173172297574
 30
0.0
 11
662.1259318608286
 21
321.0173172297574
 31
0.0
  0
LINE
  5
3B7
330
1F
100
AcDbEntity
  8
1
  6
Continuous
 62
     7
370
     9
100
AcDbLine
 10
662.9023889961361
 20
323.1906503389078
 30
0.0
 11
663.2906175637899
 21
321.7417615994742
 31
0.0
  0
LINE
  5
3B8
330
1F
100
AcDbEntity
  8
1
  6
Continuous
 62
     7
370
     9
100
AcDbLine
 10
662.9023889961361
 20
323.1906503389078
 30
0.0
 11
662.5141604284823
 21
321.7417615994742
 31
0.0
  0
LINE
  5
3B9
330
1F
100
AcDbEntity
  8
1
  6
Continuous
 62
     7
370
     9
100
AcDbLine
 10
663.2906175637899
 20
321.7417615994742
 30
0.0
 11
662.5141604284823
 21
321.7417615994742
 31
0.0
  0
POLYLINE
  5
3BA
330
1F
100
AcDbEntity
  8
1
  6
Continuous
 62
     7
370
     9
100
AcDb2dPolyline
 66
     1
 10
0.0
 20
0.0
 30
0.0
  0
VERTEX
  5
3BC
330
3BA
100
AcDbEntity
  8
1
  6
Continuous
 62
     7
370
     9
100
AcDbVertex
100
AcDb2dVertex
 10
662.9023889961361
 20
323.9150947086246
 30
0.0
  0
VERTEX
  5
3BD
330
3BA
100
AcDbEntity
  8
1
  6
Continuous
 62
     7
370
     9
100
AcDbVertex
100
AcDb2dVertex
 10
662.9023889961361
 20
321.6213617463615
 30
0.0
  0
SEQEND
  5
3BB
330
3BA
100
AcDbEntity
  8
1
  6
Continuous
370
     9
  0
LINE
  5
3BE
330
1F
100
AcDbEntity
  8
1
  6
Continuous
 62
     7
370
     9
100
AcDbLine
 10
662.9023889961361
 20
242.9150947086246
 30
0.0
 11
662.1259318608286
 21
245.8128721874918
 31
0.0
  0
LINE
  5
3BF
330
1F
100
AcDbEntity
  8
1
  6
Continuous
 62
     7
370
     9
100
AcDbLine
 10
662.9023889961361
 20
242.9150947086246
 30
0.0
 11
663.6788461314436
 21
245.8128721874918
 31
0.0
  0
LINE
  5
3C0
330
1F
100
AcDbEntity
  8
1
  6
Continuous
 62
     7
370
     9
100
AcDbLine
 10
662.1259318608286
 20
245.8128721874918
 30
0.0
 11
663.6788461314436
 21
245.8128721874918
 31
0.0
  0
LINE
  5
3C1
330
1F
100
AcDbEntity
  8
1
  6
Continuous
 62
     7
370
     9
100
AcDbLine
 10
662.9023889961361
 20
243.6395390783414
 30
0.0
 11
662.5141604284823
 21
245.088427817775
 31
0.0
  0
LINE
  5
3C2
330
1F
100
AcDbEntity
  8
1
  6
Continuous
 62
     7
370
     9
100
AcDbLine
 10
662.9023889961361
 20
243.6395390783414
 30
0.0
 11
663.2906175637899
 21
245.088427817775
 31
0.0
  0
LINE
  5
3C3
330
1F
100
AcDbEntity
  8
1
  6
Continuous
 62
     7
370
     9
100
AcDbLine
 10
662.5141604284823
 20
245.088427817775
 30
0.0
 11
663.2906175637899
 21
245.088427817775
 31
0.0
  0
POLYLINE
  5
3C4
330
1F
100
AcDbEntity
  8
1
  6
Continuous
 62
     7
370
     9
100
AcDb2dPolyline
 66
     1
 10
0.0
 20
0.0
 30
0.0
  0
VERTEX
  5
3C6
330
3C4
100
AcDbEntity
  8
1
  6
Continuous
 62
     7
370
     9
100
AcDbVertex
100
AcDb2dVertex
 10
662.9023889961361
 20
242.9150947086246
 30
0.0
  0
VERTEX
  5
3C7
330
3C4
100
AcDbEntity
  8
1
  6
Continuous
 62
     7
370
     9
100
AcDbVertex
100
AcDb2dVertex
 10
662.9023889961361
 20
245.2102390852392
 30
0.0
  0
SEQEND
  5
3C5
330
3C4
100
AcDbEntity
  8
1
  6
Continuous
370
     9
  0
LINE
  5
3C8
330
1F
100
AcDbEntity
  8
1
  6
Continuous
 62
     7
370
     9
100
AcDbLine
 10
639.7475033412506
 20
242.9150947086246
 30
0.0
 11
640.5239604765582
 21
240.0173172297574
 31
0.0
  0
LINE
  5
3C9
330
1F
100
AcDbEntity
  8
1
  6
Continuous
 62
     7
370
     9
100
AcDbLine
 10
639.7475033412506
 20
242.9150947086246
 30
0.0
 11
638.9710462059431
 21
240.0173172297574
 31
0.0
  0
LINE
  5
3CA
330
1F
100
AcDbEntity
  8
1
  6
Continuous
 62
     7
370
     9
100
AcDbLine
 10
640.5239604765582
 20
240.0173172297574
 30
0.0
 11
638.9710462059431
 21
240.0173172297574
 31
0.0
  0
LINE
  5
3CB
330
1F
100
AcDbEntity
  8
1
  6
Continuous
 62
     7
370
     9
100
AcDbLine
 10
639.7475033412506
 20
242.1906503389078
 30
0.0
 11
640.1357319089044
 21
240.7417615994742
 31
0.0
  0
LINE
  5
3CC
330
1F
100
AcDbEntity
  8
1
  6
Continuous
 62
     7
370
     9
100
AcDbLine
 10
639.7475033412506
 20
242.1906503389078
 30
0.0
 11
639.3592747735969
 21
240.7417615994742
 31
0.0
  0
LINE
  5
3CD
330
1F
100
AcDbEntity
  8
1
  6
Continuous
 62
     7
370
     9
100
AcDbLine
 10
640.1357319089044
 20
240.7417615994742
 30
0.0
 11
639.3592747735969
 21
240.7417615994742
 31
0.0
  0
POLYLINE
  5
3CE
330
1F
100
AcDbEntity
  8
1
  6
Continuous
 62
     7
370
     9
100
AcDb2dPolyline
 66
     1
 10
0.0
 20
0.0
 30
0.0
  0
VERTEX
  5
3D0
330
3CE
100
AcDbEntity
  8
1
  6
Continuous
 62
     7
370
     9
100
AcDbVertex
100
AcDb2dVertex
 10
639.7475033412506
 20
242.9150947086246
 30
0.0
  0
VERTEX
  5
3D1
330
3CE
100
AcDbEntity
  8
1
  6
Continuous
 62
     7
370
     9
100
AcDbVertex
100
AcDb2dVertex
 10
639.7475033412506
 20
241.7370062370065
 30
0.0
  0
SEQEND
  5
3CF
330
3CE
100
AcDbEntity
  8
1
  6
Continuous
370
     9
  0
LINE
  5
3D2
330
1F
100
AcDbEntity
  8
1
  6
Continuous
 62
     7
370
     9
100
AcDbLine
 10
639.7475033412506
 20
120.9150947086246
 30
0.0
 11
638.9710462059431
 21
123.8128721874918
 31
0.0
  0
LINE
  5
3D3
330
1F
100
AcDbEntity
  8
1
  6
Continuous
 62
     7
370
     9
100
AcDbLine
 10
639.7475033412506
 20
120.9150947086246
 30
0.0
 11
640.5239604765582
 21
123.8128721874918
 31
0.0
  0
LINE
  5
3D4
330
1F
100
AcDbEntity
  8
1
  6
Continuous
 62
     7
370
     9
100
AcDbLine
 10
638.9710462059431
 20
123.8128721874918
 30
0.0
 11
640.5239604765582
 21
123.8128721874918
 31
0.0
  0
LINE
  5
3D5
330
1F
100
AcDbEntity
  8
1
  6
Continuous
 62
     7
370
     9
100
AcDbLine
 10
639.7475033412506
 20
121.6395390783414
 30
0.0
 11
639.3592747735969
 21
123.088427817775
 31
0.0
  0
LINE
  5
3D6
330
1F
100
AcDbEntity
  8
1
  6
Continuous
 62
     7
370
     9
100
AcDbLine
 10
639.7475033412506
 20
121.6395390783414
 30
0.0
 11
640.1357319089044
 21
123.088427817775
 31
0.0
  0
LINE
  5
3D7
330
1F
100
AcDbEntity
  8
1
  6
Continuous
 62
     7
370
     9
100
AcDbLine
 10
639.3592747735969
 20
123.088427817775
 30
0.0
 11
640.1357319089044
 21
123.088427817775
 31
0.0
  0
POLYLINE
  5
3D8
330
1F
100
AcDbEntity
  8
1
  6
Continuous
 62
     7
370
     9
100
AcDb2dPolyline
 66
     1
 10
0.0
 20
0.0
 30
0.0
  0
VERTEX
  5
3DA
330
3D8
100
AcDbEntity
  8
1
  6
Continuous
 62
     7
370
     9
100
AcDbVertex
100
AcDb2dVertex
 10
639.7475033412506
 20
120.9150947086246
 30
0.0
  0
VERTEX
  5
3DB
330
3D8
100
AcDbEntity
  8
1
  6
Continuous
 62
     7
370
     9
100
AcDbVertex
100
AcDb2dVertex
 10
639.7475033412506
 20
123.6470893970902
 30
0.0
  0
SEQEND
  5
3D9
330
3D8
100
AcDbEntity
  8
1
  6
Continuous
370
     9
  0
LINE
  5
3DC
330
1F
100
AcDbEntity
  8
1
  6
Continuous
 62
     7
370
     9
100
AcDbLine
 10
405.6513049450532
 20
335.6938698565872
 30
0.0
 11
406.4277620803608
 21
332.79609237772
 31
0.0
  0
LINE
  5
3DD
330
1F
100
AcDbEntity
  8
1
  6
Continuous
 62
     7
370
     9
100
AcDbLine
 10
405.6513049450532
 20
335.6938698565872
 30
0.0
 11
404.8748478097456
 21
332.79609237772
 31
0.0
  0
LINE
  5
3DE
330
1F
100
AcDbEntity
  8
1
  6
Continuous
 62
     7
370
     9
100
AcDbLine
 10
406.4277620803608
 20
332.79609237772
 30
0.0
 11
404.8748478097456
 21
332.79609237772
 31
0.0
  0
LINE
  5
3DF
330
1F
100
AcDbEntity
  8
1
  6
Continuous
 62
     7
370
     9
100
AcDbLine
 10
405.6513049450532
 20
334.9694254868704
 30
0.0
 11
406.039533512707
 21
333.5205367474368
 31
0.0
  0
LINE
  5
3E0
330
1F
100
AcDbEntity
  8
1
  6
Continuous
 62
     7
370
     9
100
AcDbLine
 10
405.6513049450532
 20
334.9694254868704
 30
0.0
 11
405.2630763773994
 21
333.5205367474368
 31
0.0
  0
LINE
  5
3E1
330
1F
100
AcDbEntity
  8
1
  6
Continuous
 62
     7
370
     9
100
AcDbLine
 10
406.039533512707
 20
333.5205367474368
 30
0.0
 11
405.2630763773994
 21
333.5205367474368
 31
0.0
  0
POLYLINE
  5
3E2
330
1F
100
AcDbEntity
  8
1
  6
Continuous
 62
     7
370
     9
100
AcDb2dPolyline
 66
     1
 10
0.0
 20
0.0
 30
0.0
  0
VERTEX
  5
3E4
330
3E2
100
AcDbEntity
  8
1
  6
Continuous
 62
     7
370
     9
100
AcDbVertex
100
AcDb2dVertex
 10
405.6513049450532
 20
335.6938698565872
 30
0.0
  0
VERTEX
  5
3E5
330
3E2
100
AcDbEntity
  8
1
  6
Continuous
 62
     7
370
     9
100
AcDbVertex
100
AcDb2dVertex
 10
405.6513049450532
 20
333.1988045738048
 30
0.0
  0
SEQEND
  5
3E3
330
3E2
100
AcDbEntity
  8
1
  6
Continuous
370
     9
  0
LINE
  5
3E6
330
1F
100
AcDbEntity
  8
1
  6
Continuous
 62
     7
370
     9
100
AcDbLine
 10
405.6513049450532
 20
285.6938698565872
 30
0.0
 11
404.8748478097456
 21
288.5916473354545
 31
0.0
  0
LINE
  5
3E7
330
1F
100
AcDbEntity
  8
1
  6
Continuous
 62
     7
370
     9
100
AcDbLine
 10
405.6513049450532
 20
285.6938698565872
 30
0.0
 11
406.4277620803608
 21
288.5916473354545
 31
0.0
  0
LINE
  5
3E8
330
1F
100
AcDbEntity
  8
1
  6
Continuous
 62
     7
370
     9
100
AcDbLine
 10
404.8748478097456
 20
288.5916473354545
 30
0.0
 11
406.4277620803608
 21
288.5916473354545
 31
0.0
  0
LINE
  5
3E9
330
1F
100
AcDbEntity
  8
1
  6
Continuous
 62
     7
370
     9
100
AcDbLine
 10
405.6513049450532
 20
286.4183142263041
 30
0.0
 11
405.2630763773994
 21
287.8672029657376
 31
0.0
  0
LINE
  5
3EA
330
1F
100
AcDbEntity
  8
1
  6
Continuous
 62
     7
370
     9
100
AcDbLine
 10
405.6513049450532
 20
286.4183142263041
 30
0.0
 11
406.039533512707
 21
287.8672029657376
 31
0.0
  0
LINE
  5
3EB
330
1F
100
AcDbEntity
  8
1
  6
Continuous
 62
     7
370
     9
100
AcDbLine
 10
405.2630763773994
 20
287.8672029657376
 30
0.0
 11
406.039533512707
 21
287.8672029657376
 31
0.0
  0
POLYLINE
  5
3EC
330
1F
100
AcDbEntity
  8
1
  6
Continuous
 62
     7
370
     9
100
AcDb2dPolyline
 66
     1
 10
0.0
 20
0.0
 30
0.0
  0
VERTEX
  5
3EE
330
3EC
100
AcDbEntity
  8
1
  6
Continuous
 62
     7
370
     9
100
AcDbVertex
100
AcDb2dVertex
 10
405.6513049450532
 20
285.6938698565872
 30
0.0
  0
VERTEX
  5
3EF
330
3EC
100
AcDbEntity
  8
1
  6
Continuous
 62
     7
370
     9
100
AcDbVertex
100
AcDb2dVertex
 10
405.6513049450532
 20
288.0467775467778
 30
0.0
  0
SEQEND
  5
3ED
330
3EC
100
AcDbEntity
  8
1
  6
Continuous
370
     9
  0
LINE
  5
3F0
330
1F
100
AcDbEntity
  8
1
  6
Continuous
 62
     7
370
     9
100
AcDbLine
 10
312.8584051084037
 20
255.3361725147436
 30
0.0
 11
313.6348622437113
 21
252.4383950358764
 31
0.0
  0
LINE
  5
3F1
330
1F
100
AcDbEntity
  8
1
  6
Continuous
 62
     7
370
     9
100
AcDbLine
 10
312.8584051084037
 20
255.3361725147436
 30
0.0
 11
312.0819479730961
 21
252.4383950358764
 31
0.0
  0
LINE
  5
3F2
330
1F
100
AcDbEntity
  8
1
  6
Continuous
 62
     7
370
     9
100
AcDbLine
 10
313.6348622437113
 20
252.4383950358764
 30
0.0
 11
312.0819479730961
 21
252.4383950358764
 31
0.0
  0
LINE
  5
3F3
330
1F
100
AcDbEntity
  8
1
  6
Continuous
 62
     7
370
     9
100
AcDbLine
 10
312.8584051084037
 20
254.6117281450268
 30
0.0
 11
313.2466336760575
 21
253.1628394055932
 31
0.0
  0
LINE
  5
3F4
330
1F
100
AcDbEntity
  8
1
  6
Continuous
 62
     7
370
     9
100
AcDbLine
 10
312.8584051084037
 20
254.6117281450268
 30
0.0
 11
312.4701765407499
 21
253.1628394055932
 31
0.0
  0
LINE
  5
3F5
330
1F
100
AcDbEntity
  8
1
  6
Continuous
 62
     7
370
     9
100
AcDbLine
 10
313.2466336760575
 20
253.1628394055932
 30
0.0
 11
312.4701765407499
 21
253.1628394055932
 31
0.0
  0
POLYLINE
  5
3F6
330
1F
100
AcDbEntity
  8
1
  6
Continuous
 62
     7
370
     9
100
AcDb2dPolyline
 66
     1
 10
0.0
 20
0.0
 30
0.0
  0
VERTEX
  5
3F8
330
3F6
100
AcDbEntity
  8
1
  6
Continuous
 62
     7
370
     9
100
AcDbVertex
100
AcDb2dVertex
 10
312.8584051084037
 20
255.3361725147436
 30
0.0
  0
VERTEX
  5
3F9
330
3F6
100
AcDbEntity
  8
1
  6
Continuous
 62
     7
370
     9
100
AcDbVertex
100
AcDb2dVertex
 10
312.8584051084037
 20
251.6936070686075
 30
0.0
  0
SEQEND
  5
3F7
330
3F6
100
AcDbEntity
  8
1
  6
Continuous
370
     9
  0
LINE
  5
3FA
330
1F
100
AcDbEntity
  8
1
  6
Continuous
 62
     7
370
     9
100
AcDbLine
 10
312.8584051084037
 20
215.3361725147436
 30
0.0
 11
312.0819479730961
 21
218.2339499936108
 31
0.0
  0
LINE
  5
3FB
330
1F
100
AcDbEntity
  8
1
  6
Continuous
 62
     7
370
     9
100
AcDbLine
 10
312.8584051084037
 20
215.3361725147436
 30
0.0
 11
313.6348622437113
 21
218.2339499936108
 31
0.0
  0
LINE
  5
3FC
330
1F
100
AcDbEntity
  8
1
  6
Continuous
 62
     7
370
     9
100
AcDbLine
 10
312.0819479730961
 20
218.2339499936108
 30
0.0
 11
313.6348622437113
 21
218.2339499936108
 31
0.0
  0
LINE
  5
3FD
330
1F
100
AcDbEntity
  8
1
  6
Continuous
 62
     7
370
     9
100
AcDbLine
 10
312.8584051084037
 20
216.0606168844604
 30
0.0
 11
312.4701765407499
 21
217.509505623894
 31
0.0
  0
LINE
  5
3FE
330
1F
100
AcDbEntity
  8
1
  6
Continuous
 62
     7
370
     9
100
AcDbLine
 10
312.8584051084037
 20
216.0606168844604
 30
0.0
 11
313.2466336760575
 21
217.509505623894
 31
0.0
  0
LINE
  5
3FF
330
1F
100
AcDbEntity
  8
1
  6
Continuous
 62
     7
370
     9
100
AcDbLine
 10
312.4701765407499
 20
217.509505623894
 30
0.0
 11
313.2466336760575
 21
217.509505623894
 31
0.0
  0
POLYLINE
  5
400
330
1F
100
AcDbEntity
  8
1
  6
Continuous
 62
     7
370
     9
100
AcDb2dPolyline
 66
     1
 10
0.0
 20
0.0
 30
0.0
  0
VERTEX
  5
402
330
400
100
AcDbEntity
  8
1
  6
Continuous
 62
     7
370
     9
100
AcDbVertex
100
AcDb2dVertex
 10
312.8584051084037
 20
215.3361725147436
 30
0.0
  0
VERTEX
  5
403
330
400
100
AcDbEntity
  8
1
  6
Continuous
 62
     7
370
     9
100
AcDbVertex
100
AcDb2dVertex
 10
312.8584051084037
 20
217.4243762993769
 30
0.0
  0
SEQEND
  5
401
330
400
100
AcDbEntity
  8
1
  6
Continuous
370
     9
  0
LINE
  5
404
330
1F
100
AcDbEntity
  8
1
  6
Continuous
 62
     7
370
     9
100
AcDbLine
 10
328.0248552123537
 20
255.3361725147436
 30
0.0
 11
327.2483980770461
 21
258.2339499936108
 31
0.0
  0
LINE
  5
405
330
1F
100
AcDbEntity
  8
1
  6
Continuous
 62
     7
370
     9
100
AcDbLine
 10
328.0248552123537
 20
255.3361725147436
 30
0.0
 11
328.8013123476613
 21
258.2339499936108
 31
0.0
  0
LINE
  5
406
330
1F
100
AcDbEntity
  8
1
  6
Continuous
 62
     7
370
     9
100
AcDbLine
 10
327.2483980770461
 20
258.2339499936108
 30
0.0
 11
328.8013123476613
 21
258.2339499936108
 31
0.0
  0
LINE
  5
407
330
1F
100
AcDbEntity
  8
1
  6
Continuous
 62
     7
370
     9
100
AcDbLine
 10
328.0248552123537
 20
256.0606168844604
 30
0.0
 11
327.6366266447
 21
257.509505623894
 31
0.0
  0
LINE
  5
408
330
1F
100
AcDbEntity
  8
1
  6
Continuous
 62
     7
370
     9
100
AcDbLine
 10
328.0248552123537
 20
256.0606168844604
 30
0.0
 11
328.4130837800075
 21
257.509505623894
 31
0.0
  0
LINE
  5
409
330
1F
100
AcDbEntity
  8
1
  6
Continuous
 62
     7
370
     9
100
AcDbLine
 10
327.6366266447
 20
257.509505623894
 30
0.0
 11
328.4130837800075
 21
257.509505623894
 31
0.0
  0
POLYLINE
  5
40A
330
1F
100
AcDbEntity
  8
1
  6
Continuous
 62
     7
370
     9
100
AcDb2dPolyline
 66
     1
 10
0.0
 20
0.0
 30
0.0
  0
VERTEX
  5
40C
330
40A
100
AcDbEntity
  8
1
  6
Continuous
 62
     7
370
     9
100
AcDbVertex
100
AcDb2dVertex
 10
328.0248552123537
 20
255.3361725147436
 30
0.0
  0
VERTEX
  5
40D
330
40A
100
AcDbEntity
  8
1
  6
Continuous
 62
     7
370
     9
100
AcDbVertex
100
AcDb2dVertex
 10
328.0248552123537
 20
257.2507796257801
 30
0.0
  0
SEQEND
  5
40B
330
40A
100
AcDbEntity
  8
1
  6
Continuous
370
     9
  0
LINE
  5
40E
330
1F
100
AcDbEntity
  8
1
  6
Continuous
 62
     7
370
     9
100
AcDbLine
 10
328.0248552123537
 20
267.3361725147432
 30
0.0
 11
328.8013123476613
 21
264.438395035876
 31
0.0
  0
LINE
  5
40F
330
1F
100
AcDbEntity
  8
1
  6
Continuous
 62
     7
370
     9
100
AcDbLine
 10
328.0248552123537
 20
267.3361725147432
 30
0.0
 11
327.2483980770461
 21
264.438395035876
 31
0.0
  0
LINE
  5
410
330
1F
100
AcDbEntity
  8
1
  6
Continuous
 62
     7
370
     9
100
AcDbLine
 10
328.8013123476613
 20
264.438395035876
 30
0.0
 11
327.2483980770461
 21
264.438395035876
 31
0.0
  0
LINE
  5
411
330
1F
100
AcDbEntity
  8
1
  6
Continuous
 62
     7
370
     9
100
AcDbLine
 10
328.0248552123537
 20
266.6117281450264
 30
0.0
 11
328.4130837800075
 21
265.1628394055928
 31
0.0
  0
LINE
  5
412
330
1F
100
AcDbEntity
  8
1
  6
Continuous
 62
     7
370
     9
100
AcDbLine
 10
328.0248552123537
 20
266.6117281450264
 30
0.0
 11
327.6366266447
 21
265.1628394055928
 31
0.0
  0
LINE
  5
413
330
1F
100
AcDbEntity
  8
1
  6
Continuous
 62
     7
370
     9
100
AcDbLine
 10
328.4130837800075
 20
265.1628394055928
 30
0.0
 11
327.6366266447
 21
265.1628394055928
 31
0.0
  0
POLYLINE
  5
414
330
1F
100
AcDbEntity
  8
1
  6
Continuous
 62
     7
370
     9
100
AcDb2dPolyline
 66
     1
 10
0.0
 20
0.0
 30
0.0
  0
VERTEX
  5
416
330
414
100
AcDbEntity
  8
1
  6
Continuous
 62
     7
370
     9
100
AcDbVertex
100
AcDb2dVertex
 10
328.0248552123537
 20
267.3361725147432
 30
0.0
  0
VERTEX
  5
417
330
414
100
AcDbEntity
  8
1
  6
Continuous
 62
     7
370
     9
100
AcDbVertex
100
AcDb2dVertex
 10
328.0248552123537
 20
264.1972453222457
 30
0.0
  0
SEQEND
  5
415
330
414
100
AcDbEntity
  8
1
  6
Continuous
370
     9
  0
LINE
  5
418
330
1F
100
AcDbEntity
  8
1
  6
Continuous
 62
     7
370
     9
100
AcDbLine
 10
328.0248552123537
 20
267.3361725147432
 30
0.0
 11
327.2483980770461
 21
270.2339499936105
 31
0.0
  0
LINE
  5
419
330
1F
100
AcDbEntity
  8
1
  6
Continuous
 62
     7
370
     9
100
AcDbLine
 10
328.0248552123537
 20
267.3361725147432
 30
0.0
 11
328.8013123476613
 21
270.2339499936105
 31
0.0
  0
LINE
  5
41A
330
1F
100
AcDbEntity
  8
1
  6
Continuous
 62
     7
370
     9
100
AcDbLine
 10
327.2483980770461
 20
270.2339499936105
 30
0.0
 11
328.8013123476613
 21
270.2339499936105
 31
0.0
  0
LINE
  5
41B
330
1F
100
AcDbEntity
  8
1
  6
Continuous
 62
     7
370
     9
100
AcDbLine
 10
328.0248552123537
 20
268.06061688446
 30
0.0
 11
327.6366266447
 21
269.5095056238936
 31
0.0
  0
LINE
  5
41C
330
1F
100
AcDbEntity
  8
1
  6
Continuous
 62
     7
370
     9
100
AcDbLine
 10
328.0248552123537
 20
268.06061688446
 30
0.0
 11
328.4130837800075
 21
269.5095056238936
 31
0.0
  0
LINE
  5
41D
330
1F
100
AcDbEntity
  8
1
  6
Continuous
 62
     7
370
     9
100
AcDbLine
 10
327.6366266447
 20
269.5095056238936
 30
0.0
 11
328.4130837800075
 21
269.5095056238936
 31
0.0
  0
POLYLINE
  5
41E
330
1F
100
AcDbEntity
  8
1
  6
Continuous
 62
     7
370
     9
100
AcDb2dPolyline
 66
     1
 10
0.0
 20
0.0
 30
0.0
  0
VERTEX
  5
420
330
41E
100
AcDbEntity
  8
1
  6
Continuous
 62
     7
370
     9
100
AcDbVertex
100
AcDb2dVertex
 10
328.0248552123537
 20
267.3361725147432
 30
0.0
  0
VERTEX
  5
421
330
41E
100
AcDbEntity
  8
1
  6
Continuous
 62
     7
370
     9
100
AcDbVertex
100
AcDb2dVertex
 10
328.0248552123537
 20
268.8282224532229
 30
0.0
  0
SEQEND
  5
41F
330
41E
100
AcDbEntity
  8
1
  6
Continuous
370
     9
  0
LINE
  5
422
330
1F
100
AcDbEntity
  8
1
  6
Continuous
 62
     7
370
     9
100
AcDbLine
 10
328.0248552123537
 20
343.3361725147436
 30
0.0
 11
328.8013123476613
 21
340.4383950358763
 31
0.0
  0
LINE
  5
423
330
1F
100
AcDbEntity
  8
1
  6
Continuous
 62
     7
370
     9
100
AcDbLine
 10
328.0248552123537
 20
343.3361725147436
 30
0.0
 11
327.2483980770461
 21
340.4383950358763
 31
0.0
  0
LINE
  5
424
330
1F
100
AcDbEntity
  8
1
  6
Continuous
 62
     7
370
     9
100
AcDbLine
 10
328.8013123476613
 20
340.4383950358763
 30
0.0
 11
327.2483980770461
 21
340.4383950358763
 31
0.0
  0
LINE
  5
425
330
1F
100
AcDbEntity
  8
1
  6
Continuous
 62
     7
370
     9
100
AcDbLine
 10
328.0248552123537
 20
342.6117281450267
 30
0.0
 11
328.4130837800075
 21
341.1628394055932
 31
0.0
  0
LINE
  5
426
330
1F
100
AcDbEntity
  8
1
  6
Continuous
 62
     7
370
     9
100
AcDbLine
 10
328.0248552123537
 20
342.6117281450267
 30
0.0
 11
327.6366266447
 21
341.1628394055932
 31
0.0
  0
LINE
  5
427
330
1F
100
AcDbEntity
  8
1
  6
Continuous
 62
     7
370
     9
100
AcDbLine
 10
328.4130837800075
 20
341.1628394055932
 30
0.0
 11
327.6366266447
 21
341.1628394055932
 31
0.0
  0
POLYLINE
  5
428
330
1F
100
AcDbEntity
  8
1
  6
Continuous
 62
     7
370
     9
100
AcDb2dPolyline
 66
     1
 10
0.0
 20
0.0
 30
0.0
  0
VERTEX
  5
42A
330
428
100
AcDbEntity
  8
1
  6
Continuous
 62
     7
370
     9
100
AcDbVertex
100
AcDb2dVertex
 10
328.0248552123537
 20
343.3361725147436
 30
0.0
  0
VERTEX
  5
42B
330
428
100
AcDbEntity
  8
1
  6
Continuous
 62
     7
370
     9
100
AcDbVertex
100
AcDb2dVertex
 10
328.0248552123537
 20
341.1872401247404
 30
0.0
  0
SEQEND
  5
429
330
428
100
AcDbEntity
  8
1
  6
Continuous
370
     9
  0
LINE
  5
42C
330
1F
100
AcDbEntity
  8
1
  6
Continuous
 62
     7
370
     9
100
AcDbLine
 10
440.0655906593388
 20
277.3725278966397
 30
0.0
 11
442.963368138206
 21
278.1489850319472
 31
0.0
  0
LINE
  5
42D
330
1F
100
AcDbEntity
  8
1
  6
Continuous
 62
     7
370
     9
100
AcDbLine
 10
440.0655906593388
 20
277.3725278966397
 30
0.0
 11
442.963368138206
 21
276.5960707613321
 31
0.0
  0
LINE
  5
42E
330
1F
100
AcDbEntity
  8
1
  6
Continuous
 62
     7
370
     9
100
AcDbLine
 10
442.963368138206
 20
278.1489850319472
 30
0.0
 11
442.963368138206
 21
276.5960707613321
 31
0.0
  0
LINE
  5
42F
330
1F
100
AcDbEntity
  8
1
  6
Continuous
 62
     7
370
     9
100
AcDbLine
 10
440.7900350290556
 20
277.3725278966397
 30
0.0
 11
442.2389237684892
 21
277.7607564642934
 31
0.0
  0
LINE
  5
430
330
1F
100
AcDbEntity
  8
1
  6
Continuous
 62
     7
370
     9
100
AcDbLine
 10
440.7900350290556
 20
277.3725278966397
 30
0.0
 11
442.2389237684892
 21
276.9842993289859
 31
0.0
  0
LINE
  5
431
330
1F
100
AcDbEntity
  8
1
  6
Continuous
 62
     7
370
     9
100
AcDbLine
 10
442.2389237684892
 20
277.7607564642934
 30
0.0
 11
442.2389237684892
 21
276.9842993289859
 31
0.0
  0
POLYLINE
  5
432
330
1F
100
AcDbEntity
  8
1
  6
Continuous
 62
     7
370
     9
100
AcDb2dPolyline
 66
     1
 10
0.0
 20
0.0
 30
0.0
  0
VERTEX
  5
434
330
432
100
AcDbEntity
  8
1
  6
Continuous
 62
     7
370
     9
100
AcDbVertex
100
AcDb2dVertex
 10
440.0655906593388
 20
277.3725278966397
 30
0.0
  0
VERTEX
  5
435
330
432
100
AcDbEntity
  8
1
  6
Continuous
 62
     7
370
     9
100
AcDbVertex
100
AcDb2dVertex
 10
441.0655906593388
 20
277.3725278966397
 30
0.0
  0
SEQEND
  5
433
330
432
100
AcDbEntity
  8
1
  6
Continuous
370
     9
  0
LINE
  5
436
330
1F
100
AcDbEntity
  8
1
  6
Continuous
 62
     7
370
     9
100
AcDbLine
 10
460.0655906593387
 20
277.3725278966397
 30
0.0
 11
457.1678131804715
 21
276.5960707613321
 31
0.0
  0
LINE
  5
437
330
1F
100
AcDbEntity
  8
1
  6
Continuous
 62
     7
370
     9
100
AcDbLine
 10
460.0655906593387
 20
277.3725278966397
 30
0.0
 11
457.1678131804715
 21
278.1489850319472
 31
0.0
  0
LINE
  5
438
330
1F
100
AcDbEntity
  8
1
  6
Continuous
 62
     7
370
     9
100
AcDbLine
 10
457.1678131804715
 20
276.5960707613321
 30
0.0
 11
457.1678131804715
 21
278.1489850319472
 31
0.0
  0
LINE
  5
439
330
1F
100
AcDbEntity
  8
1
  6
Continuous
 62
     7
370
     9
100
AcDbLine
 10
459.3411462896219
 20
277.3725278966397
 30
0.0
 11
457.8922575501883
 21
276.9842993289859
 31
0.0
  0
LINE
  5
43A
330
1F
100
AcDbEntity
  8
1
  6
Continuous
 62
     7
370
     9
100
AcDbLine
 10
459.3411462896219
 20
277.3725278966397
 30
0.0
 11
457.8922575501883
 21
277.7607564642935
 31
0.0
  0
LINE
  5
43B
330
1F
100
AcDbEntity
  8
1
  6
Continuous
 62
     7
370
     9
100
AcDbLine
 10
457.8922575501883
 20
276.9842993289859
 30
0.0
 11
457.8922575501883
 21
277.7607564642935
 31
0.0
  0
POLYLINE
  5
43C
330
1F
100
AcDbEntity
  8
1
  6
Continuous
 62
     7
370
     9
100
AcDb2dPolyline
 66
     1
 10
0.0
 20
0.0
 30
0.0
  0
VERTEX
  5
43E
330
43C
100
AcDbEntity
  8
1
  6
Continuous
 62
     7
370
     9
100
AcDbVertex
100
AcDb2dVertex
 10
460.0655906593387
 20
277.3725278966397
 30
0.0
  0
VERTEX
  5
43F
330
43C
100
AcDbEntity
  8
1
  6
Continuous
 62
     7
370
     9
100
AcDbVertex
100
AcDb2dVertex
 10
459.0655906593387
 20
277.3725278966397
 30
0.0
  0
SEQEND
  5
43D
330
43C
100
AcDbEntity
  8
1
  6
Continuous
370
     9
  0
LINE
  5
440
330
1F
100
AcDbEntity
  8
1
  6
Continuous
 62
     7
370
     9
100
AcDbLine
 10
426.9760914760899
 20
105.3361725147436
 30
0.0
 11
427.7525486113975
 21
102.4383950358764
 31
0.0
  0
LINE
  5
441
330
1F
100
AcDbEntity
  8
1
  6
Continuous
 62
     7
370
     9
100
AcDbLine
 10
426.9760914760899
 20
105.3361725147436
 30
0.0
 11
426.1996343407823
 21
102.4383950358764
 31
0.0
  0
LINE
  5
442
330
1F
100
AcDbEntity
  8
1
  6
Continuous
 62
     7
370
     9
100
AcDbLine
 10
427.7525486113975
 20
102.4383950358764
 30
0.0
 11
426.1996343407823
 21
102.4383950358764
 31
0.0
  0
LINE
  5
443
330
1F
100
AcDbEntity
  8
1
  6
Continuous
 62
     7
370
     9
100
AcDbLine
 10
426.9760914760899
 20
104.6117281450268
 30
0.0
 11
427.3643200437436
 21
103.1628394055932
 31
0.0
  0
LINE
  5
444
330
1F
100
AcDbEntity
  8
1
  6
Continuous
 62
     7
370
     9
100
AcDbLine
 10
426.9760914760899
 20
104.6117281450268
 30
0.0
 11
426.5878629084361
 21
103.1628394055932
 31
0.0
  0
LINE
  5
445
330
1F
100
AcDbEntity
  8
1
  6
Continuous
 62
     7
370
     9
100
AcDbLine
 10
427.3643200437436
 20
103.1628394055932
 30
0.0
 11
426.5878629084361
 21
103.1628394055932
 31
0.0
  0
POLYLINE
  5
446
330
1F
100
AcDbEntity
  8
1
  6
Continuous
 62
     7
370
     9
100
AcDb2dPolyline
 66
     1
 10
0.0
 20
0.0
 30
0.0
  0
VERTEX
  5
448
330
446
100
AcDbEntity
  8
1
  6
Continuous
 62
     7
370
     9
100
AcDbVertex
100
AcDb2dVertex
 10
426.9760914760899
 20
105.3361725147436
 30
0.0
  0
VERTEX
  5
449
330
446
100
AcDbEntity
  8
1
  6
Continuous
 62
     7
370
     9
100
AcDbVertex
100
AcDb2dVertex
 10
426.9760914760899
 20
102.2288201663214
 30
0.0
  0
SEQEND
  5
447
330
446
100
AcDbEntity
  8
1
  6
Continuous
370
     9
  0
LINE
  5
44A
330
1F
100
AcDbEntity
  8
1
  6
Continuous
 62
     7
370
     9
100
AcDbLine
 10
426.9760914760899
 20
67.33617251474361
 30
0.0
 11
426.1996343407823
 21
70.23394999361082
 31
0.0
  0
LINE
  5
44B
330
1F
100
AcDbEntity
  8
1
  6
Continuous
 62
     7
370
     9
100
AcDbLine
 10
426.9760914760899
 20
67.33617251474361
 30
0.0
 11
427.7525486113975
 21
70.2339499936108
 31
0.0
  0
LINE
  5
44C
330
1F
100
AcDbEntity
  8
1
  6
Continuous
 62
     7
370
     9
100
AcDbLine
 10
426.1996343407823
 20
70.23394999361082
 30
0.0
 11
427.7525486113975
 21
70.2339499936108
 31
0.0
  0
LINE
  5
44D
330
1F
100
AcDbEntity
  8
1
  6
Continuous
 62
     7
370
     9
100
AcDbLine
 10
426.9760914760899
 20
68.06061688446042
 30
0.0
 11
426.5878629084361
 21
69.50950562389401
 31
0.0
  0
LINE
  5
44E
330
1F
100
AcDbEntity
  8
1
  6
Continuous
 62
     7
370
     9
100
AcDbLine
 10
426.9760914760899
 20
68.06061688446042
 30
0.0
 11
427.3643200437436
 21
69.50950562389401
 31
0.0
  0
LINE
  5
44F
330
1F
100
AcDbEntity
  8
1
  6
Continuous
 62
     7
370
     9
100
AcDbLine
 10
426.5878629084361
 20
69.50950562389401
 30
0.0
 11
427.3643200437436
 21
69.50950562389401
 31
0.0
  0
POLYLINE
  5
450
330
1F
100
AcDbEntity
  8
1
  6
Continuous
 62
     7
370
     9
100
AcDb2dPolyline
 66
     1
 10
0.0
 20
0.0
 30
0.0
  0
VERTEX
  5
452
330
450
100
AcDbEntity
  8
1
  6
Continuous
 62
     7
370
     9
100
AcDbVertex
100
AcDb2dVertex
 10
426.9760914760899
 20
67.33617251474361
 30
0.0
  0
VERTEX
  5
453
330
450
100
AcDbEntity
  8
1
  6
Continuous
 62
     7
370
     9
100
AcDbVertex
100
AcDb2dVertex
 10
426.9760914760899
 20
70.27507796257933
 30
0.0
  0
SEQEND
  5
451
330
450
100
AcDbEntity
  8
1
  6
Continuous
370
     9
  0
LINE
  5
454
330
1F
100
AcDbEntity
  8
1
  6
Continuous
 62
     7
370
     9
100
AcDbLine
 10
343.7701774576757
 20
105.3361725147436
 30
0.0
 11
342.9937203223681
 21
108.2339499936108
 31
0.0
  0
LINE
  5
455
330
1F
100
AcDbEntity
  8
1
  6
Continuous
 62
     7
370
     9
100
AcDbLine
 10
343.7701774576757
 20
105.3361725147436
 30
0.0
 11
344.5466345929833
 21
108.2339499936108
 31
0.0
  0
LINE
  5
456
330
1F
100
AcDbEntity
  8
1
  6
Continuous
 62
     7
370
     9
100
AcDbLine
 10
342.9937203223681
 20
108.2339499936108
 30
0.0
 11
344.5466345929833
 21
108.2339499936108
 31
0.0
  0
LINE
  5
457
330
1F
100
AcDbEntity
  8
1
  6
Continuous
 62
     7
370
     9
100
AcDbLine
 10
343.7701774576757
 20
106.0606168844604
 30
0.0
 11
343.3819488900219
 21
107.509505623894
 31
0.0
  0
LINE
  5
458
330
1F
100
AcDbEntity
  8
1
  6
Continuous
 62
     7
370
     9
100
AcDbLine
 10
343.7701774576757
 20
106.0606168844604
 30
0.0
 11
344.1584060253294
 21
107.509505623894
 31
0.0
  0
LINE
  5
459
330
1F
100
AcDbEntity
  8
1
  6
Continuous
 62
     7
370
     9
100
AcDbLine
 10
343.3819488900219
 20
107.509505623894
 30
0.0
 11
344.1584060253294
 21
107.509505623894
 31
0.0
  0
POLYLINE
  5
45A
330
1F
100
AcDbEntity
  8
1
  6
Continuous
 62
     7
370
     9
100
AcDb2dPolyline
 66
     1
 10
0.0
 20
0.0
 30
0.0
  0
VERTEX
  5
45C
330
45A
100
AcDbEntity
  8
1
  6
Continuous
 62
     7
370
     9
100
AcDbVertex
100
AcDb2dVertex
 10
343.7701774576757
 20
105.3361725147436
 30
0.0
  0
VERTEX
  5
45D
330
45A
100
AcDbEntity
  8
1
  6
Continuous
 62
     7
370
     9
100
AcDbVertex
100
AcDb2dVertex
 10
343.7701774576757
 20
109.1752858627871
 30
0.0
  0
SEQEND
  5
45B
330
45A
100
AcDbEntity
  8
1
  6
Continuous
370
     9
  0
LINE
  5
45E
330
1F
100
AcDbEntity
  8
1
  6
Continuous
 62
     7
370
     9
100
AcDbLine
 10
343.7701774576757
 20
255.3361725147436
 30
0.0
 11
344.5466345929833
 21
252.4383950358764
 31
0.0
  0
LINE
  5
45F
330
1F
100
AcDbEntity
  8
1
  6
Continuous
 62
     7
370
     9
100
AcDbLine
 10
343.7701774576757
 20
255.3361725147436
 30
0.0
 11
342.9937203223681
 21
252.4383950358764
 31
0.0
  0
LINE
  5
460
330
1F
100
AcDbEntity
  8
1
  6
Continuous
 62
     7
370
     9
100
AcDbLine
 10
344.5466345929833
 20
252.4383950358764
 30
0.0
 11
342.9937203223681
 21
252.4383950358764
 31
0.0
  0
LINE
  5
461
330
1F
100
AcDbEntity
  8
1
  6
Continuous
 62
     7
370
     9
100
AcDbLine
 10
343.7701774576757
 20
254.6117281450268
 30
0.0
 11
344.1584060253294
 21
253.1628394055932
 31
0.0
  0
LINE
  5
462
330
1F
100
AcDbEntity
  8
1
  6
Continuous
 62
     7
370
     9
100
AcDbLine
 10
343.7701774576757
 20
254.6117281450268
 30
0.0
 11
343.3819488900219
 21
253.1628394055932
 31
0.0
  0
LINE
  5
463
330
1F
100
AcDbEntity
  8
1
  6
Continuous
 62
     7
370
     9
100
AcDbLine
 10
344.1584060253294
 20
253.1628394055932
 30
0.0
 11
343.3819488900219
 21
253.1628394055932
 31
0.0
  0
POLYLINE
  5
464
330
1F
100
AcDbEntity
  8
1
  6
Continuous
 62
     7
370
     9
100
AcDb2dPolyline
 66
     1
 10
0.0
 20
0.0
 30
0.0
  0
VERTEX
  5
466
330
464
100
AcDbEntity
  8
1
  6
Continuous
 62
     7
370
     9
100
AcDbVertex
100
AcDb2dVertex
 10
343.7701774576757
 20
255.3361725147436
 30
0.0
  0
VERTEX
  5
467
330
464
100
AcDbEntity
  8
1
  6
Continuous
 62
     7
370
     9
100
AcDbVertex
100
AcDb2dVertex
 10
343.7701774576757
 20
248.5676975051983
 30
0.0
  0
SEQEND
  5
465
330
464
100
AcDbEntity
  8
1
  6
Continuous
370
     9
  0
LINE
  5
468
330
1F
100
AcDbEntity
  8
1
  6
Continuous
 62
     7
370
     9
100
AcDbLine
 10
282.4097304722289
 20
487.7852467092042
 30
0.0
 11
283.1861876075365
 21
484.887469230337
 31
0.0
  0
LINE
  5
469
330
1F
100
AcDbEntity
  8
1
  6
Continuous
 62
     7
370
     9
100
AcDbLine
 10
282.4097304722289
 20
487.7852467092042
 30
0.0
 11
281.6332733369213
 21
484.887469230337
 31
0.0
  0
LINE
  5
46A
330
1F
100
AcDbEntity
  8
1
  6
Continuous
 62
     7
370
     9
100
AcDbLine
 10
283.1861876075365
 20
484.887469230337
 30
0.0
 11
281.6332733369213
 21
484.887469230337
 31
0.0
  0
LINE
  5
46B
330
1F
100
AcDbEntity
  8
1
  6
Continuous
 62
     7
370
     9
100
AcDbLine
 10
282.4097304722289
 20
487.0608023394874
 30
0.0
 11
282.7979590398826
 21
485.6119136000538
 31
0.0
  0
LINE
  5
46C
330
1F
100
AcDbEntity
  8
1
  6
Continuous
 62
     7
370
     9
100
AcDbLine
 10
282.4097304722289
 20
487.0608023394874
 30
0.0
 11
282.0215019045751
 21
485.6119136000538
 31
0.0
  0
LINE
  5
46D
330
1F
100
AcDbEntity
  8
1
  6
Continuous
 62
     7
370
     9
100
AcDbLine
 10
282.7979590398826
 20
485.6119136000538
 30
0.0
 11
282.0215019045751
 21
485.6119136000538
 31
0.0
  0
POLYLINE
  5
46E
330
1F
100
AcDbEntity
  8
1
  6
Continuous
 62
     7
370
     9
100
AcDb2dPolyline
 66
     1
 10
0.0
 20
0.0
 30
0.0
  0
VERTEX
  5
470
330
46E
100
AcDbEntity
  8
1
  6
Continuous
 62
     7
370
     9
100
AcDbVertex
100
AcDb2dVertex
 10
282.4097304722289
 20
487.7852467092042
 30
0.0
  0
VERTEX
  5
471
330
46E
100
AcDbEntity
  8
1
  6
Continuous
 62
     7
370
     9
100
AcDbVertex
100
AcDb2dVertex
 10
282.4097304722289
 20
387.9601091476096
 30
0.0
  0
SEQEND
  5
46F
330
46E
100
AcDbEntity
  8
1
  6
Continuous
370
     9
  0
LINE
  5
472
330
1F
100
AcDbEntity
  8
1
  6
Continuous
 62
     7
370
     9
100
AcDbLine
 10
282.4097304722289
 20
305.4439954679581
 30
0.0
 11
281.6332733369213
 21
308.3417729468253
 31
0.0
  0
LINE
  5
473
330
1F
100
AcDbEntity
  8
1
  6
Continuous
 62
     7
370
     9
100
AcDbLine
 10
282.4097304722289
 20
305.4439954679581
 30
0.0
 11
283.1861876075365
 21
308.3417729468253
 31
0.0
  0
LINE
  5
474
330
1F
100
AcDbEntity
  8
1
  6
Continuous
 62
     7
370
     9
100
AcDbLine
 10
281.6332733369213
 20
308.3417729468253
 30
0.0
 11
283.1861876075365
 21
308.3417729468253
 31
0.0
  0
LINE
  5
475
330
1F
100
AcDbEntity
  8
1
  6
Continuous
 62
     7
370
     9
100
AcDbLine
 10
282.4097304722289
 20
306.1684398376749
 30
0.0
 11
282.0215019045751
 21
307.6173285771085
 31
0.0
  0
LINE
  5
476
330
1F
100
AcDbEntity
  8
1
  6
Continuous
 62
     7
370
     9
100
AcDbLine
 10
282.4097304722289
 20
306.1684398376749
 30
0.0
 11
282.7979590398826
 21
307.6173285771085
 31
0.0
  0
LINE
  5
477
330
1F
100
AcDbEntity
  8
1
  6
Continuous
 62
     7
370
     9
100
AcDbLine
 10
282.0215019045751
 20
307.6173285771085
 30
0.0
 11
282.7979590398826
 21
307.6173285771085
 31
0.0
  0
POLYLINE
  5
478
330
1F
100
AcDbEntity
  8
1
  6
Continuous
 62
     7
370
     9
100
AcDb2dPolyline
 66
     1
 10
0.0
 20
0.0
 30
0.0
  0
VERTEX
  5
47A
330
478
100
AcDbEntity
  8
1
  6
Continuous
 62
     7
370
     9
100
AcDbVertex
100
AcDb2dVertex
 10
282.4097304722289
 20
305.4439954679581
 30
0.0
  0
VERTEX
  5
47B
330
478
100
AcDbEntity
  8
1
  6
Continuous
 62
     7
370
     9
100
AcDbVertex
100
AcDb2dVertex
 10
282.4097304722289
 20
309.6965956340964
 30
0.0
  0
SEQEND
  5
479
330
478
100
AcDbEntity
  8
1
  6
Continuous
370
     9
  0
LINE
  5
47C
330
1F
100
AcDbEntity
  8
1
  6
Continuous
 62
     7
370
     9
100
AcDbLine
 10
63.24873774873754
 20
367.3361725147436
 30
0.0
 11
64.0251948840451
 21
364.4383950358764
 31
0.0
  0
LINE
  5
47D
330
1F
100
AcDbEntity
  8
1
  6
Continuous
 62
     7
370
     9
100
AcDbLine
 10
63.24873774873754
 20
367.3361725147436
 30
0.0
 11
62.47228061342998
 21
364.4383950358764
 31
0.0
  0
LINE
  5
47E
330
1F
100
AcDbEntity
  8
1
  6
Continuous
 62
     7
370
     9
100
AcDbLine
 10
64.0251948840451
 20
364.4383950358764
 30
0.0
 11
62.47228061342998
 21
364.4383950358764
 31
0.0
  0
LINE
  5
47F
330
1F
100
AcDbEntity
  8
1
  6
Continuous
 62
     7
370
     9
100
AcDbLine
 10
63.24873774873754
 20
366.6117281450268
 30
0.0
 11
63.63696631639132
 21
365.1628394055932
 31
0.0
  0
LINE
  5
480
330
1F
100
AcDbEntity
  8
1
  6
Continuous
 62
     7
370
     9
100
AcDbLine
 10
63.24873774873754
 20
366.6117281450268
 30
0.0
 11
62.86050918108376
 21
365.1628394055932
 31
0.0
  0
LINE
  5
481
330
1F
100
AcDbEntity
  8
1
  6
Continuous
 62
     7
370
     9
100
AcDbLine
 10
63.63696631639132
 20
365.1628394055932
 30
0.0
 11
62.86050918108376
 21
365.1628394055932
 31
0.0
  0
POLYLINE
  5
482
330
1F
100
AcDbEntity
  8
1
  6
Continuous
 62
     7
370
     9
100
AcDb2dPolyline
 66
     1
 10
0.0
 20
0.0
 30
0.0
  0
VERTEX
  5
484
330
482
100
AcDbEntity
  8
1
  6
Continuous
 62
     7
370
     9
100
AcDbVertex
100
AcDb2dVertex
 10
63.24873774873754
 20
367.3361725147436
 30
0.0
  0
VERTEX
  5
485
330
482
100
AcDbEntity
  8
1
  6
Continuous
 62
     7
370
     9
100
AcDbVertex
100
AcDb2dVertex
 10
63.24873774873754
 20
361.1004417879421
 30
0.0
  0
SEQEND
  5
483
330
482
100
AcDbEntity
  8
1
  6
Continuous
370
     9
  0
LINE
  5
486
330
1F
100
AcDbEntity
  8
1
  6
Continuous
 62
     7
370
     9
100
AcDbLine
 10
63.24873774873754
 20
67.33617251474362
 30
0.0
 11
62.47228061342998
 21
70.23394999361084
 31
0.0
  0
LINE
  5
487
330
1F
100
AcDbEntity
  8
1
  6
Continuous
 62
     7
370
     9
100
AcDbLine
 10
63.24873774873754
 20
67.33617251474362
 30
0.0
 11
64.0251948840451
 21
70.23394999361082
 31
0.0
  0
LINE
  5
488
330
1F
100
AcDbEntity
  8
1
  6
Continuous
 62
     7
370
     9
100
AcDbLine
 10
62.47228061342998
 20
70.23394999361084
 30
0.0
 11
64.0251948840451
 21
70.23394999361082
 31
0.0
  0
LINE
  5
489
330
1F
100
AcDbEntity
  8
1
  6
Continuous
 62
     7
370
     9
100
AcDbLine
 10
63.24873774873754
 20
68.06061688446043
 30
0.0
 11
62.86050918108376
 21
69.50950562389403
 31
0.0
  0
LINE
  5
48A
330
1F
100
AcDbEntity
  8
1
  6
Continuous
 62
     7
370
     9
100
AcDbLine
 10
63.24873774873754
 20
68.06061688446043
 30
0.0
 11
63.63696631639132
 21
69.50950562389403
 31
0.0
  0
LINE
  5
48B
330
1F
100
AcDbEntity
  8
1
  6
Continuous
 62
     7
370
     9
100
AcDbLine
 10
62.86050918108376
 20
69.50950562389403
 30
0.0
 11
63.63696631639132
 21
69.50950562389403
 31
0.0
  0
POLYLINE
  5
48C
330
1F
100
AcDbEntity
  8
1
  6
Continuous
 62
     7
370
     9
100
AcDb2dPolyline
 66
     1
 10
0.0
 20
0.0
 30
0.0
  0
VERTEX
  5
48E
330
48C
100
AcDbEntity
  8
1
  6
Continuous
 62
     7
370
     9
100
AcDbVertex
100
AcDb2dVertex
 10
63.24873774873754
 20
67.33617251474362
 30
0.0
  0
VERTEX
  5
48F
330
48C
100
AcDbEntity
  8
1
  6
Continuous
 62
     7
370
     9
100
AcDbVertex
100
AcDb2dVertex
 10
63.24873774873754
 20
72.12746881497017
 30
0.0
  0
SEQEND
  5
48D
330
48C
100
AcDbEntity
  8
1
  6
Continuous
370
     9
  0
TEXT
  5
490
330
1F
100
AcDbEntity
  8
1
  6
Continuous
 62
     7
370
     9
100
AcDbText
 10
56.0613676863674
 20
225.5285862785867
 30
0.0
 40
10.5
  1
300
 41
0.5
100
AcDbText
  0
TEXT
  5
491
330
1F
100
AcDbEntity
  8
1
  6
Continuous
 62
     7
370
     9
100
AcDbText
 10
323.2247735372734
 20
293.1408523908525
 30
0.0
 40
10.5
  1
76
 41
0.5
100
AcDbText
  0
TEXT
  5
492
330
1F
100
AcDbEntity
  8
1
  6
Continuous
 62
     7
370
     9
100
AcDbText
 10
308.0583234333234
 20
230.1595634095637
 30
0.0
 40
10.5
  1
40
 41
0.5
100
AcDbText
  0
TEXT
  5
493
330
1F
100
AcDbEntity
  8
1
  6
Continuous
 62
     7
370
     9
100
AcDbText
 10
331.0974346599345
 20
256.3245841995844
 30
0.0
 40
10.5
  1
12
 41
0.5
100
AcDbText
  0
TEXT
  5
494
330
1F
100
AcDbEntity
  8
1
  6
Continuous
 62
     7
370
     9
100
AcDbText
 10
333.1454744579732
 20
165.3258835758839
 30
0.0
 40
10.5
  1
0～180
 41
0.6
100
AcDbText
  0
TEXT
  5
495
330
1F
100
AcDbEntity
  8
1
  6
Continuous
 62
     7
370
     9
100
AcDbText
 10
398.7536753786737
 20
303.329002079002
 30
0.0
 40
10.5
  1
25
 41
0.5
100
AcDbText
  0
TEXT
  5
496
330
1F
100
AcDbEntity
  8
1
  6
Continuous
 62
     7
370
     9
100
AcDbText
 10
629.1228003415482
 20
158.1478690228692
 30
0.0
 40
10.5
  1
130
 41
0.5
100
AcDbText
  0
TEXT
  5
497
330
1F
100
AcDbEntity
  8
1
  6
Continuous
 62
     7
370
     9
100
AcDbText
 10
274.7152880902876
 20
453.141112266112
 30
0.0
 40
10.5
  1
270
 41
0.5
100
AcDbText
  0
TEXT
  5
498
330
1F
100
AcDbEntity
  8
1
  6
Continuous
 62
     7
370
     9
100
AcDbText
 10
657.1182246807231
 20
277.6270790020789
 30
0.0
 40
10.5
  1
81
 41
0.5
100
AcDbText
  0
TEXT
  5
499
330
1F
100
AcDbEntity
  8
1
  6
Continuous
 62
     7
370
     9
100
AcDbText
 10
596.915521978021
 20
352.1858108108105
 30
0.0
 40
10.5
  1
70
 41
0.5
100
AcDbText
  0
LINE
  5
49A
330
1F
100
AcDbEntity
  8
1
  6
Continuous
 62
     7
370
     9
100
AcDbLine
 10
680.221166110674
 20
323.9150947086246
 30
0.0
 11
691.1590389733622
 21
331.9150947086246
 31
0.0
  0
LINE
  5
49B
330
1F
100
AcDbEntity
  8
1
  6
Continuous
 62
     7
370
     9
100
AcDbLine
 10
705.2617789501767
 20
331.9150947086246
 30
0.0
 11
715.3955921310824
 21
323.9150947086246
 31
0.0
  0
LINE
  5
49C
330
1F
100
AcDbEntity
  8
1
  6
Continuous
 62
     7
370
     9
100
AcDbLine
 10
705.2617789501767
 20
331.9150947086246
 30
0.0
 11
719.3955921310824
 21
331.9150947086246
 31
0.0
  0
LINE
  5
49D
330
1F
100
AcDbEntity
  8
1
  6
Continuous
 62
     7
370
     9
100
AcDbLine
 10
719.3955921310824
 20
371.21067402095
 30
0.0
 11
719.3955921310824
 21
331.9150947086246
 31
0.0
  0
LINE
  5
49E
330
1F
100
AcDbEntity
  8
1
  6
Continuous
 62
     7
370
     9
100
AcDbLine
 10
676.221166110674
 20
331.9150947086246
 30
0.0
 11
691.1590389733622
 21
331.9150947086246
 31
0.0
  0
LINE
  5
49F
330
1F
100
AcDbEntity
  8
1
  6
Continuous
 62
     7
370
     9
100
AcDbLine
 10
676.221166110674
 20
370.1129428691666
 30
0.0
 11
676.221166110674
 21
331.9150947086246
 31
0.0
  0
INSERT
  5
4BA
330
1F
100
AcDbEntity
  8
0
100
AcDbBlockReference
  2
*G25
 10
0.0
 20
0.0
 30
0.0
  0
TEXT
  5
4BB
330
1F
100
AcDbEntity
  8
1
  6
Continuous
 62
     7
370
     9
100
AcDbText
 10
486.1633687258667
 20
286.4259355509353
 30
0.0
 40
10.5
  1
6
 41
0.5
100
AcDbText
  0
TEXT
  5
4BC
330
1F
100
AcDbEntity
  8
1
  6
Continuous
 62
     7
370
     9
100
AcDbText
 10
421.9085610335611
 20
80.57900207900266
 30
0.0
 40
10.5
  1
38±1
 41
0.625
100
AcDbText
  0
LINE
  5
4BD
330
1F
100
AcDbEntity
  8
1
  6
Continuous
 62
     7
370
     9
100
AcDbLine
 10
185.3083791208781
 20
343.3361725147436
 30
0.0
 11
296.2083791208781
 21
343.3361725147436
 31
0.0
  0
LINE
  5
4BE
330
1F
100
AcDbEntity
  8
1
  6
Continuous
 62
     7
370
     9
100
AcDbLine
 10
185.3083791208781
 20
267.3361725147436
 30
0.0
 11
296.2083791208781
 21
267.3361725147436
 31
0.0
  0
LINE
  5
4BF
330
1F
100
AcDbEntity
  8
1
  6
Continuous
 62
     7
370
     9
100
AcDbLine
 10
296.2083791208781
 20
343.3361725147436
 30
0.0
 11
296.2083791208781
 21
267.3361725147436
 31
0.0
  0
ARC
  5
4C0
330
1F
100
AcDbEntity
  8
1
  6
Continuous
 62
     7
370
     9
100
AcDbCircle
 10
290.2083791208781
 20
337.3361725147436
 30
0.0
 40
6.0
100
AcDbArc
 50
358.2211041928503
 51
359.8689030719091
  0
ARC
  5
4C1
330
1F
100
AcDbEntity
  8
1
  6
Continuous
 62
     7
370
     9
100
AcDbCircle
 10
290.2083791208781
 20
273.3361725147436
 30
0.0
 40
6.0
100
AcDbArc
 50
359.9905542029072
 51
0.0
  0
LINE
  5
4C2
330
1F
100
AcDbEntity
  8
1
  6
Continuous
 62
     7
370
     9
100
AcDbLine
 10
302.7813372905022
 20
343.3361725147436
 30
0.0
 11
328.0248552123537
 21
343.3361725147436
 31
0.0
  0
VIEWPORT
  5
3B
330
1B
100
AcDbEntity
 67
     1
  8
0
100
AcDbViewport
 10
445.5
 20
315.0
 30
0.0
 40
891.0
 41
630.0
 68
     1
 69
     1
 12
445.5
 22
315.0
 13
0.0
 23
0.0
 14
0.5
 24
0.5
 15
0.5
 25
0.5
 16
0.0
 26
0.0
 36
1.0
 17
0.0
 27
0.0
 37
0.0
 42
50.0
 43
0.0
 44
0.0
 45
9.0
 50
0.0
 51
0.0
 72
   100
 90
   557152
  1

281
     0
 71
     1
 74
     0
110
0.0
120
0.0
130
0.0
111
1.0
121
0.0
131
0.0
112
0.0
122
1.0
132
0.0
 79
     0
146
0.0
170
     0
 61
     5
292
     1
282
     1
141
0.0
142
0.0
 63
   256
  0
ENDSEC
  0
SECTION
  2
OBJECTS
  0
DICTIONARY
  5
C
330
0
100
AcDbDictionary
281
     1
  3
ACAD_GROUP
350
D
  3
ACAD_LAYOUT
350
1A
  3
ACAD_MLINESTYLE
350
17
  3
ACAD_PLOTSETTINGS
350
19
  3
ACAD_PLOTSTYLENAME
350
E
  3
ACAD_TABLESTYLE
350
4C3
  3
ACAD_VISUALSTYLE
350
2A
  0
DICTIONARY
  5
D
102
{ACAD_REACTORS
330
C
102
}
330
C
100
AcDbDictionary
281
     1
  0
DICTIONARY
  5
1A
102
{ACAD_REACTORS
330
C
102
}
330
C
100
AcDbDictionary
281
     1
  3
Layout1
350
1E
  3
Layout2
350
26
  3
Model
350
22
  0
DICTIONARY
  5
17
102
{ACAD_REACTORS
330
C
102
}
330
C
100
AcDbDictionary
281
     1
  3
Standard
350
18
  0
DICTIONARY
  5
19
102
{ACAD_REACTORS
330
C
102
}
330
C
100
AcDbDictionary
281
     1
  0
ACDBDICTIONARYWDFLT
  5
E
102
{ACAD_REACTORS
330
C
102
}
330
C
100
AcDbDictionary
281
     1
  3
Normal
350
F
100
AcDbDictionaryWithDefault
340
F
  0
DICTIONARY
  5
4C3
102
{ACAD_REACTORS
330
C
102
}
330
C
100
AcDbDictionary
281
     1
  0
DICTIONARY
  5
2A
102
{ACAD_REACTORS
330
C
102
}
330
C
100
AcDbDictionary
281
     1
  3
2dWireframe
350
2F
  3
3D Hidden
350
31
  3
3dWireframe
350
30
  3
Basic
350
32
  3
Brighten
350
36
  3
ColorChange
350
3A
  3
Conceptual
350
34
  3
Dim
350
35
  3
Facepattern
350
39
  3
Flat
350
2B
  3
FlatWithEdges
350
2C
  3
Gouraud
350
2D
  3
GouraudWithEdges
350
2E
  3
Linepattern
350
38
  3
Realistic
350
33
  3
Thicken
350
37
  0
LAYOUT
  5
1E
102
{ACAD_REACTORS
330
1A
102
}
330
1A
100
AcDbPlotSettings
  1

  2
none_device
  4

  6

 40
0.0
 41
0.0
 42
0.0
 43
0.0
 44
0.0
 45
0.0
 46
0.0
 47
0.0
 48
0.0
 49
0.0
140
0.0
141
0.0
142
1.0
143
1.0
 70
   688
 72
     0
 73
     0
 74
     5
  7

 75
    16
 76
     0
 77
     2
 78
   300
147
1.0
148
0.0
149
0.0
100
AcDbLayout
  1
Layout1
 70
     1
 71
     1
 10
0.0
 20
0.0
 11
297.0
 21
210.0
 12
0.0
 22
0.0
 32
0.0
 14
0.0
 24
0.0
 34
0.0
 15
297.0
 25
210.0
 35
0.0
146
0.0
 13
0.0
 23
0.0
 33
0.0
 16
1.0
 26
0.0
 36
0.0
 17
0.0
 27
1.0
 37
0.0
 76
     0
330
1B
331
3B
  0
LAYOUT
  5
26
102
{ACAD_REACTORS
330
1A
102
}
330
1A
100
AcDbPlotSettings
  1

  2
none_device
  4

  6

 40
0.0
 41
0.0
 42
0.0
 43
0.0
 44
0.0
 45
0.0
 46
0.0
 47
0.0
 48
0.0
 49
0.0
140
0.0
141
0.0
142
1.0
143
1.0
 70
   688
 72
     0
 73
     0
 74
     5
  7

 75
    16
 76
     0
 77
     2
 78
   300
147
1.0
148
0.0
149
0.0
100
AcDbLayout
  1
Layout2
 70
     1
 71
     2
 10
0.0
 20
0.0
 11
0.0
 21
0.0
 12
0.0
 22
0.0
 32
0.0
 14
0.0
 24
0.0
 34
0.0
 15
0.0
 25
0.0
 35
0.0
146
0.0
 13
0.0
 23
0.0
 33
0.0
 16
1.0
 26
0.0
 36
0.0
 17
0.0
 27
1.0
 37
0.0
 76
     0
330
23
  0
LAYOUT
  5
22
102
{ACAD_REACTORS
330
1A
102
}
330
1A
100
AcDbPlotSettings
  1

  2
none_device
  4

  6

 40
0.0
 41
0.0
 42
0.0
 43
0.0
 44
0.0
 45
0.0
 46
0.0
 47
0.0
 48
0.0
 49
0.0
140
0.0
141
0.0
142
1.0
143
1.0
 70
  1712
 72
     0
 73
     0
 74
     0
  7

 75
     0
 76
     0
 77
     2
 78
   300
147
1.0
148
0.0
149
0.0
100
AcDbLayout
  1
Model
 70
     1
 71
     0
 10
0.0
 20
0.0
 11
891.0
 21
630.0
 12
0.0
 22
0.0
 32
0.0
 14
0.0
 24
0.0
 34
0.0
 15
891.0
 25
630.0
 35
0.0
146
0.0
 13
0.0
 23
0.0
 33
0.0
 16
1.0
 26
0.0
 36
0.0
 17
0.0
 27
1.0
 37
0.0
 76
     0
330
1F
331
29
  0
MLINESTYLE
  5
18
102
{ACAD_REACTORS
330
17
102
}
330
17
100
AcDbMlineStyle
  2
Standard
 70
     0
  3

 62
   256
 51
90.0
 52
90.0
 71
     2
 49
0.5
 62
   256
  6
BYLAYER
 49
-0.5
 62
   256
  6
BYLAYER
  0
ACDBPLACEHOLDER
  5
F
102
{ACAD_REACTORS
330
E
102
}
330
E
  0
VISUALSTYLE
  5
2F
102
{ACAD_REACTORS
330
2A
102
}
330
2A
100
AcDbVisualStyle
  2
2dWireframe
 70
     4
 71
     0
 72
     2
 73
     0
 90
        0
 40
-0.6
 41
-30.0
 62
     5
 63
     7
421
 16777215
 74
     1
 91
        4
 64
     7
 65
   257
 75
     1
175
     1
 42
1.0
 92
        0
 66
   257
 43
1.0
 76
     1
 77
     6
 78
     2
 67
     7
 79
     5
170
     0
171
     0
290
     0
174
     0
 93
        1
 44
0.0
173
     0
291
     0
 45
0.0
  0
VISUALSTYLE
  5
31
102
{ACAD_REACTORS
330
2A
102
}
330
2A
100
AcDbVisualStyle
  2
3D Hidden
 70
     6
 71
     1
 72
     2
 73
     2
 90
        0
 40
-0.6
 41
-30.0
 62
     5
 63
     7
421
 16777215
 74
     2
 91
        2
 64
     7
 65
   257
 75
     2
175
     1
 42
40.0
 92
        0
 66
   257
 43
1.0
 76
     1
 77
     6
 78
     2
 67
     7
 79
     3
170
     0
171
     0
290
     0
174
     0
 93
        1
 44
0.0
173
     0
291
     0
 45
0.0
  0
VISUALSTYLE
  5
30
102
{ACAD_REACTORS
330
2A
102
}
330
2A
100
AcDbVisualStyle
  2
3dWireframe
 70
     5
 71
     0
 72
     2
 73
     0
 90
        0
 40
-0.6
 41
-30.0
 62
     5
 63
     7
421
 16777215
 74
     1
 91
        4
 64
     7
 65
   257
 75
     1
175
     1
 42
1.0
 92
        0
 66
   257
 43
1.0
 76
     1
 77
     6
 78
     2
 67
     7
 79
     5
170
     0
171
     0
290
     0
174
     0
 93
        1
 44
0.0
173
     0
291
     0
 45
0.0
  0
VISUALSTYLE
  5
32
102
{ACAD_REACTORS
330
2A
102
}
330
2A
100
AcDbVisualStyle
  2
Basic
 70
     7
 71
     1
 72
     0
 73
     1
 90
        0
 40
-0.6
 41
-30.0
 62
     5
 63
     7
421
 16777215
 74
     0
 91
        4
 64
     7
 65
   257
 75
     1
175
     1
 42
1.0
 92
        8
 66
     7
 43
1.0
 76
     1
 77
     6
 78
     2
 67
     7
 79
     5
170
     0
171
     0
290
     0
174
     0
 93
        1
 44
0.0
173
     0
291
     1
 45
0.0
  0
VISUALSTYLE
  5
36
102
{ACAD_REACTORS
330
2A
102
}
330
2A
100
AcDbVisualStyle
  2
Brighten
 70
    12
 71
     2
 72
     2
 73
     0
 90
        0
 40
-0.6
 41
-30.0
 62
     5
 63
     7
421
 16777215
 74
     1
 91
        4
 64
     7
 65
   257
 75
     1
175
     1
 42
1.0
 92
        8
 66
     7
 43
1.0
 76
     1
 77
     6
 78
     2
 67
     7
 79
     5
170
     0
171
     0
290
     0
174
     0
 93
        1
 44
50.0
173
     0
291
     1
 45
0.0
  0
VISUALSTYLE
  5
3A
102
{ACAD_REACTORS
330
2A
102
}
330
2A
100
AcDbVisualStyle
  2
ColorChange
 70
    16
 71
     2
 72
     2
 73
     3
 90
        0
 40
-0.6
 41
-30.0
 62
     5
 63
     8
421
  8421504
 74
     1
 91
        4
 64
     7
 65
   257
 75
     1
175
     1
 42
1.0
 92
        8
 66
     8
424
  8421504
 43
1.0
 76
     1
 77
     6
 78
     2
 67
     7
 79
     5
170
     0
171
     0
290
     0
174
     0
 93
        1
 44
0.0
173
     0
291
     1
 45
0.0
  0
VISUALSTYLE
  5
34
102
{ACAD_REACTORS
330
2A
102
}
330
2A
100
AcDbVisualStyle
  2
Conceptual
 70
     9
 71
     3
 72
     2
 73
     0
 90
        0
 40
-0.6
 41
-30.0
 62
     5
 63
     7
421
 16777215
 74
     2
 91
        2
 64
     7
 65
   257
 75
     1
175
     1
 42
40.0
 92
        8
 66
     7
 43
1.0
 76
     1
 77
     6
 78
     2
 67
     7
 79
     3
170
     0
171
     0
290
     0
174
     0
 93
        1
 44
0.0
173
     0
291
     0
 45
0.0
  0
VISUALSTYLE
  5
35
102
{ACAD_REACTORS
330
2A
102
}
330
2A
100
AcDbVisualStyle
  2
Dim
 70
    11
 71
     2
 72
     2
 73
     0
 90
        0
 40
-0.6
 41
-30.0
 62
     5
 63
     7
421
 16777215
 74
     1
 91
        4
 64
     7
 65
   257
 75
     1
175
     1
 42
1.0
 92
        8
 66
     7
 43
1.0
 76
     1
 77
     6
 78
     2
 67
     7
 79
     5
170
     0
171
     0
290
     0
174
     0
 93
        1
 44
-50.0
173
     0
291
     1
 45
0.0
  0
VISUALSTYLE
  5
39
102
{ACAD_REACTORS
330
2A
102
}
330
2A
100
AcDbVisualStyle
  2
Facepattern
 70
    15
 71
     2
 72
     2
 73
     0
 90
        0
 40
-0.6
 41
-30.0
 62
     5
 63
     7
421
 16777215
 74
     1
 91
        4
 64
     7
 65
   257
 75
     1
175
     1
 42
1.0
 92
        8
 66
     7
 43
1.0
 76
     1
 77
     6
 78
     2
 67
     7
 79
     5
170
     0
171
     0
290
     0
174
     0
 93
        1
 44
0.0
173
     0
291
     1
 45
0.0
  0
VISUALSTYLE
  5
2B
102
{ACAD_REACTORS
330
2A
102
}
330
2A
100
AcDbVisualStyle
  2
Flat
 70
     0
 71
     2
 72
     1
 73
     1
 90
        2
 40
-0.6
 41
30.0
 62
     5
 63
     7
421
 16777215
 74
     0
 91
        4
 64
     7
 65
   257
 75
     1
175
     1
 42
1.0
 92
        8
 66
     7
 43
1.0
 76
     1
 77
     6
 78
     2
 67
     7
 79
     5
170
     0
171
     0
290
     0
174
     0
 93
       13
 44
0.0
173
     0
291
     1
 45
0.0
  0
VISUALSTYLE
  5
2C
102
{ACAD_REACTORS
330
2A
102
}
330
2A
100
AcDbVisualStyle
  2
FlatWithEdges
 70
     1
 71
     2
 72
     1
 73
     1
 90
        2
 40
-0.6
 41
30.0
 62
     5
 63
     7
421
 16777215
 74
     1
 91
        4
 64
     7
 65
   257
 75
     1
175
     1
 42
1.0
 92
        0
 66
   257
 43
1.0
 76
     1
 77
     6
 78
     2
 67
     7
 79
     5
170
     0
171
     0
290
     0
174
     0
 93
       13
 44
0.0
173
     0
291
     1
 45
0.0
  0
VISUALSTYLE
  5
2D
102
{ACAD_REACTORS
330
2A
102
}
330
2A
100
AcDbVisualStyle
  2
Gouraud
 70
     2
 71
     2
 72
     2
 73
     1
 90
        2
 40
-0.6
 41
30.0
 62
     5
 63
     7
421
 16777215
 74
     0
 91
        4
 64
     7
 65
   257
 75
     1
175
     1
 42
1.0
 92
        0
 66
     7
 43
1.0
 76
     1
 77
     6
 78
     2
 67
     7
 79
     5
170
     0
171
     0
290
     0
174
     0
 93
       13
 44
0.0
173
     0
291
     1
 45
0.0
  0
VISUALSTYLE
  5
2E
102
{ACAD_REACTORS
330
2A
102
}
330
2A
100
AcDbVisualStyle
  2
GouraudWithEdges
 70
     3
 71
     2
 72
     2
 73
     1
 90
        2
 40
-0.6
 41
30.0
 62
     5
 63
     7
421
 16777215
 74
     1
 91
        4
 64
     7
 65
   257
 75
     1
175
     1
 42
1.0
 92
        0
 66
   257
 43
1.0
 76
     1
 77
     6
 78
     2
 67
     7
 79
     5
170
     0
171
     0
290
     0
174
     0
 93
       13
 44
0.0
173
     0
291
     1
 45
0.0
  0
VISUALSTYLE
  5
38
102
{ACAD_REACTORS
330
2A
102
}
330
2A
100
AcDbVisualStyle
  2
Linepattern
 70
    14
 71
     2
 72
     2
 73
     0
 90
        0
 40
-0.6
 41
-30.0
 62
     5
 63
     7
421
 16777215
 74
     1
 91
        4
 64
     7
 65
   257
 75
     7
175
     7
 42
1.0
 92
        8
 66
     7
 43
1.0
 76
     1
 77
     6
 78
     2
 67
     7
 79
     5
170
     0
171
     0
290
     0
174
     0
 93
        1
 44
0.0
173
     0
291
     1
 45
0.0
  0
VISUALSTYLE
  5
33
102
{ACAD_REACTORS
330
2A
102
}
330
2A
100
AcDbVisualStyle
  2
Realistic
 70
     8
 71
     2
 72
     2
 73
     0
 90
        0
 40
-0.6
 41
-30.0
 62
     5
 63
     7
421
 16777215
 74
     1
 91
        0
 64
     7
 65
   257
 75
     1
175
     1
 42
1.0
 92
        8
 66
     8
424
  7895160
 43
1.0
 76
     1
 77
     6
 78
     2
 67
     7
 79
     5
170
     0
171
     0
290
     0
174
     0
 93
       13
 44
0.0
173
     0
291
     0
 45
0.0
  0
VISUALSTYLE
  5
37
102
{ACAD_REACTORS
330
2A
102
}
330
2A
100
AcDbVisualStyle
  2
Thicken
 70
    13
 71
     2
 72
     2
 73
     0
 90
        0
 40
-0.6
 41
-30.0
 62
     5
 63
     7
421
 16777215
 74
     1
 91
        4
 64
     7
 65
   257
 75
     1
175
     1
 42
1.0
 92
       12
 66
     7
 43
1.0
 76
     1
 77
     6
 78
     2
 67
     7
 79
     5
170
     0
171
     0
290
     0
174
     0
 93
        1
 44
0.0
173
     0
291
     1
 45
0.0
  0
ENDSEC
  0
EOF
