  0
SECTION
  2
HEADER
  9
$ACADVER
  1
AC1021
  9
$ACADMAINTVER
 70
     1
  9
$DWGCODEPAGE
  3
ANSI_932
  9
$INSBASE
 10
0.0
 20
0.0
 30
0.0
  9
$EXTMIN
 10
0.0
 20
0.0
 30
0.0
  9
$EXTMAX
 10
594.0
 20
420.0
 30
0.0
  9
$LIMMIN
 10
0.0
 20
0.0
  9
$LIMMAX
 10
594.0
 20
420.0
  9
$ORTHOMODE
 70
     0
  9
$REGENMODE
 70
     1
  9
$FILLMODE
 70
     1
  9
$QTEXTMODE
 70
     0
  9
$MIRRTEXT
 70
     1
  9
$LTSCALE
 40
0.5
  9
$ATTMODE
 70
     1
  9
$TEXTSIZE
 40
10.0
  9
$TRACEWID
 40
0.05
  9
$TEXTSTYLE
  7
Standard
  9
$CLAYER
  8
0
  9
$CELTYPE
  6
ByLayer
  9
$CECOLOR
 62
   256
  9
$CELTSCALE
 40
1.0
  9
$DISPSILH
 70
     0
  9
$DIMSCALE
 40
2.0
  9
$DIMASZ
 40
4.0
  9
$DIMEXO
 40
2.0
  9
$DIMDLI
 40
10.0
  9
$DIMRND
 40
0.0
  9
$DIMDLE
 40
0.0
  9
$DIMEXE
 40
2.0
  9
$DIMTP
 40
0.0
  9
$DIMTM
 40
0.0
  9
$DIMTXT
 40
4.0
  9
$DIMCEN
 40
0.09
  9
$DIMTSZ
 40
0.0
  9
$DIMTOL
 70
     0
  9
$DIMLIM
 70
     0
  9
$DIMTIH
 70
     0
  9
$DIMTOH
 70
     0
  9
$DIMSE1
 70
     0
  9
$DIMSE2
 70
     0
  9
$DIMTAD
 70
     3
  9
$DIMZIN
 70
     8
  9
$DIMBLK
  1

  9
$DIMASO
 70
     1
  9
$DIMSHO
 70
     1
  9
$DIMPOST
  1

  9
$DIMAPOST
  1

  9
$DIMALT
 70
     0
  9
$DIMALTD
 70
     2
  9
$DIMALTF
 40
25.4
  9
$DIMLFAC
 40
1.0
  9
$DIMTOFL
 70
     1
  9
$DIMTVP
 40
0.7
  9
$DIMTIX
 70
     0
  9
$DIMSOXD
 70
     0
  9
$DIMSAH
 70
     0
  9
$DIMBLK1
  1

  9
$DIMBLK2
  1

  9
$DIMSTYLE
  2
Standard
  9
$DIMCLRD
 70
     0
  9
$DIMCLRE
 70
     0
  9
$DIMCLRT
 70
     0
  9
$DIMTFAC
 40
0.5
  9
$DIMGAP
 40
0.09
  9
$DIMJUST
 70
     0
  9
$DIMSD1
 70
     0
  9
$DIMSD2
 70
     0
  9
$DIMTOLJ
 70
     1
  9
$DIMTZIN
 70
     8
  9
$DIMALTZ
 70
     0
  9
$DIMALTTZ
 70
     0
  9
$DIMUPT
 70
     1
  9
$DIMDEC
 70
     2
  9
$DIMTDEC
 70
     4
  9
$DIMALTU
 70
     2
  9
$DIMALTTD
 70
     2
  9
$DIMTXSTY
  7
Standard
  9
$DIMAUNIT
 70
     0
  9
$DIMADEC
 70
     0
  9
$DIMALTRND
 40
0.0
  9
$DIMAZIN
 70
     0
  9
$DIMDSEP
 70
    46
  9
$DIMATFIT
 70
     2
  9
$DIMFRAC
 70
     0
  9
$DIMLDRBLK
  1

  9
$DIMLUNIT
 70
     2
  9
$DIMLWD
 70
    -2
  9
$DIMLWE
 70
    -2
  9
$DIMTMOVE
 70
     2
  9
$DIMFXL
 40
1.0
  9
$DIMFXLON
 70
     0
  9
$DIMJOGANG
 40
0.7853981633974483
  9
$DIMTFILL
 70
     0
  9
$DIMTFILLCLR
 70
     0
  9
$DIMARCSYM
 70
     0
  9
$DIMLTYPE
  6

  9
$DIMLTEX1
  6

  9
$DIMLTEX2
  6

  9
$LUNITS
 70
     2
  9
$LUPREC
 70
     4
  9
$SKETCHINC
 40
0.1
  9
$FILLETRAD
 40
0.5
  9
$AUNITS
 70
     0
  9
$AUPREC
 70
     0
  9
$MENU
  1
.
  9
$ELEVATION
 40
0.0
  9
$PELEVATION
 40
0.0
  9
$THICKNESS
 40
0.0
  9
$LIMCHECK
 70
     0
  9
$CHAMFERA
 40
0.5
  9
$CHAMFERB
 40
0.5
  9
$CHAMFERC
 40
1.0
  9
$CHAMFERD
 40
0.0
  9
$SKPOLY
 70
     0
  9
$TDCREATE
 40
2454850.075763889
  9
$TDUCREATE
 40
2454849.700763889
  9
$TDUPDATE
 40
2454850.075763889
  9
$TDUUPDATE
 40
2454849.700763889
  9
$TDINDWG
 40
0.0000000116
  9
$TDUSRTIMER
 40
0.0000000116
  9
$USRTIMER
 70
     1
  9
$ANGBASE
 50
0.0
  9
$ANGDIR
 70
     0
  9
$PDMODE
 70
     0
  9
$PDSIZE
 40
0.0
  9
$PLINEWID
 40
0.0
  9
$SPLFRAME
 70
     0
  9
$SPLINETYPE
 70
     6
  9
$SPLINESEGS
 70
     8
  9
$HANDSEED
  5
377
  9
$SURFTAB1
 70
     6
  9
$SURFTAB2
 70
     6
  9
$SURFTYPE
 70
     6
  9
$SURFU
 70
     6
  9
$SURFV
 70
     6
  9
$UCSBASE
  2

  9
$UCSNAME
  2

  9
$UCSORG
 10
0.0
 20
0.0
 30
0.0
  9
$UCSXDIR
 10
1.0
 20
0.0
 30
0.0
  9
$UCSYDIR
 10
0.0
 20
1.0
 30
0.0
  9
$UCSORTHOREF
  2

  9
$UCSORTHOVIEW
 70
     0
  9
$UCSORGTOP
 10
0.0
 20
0.0
 30
0.0
  9
$UCSORGBOTTOM
 10
0.0
 20
0.0
 30
0.0
  9
$UCSORGLEFT
 10
0.0
 20
0.0
 30
0.0
  9
$UCSORGRIGHT
 10
0.0
 20
0.0
 30
0.0
  9
$UCSORGFRONT
 10
0.0
 20
0.0
 30
0.0
  9
$UCSORGBACK
 10
0.0
 20
0.0
 30
0.0
  9
$PUCSBASE
  2

  9
$PUCSNAME
  2

  9
$PUCSORG
 10
0.0
 20
0.0
 30
0.0
  9
$PUCSXDIR
 10
1.0
 20
0.0
 30
0.0
  9
$PUCSYDIR
 10
0.0
 20
1.0
 30
0.0
  9
$PUCSORTHOREF
  2

  9
$PUCSORTHOVIEW
 70
     0
  9
$PUCSORGTOP
 10
0.0
 20
0.0
 30
0.0
  9
$PUCSORGBOTTOM
 10
0.0
 20
0.0
 30
0.0
  9
$PUCSORGLEFT
 10
0.0
 20
0.0
 30
0.0
  9
$PUCSORGRIGHT
 10
0.0
 20
0.0
 30
0.0
  9
$PUCSORGFRONT
 10
0.0
 20
0.0
 30
0.0
  9
$PUCSORGBACK
 10
0.0
 20
0.0
 30
0.0
  9
$USERI1
 70
     0
  9
$USERI2
 70
     0
  9
$USERI3
 70
     0
  9
$USERI4
 70
     0
  9
$USERI5
 70
     0
  9
$USERR1
 40
0.0
  9
$USERR2
 40
0.0
  9
$USERR3
 40
0.0
  9
$USERR4
 40
0.0
  9
$USERR5
 40
0.0
  9
$WORLDVIEW
 70
     1
  9
$SHADEDGE
 70
     3
  9
$SHADEDIF
 70
    70
  9
$TILEMODE
 70
     1
  9
$MAXACTVP
 70
    64
  9
$PINSBASE
 10
0.0
 20
0.0
 30
0.0
  9
$PLIMCHECK
 70
     0
  9
$PEXTMIN
 10
0.0
 20
0.0
 30
0.0
  9
$PEXTMAX
 10
297.0
 20
210.0
 30
0.0
  9
$PLIMMIN
 10
0.0
 20
0.0
  9
$PLIMMAX
 10
297.0
 20
210.0
  9
$UNITMODE
 70
     0
  9
$VISRETAIN
 70
     1
  9
$PLINEGEN
 70
     0
  9
$PSLTSCALE
 70
     1
  9
$TREEDEPTH
 70
  3020
  9
$CMLSTYLE
  2
Standard
  9
$CMLJUST
 70
     0
  9
$CMLSCALE
 40
1.0
  9
$PROXYGRAPHICS
 70
     1
  9
$MEASUREMENT
 70
     1
  9
$CELWEIGHT
370
    -1
  9
$ENDCAPS
280
     0
  9
$JOINSTYLE
280
     0
  9
$LWDISPLAY
290
     0
  9
$INSUNITS
 70
     4
  9
$HYPERLINKBASE
  1

  9
$STYLESHEET
  1

  9
$XEDIT
290
     1
  9
$CEPSNTYPE
380
     0
  9
$PSTYLEMODE
290
     1
  9
$FINGERPRINTGUID
  2
{2F120F89-3DCD-4EB9-8057-3F575EA8E4B0}
  9
$VERSIONGUID
  2
{FAEB1C32-E019-11D5-929B-00C0DF256EC4}
  9
$EXTNAMES
290
     1
  9
$PSVPSCALE
 40
0.0
  9
$OLESTARTUP
290
     0
  9
$SORTENTS
280
   127
  9
$INDEXCTL
280
     0
  9
$HIDETEXT
280
     1
  9
$XCLIPFRAME
290
     0
  9
$HALOGAP
280
     0
  9
$OBSCOLOR
 70
   257
  9
$OBSLTYPE
280
     0
  9
$INTERSECTIONDISPLAY
280
     0
  9
$INTERSECTIONCOLOR
 70
   257
  9
$DIMASSOC
280
     1
  9
$PROJECTNAME
  1

  9
$CAMERADISPLAY
290
     0
  9
$LENSLENGTH
 40
50.0
  9
$CAMERAHEIGHT
 40
0.0
  9
$STEPSPERSEC
 40
2.0
  9
$STEPSIZE
 40
6.0
  9
$3DDWFPREC
 40
2.0
  9
$PSOLWIDTH
 40
0.25
  9
$PSOLHEIGHT
 40
4.0
  9
$LOFTANG1
 40
1.570796326794897
  9
$LOFTANG2
 40
1.570796326794897
  9
$LOFTMAG1
 40
0.0
  9
$LOFTMAG2
 40
0.0
  9
$LOFTPARAM
 70
     7
  9
$LOFTNORMALS
280
     1
  9
$LATITUDE
 40
37.795
  9
$LONGITUDE
 40
-122.394
  9
$NORTHDIRECTION
 40
0.0
  9
$TIMEZONE
 70
 -8000
  9
$LIGHTGLYPHDISPLAY
280
     1
  9
$TILEMODELIGHTSYNCH
280
     1
  9
$SOLIDHIST
280
     1
  9
$SHOWHIST
280
     1
  9
$DWFFRAME
280
     2
  9
$DGNFRAME
280
     2
  9
$REALWORLDSCALE
290
     1
  9
$INTERFERECOLOR
 62
   256
  9
$CSHADOW
280
     0
  9
$SHADOWPLANELOCATION
 40
0.0
  0
ENDSEC
  0
SECTION
  2
CLASSES
  0
CLASS
  1
ACDBDICTIONARYWDFLT
  2
AcDbDictionaryWithDefault
  3
ObjectDBX Classes
 90
        0
 91
        3
280
     0
281
     0
  0
CLASS
  1
VISUALSTYLE
  2
AcDbVisualStyle
  3
ObjectDBX Classes
 90
     4095
 91
        3
280
     0
281
     0
  0
ENDSEC
  0
SECTION
  2
TABLES
  0
TABLE
  2
VPORT
  5
8
330
0
100
AcDbSymbolTable
 70
     1
  0
VPORT
  5
29
330
8
100
AcDbSymbolTableRecord
100
AcDbViewportTableRecord
  2
*Active
 70
     0
 10
0.0
 20
0.0
 11
1.0
 21
1.0
 12
10.42990654205607
 22
4.5
 13
0.0
 23
0.0
 14
0.5
 24
0.5
 15
0.5
 25
0.5
 16
0.0
 26
0.0
 36
1.0
 17
0.0
 27
0.0
 37
0.0
 40
9.0
 41
1.972972972850329
 42
50.0
 43
0.0
 44
0.0
 50
0.0
 51
0.0
 71
     0
 72
   100
 73
     1
 74
     3
 75
     0
 76
     0
 77
     0
 78
     0
281
     0
 65
     1
110
0.0
120
0.0
130
0.0
111
1.0
121
0.0
131
0.0
112
0.0
122
1.0
132
0.0
 79
     0
146
0.0
 60
     3
 61
     5
292
     1
282
     1
141
0.0
142
0.0
 63
   256
  0
ENDTAB
  0
TABLE
  2
LTYPE
  5
5
330
0
100
AcDbSymbolTable
 70
     9
  0
LTYPE
  5
14
330
5
100
AcDbSymbolTableRecord
100
AcDbLinetypeTableRecord
  2
ByBlock
 70
     0
  3

 72
    65
 73
     0
 40
0.0
  0
LTYPE
  5
15
330
5
100
AcDbSymbolTableRecord
100
AcDbLinetypeTableRecord
  2
ByLayer
 70
     0
  3

 72
    65
 73
     0
 40
0.0
  0
LTYPE
  5
16
330
5
100
AcDbSymbolTableRecord
100
AcDbLinetypeTableRecord
  2
Continuous
 70
     0
  3
Solid line
 72
    65
 73
     0
 40
0.0
  0
LTYPE
  5
79
330
5
100
AcDbSymbolTableRecord
100
AcDbLinetypeTableRecord
  2
DOT
 70
     0
  3
DOT
 72
    65
 73
     2
 40
4.0
 49
6.0
 74
     0
 49
-2.0
 74
     0
  0
LTYPE
  5
7A
330
5
100
AcDbSymbolTableRecord
100
AcDbLinetypeTableRecord
  2
HIDDEN
 70
     0
  3
HIDDEN
 72
    65
 73
     2
 40
4.2
 49
8.4
 74
     0
 49
-4.2
 74
     0
  0
LTYPE
  5
7B
330
5
100
AcDbSymbolTableRecord
100
AcDbLinetypeTableRecord
  2
DASHDOT
 70
     0
  3
DASHDOT
 72
    65
 73
     4
 40
14.5
 49
30.0
 74
     0
 49
-9.0
 74
     0
 49
2.5
 74
     0
 49
-9.0
 74
     0
  0
LTYPE
  5
7C
330
5
100
AcDbSymbolTableRecord
100
AcDbLinetypeTableRecord
  2
PHANTOM
 70
     0
  3
PHANTOM
 72
    65
 73
     6
 40
12.0
 49
30.0
 74
     0
 49
-9.0
 74
     0
 49
2.5
 74
     0
 49
-5.0
 74
     0
 49
2.5
 74
     0
 49
-9.0
 74
     0
  0
LTYPE
  5
7D
330
5
100
AcDbSymbolTableRecord
100
AcDbLinetypeTableRecord
  2
ACAD_ISO14W100
 70
     0
  3
ACAD_ISO14W100
 72
    65
 73
     8
 40
1.5
 49
12.0
 74
     0
 49
-3.0
 74
     0
 49
0.5
 74
     0
 49
-3.0
 74
     0
 49
0.5
 74
     0
 49
-3.0
 74
     0
 49
0.5
 74
     0
 49
-3.0
 74
     0
  0
LTYPE
  5
7E
330
5
100
AcDbSymbolTableRecord
100
AcDbLinetypeTableRecord
  2
ACAD_ISO06W100
 70
     0
  3
ACAD_ISO06W100
 72
    65
 73
     8
 40
13.5
 49
24.0
 74
     0
 49
-3.0
 74
     0
 49
0.5
 74
     0
 49
-3.0
 74
     0
 49
0.5
 74
     0
 49
-3.0
 74
     0
 49
0.5
 74
     0
 49
-3.0
 74
     0
  0
LTYPE
  5
7F
330
5
100
AcDbSymbolTableRecord
100
AcDbLinetypeTableRecord
  2
ACAD_ISO11W100
 70
     0
  3
ACAD_ISO11W100
 72
    65
 73
     6
 40
15.5
 49
12.0
 74
     0
 49
-3.0
 74
     0
 49
12.0
 74
     0
 49
-3.0
 74
     0
 49
0.5
 74
     0
 49
-3.0
 74
     0
  0
LTYPE
  5
80
330
5
100
AcDbSymbolTableRecord
100
AcDbLinetypeTableRecord
  2
ACAD_ISO13W100
 70
     0
  3
ACAD_ISO13W100
 72
    65
 73
     8
 40
13.0
 49
12.0
 74
     0
 49
-3.0
 74
     0
 49
12.0
 74
     0
 49
-3.0
 74
     0
 49
0.5
 74
     0
 49
-3.0
 74
     0
 49
0.5
 74
     0
 49
-3.0
 74
     0
  0
ENDTAB
  0
TABLE
  2
LAYER
  5
2
330
0
100
AcDbSymbolTable
 70
    22
  0
LAYER
  5
10
330
2
100
AcDbSymbolTableRecord
100
AcDbLayerTableRecord
  2
0
 70
     0
 62
     7
  6
Continuous
370
    -3
390
F
347
0
  0
LAYER
  5
81
330
2
100
AcDbSymbolTableRecord
100
AcDbLayerTableRecord
  2
1
 70
     0
 62
     7
  6
Continuous
370
    -3
390
F
347
0
  0
LAYER
  5
82
330
2
100
AcDbSymbolTableRecord
100
AcDbLayerTableRecord
  2
2
 70
     0
 62
   134
  6
Continuous
370
    -3
390
F
347
0
  0
LAYER
  5
83
330
2
100
AcDbSymbolTableRecord
100
AcDbLayerTableRecord
  2
3
 70
     0
 62
   214
  6
Continuous
370
    -3
390
F
347
0
  0
LAYER
  5
84
330
2
100
AcDbSymbolTableRecord
100
AcDbLayerTableRecord
  2
4
 70
     0
 62
    54
  6
Continuous
370
    -3
390
F
347
0
  0
LAYER
  5
85
330
2
100
AcDbSymbolTableRecord
100
AcDbLayerTableRecord
  2
5
 70
     0
 62
    94
  6
Continuous
370
    -3
390
F
347
0
  0
LAYER
  5
86
330
2
100
AcDbSymbolTableRecord
100
AcDbLayerTableRecord
  2
6
 70
     0
 62
    14
  6
Continuous
370
    -3
390
F
347
0
  0
LAYER
  5
87
330
2
100
AcDbSymbolTableRecord
100
AcDbLayerTableRecord
  2
7
 70
     0
 62
     4
  6
Continuous
370
    -3
390
F
347
0
  0
LAYER
  5
88
330
2
100
AcDbSymbolTableRecord
100
AcDbLayerTableRecord
  2
8
 70
     0
 62
     6
  6
Continuous
370
    -3
390
F
347
0
  0
LAYER
  5
89
330
2
100
AcDbSymbolTableRecord
100
AcDbLayerTableRecord
  2
9
 70
     0
 62
     2
  6
Continuous
370
    -3
390
F
347
0
  0
LAYER
  5
8A
330
2
100
AcDbSymbolTableRecord
100
AcDbLayerTableRecord
  2
10
 70
     0
 62
     3
  6
Continuous
370
    -3
390
F
347
0
  0
LAYER
  5
8B
330
2
100
AcDbSymbolTableRecord
100
AcDbLayerTableRecord
  2
11
 70
     0
 62
   251
  6
Continuous
370
    -3
390
F
347
0
  0
LAYER
  5
8C
330
2
100
AcDbSymbolTableRecord
100
AcDbLayerTableRecord
  2
12
 70
     0
 62
   136
  6
Continuous
370
    -3
390
F
347
0
  0
LAYER
  5
8D
330
2
100
AcDbSymbolTableRecord
100
AcDbLayerTableRecord
  2
13
 70
     0
 62
   216
  6
Continuous
370
    -3
390
F
347
0
  0
LAYER
  5
8E
330
2
100
AcDbSymbolTableRecord
100
AcDbLayerTableRecord
  2
14
 70
     0
 62
    56
  6
Continuous
370
    -3
390
F
347
0
  0
LAYER
  5
8F
330
2
100
AcDbSymbolTableRecord
100
AcDbLayerTableRecord
  2
15
 70
     0
 62
    96
  6
Continuous
370
    -3
390
F
347
0
  0
LAYER
  5
90
330
2
100
AcDbSymbolTableRecord
100
AcDbLayerTableRecord
  2
16
 70
     0
 62
    16
  6
Continuous
370
    -3
390
F
347
0
  0
LAYER
  5
91
330
2
100
AcDbSymbolTableRecord
100
AcDbLayerTableRecord
  2
17
 70
     0
 62
   132
  6
Continuous
370
    -3
390
F
347
0
  0
LAYER
  5
92
330
2
100
AcDbSymbolTableRecord
100
AcDbLayerTableRecord
  2
18
 70
     0
 62
   212
  6
Continuous
370
    -3
390
F
347
0
  0
LAYER
  5
93
330
2
100
AcDbSymbolTableRecord
100
AcDbLayerTableRecord
  2
19
 70
     0
 62
    52
  6
Continuous
370
    -3
390
F
347
0
  0
LAYER
  5
94
330
2
100
AcDbSymbolTableRecord
100
AcDbLayerTableRecord
  2
20
 70
     0
 62
   250
  6
Continuous
370
    -3
390
F
347
0
  0
LAYER
  5
95
330
2
100
AcDbSymbolTableRecord
100
AcDbLayerTableRecord
  2
21
 70
     0
 62
     7
  6
Continuous
370
    -3
390
F
347
0
  0
ENDTAB
  0
TABLE
  2
STYLE
  5
3
330
0
100
AcDbSymbolTable
 70
     2
  0
STYLE
  5
11
330
3
100
AcDbSymbolTableRecord
100
AcDbTextStyleTableRecord
  2
Standard
 70
     0
 40
0.0
 41
1.0
 50
0.0
 71
     0
 42
0.2
  3
txt
  4
bigfont
  0
STYLE
  5
3D
330
3
100
AcDbSymbolTableRecord
100
AcDbTextStyleTableRecord
  2
T_STANDARD
 70
     4
 40
10.0
 41
1.0
 50
0.0
 71
     0
 42
10.0
  3
txt
  4
bigfont
  0
ENDTAB
  0
TABLE
  2
VIEW
  5
6
330
0
100
AcDbSymbolTable
 70
     0
  0
ENDTAB
  0
TABLE
  2
UCS
  5
7
330
0
100
AcDbSymbolTable
 70
     0
  0
ENDTAB
  0
TABLE
  2
APPID
  5
9
330
0
100
AcDbSymbolTable
 70
     2
  0
APPID
  5
12
330
9
100
AcDbSymbolTableRecord
100
AcDbRegAppTableRecord
  2
ACAD
 70
     0
  0
APPID
  5
3C
330
9
100
AcDbSymbolTableRecord
100
AcDbRegAppTableRecord
  2
ODA
 70
     0
  0
ENDTAB
  0
TABLE
  2
DIMSTYLE
  5
A
330
0
100
AcDbSymbolTable
 70
     1
100
AcDbDimStyleTable
  0
DIMSTYLE
105
27
102
{ACAD_REACTORS
330
2AA
330
2BE
330
2D2
330
2E6
330
2FA
330
30E
330
322
330
336
330
34A
330
36E
102
}
330
A
100
AcDbSymbolTableRecord
100
AcDbDimStyleTableRecord
  2
Standard
 70
     0
340
11
  0
ENDTAB
  0
TABLE
  2
BLOCK_RECORD
  5
1
330
0
100
AcDbSymbolTable
 70
    22
  0
BLOCK_RECORD
  5
1F
330
1
100
AcDbSymbolTableRecord
100
AcDbBlockTableRecord
  2
*Model_Space
340
22
 70
     0
280
     1
281
     0
  0
BLOCK_RECORD
  5
1B
330
1
100
AcDbSymbolTableRecord
100
AcDbBlockTableRecord
  2
*Paper_Space
340
1E
 70
     0
280
     1
281
     0
  0
BLOCK_RECORD
  5
23
330
1
100
AcDbSymbolTableRecord
100
AcDbBlockTableRecord
  2
*Paper_Space0
340
26
 70
     0
280
     1
281
     0
  0
BLOCK_RECORD
  5
3E
330
1
100
AcDbSymbolTableRecord
100
AcDbBlockTableRecord
  2
_ORIGIN
340
0
 70
     0
280
     1
281
     0
  0
BLOCK_RECORD
  5
43
330
1
100
AcDbSymbolTableRecord
100
AcDbBlockTableRecord
  2
_DOTBLANK
340
0
 70
     0
280
     1
281
     0
  0
BLOCK_RECORD
  5
48
330
1
100
AcDbSymbolTableRecord
100
AcDbBlockTableRecord
  2
_DOT
340
0
 70
     0
280
     1
281
     0
  0
BLOCK_RECORD
  5
4D
330
1
100
AcDbSymbolTableRecord
100
AcDbBlockTableRecord
  2
_OPEN
340
0
 70
     0
280
     1
281
     0
  0
BLOCK_RECORD
  5
53
330
1
100
AcDbSymbolTableRecord
100
AcDbBlockTableRecord
  2
_CLOSED
340
0
 70
     0
280
     1
281
     0
  0
BLOCK_RECORD
  5
5A
330
1
100
AcDbSymbolTableRecord
100
AcDbBlockTableRecord
  2
_CLOSEDBLANK
340
0
 70
     0
280
     1
281
     0
  0
BLOCK_RECORD
  5
60
330
1
100
AcDbSymbolTableRecord
100
AcDbBlockTableRecord
  2
_BOXBLANK
340
0
 70
     0
280
     1
281
     0
  0
BLOCK_RECORD
  5
68
330
1
100
AcDbSymbolTableRecord
100
AcDbBlockTableRecord
  2
_BOXFILLED
340
0
 70
     0
280
     1
281
     0
  0
BLOCK_RECORD
  5
6D
330
1
100
AcDbSymbolTableRecord
100
AcDbBlockTableRecord
  2
_INTEGRAL
340
0
 70
     0
280
     1
281
     0
  0
BLOCK_RECORD
  5
72
330
1
100
AcDbSymbolTableRecord
100
AcDbBlockTableRecord
  2
_OBLIQUE
340
0
 70
     0
280
     1
281
     0
  0
BLOCK_RECORD
  5
76
330
1
100
AcDbSymbolTableRecord
100
AcDbBlockTableRecord
  2
_NONE
340
0
 70
     0
280
     1
281
     0
  0
BLOCK_RECORD
  5
297
330
1
100
AcDbSymbolTableRecord
100
AcDbBlockTableRecord
  2
Dim1
340
0
 70
     0
280
     1
281
     0
  0
BLOCK_RECORD
  5
2AB
330
1
100
AcDbSymbolTableRecord
100
AcDbBlockTableRecord
  2
Dim2
340
0
 70
     0
280
     1
281
     0
  0
BLOCK_RECORD
  5
2BF
330
1
100
AcDbSymbolTableRecord
100
AcDbBlockTableRecord
  2
Dim3
340
0
 70
     0
280
     1
281
     0
  0
BLOCK_RECORD
  5
2D3
330
1
100
AcDbSymbolTableRecord
100
AcDbBlockTableRecord
  2
Dim4
340
0
 70
     0
280
     1
281
     0
  0
BLOCK_RECORD
  5
2E7
330
1
100
AcDbSymbolTableRecord
100
AcDbBlockTableRecord
  2
Dim5
340
0
 70
     0
280
     1
281
     0
  0
BLOCK_RECORD
  5
2FB
330
1
100
AcDbSymbolTableRecord
100
AcDbBlockTableRecord
  2
Dim6
340
0
 70
     0
280
     1
281
     0
  0
BLOCK_RECORD
  5
30F
330
1
100
AcDbSymbolTableRecord
100
AcDbBlockTableRecord
  2
Dim7
340
0
 70
     0
280
     1
281
     0
  0
BLOCK_RECORD
  5
323
330
1
100
AcDbSymbolTableRecord
100
AcDbBlockTableRecord
  2
Dim8
340
0
 70
     0
280
     1
281
     0
  0
BLOCK_RECORD
  5
337
330
1
100
AcDbSymbolTableRecord
100
AcDbBlockTableRecord
  2
Dim9
340
0
 70
     0
280
     1
281
     0
  0
BLOCK_RECORD
  5
35B
330
1
100
AcDbSymbolTableRecord
100
AcDbBlockTableRecord
  2
Dim10
340
0
 70
     0
280
     1
281
     0
  0
ENDTAB
  0
ENDSEC
  0
SECTION
  2
BLOCKS
  0
BLOCK
  5
20
330
1F
100
AcDbEntity
  8
0
100
AcDbBlockBegin
  2
*Model_Space
 70
     0
 71
     0
 10
0.0
 20
0.0
 30
0.0
  3
*Model_Space
  1

  0
ENDBLK
  5
21
330
1F
100
AcDbEntity
  8
0
100
AcDbBlockEnd
  0
BLOCK
  5
1C
330
1B
100
AcDbEntity
 67
     1
  8
0
100
AcDbBlockBegin
  2
*Paper_Space
 70
     0
 71
     0
 10
0.0
 20
0.0
 30
0.0
  3
*Paper_Space
  1

  0
ENDBLK
  5
1D
330
1B
100
AcDbEntity
 67
     1
  8
0
100
AcDbBlockEnd
  0
BLOCK
  5
24
330
23
100
AcDbEntity
  8
0
100
AcDbBlockBegin
  2
*Paper_Space0
 70
     0
 71
     0
 10
0.0
 20
0.0
 30
0.0
  3
*Paper_Space0
  1

  0
ENDBLK
  5
25
330
23
100
AcDbEntity
  8
0
100
AcDbBlockEnd
  0
BLOCK
  5
41
330
3E
100
AcDbEntity
  8
0
100
AcDbBlockBegin
  2
_ORIGIN
 70
     0
 71
     0
 10
0.0
 20
0.0
 30
0.0
  3
_ORIGIN
  1

  0
CIRCLE
  5
3F
330
3E
100
AcDbEntity
  8
0
100
AcDbCircle
 10
0.0
 20
0.0
 30
0.0
 40
0.5
  0
LINE
  5
40
330
3E
100
AcDbEntity
  8
0
100
AcDbLine
 10
0.0
 20
0.0
 30
0.0
 11
-1.0
 21
0.0
 31
0.0
  0
ENDBLK
  5
42
330
3E
100
AcDbEntity
  8
0
100
AcDbBlockEnd
  0
BLOCK
  5
46
330
43
100
AcDbEntity
  8
0
100
AcDbBlockBegin
  2
_DOTBLANK
 70
     0
 71
     0
 10
0.0
 20
0.0
 30
0.0
  3
_DOTBLANK
  1

  0
CIRCLE
  5
44
330
43
100
AcDbEntity
  8
0
100
AcDbCircle
 10
0.0
 20
0.0
 30
0.0
 40
0.5
  0
LINE
  5
45
330
43
100
AcDbEntity
  8
0
100
AcDbLine
 10
-0.5
 20
0.0
 30
0.0
 11
-1.0
 21
0.0
 31
0.0
  0
ENDBLK
  5
47
330
43
100
AcDbEntity
  8
0
100
AcDbBlockEnd
  0
BLOCK
  5
4B
330
48
100
AcDbEntity
  8
0
100
AcDbBlockBegin
  2
_DOT
 70
     0
 71
     0
 10
0.0
 20
0.0
 30
0.0
  3
_DOT
  1

  0
LWPOLYLINE
  5
49
330
48
100
AcDbEntity
  8
0
100
AcDbPolyline
 90
        2
 70
     1
 43
0.5
 10
-0.25
 20
0.0
 42
1.0
 10
0.25
 20
0.0
 42
1.0
  0
LINE
  5
4A
330
48
100
AcDbEntity
  8
0
100
AcDbLine
 10
-0.5
 20
0.0
 30
0.0
 11
-1.0
 21
0.0
 31
0.0
  0
ENDBLK
  5
4C
330
48
100
AcDbEntity
  8
0
100
AcDbBlockEnd
  0
BLOCK
  5
51
330
4D
100
AcDbEntity
  8
0
100
AcDbBlockBegin
  2
_OPEN
 70
     0
 71
     0
 10
0.0
 20
0.0
 30
0.0
  3
_OPEN
  1

  0
LINE
  5
4E
330
4D
100
AcDbEntity
  8
0
100
AcDbLine
 10
-1.0
 20
0.1666666666666667
 30
0.0
 11
0.0
 21
0.0
 31
0.0
  0
LINE
  5
4F
330
4D
100
AcDbEntity
  8
0
100
AcDbLine
 10
-1.0
 20
-0.1666666666666667
 30
0.0
 11
0.0
 21
0.0
 31
0.0
  0
LINE
  5
50
330
4D
100
AcDbEntity
  8
0
100
AcDbLine
 10
0.0
 20
0.0
 30
0.0
 11
-1.0
 21
0.0
 31
0.0
  0
ENDBLK
  5
52
330
4D
100
AcDbEntity
  8
0
100
AcDbBlockEnd
  0
BLOCK
  5
58
330
53
100
AcDbEntity
  8
0
100
AcDbBlockBegin
  2
_CLOSED
 70
     0
 71
     0
 10
0.0
 20
0.0
 30
0.0
  3
_CLOSED
  1

  0
LINE
  5
54
330
53
100
AcDbEntity
  8
0
100
AcDbLine
 10
-1.0
 20
0.1666666666666667
 30
0.0
 11
0.0
 21
0.0
 31
0.0
  0
LINE
  5
55
330
53
100
AcDbEntity
  8
0
100
AcDbLine
 10
0.0
 20
0.0
 30
0.0
 11
-1.0
 21
-0.1666666666666667
 31
0.0
  0
LINE
  5
56
330
53
100
AcDbEntity
  8
0
100
AcDbLine
 10
-1.0
 20
0.1666666666666667
 30
0.0
 11
-1.0
 21
-0.1666666666666667
 31
0.0
  0
LINE
  5
57
330
53
100
AcDbEntity
  8
0
100
AcDbLine
 10
0.0
 20
0.0
 30
0.0
 11
-1.0
 21
0.0
 31
0.0
  0
ENDBLK
  5
59
330
53
100
AcDbEntity
  8
0
100
AcDbBlockEnd
  0
BLOCK
  5
5E
330
5A
100
AcDbEntity
  8
0
100
AcDbBlockBegin
  2
_CLOSEDBLANK
 70
     0
 71
     0
 10
0.0
 20
0.0
 30
0.0
  3
_CLOSEDBLANK
  1

  0
LINE
  5
5B
330
5A
100
AcDbEntity
  8
0
100
AcDbLine
 10
-1.0
 20
0.1666666666666667
 30
0.0
 11
0.0
 21
0.0
 31
0.0
  0
LINE
  5
5C
330
5A
100
AcDbEntity
  8
0
100
AcDbLine
 10
0.0
 20
0.0
 30
0.0
 11
-1.0
 21
-0.1666666666666667
 31
0.0
  0
LINE
  5
5D
330
5A
100
AcDbEntity
  8
0
100
AcDbLine
 10
-1.0
 20
0.1666666666666667
 30
0.0
 11
-1.0
 21
-0.1666666666666667
 31
0.0
  0
ENDBLK
  5
5F
330
5A
100
AcDbEntity
  8
0
100
AcDbBlockEnd
  0
BLOCK
  5
66
330
60
100
AcDbEntity
  8
0
100
AcDbBlockBegin
  2
_BOXBLANK
 70
     0
 71
     0
 10
0.0
 20
0.0
 30
0.0
  3
_BOXBLANK
  1

  0
LINE
  5
61
330
60
100
AcDbEntity
  8
0
100
AcDbLine
 10
-0.5
 20
-0.5
 30
0.0
 11
0.5
 21
-0.5
 31
0.0
  0
LINE
  5
62
330
60
100
AcDbEntity
  8
0
100
AcDbLine
 10
0.5
 20
-0.5
 30
0.0
 11
0.5
 21
0.5
 31
0.0
  0
LINE
  5
63
330
60
100
AcDbEntity
  8
0
100
AcDbLine
 10
0.5
 20
0.5
 30
0.0
 11
-0.5
 21
0.5
 31
0.0
  0
LINE
  5
64
330
60
100
AcDbEntity
  8
0
100
AcDbLine
 10
-0.5
 20
0.5
 30
0.0
 11
-0.5
 21
-0.5
 31
0.0
  0
LINE
  5
65
330
60
100
AcDbEntity
  8
0
100
AcDbLine
 10
-0.5
 20
0.0
 30
0.0
 11
-1.0
 21
0.0
 31
0.0
  0
ENDBLK
  5
67
330
60
100
AcDbEntity
  8
0
100
AcDbBlockEnd
  0
BLOCK
  5
6B
330
68
100
AcDbEntity
  8
0
100
AcDbBlockBegin
  2
_BOXFILLED
 70
     0
 71
     0
 10
0.0
 20
0.0
 30
0.0
  3
_BOXFILLED
  1

  0
SOLID
  5
69
330
68
100
AcDbEntity
  8
0
100
AcDbTrace
 10
-0.5
 20
0.5
 30
0.0
 11
0.5
 21
0.5
 31
0.0
 12
-0.5
 22
-0.5
 32
0.0
 13
0.5
 23
-0.5
 33
0.0
  0
LINE
  5
6A
330
68
100
AcDbEntity
  8
0
100
AcDbLine
 10
-0.5
 20
0.0
 30
0.0
 11
-1.0
 21
0.0
 31
0.0
  0
ENDBLK
  5
6C
330
68
100
AcDbEntity
  8
0
100
AcDbBlockEnd
  0
BLOCK
  5
70
330
6D
100
AcDbEntity
  8
0
100
AcDbBlockBegin
  2
_INTEGRAL
 70
     0
 71
     0
 10
0.0
 20
0.0
 30
0.0
  3
_INTEGRAL
  1

  0
ARC
  5
6E
330
6D
100
AcDbEntity
  8
0
100
AcDbCircle
 10
0.444888
 20
-0.0913346
 30
0.0
 40
0.4541666
100
AcDbArc
 50
84.16951033439696
 51
265.6909581978302
  0
ARC
  5
6F
330
6D
100
AcDbEntity
  8
0
100
AcDbCircle
 10
-0.444888
 20
0.0913346
 30
0.0
 40
0.4541666
100
AcDbArc
 50
317.4098226892151
 51
138.9312705526484
  0
ENDBLK
  5
71
330
6D
100
AcDbEntity
  8
0
100
AcDbBlockEnd
  0
BLOCK
  5
74
330
72
100
AcDbEntity
  8
0
100
AcDbBlockBegin
  2
_OBLIQUE
 70
     0
 71
     0
 10
0.0
 20
0.0
 30
0.0
  3
_OBLIQUE
  1

  0
LINE
  5
73
330
72
100
AcDbEntity
  8
0
100
AcDbLine
 10
-0.5
 20
-0.5
 30
0.0
 11
0.5
 21
0.5
 31
0.0
  0
ENDBLK
  5
75
330
72
100
AcDbEntity
  8
0
100
AcDbBlockEnd
  0
BLOCK
  5
77
330
76
100
AcDbEntity
  8
0
100
AcDbBlockBegin
  2
_NONE
 70
     0
 71
     0
 10
0.0
 20
0.0
 30
0.0
  3
_NONE
  1

  0
ENDBLK
  5
78
330
76
100
AcDbEntity
  8
0
100
AcDbBlockEnd
  0
BLOCK
  5
298
330
297
100
AcDbEntity
  8
0
100
AcDbBlockBegin
  2
Dim1
 70
     0
 71
     0
 10
0.0
 20
0.0
 30
0.0
  3
Dim1
  1

  0
LINE
  5
29A
330
297
100
AcDbEntity
  8
1
  6
Continuous
 62
     7
370
     9
100
AcDbLine
 10
101.9974012474011
 20
22.27788786382632
 30
0.0
 11
261.9974015535628
 21
22.27788786382632
 31
0.0
  0
LINE
  5
29B
330
297
100
AcDbEntity
  8
1
  6
Continuous
 62
     7
370
     9
100
AcDbLine
 10
101.9974012474011
 20
22.27788786382632
 30
0.0
 11
101.9974012474012
 21
37.53061224489784
 31
0.0
  0
LINE
  5
29C
330
297
100
AcDbEntity
  8
1
  6
Continuous
 62
     7
370
     9
100
AcDbLine
 10
261.9974015535628
 20
22.27788786382632
 30
0.0
 11
261.997401553563
 21
37.53061224489784
 31
0.0
  0
LINE
  5
29D
330
297
100
AcDbEntity
  8
1
  6
Continuous
 62
     7
370
     9
100
AcDbLine
 10
101.9974012474011
 20
22.27788786382632
 30
0.0
 11
103.9292528999792
 21
22.79552595403136
 31
0.0
  0
LINE
  5
29E
330
297
100
AcDbEntity
  8
1
  6
Continuous
 62
     7
370
     9
100
AcDbLine
 10
101.9974012474011
 20
22.27788786382632
 30
0.0
 11
103.9292528999792
 21
21.76024977362128
 31
0.0
  0
LINE
  5
29F
330
297
100
AcDbEntity
  8
1
  6
Continuous
 62
     7
370
     9
100
AcDbLine
 10
103.9292528999792
 20
22.79552595403136
 30
0.0
 11
103.9292528999792
 21
21.76024977362128
 31
0.0
  0
LINE
  5
2A0
330
297
100
AcDbEntity
  8
1
  6
Continuous
 62
     7
370
     9
100
AcDbLine
 10
102.4803641605456
 20
22.27788786382632
 30
0.0
 11
103.4462899868347
 21
22.53670690892884
 31
0.0
  0
LINE
  5
2A1
330
297
100
AcDbEntity
  8
1
  6
Continuous
 62
     7
370
     9
100
AcDbLine
 10
102.4803641605456
 20
22.27788786382632
 30
0.0
 11
103.4462899868347
 21
22.0190688187238
 31
0.0
  0
LINE
  5
2A2
330
297
100
AcDbEntity
  8
1
  6
Continuous
 62
     7
370
     9
100
AcDbLine
 10
103.4462899868347
 20
22.53670690892884
 30
0.0
 11
103.4462899868347
 21
22.0190688187238
 31
0.0
  0
LINE
  5
2A3
330
297
100
AcDbEntity
  8
1
  6
Continuous
 62
     7
370
     9
100
AcDbLine
 10
261.9974015535628
 20
22.27788786382632
 30
0.0
 11
260.0655499009846
 21
21.76024977362129
 31
0.0
  0
LINE
  5
2A4
330
297
100
AcDbEntity
  8
1
  6
Continuous
 62
     7
370
     9
100
AcDbLine
 10
261.9974015535628
 20
22.27788786382632
 30
0.0
 11
260.0655499009846
 21
22.79552595403137
 31
0.0
  0
LINE
  5
2A5
330
297
100
AcDbEntity
  8
1
  6
Continuous
 62
     7
370
     9
100
AcDbLine
 10
260.0655499009846
 20
21.76024977362129
 30
0.0
 11
260.0655499009846
 21
22.79552595403137
 31
0.0
  0
LINE
  5
2A6
330
297
100
AcDbEntity
  8
1
  6
Continuous
 62
     7
370
     9
100
AcDbLine
 10
261.5144386404182
 20
22.27788786382632
 30
0.0
 11
260.5485128141291
 21
22.01906881872381
 31
0.0
  0
LINE
  5
2A7
330
297
100
AcDbEntity
  8
1
  6
Continuous
 62
     7
370
     9
100
AcDbLine
 10
261.5144386404182
 20
22.27788786382632
 30
0.0
 11
260.5485128141291
 21
22.53670690892885
 31
0.0
  0
LINE
  5
2A8
330
297
100
AcDbEntity
  8
1
  6
Continuous
 62
     7
370
     9
100
AcDbLine
 10
260.5485128141291
 20
22.01906881872381
 30
0.0
 11
260.5485128141291
 21
22.53670690892885
 31
0.0
  0
MTEXT
  5
2A9
330
297
100
AcDbEntity
  8
1
  6
Continuous
 62
     7
370
     9
100
AcDbMText
 10
181.997401400482
 20
25.77788786382632
 30
0.0
 40
7.0
 41
0.0
 46
0.0
 71
     8
 72
     1
  1
160
 73
     1
 44
1.0
  0
ENDBLK
  5
299
330
297
100
AcDbEntity
  8
0
100
AcDbBlockEnd
  0
BLOCK
  5
2AC
330
2AB
100
AcDbEntity
  8
0
100
AcDbBlockBegin
  2
Dim2
 70
     0
 71
     0
 10
0.0
 20
0.0
 30
0.0
  3
Dim2
  1

  0
LINE
  5
2AE
330
2AB
100
AcDbEntity
  8
1
  6
Continuous
 62
     7
370
     9
100
AcDbLine
 10
178.1803496140543
 20
139.0327343436067
 30
0.0
 11
309.2350584984636
 21
230.7982294223492
 31
0.0
  0
LINE
  5
2AF
330
2AB
100
AcDbEntity
  8
1
  6
Continuous
 62
     7
370
     9
100
AcDbLine
 10
178.1803496140543
 20
139.0327343436067
 30
0.0
 11
167.3834126553084
 21
154.4523583401602
 31
0.0
  0
LINE
  5
2B0
330
2AB
100
AcDbEntity
  8
1
  6
Continuous
 62
     7
370
     9
100
AcDbLine
 10
309.2350584984636
 20
230.7982294223492
 30
0.0
 11
298.4381215397177
 21
246.2178534189028
 31
0.0
  0
LINE
  5
2B1
330
2AB
100
AcDbEntity
  8
1
  6
Continuous
 62
     7
370
     9
100
AcDbLine
 10
178.1803496140543
 20
139.0327343436067
 30
0.0
 11
179.4659248334273
 21
140.5648232298446
 31
0.0
  0
LINE
  5
2B2
330
2AB
100
AcDbEntity
  8
1
  6
Continuous
 62
     7
370
     9
100
AcDbLine
 10
178.1803496140543
 20
139.0327343436067
 30
0.0
 11
180.0597348556261
 21
139.716774630258
 31
0.0
  0
LINE
  5
2B3
330
2AB
100
AcDbEntity
  8
1
  6
Continuous
 62
     7
370
     9
100
AcDbLine
 10
179.4659248334273
 20
140.5648232298446
 30
0.0
 11
180.0597348556261
 21
139.716774630258
 31
0.0
  0
LINE
  5
2B4
330
2AB
100
AcDbEntity
  8
1
  6
Continuous
 62
     7
370
     9
100
AcDbLine
 10
178.5759696716724
 20
139.3097504902179
 30
0.0
 11
179.2187572813589
 21
140.0757949333369
 31
0.0
  0
LINE
  5
2B5
330
2AB
100
AcDbEntity
  8
1
  6
Continuous
 62
     7
370
     9
100
AcDbLine
 10
178.5759696716724
 20
139.3097504902179
 30
0.0
 11
179.5156622924583
 21
139.6517706335435
 31
0.0
  0
LINE
  5
2B6
330
2AB
100
AcDbEntity
  8
1
  6
Continuous
 62
     7
370
     9
100
AcDbLine
 10
179.2187572813589
 20
140.0757949333369
 30
0.0
 11
179.5156622924583
 21
139.6517706335435
 31
0.0
  0
LINE
  5
2B7
330
2AB
100
AcDbEntity
  8
1
  6
Continuous
 62
     7
370
     9
100
AcDbLine
 10
309.2350584984636
 20
230.7982294223492
 30
0.0
 11
307.9494832790905
 21
229.2661405361113
 31
0.0
  0
LINE
  5
2B8
330
2AB
100
AcDbEntity
  8
1
  6
Continuous
 62
     7
370
     9
100
AcDbLine
 10
309.2350584984636
 20
230.7982294223492
 30
0.0
 11
307.3556732568917
 21
230.1141891356979
 31
0.0
  0
LINE
  5
2B9
330
2AB
100
AcDbEntity
  8
1
  6
Continuous
 62
     7
370
     9
100
AcDbLine
 10
307.9494832790905
 20
229.2661405361113
 30
0.0
 11
307.3556732568917
 21
230.1141891356979
 31
0.0
  0
LINE
  5
2BA
330
2AB
100
AcDbEntity
  8
1
  6
Continuous
 62
     7
370
     9
100
AcDbLine
 10
308.8394384408455
 20
230.5212132757381
 30
0.0
 11
308.1966508311589
 21
229.7551688326191
 31
0.0
  0
LINE
  5
2BB
330
2AB
100
AcDbEntity
  8
1
  6
Continuous
 62
     7
370
     9
100
AcDbLine
 10
308.8394384408455
 20
230.5212132757381
 30
0.0
 11
307.8997458200595
 21
230.1791931324124
 31
0.0
  0
LINE
  5
2BC
330
2AB
100
AcDbEntity
  8
1
  6
Continuous
 62
     7
370
     9
100
AcDbLine
 10
308.1966508311589
 20
229.7551688326191
 30
0.0
 11
307.8997458200595
 21
230.1791931324124
 31
0.0
  0
MTEXT
  5
2BD
330
2AB
100
AcDbEntity
  8
1
  6
Continuous
 62
     7
370
     9
100
AcDbMText
 10
241.7001865290303
 20
187.7825140379894
 30
0.0
 40
7.0
 41
0.0
 46
0.0
 71
     8
 72
     1
  1
160
 11
0.8191520442889905
 21
0.5735764363510479
 31
0.0
 73
     1
 44
1.0
  0
ENDBLK
  5
2AD
330
2AB
100
AcDbEntity
  8
0
100
AcDbBlockEnd
  0
BLOCK
  5
2C0
330
2BF
100
AcDbEntity
  8
0
100
AcDbBlockBegin
  2
Dim3
 70
     0
 71
     0
 10
0.0
 20
0.0
 30
0.0
  3
Dim3
  1

  0
LINE
  5
2C2
330
2BF
100
AcDbEntity
  8
1
  6
Continuous
 62
     7
370
     9
100
AcDbLine
 10
129.997401553563
 20
74.02905730249591
 30
0.0
 11
191.9974015535629
 21
74.02905730249591
 31
0.0
  0
LINE
  5
2C3
330
2BF
100
AcDbEntity
  8
1
  6
Continuous
 62
     7
370
     9
100
AcDbLine
 10
129.997401553563
 20
74.02905730249591
 30
0.0
 11
129.997401553563
 21
72.51242528586391
 31
0.0
  0
LINE
  5
2C4
330
2BF
100
AcDbEntity
  8
1
  6
Continuous
 62
     7
370
     9
100
AcDbLine
 10
191.9974015535629
 20
74.02905730249591
 30
0.0
 11
191.997401553563
 21
89.53061224489784
 31
0.0
  0
LINE
  5
2C5
330
2BF
100
AcDbEntity
  8
1
  6
Continuous
 62
     7
370
     9
100
AcDbLine
 10
129.997401553563
 20
74.02905730249591
 30
0.0
 11
131.9292532061411
 21
74.54669539270095
 31
0.0
  0
LINE
  5
2C6
330
2BF
100
AcDbEntity
  8
1
  6
Continuous
 62
     7
370
     9
100
AcDbLine
 10
129.997401553563
 20
74.02905730249591
 30
0.0
 11
131.9292532061411
 21
73.51141921229087
 31
0.0
  0
LINE
  5
2C7
330
2BF
100
AcDbEntity
  8
1
  6
Continuous
 62
     7
370
     9
100
AcDbLine
 10
131.9292532061411
 20
74.54669539270095
 30
0.0
 11
131.9292532061411
 21
73.51141921229087
 31
0.0
  0
LINE
  5
2C8
330
2BF
100
AcDbEntity
  8
1
  6
Continuous
 62
     7
370
     9
100
AcDbLine
 10
130.4803644667075
 20
74.02905730249591
 30
0.0
 11
131.4462902929966
 21
74.28787634759844
 31
0.0
  0
LINE
  5
2C9
330
2BF
100
AcDbEntity
  8
1
  6
Continuous
 62
     7
370
     9
100
AcDbLine
 10
130.4803644667075
 20
74.02905730249591
 30
0.0
 11
131.4462902929966
 21
73.77023825739339
 31
0.0
  0
LINE
  5
2CA
330
2BF
100
AcDbEntity
  8
1
  6
Continuous
 62
     7
370
     9
100
AcDbLine
 10
131.4462902929966
 20
74.28787634759844
 30
0.0
 11
131.4462902929966
 21
73.77023825739339
 31
0.0
  0
LINE
  5
2CB
330
2BF
100
AcDbEntity
  8
1
  6
Continuous
 62
     7
370
     9
100
AcDbLine
 10
191.9974015535629
 20
74.02905730249591
 30
0.0
 11
190.0655499009847
 21
73.51141921229087
 31
0.0
  0
LINE
  5
2CC
330
2BF
100
AcDbEntity
  8
1
  6
Continuous
 62
     7
370
     9
100
AcDbLine
 10
191.9974015535629
 20
74.02905730249591
 30
0.0
 11
190.0655499009847
 21
74.54669539270097
 31
0.0
  0
LINE
  5
2CD
330
2BF
100
AcDbEntity
  8
1
  6
Continuous
 62
     7
370
     9
100
AcDbLine
 10
190.0655499009847
 20
73.51141921229087
 30
0.0
 11
190.0655499009847
 21
74.54669539270097
 31
0.0
  0
LINE
  5
2CE
330
2BF
100
AcDbEntity
  8
1
  6
Continuous
 62
     7
370
     9
100
AcDbLine
 10
191.5144386404183
 20
74.02905730249591
 30
0.0
 11
190.5485128141293
 21
73.7702382573934
 31
0.0
  0
LINE
  5
2CF
330
2BF
100
AcDbEntity
  8
1
  6
Continuous
 62
     7
370
     9
100
AcDbLine
 10
191.5144386404183
 20
74.02905730249591
 30
0.0
 11
190.5485128141293
 21
74.28787634759844
 31
0.0
  0
LINE
  5
2D0
330
2BF
100
AcDbEntity
  8
1
  6
Continuous
 62
     7
370
     9
100
AcDbLine
 10
190.5485128141293
 20
73.7702382573934
 30
0.0
 11
190.5485128141293
 21
74.28787634759844
 31
0.0
  0
MTEXT
  5
2D1
330
2BF
100
AcDbEntity
  8
1
  6
Continuous
 62
     7
370
     9
100
AcDbMText
 10
160.9974015535629
 20
77.52905730249591
 30
0.0
 40
7.0
 41
0.0
 46
0.0
 71
     8
 72
     1
  1
62
 73
     1
 44
1.0
  0
ENDBLK
  5
2C1
330
2BF
100
AcDbEntity
  8
0
100
AcDbBlockEnd
  0
BLOCK
  5
2D4
330
2D3
100
AcDbEntity
  8
0
100
AcDbBlockBegin
  2
Dim4
 70
     0
 71
     0
 10
0.0
 20
0.0
 30
0.0
  3
Dim4
  1

  0
LINE
  5
2D6
330
2D3
100
AcDbEntity
  8
1
  6
Continuous
 62
     7
370
     9
100
AcDbLine
 10
161.2502599521866
 20
278.139374350313
 30
0.0
 11
169.2502599521866
 21
278.139374350313
 31
0.0
  0
LINE
  5
2D7
330
2D3
100
AcDbEntity
  8
1
  6
Continuous
 62
     7
370
     9
100
AcDbLine
 10
161.2502599521866
 20
278.139374350313
 30
0.0
 11
161.2502599521866
 21
268.2522251819138
 31
0.0
  0
LINE
  5
2D8
330
2D3
100
AcDbEntity
  8
1
  6
Continuous
 62
     7
370
     9
100
AcDbLine
 10
169.2502599521866
 20
278.139374350313
 30
0.0
 11
169.2502599521866
 21
268.1943379677766
 31
0.0
  0
LINE
  5
2D9
330
2D3
100
AcDbEntity
  8
1
  6
Continuous
 62
     7
370
     9
100
AcDbLine
 10
161.2502599521866
 20
278.139374350313
 30
0.0
 11
159.3184082996085
 21
277.621736260108
 31
0.0
  0
LINE
  5
2DA
330
2D3
100
AcDbEntity
  8
1
  6
Continuous
 62
     7
370
     9
100
AcDbLine
 10
161.2502599521866
 20
278.139374350313
 30
0.0
 11
159.3184082996085
 21
278.657012440518
 31
0.0
  0
LINE
  5
2DB
330
2D3
100
AcDbEntity
  8
1
  6
Continuous
 62
     7
370
     9
100
AcDbLine
 10
159.3184082996085
 20
277.621736260108
 30
0.0
 11
159.3184082996085
 21
278.657012440518
 31
0.0
  0
LINE
  5
2DC
330
2D3
100
AcDbEntity
  8
1
  6
Continuous
 62
     7
370
     9
100
AcDbLine
 10
160.7672970390421
 20
278.139374350313
 30
0.0
 11
159.801371212753
 21
277.8805553052105
 31
0.0
  0
LINE
  5
2DD
330
2D3
100
AcDbEntity
  8
1
  6
Continuous
 62
     7
370
     9
100
AcDbLine
 10
160.7672970390421
 20
278.139374350313
 30
0.0
 11
159.801371212753
 21
278.3981933954155
 31
0.0
  0
LINE
  5
2DE
330
2D3
100
AcDbEntity
  8
1
  6
Continuous
 62
     7
370
     9
100
AcDbLine
 10
159.801371212753
 20
277.8805553052105
 30
0.0
 11
159.801371212753
 21
278.3981933954155
 31
0.0
  0
LINE
  5
2DF
330
2D3
100
AcDbEntity
  8
1
  6
Continuous
 62
     7
370
     9
100
AcDbLine
 10
169.2502599521866
 20
278.139374350313
 30
0.0
 11
171.1821116047647
 21
278.657012440518
 31
0.0
  0
LINE
  5
2E0
330
2D3
100
AcDbEntity
  8
1
  6
Continuous
 62
     7
370
     9
100
AcDbLine
 10
169.2502599521866
 20
278.139374350313
 30
0.0
 11
171.1821116047647
 21
277.621736260108
 31
0.0
  0
LINE
  5
2E1
330
2D3
100
AcDbEntity
  8
1
  6
Continuous
 62
     7
370
     9
100
AcDbLine
 10
171.1821116047647
 20
278.657012440518
 30
0.0
 11
171.1821116047647
 21
277.621736260108
 31
0.0
  0
LINE
  5
2E2
330
2D3
100
AcDbEntity
  8
1
  6
Continuous
 62
     7
370
     9
100
AcDbLine
 10
169.7332228653312
 20
278.139374350313
 30
0.0
 11
170.6991486916202
 21
278.3981933954155
 31
0.0
  0
LINE
  5
2E3
330
2D3
100
AcDbEntity
  8
1
  6
Continuous
 62
     7
370
     9
100
AcDbLine
 10
169.7332228653312
 20
278.139374350313
 30
0.0
 11
170.6991486916202
 21
277.8805553052105
 31
0.0
  0
LINE
  5
2E4
330
2D3
100
AcDbEntity
  8
1
  6
Continuous
 62
     7
370
     9
100
AcDbLine
 10
170.6991486916202
 20
278.3981933954155
 30
0.0
 11
170.6991486916202
 21
277.8805553052105
 31
0.0
  0
MTEXT
  5
2E5
330
2D3
100
AcDbEntity
  8
1
  6
Continuous
 62
     7
370
     9
100
AcDbMText
 10
165.2502599521866
 20
281.639374350313
 30
0.0
 40
7.0
 41
0.0
 46
0.0
 71
     8
 72
     1
  1
M8
 73
     1
 44
1.0
  0
ENDBLK
  5
2D5
330
2D3
100
AcDbEntity
  8
0
100
AcDbBlockEnd
  0
BLOCK
  5
2E8
330
2E7
100
AcDbEntity
  8
0
100
AcDbBlockBegin
  2
Dim5
 70
     0
 71
     0
 10
0.0
 20
0.0
 30
0.0
  3
Dim5
  1

  0
LINE
  5
2EA
330
2E7
100
AcDbEntity
  8
1
  6
Continuous
 62
     7
370
     9
100
AcDbLine
 10
109.997401553563
 20
241.4126851611237
 30
0.0
 11
129.997401553563
 21
241.4126851611237
 31
0.0
  0
LINE
  5
2EB
330
2E7
100
AcDbEntity
  8
1
  6
Continuous
 62
     7
370
     9
100
AcDbLine
 10
109.997401553563
 20
241.4126851611237
 30
0.0
 11
109.997401553563
 21
213.9829927263544
 31
0.0
  0
LINE
  5
2EC
330
2E7
100
AcDbEntity
  8
1
  6
Continuous
 62
     7
370
     9
100
AcDbLine
 10
129.997401553563
 20
241.4126851611237
 30
0.0
 11
129.997401553563
 21
213.9829927263544
 31
0.0
  0
LINE
  5
2ED
330
2E7
100
AcDbEntity
  8
1
  6
Continuous
 62
     7
370
     9
100
AcDbLine
 10
109.997401553563
 20
241.4126851611237
 30
0.0
 11
108.0655499009849
 21
240.8950470709187
 31
0.0
  0
LINE
  5
2EE
330
2E7
100
AcDbEntity
  8
1
  6
Continuous
 62
     7
370
     9
100
AcDbLine
 10
109.997401553563
 20
241.4126851611237
 30
0.0
 11
108.0655499009849
 21
241.9303232513287
 31
0.0
  0
LINE
  5
2EF
330
2E7
100
AcDbEntity
  8
1
  6
Continuous
 62
     7
370
     9
100
AcDbLine
 10
108.0655499009849
 20
240.8950470709187
 30
0.0
 11
108.0655499009849
 21
241.9303232513287
 31
0.0
  0
LINE
  5
2F0
330
2E7
100
AcDbEntity
  8
1
  6
Continuous
 62
     7
370
     9
100
AcDbLine
 10
109.5144386404185
 20
241.4126851611237
 30
0.0
 11
108.5485128141294
 21
241.1538661160212
 31
0.0
  0
LINE
  5
2F1
330
2E7
100
AcDbEntity
  8
1
  6
Continuous
 62
     7
370
     9
100
AcDbLine
 10
109.5144386404185
 20
241.4126851611237
 30
0.0
 11
108.5485128141294
 21
241.6715042062262
 31
0.0
  0
LINE
  5
2F2
330
2E7
100
AcDbEntity
  8
1
  6
Continuous
 62
     7
370
     9
100
AcDbLine
 10
108.5485128141294
 20
241.1538661160212
 30
0.0
 11
108.5485128141294
 21
241.6715042062262
 31
0.0
  0
LINE
  5
2F3
330
2E7
100
AcDbEntity
  8
1
  6
Continuous
 62
     7
370
     9
100
AcDbLine
 10
129.997401553563
 20
241.4126851611237
 30
0.0
 11
131.9292532061412
 21
241.9303232513287
 31
0.0
  0
LINE
  5
2F4
330
2E7
100
AcDbEntity
  8
1
  6
Continuous
 62
     7
370
     9
100
AcDbLine
 10
129.997401553563
 20
241.4126851611237
 30
0.0
 11
131.9292532061412
 21
240.8950470709186
 31
0.0
  0
LINE
  5
2F5
330
2E7
100
AcDbEntity
  8
1
  6
Continuous
 62
     7
370
     9
100
AcDbLine
 10
131.9292532061412
 20
241.9303232513287
 30
0.0
 11
131.9292532061412
 21
240.8950470709186
 31
0.0
  0
LINE
  5
2F6
330
2E7
100
AcDbEntity
  8
1
  6
Continuous
 62
     7
370
     9
100
AcDbLine
 10
130.4803644667076
 20
241.4126851611237
 30
0.0
 11
131.4462902929967
 21
241.6715042062262
 31
0.0
  0
LINE
  5
2F7
330
2E7
100
AcDbEntity
  8
1
  6
Continuous
 62
     7
370
     9
100
AcDbLine
 10
130.4803644667076
 20
241.4126851611237
 30
0.0
 11
131.4462902929967
 21
241.1538661160212
 31
0.0
  0
LINE
  5
2F8
330
2E7
100
AcDbEntity
  8
1
  6
Continuous
 62
     7
370
     9
100
AcDbLine
 10
131.4462902929967
 20
241.6715042062262
 30
0.0
 11
131.4462902929967
 21
241.1538661160212
 31
0.0
  0
MTEXT
  5
2F9
330
2E7
100
AcDbEntity
  8
1
  6
Continuous
 62
     7
370
     9
100
AcDbMText
 10
119.997401553563
 20
244.9126851611237
 30
0.0
 40
7.0
 41
0.0
 46
0.0
 71
     8
 72
     1
  1
20φ
 73
     1
 44
1.0
  0
ENDBLK
  5
2E9
330
2E7
100
AcDbEntity
  8
0
100
AcDbBlockEnd
  0
BLOCK
  5
2FC
330
2FB
100
AcDbEntity
  8
0
100
AcDbBlockBegin
  2
Dim6
 70
     0
 71
     0
 10
0.0
 20
0.0
 30
0.0
  3
Dim6
  1

  0
LINE
  5
2FE
330
2FB
100
AcDbEntity
  8
1
  6
Continuous
 62
     7
370
     9
100
AcDbLine
 10
412.3596673596673
 20
15.27788786382641
 30
0.0
 11
532.3596673596674
 21
15.27788786382641
 31
0.0
  0
LINE
  5
2FF
330
2FB
100
AcDbEntity
  8
1
  6
Continuous
 62
     7
370
     9
100
AcDbLine
 10
412.3596673596673
 20
15.27788786382641
 30
0.0
 11
412.3596673596675
 21
30.53061224489784
 31
0.0
  0
LINE
  5
300
330
2FB
100
AcDbEntity
  8
1
  6
Continuous
 62
     7
370
     9
100
AcDbLine
 10
532.3596673596674
 20
15.27788786382641
 30
0.0
 11
532.3596673596675
 21
30.53061224489784
 31
0.0
  0
LINE
  5
301
330
2FB
100
AcDbEntity
  8
1
  6
Continuous
 62
     7
370
     9
100
AcDbLine
 10
412.3596673596673
 20
15.27788786382641
 30
0.0
 11
414.2915190122454
 21
15.79552595403145
 31
0.0
  0
LINE
  5
302
330
2FB
100
AcDbEntity
  8
1
  6
Continuous
 62
     7
370
     9
100
AcDbLine
 10
412.3596673596673
 20
15.27788786382641
 30
0.0
 11
414.2915190122454
 21
14.76024977362137
 31
0.0
  0
LINE
  5
303
330
2FB
100
AcDbEntity
  8
1
  6
Continuous
 62
     7
370
     9
100
AcDbLine
 10
414.2915190122454
 20
15.79552595403145
 30
0.0
 11
414.2915190122454
 21
14.76024977362137
 31
0.0
  0
LINE
  5
304
330
2FB
100
AcDbEntity
  8
1
  6
Continuous
 62
     7
370
     9
100
AcDbLine
 10
412.8426302728118
 20
15.27788786382641
 30
0.0
 11
413.8085560991009
 21
15.53670690892893
 31
0.0
  0
LINE
  5
305
330
2FB
100
AcDbEntity
  8
1
  6
Continuous
 62
     7
370
     9
100
AcDbLine
 10
412.8426302728118
 20
15.27788786382641
 30
0.0
 11
413.8085560991009
 21
15.01906881872389
 31
0.0
  0
LINE
  5
306
330
2FB
100
AcDbEntity
  8
1
  6
Continuous
 62
     7
370
     9
100
AcDbLine
 10
413.8085560991009
 20
15.53670690892893
 30
0.0
 11
413.8085560991009
 21
15.01906881872389
 31
0.0
  0
LINE
  5
307
330
2FB
100
AcDbEntity
  8
1
  6
Continuous
 62
     7
370
     9
100
AcDbLine
 10
532.3596673596674
 20
15.27788786382641
 30
0.0
 11
530.4278157070892
 21
14.76024977362138
 31
0.0
  0
LINE
  5
308
330
2FB
100
AcDbEntity
  8
1
  6
Continuous
 62
     7
370
     9
100
AcDbLine
 10
532.3596673596674
 20
15.27788786382641
 30
0.0
 11
530.4278157070892
 21
15.79552595403146
 31
0.0
  0
LINE
  5
309
330
2FB
100
AcDbEntity
  8
1
  6
Continuous
 62
     7
370
     9
100
AcDbLine
 10
530.4278157070892
 20
14.76024977362138
 30
0.0
 11
530.4278157070892
 21
15.79552595403146
 31
0.0
  0
LINE
  5
30A
330
2FB
100
AcDbEntity
  8
1
  6
Continuous
 62
     7
370
     9
100
AcDbLine
 10
531.8767044465228
 20
15.27788786382641
 30
0.0
 11
530.9107786202337
 21
15.01906881872389
 31
0.0
  0
LINE
  5
30B
330
2FB
100
AcDbEntity
  8
1
  6
Continuous
 62
     7
370
     9
100
AcDbLine
 10
531.8767044465228
 20
15.27788786382641
 30
0.0
 11
530.9107786202337
 21
15.53670690892894
 31
0.0
  0
LINE
  5
30C
330
2FB
100
AcDbEntity
  8
1
  6
Continuous
 62
     7
370
     9
100
AcDbLine
 10
530.9107786202337
 20
15.01906881872389
 30
0.0
 11
530.9107786202337
 21
15.53670690892894
 31
0.0
  0
MTEXT
  5
30D
330
2FB
100
AcDbEntity
  8
1
  6
Continuous
 62
     7
370
     9
100
AcDbMText
 10
472.3596673596673
 20
18.77788786382641
 30
0.0
 40
7.0
 41
0.0
 46
0.0
 71
     8
 72
     1
  1
120
 73
     1
 44
1.0
  0
ENDBLK
  5
2FD
330
2FB
100
AcDbEntity
  8
0
100
AcDbBlockEnd
  0
BLOCK
  5
310
330
30F
100
AcDbEntity
  8
0
100
AcDbBlockBegin
  2
Dim7
 70
     0
 71
     0
 10
0.0
 20
0.0
 30
0.0
  3
Dim7
  1

  0
LINE
  5
312
330
30F
100
AcDbEntity
  8
1
  6
Continuous
 62
     7
370
     9
100
AcDbLine
 10
432.3596673596673
 20
80.12603950103896
 30
0.0
 11
512.3596673596671
 21
80.12603950103896
 31
0.0
  0
LINE
  5
313
330
30F
100
AcDbEntity
  8
1
  6
Continuous
 62
     7
370
     9
100
AcDbLine
 10
432.3596673596673
 20
80.12603950103896
 30
0.0
 11
432.3596673596675
 21
100.5306122448978
 31
0.0
  0
LINE
  5
314
330
30F
100
AcDbEntity
  8
1
  6
Continuous
 62
     7
370
     9
100
AcDbLine
 10
512.3596673596671
 20
80.12603950103896
 30
0.0
 11
512.3596673596672
 21
100.5306122448978
 31
0.0
  0
LINE
  5
315
330
30F
100
AcDbEntity
  8
1
  6
Continuous
 62
     7
370
     9
100
AcDbLine
 10
432.3596673596673
 20
80.12603950103896
 30
0.0
 11
434.2915190122454
 21
80.643677591244
 31
0.0
  0
LINE
  5
316
330
30F
100
AcDbEntity
  8
1
  6
Continuous
 62
     7
370
     9
100
AcDbLine
 10
432.3596673596673
 20
80.12603950103896
 30
0.0
 11
434.2915190122454
 21
79.60840141083392
 31
0.0
  0
LINE
  5
317
330
30F
100
AcDbEntity
  8
1
  6
Continuous
 62
     7
370
     9
100
AcDbLine
 10
434.2915190122454
 20
80.643677591244
 30
0.0
 11
434.2915190122454
 21
79.60840141083392
 31
0.0
  0
LINE
  5
318
330
30F
100
AcDbEntity
  8
1
  6
Continuous
 62
     7
370
     9
100
AcDbLine
 10
432.8426302728118
 20
80.12603950103896
 30
0.0
 11
433.8085560991009
 21
80.38485854614149
 31
0.0
  0
LINE
  5
319
330
30F
100
AcDbEntity
  8
1
  6
Continuous
 62
     7
370
     9
100
AcDbLine
 10
432.8426302728118
 20
80.12603950103896
 30
0.0
 11
433.8085560991009
 21
79.86722045593643
 31
0.0
  0
LINE
  5
31A
330
30F
100
AcDbEntity
  8
1
  6
Continuous
 62
     7
370
     9
100
AcDbLine
 10
433.8085560991009
 20
80.38485854614149
 30
0.0
 11
433.8085560991009
 21
79.86722045593643
 31
0.0
  0
LINE
  5
31B
330
30F
100
AcDbEntity
  8
1
  6
Continuous
 62
     7
370
     9
100
AcDbLine
 10
512.3596673596671
 20
80.12603950103896
 30
0.0
 11
510.427815707089
 21
79.60840141083392
 31
0.0
  0
LINE
  5
31C
330
30F
100
AcDbEntity
  8
1
  6
Continuous
 62
     7
370
     9
100
AcDbLine
 10
512.3596673596671
 20
80.12603950103896
 30
0.0
 11
510.427815707089
 21
80.64367759124401
 31
0.0
  0
LINE
  5
31D
330
30F
100
AcDbEntity
  8
1
  6
Continuous
 62
     7
370
     9
100
AcDbLine
 10
510.427815707089
 20
79.60840141083392
 30
0.0
 11
510.427815707089
 21
80.64367759124401
 31
0.0
  0
LINE
  5
31E
330
30F
100
AcDbEntity
  8
1
  6
Continuous
 62
     7
370
     9
100
AcDbLine
 10
511.8767044465226
 20
80.12603950103896
 30
0.0
 11
510.9107786202335
 21
79.86722045593645
 31
0.0
  0
LINE
  5
31F
330
30F
100
AcDbEntity
  8
1
  6
Continuous
 62
     7
370
     9
100
AcDbLine
 10
511.8767044465226
 20
80.12603950103896
 30
0.0
 11
510.9107786202335
 21
80.38485854614149
 31
0.0
  0
LINE
  5
320
330
30F
100
AcDbEntity
  8
1
  6
Continuous
 62
     7
370
     9
100
AcDbLine
 10
510.9107786202335
 20
79.86722045593645
 30
0.0
 11
510.9107786202335
 21
80.38485854614149
 31
0.0
  0
MTEXT
  5
321
330
30F
100
AcDbEntity
  8
1
  6
Continuous
 62
     7
370
     9
100
AcDbMText
 10
472.3596673596672
 20
83.62603950103896
 30
0.0
 40
7.0
 41
0.0
 46
0.0
 71
     8
 72
     1
  1
80
 73
     1
 44
1.0
  0
ENDBLK
  5
311
330
30F
100
AcDbEntity
  8
0
100
AcDbBlockEnd
  0
BLOCK
  5
324
330
323
100
AcDbEntity
  8
0
100
AcDbBlockBegin
  2
Dim8
 70
     0
 71
     0
 10
0.0
 20
0.0
 30
0.0
  3
Dim8
  1

  0
LINE
  5
326
330
323
100
AcDbEntity
  8
1
  6
Continuous
 62
     7
370
     9
100
AcDbLine
 10
399.494136564456
 20
212.1595146829534
 30
0.0
 11
439.494136564456
 21
212.1595146829534
 31
0.0
  0
LINE
  5
327
330
323
100
AcDbEntity
  8
1
  6
Continuous
 62
     7
370
     9
100
AcDbLine
 10
399.494136564456
 20
212.1595146829534
 30
0.0
 11
399.4941365644563
 21
247.0973557692335
 31
0.0
  0
LINE
  5
328
330
323
100
AcDbEntity
  8
1
  6
Continuous
 62
     7
370
     9
100
AcDbLine
 10
439.494136564456
 20
212.1595146829534
 30
0.0
 11
439.4941365644563
 21
247.0973557692335
 31
0.0
  0
LINE
  5
329
330
323
100
AcDbEntity
  8
1
  6
Continuous
 62
     7
370
     9
100
AcDbLine
 10
399.494136564456
 20
212.1595146829534
 30
0.0
 11
401.4259882170342
 21
212.6771527731584
 31
0.0
  0
LINE
  5
32A
330
323
100
AcDbEntity
  8
1
  6
Continuous
 62
     7
370
     9
100
AcDbLine
 10
399.494136564456
 20
212.1595146829534
 30
0.0
 11
401.4259882170342
 21
211.6418765927483
 31
0.0
  0
LINE
  5
32B
330
323
100
AcDbEntity
  8
1
  6
Continuous
 62
     7
370
     9
100
AcDbLine
 10
401.4259882170342
 20
212.6771527731584
 30
0.0
 11
401.4259882170342
 21
211.6418765927483
 31
0.0
  0
LINE
  5
32C
330
323
100
AcDbEntity
  8
1
  6
Continuous
 62
     7
370
     9
100
AcDbLine
 10
399.9770994776006
 20
212.1595146829534
 30
0.0
 11
400.9430253038897
 21
212.4183337280559
 31
0.0
  0
LINE
  5
32D
330
323
100
AcDbEntity
  8
1
  6
Continuous
 62
     7
370
     9
100
AcDbLine
 10
399.9770994776006
 20
212.1595146829534
 30
0.0
 11
400.9430253038897
 21
211.9006956378508
 31
0.0
  0
LINE
  5
32E
330
323
100
AcDbEntity
  8
1
  6
Continuous
 62
     7
370
     9
100
AcDbLine
 10
400.9430253038897
 20
212.4183337280559
 30
0.0
 11
400.9430253038897
 21
211.9006956378508
 31
0.0
  0
LINE
  5
32F
330
323
100
AcDbEntity
  8
1
  6
Continuous
 62
     7
370
     9
100
AcDbLine
 10
439.494136564456
 20
212.1595146829534
 30
0.0
 11
437.5622849118779
 21
211.6418765927483
 31
0.0
  0
LINE
  5
330
330
323
100
AcDbEntity
  8
1
  6
Continuous
 62
     7
370
     9
100
AcDbLine
 10
439.494136564456
 20
212.1595146829534
 30
0.0
 11
437.5622849118779
 21
212.6771527731584
 31
0.0
  0
LINE
  5
331
330
323
100
AcDbEntity
  8
1
  6
Continuous
 62
     7
370
     9
100
AcDbLine
 10
437.5622849118779
 20
211.6418765927483
 30
0.0
 11
437.5622849118779
 21
212.6771527731584
 31
0.0
  0
LINE
  5
332
330
323
100
AcDbEntity
  8
1
  6
Continuous
 62
     7
370
     9
100
AcDbLine
 10
439.0111736513115
 20
212.1595146829534
 30
0.0
 11
438.0452478250224
 21
211.9006956378508
 31
0.0
  0
LINE
  5
333
330
323
100
AcDbEntity
  8
1
  6
Continuous
 62
     7
370
     9
100
AcDbLine
 10
439.0111736513115
 20
212.1595146829534
 30
0.0
 11
438.0452478250224
 21
212.4183337280559
 31
0.0
  0
LINE
  5
334
330
323
100
AcDbEntity
  8
1
  6
Continuous
 62
     7
370
     9
100
AcDbLine
 10
438.0452478250224
 20
211.9006956378508
 30
0.0
 11
438.0452478250224
 21
212.4183337280559
 31
0.0
  0
MTEXT
  5
335
330
323
100
AcDbEntity
  8
1
  6
Continuous
 62
     7
370
     9
100
AcDbMText
 10
419.494136564456
 20
215.6595146829534
 30
0.0
 40
7.0
 41
0.0
 46
0.0
 71
     8
 72
     1
  1
20φ
 73
     1
 44
1.0
  0
ENDBLK
  5
325
330
323
100
AcDbEntity
  8
0
100
AcDbBlockEnd
  0
BLOCK
  5
338
330
337
100
AcDbEntity
  8
0
100
AcDbBlockBegin
  2
Dim9
 70
     0
 71
     0
 10
0.0
 20
0.0
 30
0.0
  3
Dim9
  1

  0
LINE
  5
33A
330
337
100
AcDbEntity
  8
1
  6
Continuous
 62
     7
370
     9
100
AcDbLine
 10
240.5122411497973
 20
226.0197067993335
 30
0.0
 11
247.3951583860101
 21
216.1898822678657
 31
0.0
  0
LINE
  5
33B
330
337
100
AcDbEntity
  8
1
  6
Continuous
 62
     7
370
     9
100
AcDbLine
 10
240.5122411497973
 20
226.0197067993335
 30
0.0
 11
234.1936136034686
 21
221.5953561602547
 31
0.0
  0
LINE
  5
33C
330
337
100
AcDbEntity
  8
1
  6
Continuous
 62
     7
370
     9
100
AcDbLine
 10
247.3951583860101
 20
216.1898822678657
 30
0.0
 11
241.0765308396806
 21
211.7655316287866
 31
0.0
  0
LINE
  5
33D
330
337
100
AcDbEntity
  8
1
  6
Continuous
 62
     7
370
     9
100
AcDbLine
 10
240.5122411497973
 20
226.0197067993335
 30
0.0
 11
242.0443300360353
 21
224.7341315799605
 31
0.0
  0
LINE
  5
33E
330
337
100
AcDbEntity
  8
1
  6
Continuous
 62
     7
370
     9
100
AcDbLine
 10
240.5122411497973
 20
226.0197067993335
 30
0.0
 11
241.1962814364487
 21
224.1403215577617
 31
0.0
  0
LINE
  5
33F
330
337
100
AcDbEntity
  8
1
  6
Continuous
 62
     7
370
     9
100
AcDbLine
 10
242.0443300360353
 20
224.7341315799605
 30
0.0
 11
241.1962814364487
 21
224.1403215577617
 31
0.0
  0
LINE
  5
340
330
337
100
AcDbEntity
  8
1
  6
Continuous
 62
     7
370
     9
100
AcDbLine
 10
240.7892572964085
 20
225.6240867417154
 30
0.0
 11
241.5553017395275
 21
224.9812991320289
 31
0.0
  0
LINE
  5
341
330
337
100
AcDbEntity
  8
1
  6
Continuous
 62
     7
370
     9
100
AcDbLine
 10
240.7892572964085
 20
225.6240867417154
 30
0.0
 11
241.1312774397342
 21
224.6843941209295
 31
0.0
  0
LINE
  5
342
330
337
100
AcDbEntity
  8
1
  6
Continuous
 62
     7
370
     9
100
AcDbLine
 10
241.5553017395275
 20
224.9812991320289
 30
0.0
 11
241.1312774397342
 21
224.6843941209295
 31
0.0
  0
LINE
  5
343
330
337
100
AcDbEntity
  8
1
  6
Continuous
 62
     7
370
     9
100
AcDbLine
 10
247.3951583860101
 20
216.1898822678657
 30
0.0
 11
245.8630694997721
 21
217.4754574872388
 31
0.0
  0
LINE
  5
344
330
337
100
AcDbEntity
  8
1
  6
Continuous
 62
     7
370
     9
100
AcDbLine
 10
247.3951583860101
 20
216.1898822678657
 30
0.0
 11
246.7111180993587
 21
218.0692675094375
 31
0.0
  0
LINE
  5
345
330
337
100
AcDbEntity
  8
1
  6
Continuous
 62
     7
370
     9
100
AcDbLine
 10
245.8630694997721
 20
217.4754574872388
 30
0.0
 11
246.7111180993587
 21
218.0692675094375
 31
0.0
  0
LINE
  5
346
330
337
100
AcDbEntity
  8
1
  6
Continuous
 62
     7
370
     9
100
AcDbLine
 10
247.1181422393989
 20
216.5855023254838
 30
0.0
 11
246.3520977962799
 21
217.2282899351704
 31
0.0
  0
LINE
  5
347
330
337
100
AcDbEntity
  8
1
  6
Continuous
 62
     7
370
     9
100
AcDbLine
 10
247.1181422393989
 20
216.5855023254838
 30
0.0
 11
246.7761220960732
 21
217.5251949462697
 31
0.0
  0
LINE
  5
348
330
337
100
AcDbEntity
  8
1
  6
Continuous
 62
     7
370
     9
100
AcDbLine
 10
246.3520977962799
 20
217.2282899351704
 30
0.0
 11
246.7761220960732
 21
217.5251949462697
 31
0.0
  0
MTEXT
  5
349
330
337
100
AcDbEntity
  8
1
  6
Continuous
 62
     7
370
     9
100
AcDbMText
 10
246.8207319229151
 20
223.1123120608283
 30
0.0
 40
7.0
 41
0.0
 46
0.0
 71
     8
 72
     1
  1
12φ
 11
0.5735764363510594
 21
-0.8191520442889825
 31
0.0
 73
     1
 44
1.0
  0
ENDBLK
  5
339
330
337
100
AcDbEntity
  8
0
100
AcDbBlockEnd
  0
BLOCK
  5
35C
330
35B
100
AcDbEntity
  8
0
100
AcDbBlockBegin
  2
Dim10
 70
     0
 71
     0
 10
0.0
 20
0.0
 30
0.0
  3
Dim10
  1

  0
LINE
  5
35E
330
35B
100
AcDbEntity
  8
1
  6
Continuous
 62
     7
370
     9
100
AcDbLine
 10
464.101091476091
 20
267.097355769233
 30
0.0
 11
464.101091476091
 21
255.0973557692331
 31
0.0
  0
LINE
  5
35F
330
35B
100
AcDbEntity
  8
1
  6
Continuous
 62
     7
370
     9
100
AcDbLine
 10
464.101091476091
 20
267.097355769233
 30
0.0
 11
447.4941365644564
 21
267.0973557692333
 31
0.0
  0
LINE
  5
360
330
35B
100
AcDbEntity
  8
1
  6
Continuous
 62
     7
370
     9
100
AcDbLine
 10
464.101091476091
 20
255.0973557692331
 30
0.0
 11
447.4941365644564
 21
255.0973557692334
 31
0.0
  0
LINE
  5
361
330
35B
100
AcDbEntity
  8
1
  6
Continuous
 62
     7
370
     9
100
AcDbLine
 10
464.101091476091
 20
267.097355769233
 30
0.0
 11
464.618729566296
 21
265.1655041166549
 31
0.0
  0
LINE
  5
362
330
35B
100
AcDbEntity
  8
1
  6
Continuous
 62
     7
370
     9
100
AcDbLine
 10
464.101091476091
 20
267.097355769233
 30
0.0
 11
463.5834533858859
 21
265.1655041166549
 31
0.0
  0
LINE
  5
363
330
35B
100
AcDbEntity
  8
1
  6
Continuous
 62
     7
370
     9
100
AcDbLine
 10
464.618729566296
 20
265.1655041166549
 30
0.0
 11
463.5834533858859
 21
265.1655041166549
 31
0.0
  0
LINE
  5
364
330
35B
100
AcDbEntity
  8
1
  6
Continuous
 62
     7
370
     9
100
AcDbLine
 10
464.101091476091
 20
266.6143928560885
 30
0.0
 11
464.3599105211935
 21
265.6484670297994
 31
0.0
  0
LINE
  5
365
330
35B
100
AcDbEntity
  8
1
  6
Continuous
 62
     7
370
     9
100
AcDbLine
 10
464.101091476091
 20
266.6143928560885
 30
0.0
 11
463.8422724309884
 21
265.6484670297994
 31
0.0
  0
LINE
  5
366
330
35B
100
AcDbEntity
  8
1
  6
Continuous
 62
     7
370
     9
100
AcDbLine
 10
464.3599105211935
 20
265.6484670297994
 30
0.0
 11
463.8422724309884
 21
265.6484670297994
 31
0.0
  0
LINE
  5
367
330
35B
100
AcDbEntity
  8
1
  6
Continuous
 62
     7
370
     9
100
AcDbLine
 10
464.101091476091
 20
255.0973557692331
 30
0.0
 11
463.5834533858859
 21
257.0292074218112
 31
0.0
  0
LINE
  5
368
330
35B
100
AcDbEntity
  8
1
  6
Continuous
 62
     7
370
     9
100
AcDbLine
 10
464.101091476091
 20
255.0973557692331
 30
0.0
 11
464.618729566296
 21
257.0292074218112
 31
0.0
  0
LINE
  5
369
330
35B
100
AcDbEntity
  8
1
  6
Continuous
 62
     7
370
     9
100
AcDbLine
 10
463.5834533858859
 20
257.0292074218112
 30
0.0
 11
464.618729566296
 21
257.0292074218112
 31
0.0
  0
LINE
  5
36A
330
35B
100
AcDbEntity
  8
1
  6
Continuous
 62
     7
370
     9
100
AcDbLine
 10
464.101091476091
 20
255.5803186823777
 30
0.0
 11
463.8422724309884
 21
256.5462445086667
 31
0.0
  0
LINE
  5
36B
330
35B
100
AcDbEntity
  8
1
  6
Continuous
 62
     7
370
     9
100
AcDbLine
 10
464.101091476091
 20
255.5803186823777
 30
0.0
 11
464.3599105211935
 21
256.5462445086667
 31
0.0
  0
LINE
  5
36C
330
35B
100
AcDbEntity
  8
1
  6
Continuous
 62
     7
370
     9
100
AcDbLine
 10
463.8422724309884
 20
256.5462445086667
 30
0.0
 11
464.3599105211935
 21
256.5462445086667
 31
0.0
  0
MTEXT
  5
36D
330
35B
100
AcDbEntity
  8
1
  6
Continuous
 62
     7
370
     9
100
AcDbMText
 10
460.601091476091
 20
261.0973557692331
 30
0.0
 40
7.0
 41
0.0
 46
0.0
 71
     8
 72
     1
  1
6
 11
1.615544574432587E-15
 21
1.0
 31
0.0
 73
     1
 44
1.0
  0
ENDBLK
  5
35D
330
35B
100
AcDbEntity
  8
0
100
AcDbBlockEnd
  0
ENDSEC
  0
SECTION
  2
ENTITIES
  0
LINE
  5
96
330
1F
100
AcDbEntity
  8
1
  6
Continuous
 62
     7
370
     9
100
AcDbLine
 10
103.9974012474013
 20
67.53061224489784
 30
0.0
 11
101.9974012474013
 21
45.53061224489784
 31
0.0
  0
LINE
  5
97
330
1F
100
AcDbEntity
  8
1
  6
Continuous
 62
     7
370
     9
100
AcDbLine
 10
103.9974012474013
 20
67.53061224489784
 30
0.0
 11
259.997401553563
 21
67.53061224489784
 31
0.0
  0
LINE
  5
98
330
1F
100
AcDbEntity
  8
1
  6
Continuous
 62
     7
370
     9
100
AcDbLine
 10
259.997401553563
 20
67.53061224489784
 30
0.0
 11
261.997401553563
 21
45.53061224489784
 31
0.0
  0
LINE
  5
99
330
1F
100
AcDbEntity
  8
1
  6
Continuous
 62
     7
370
     9
100
AcDbLine
 10
122.195476482117
 20
46.8022194830254
 30
0.0
 11
122.1230889001526
 21
46.00595608141768
 31
0.0
  0
ARC
  5
9A
330
1F
100
AcDbEntity
  8
1
  6
Continuous
 62
     7
370
     9
100
AcDbCircle
 10
125.1831561015201
 20
46.53061224489784
 30
0.0
 40
3.0
100
AcDbArc
 50
89.99999999999991
 51
174.8055710922652
  0
LINE
  5
9B
330
1F
100
AcDbEntity
  8
1
  6
Continuous
 62
     7
370
     9
100
AcDbLine
 10
125.1831561015201
 20
49.53061224489784
 30
0.0
 11
238.8116466994441
 21
49.53061224489784
 31
0.0
  0
LINE
  5
9C
330
1F
100
AcDbEntity
  8
1
  6
Continuous
 62
     7
370
     9
100
AcDbLine
 10
241.7993263188472
 20
46.80221948302538
 30
0.0
 11
241.9149269768588
 21
45.53061224489784
 31
0.0
  0
ARC
  5
9D
330
1F
100
AcDbEntity
  8
1
  6
Continuous
 62
     7
370
     9
100
AcDbCircle
 10
238.8116466994441
 20
46.53061224489784
 30
0.0
 40
3.0
100
AcDbArc
 50
5.194428907734536
 51
89.99999999999991
  0
LINE
  5
9E
330
1F
100
AcDbEntity
  8
1
  6
Continuous
 62
     7
370
     9
100
AcDbLine
 10
101.9974012474013
 20
45.53061224489784
 30
0.0
 11
122.195476482117
 21
45.53061224489784
 31
0.0
  0
LINE
  5
9F
330
1F
100
AcDbEntity
  8
1
  6
Continuous
 62
     7
370
     9
100
AcDbLine
 10
241.9149269768588
 20
45.53061224489784
 30
0.0
 11
261.997401553563
 21
45.53061224489784
 31
0.0
  0
LINE
  5
A0
330
1F
100
AcDbEntity
  8
1
  6
Continuous
 62
     7
370
     9
100
AcDbLine
 10
101.9974012474013
 20
185.5306122448978
 30
0.0
 11
101.9974012474013
 21
137.5306122448978
 31
0.0
  0
LINE
  5
A1
330
1F
100
AcDbEntity
  8
1
  6
Continuous
 62
     7
370
     9
100
AcDbLine
 10
109.997401553563
 20
67.53061224489784
 30
0.0
 11
109.997401553563
 21
137.5306122448978
 31
0.0
  0
LINE
  5
A2
330
1F
100
AcDbEntity
  8
1
  6
Continuous
 62
     7
370
     9
100
AcDbLine
 10
129.997401553563
 20
67.53061224489784
 30
0.0
 11
129.997401553563
 21
137.5306122448978
 31
0.0
  0
CIRCLE
  5
A3
330
1F
100
AcDbEntity
  8
1
  6
Continuous
 62
     7
370
     9
100
AcDbCircle
 10
107.4965566528063
 20
161.5306122448978
 30
0.0
 40
5.0
  0
LINE
  5
A4
330
1F
100
AcDbEntity
  8
1
  6
Continuous
 62
     7
370
     9
100
AcDbLine
 10
107.4965566528065
 20
165.5306122448978
 30
0.0
 11
103.996556652806
 21
163.4671039180011
 31
0.0
  0
LINE
  5
A5
330
1F
100
AcDbEntity
  8
1
  6
Continuous
 62
     7
370
     9
100
AcDbLine
 10
103.996556652806
 20
159.5941205717946
 30
0.0
 11
107.4965566528063
 21
157.5306122448978
 31
0.0
  0
LINE
  5
A6
330
1F
100
AcDbEntity
  8
1
  6
Continuous
 62
     7
370
     9
100
AcDbLine
 10
107.4965566528063
 20
157.5306122448978
 30
0.0
 11
110.996556652806
 21
159.5941205717937
 31
0.0
  0
LINE
  5
A7
330
1F
100
AcDbEntity
  8
1
  6
Continuous
 62
     7
370
     9
100
AcDbLine
 10
110.996556652806
 20
163.467103918002
 30
0.0
 11
107.4965566528065
 21
165.5306122448978
 31
0.0
  0
LINE
  5
A8
330
1F
100
AcDbEntity
  8
1
  6
Continuous
 62
     7
370
     9
100
AcDbLine
 10
103.996556652806
 20
163.4671039180011
 30
0.0
 11
103.996556652806
 21
159.5941205717946
 31
0.0
  0
LINE
  5
A9
330
1F
100
AcDbEntity
  8
1
  6
Continuous
 62
     7
370
     9
100
AcDbLine
 10
110.996556652806
 20
163.467103918002
 30
0.0
 11
110.996556652806
 21
159.5941205717937
 31
0.0
  0
LINE
  5
AA
330
1F
100
AcDbEntity
  8
1
  6
Continuous
 62
     7
370
     9
100
AcDbLine
 10
118.6386696829688
 20
152.6664872207351
 30
0.0
 11
119.0873480292622
 21
152.7826194322253
 31
0.0
  0
ARC
  5
AB
330
1F
100
AcDbEntity
  8
1
  6
Continuous
 62
     7
370
     9
100
AcDbCircle
 10
119.1374629001704
 20
152.5889999608031
 30
0.0
 40
0.2
100
AcDbArc
 50
344.1740772572977
 51
104.5115021215123
  0
LINE
  5
AC
330
1F
100
AcDbEntity
  8
1
  6
Continuous
 62
     7
370
     9
100
AcDbLine
 10
117.2853699668653
 20
147.1514404502386
 30
0.0
 11
117.7340483131587
 21
147.2675726617288
 31
0.0
  0
LINE
  5
AD
330
1F
100
AcDbEntity
  8
1
  6
Continuous
 62
     7
370
     9
100
AcDbLine
 10
119.3298818412375
 20
152.5344568483263
 30
0.0
 11
117.8763523833175
 21
147.4066490206743
 31
0.0
  0
ARC
  5
AE
330
1F
100
AcDbEntity
  8
1
  6
Continuous
 62
     7
370
     9
100
AcDbCircle
 10
117.6839334422504
 20
147.4611921331511
 30
0.0
 40
0.2
100
AcDbArc
 50
284.5115021215038
 51
344.1740772572876
  0
LINE
  5
AF
330
1F
100
AcDbEntity
  8
1
  6
Continuous
 62
     7
370
     9
100
AcDbLine
 10
145.6640023680102
 20
157.0791167885707
 30
0.0
 11
137.0697992555903
 21
158.9864799445857
 31
0.0
  0
LINE
  5
B0
330
1F
100
AcDbEntity
  8
1
  6
Continuous
 62
     7
370
     9
100
AcDbLine
 10
145.664002429889
 20
157.079116841792
 30
0.0
 11
138.7920536704331
 21
151.1686223462037
 31
0.0
  0
CIRCLE
  5
B1
330
1F
100
AcDbEntity
  8
1
  6
Continuous
 62
     7
370
     9
100
AcDbCircle
 10
137.7810661222432
 20
155.0387624345917
 30
0.0
 40
2.506833707477284
  0
LINE
  5
B2
330
1F
100
AcDbEntity
  8
1
  6
Continuous
 62
     7
370
     9
100
AcDbLine
 10
136.071245672464
 20
155.2890946269204
 30
0.0
 11
139.3932881549233
 21
154.8027194769738
 31
0.0
  0
ARC
  5
B3
330
1F
100
AcDbEntity
  8
1
  6
Continuous
 62
     7
370
     9
100
AcDbCircle
 10
163.1929094171898
 20
162.1207566477986
 30
0.0
 40
18.99999999999997
100
AcDbArc
 50
201.2680451167029
 51
206.450680240074
  0
ARC
  5
B4
330
1F
100
AcDbEntity
  8
1
  6
Continuous
 62
     7
370
     9
100
AcDbCircle
 10
162.427165913849
 20
161.5306122448978
 30
0.0
 40
18.06081081081078
100
AcDbArc
 50
200.661902313162
 51
205.8562607450622
  0
ARC
  5
B5
330
1F
100
AcDbEntity
  8
1
  6
Continuous
 62
     7
370
     9
100
AcDbCircle
 10
145.4035568546733
 20
157.4036509207519
 30
0.0
 40
2.176391281320676
100
AcDbArc
 50
272.1954121014194
 51
114.6826815009179
  0
ARC
  5
B6
330
1F
100
AcDbEntity
  8
1
  6
Continuous
 62
     7
370
     9
100
AcDbCircle
 10
162.427165913849
 20
161.5306122448978
 30
0.0
 40
18.06081081081078
100
AcDbArc
 50
218.7677736508456
 51
186.8349708046239
  0
ARC
  5
B7
330
1F
100
AcDbEntity
  8
1
  6
Continuous
 62
     7
370
     9
100
AcDbCircle
 10
147.9271608924069
 20
152.3573987648365
 30
0.0
 40
2.176391281320676
100
AcDbArc
 50
281.0775533550394
 51
143.3140154753157
  0
LINE
  5
B8
330
1F
100
AcDbEntity
  8
1
  6
DOT
 62
     7
370
     9
100
AcDbLine
 10
181.9974012474013
 20
170.5684138511279
 30
0.0
 11
181.9974012474013
 21
185.5306122448978
 31
0.0
  0
LINE
  5
B9
330
1F
100
AcDbEntity
  8
1
  6
DOT
 62
     7
370
     9
100
AcDbLine
 10
181.9974012474013
 20
137.5306122448978
 30
0.0
 11
181.9974012474013
 21
151.4139793656431
 31
0.0
  0
LINE
  5
BA
330
1F
100
AcDbEntity
  8
1
  6
DOT
 62
     7
370
     9
100
AcDbLine
 10
201.997401553563
 20
137.5306122448978
 30
0.0
 11
201.997401553563
 21
185.5306122448978
 31
0.0
  0
LINE
  5
BB
330
1F
100
AcDbEntity
  8
1
  6
Continuous
 62
     7
370
     9
100
AcDbLine
 10
181.997401553563
 20
127.5306122448978
 30
0.0
 11
201.997401553563
 21
127.5306122448978
 31
0.0
  0
LINE
  5
BC
330
1F
100
AcDbEntity
  8
1
  6
Continuous
 62
     7
370
     9
100
AcDbLine
 10
101.9974012474013
 20
137.5306122448978
 30
0.0
 11
211.997401553563
 21
137.5306122448978
 31
0.0
  0
LINE
  5
BD
330
1F
100
AcDbEntity
  8
1
  6
Continuous
 62
     7
370
     9
100
AcDbLine
 10
211.997401553563
 20
185.5306122448978
 30
0.0
 11
211.997401553563
 21
137.5306122448978
 31
0.0
  0
LINE
  5
BE
330
1F
100
AcDbEntity
  8
1
  6
Continuous
 62
     7
370
     9
100
AcDbLine
 10
101.9974012474013
 20
185.5306122448978
 30
0.0
 11
211.997401553563
 21
185.5306122448978
 31
0.0
  0
ARC
  5
BF
330
1F
100
AcDbEntity
  8
1
  6
Continuous
 62
     7
370
     9
100
AcDbCircle
 10
123.4165269499066
 20
153.6965575556284
 30
0.0
 40
0.2
100
AcDbArc
 50
104.5115021214925
 51
164.1740772572935
  0
LINE
  5
C0
330
1F
100
AcDbEntity
  8
1
  6
Continuous
 62
     7
370
     9
100
AcDbLine
 10
123.3664120789984
 20
153.8901770270506
 30
0.0
 11
123.8150904252918
 21
154.0063092385408
 31
0.0
  0
ARC
  5
C1
330
1F
100
AcDbEntity
  8
1
  6
Continuous
 62
     7
370
     9
100
AcDbCircle
 10
123.8652052962001
 20
153.8126897671186
 30
0.0
 40
0.2
100
AcDbArc
 50
344.1740772572954
 51
104.5115021215202
  0
LINE
  5
C2
330
1F
100
AcDbEntity
  8
1
  6
Continuous
 62
     7
370
     9
100
AcDbLine
 10
123.2241080088396
 20
153.7511006681051
 30
0.0
 11
121.7705785509196
 21
148.6232928404531
 31
0.0
  0
ARC
  5
C3
330
1F
100
AcDbEntity
  8
1
  6
Continuous
 62
     7
370
     9
100
AcDbCircle
 10
121.9629974919866
 20
148.5687497279764
 30
0.0
 40
0.2
100
AcDbArc
 50
164.1740772572957
 51
284.5115021215079
  0
LINE
  5
C4
330
1F
100
AcDbEntity
  8
1
  6
Continuous
 62
     7
370
     9
100
AcDbLine
 10
122.0131123628949
 20
148.3751302565541
 30
0.0
 11
122.4617907091883
 21
148.4912624680443
 31
0.0
  0
LINE
  5
C5
330
1F
100
AcDbEntity
  8
1
  6
Continuous
 62
     7
370
     9
100
AcDbLine
 10
124.0576242372671
 20
153.7581466546419
 30
0.0
 11
122.6040947793471
 21
148.6303388269899
 31
0.0
  0
ARC
  5
C6
330
1F
100
AcDbEntity
  8
1
  6
Continuous
 62
     7
370
     9
100
AcDbCircle
 10
122.41167583828
 20
148.6848819394666
 30
0.0
 40
0.2
100
AcDbArc
 50
284.5115021215079
 51
344.1740772572954
  0
ARC
  5
C7
330
1F
100
AcDbEntity
  8
1
  6
Continuous
 62
     7
370
     9
100
AcDbCircle
 10
124.6503924417043
 20
154.0159211474479
 30
0.0
 40
0.2
100
AcDbArc
 50
104.5115021214925
 51
164.1740772572935
  0
LINE
  5
C8
330
1F
100
AcDbEntity
  8
1
  6
Continuous
 62
     7
370
     9
100
AcDbLine
 10
124.6002775707961
 20
154.2095406188702
 30
0.0
 11
125.0489559170894
 21
154.3256728303604
 31
0.0
  0
ARC
  5
C9
330
1F
100
AcDbEntity
  8
1
  6
Continuous
 62
     7
370
     9
100
AcDbCircle
 10
125.0990707879978
 20
154.1320533589382
 30
0.0
 40
0.2
100
AcDbArc
 50
344.1740772572954
 51
104.5115021215202
  0
LINE
  5
CA
330
1F
100
AcDbEntity
  8
1
  6
Continuous
 62
     7
370
     9
100
AcDbLine
 10
124.4579735006373
 20
154.0704642599246
 30
0.0
 11
123.0044440427173
 21
148.9426564322727
 31
0.0
  0
ARC
  5
CB
330
1F
100
AcDbEntity
  8
1
  6
Continuous
 62
     7
370
     9
100
AcDbCircle
 10
123.1968629837843
 20
148.888113319796
 30
0.0
 40
0.2
100
AcDbArc
 50
164.1740772572879
 51
284.5115021215137
  0
LINE
  5
CC
330
1F
100
AcDbEntity
  8
1
  6
Continuous
 62
     7
370
     9
100
AcDbLine
 10
123.2469778546926
 20
148.6944938483737
 30
0.0
 11
123.695656200986
 21
148.8106260598639
 31
0.0
  0
LINE
  5
CD
330
1F
100
AcDbEntity
  8
1
  6
Continuous
 62
     7
370
     9
100
AcDbLine
 10
125.2914897290648
 20
154.0775102464614
 30
0.0
 11
123.8379602711447
 21
148.9497024188094
 31
0.0
  0
ARC
  5
CE
330
1F
100
AcDbEntity
  8
1
  6
Continuous
 62
     7
370
     9
100
AcDbCircle
 10
123.6455413300777
 20
149.0042455312862
 30
0.0
 40
0.2
100
AcDbArc
 50
284.5115021215038
 51
344.1740772572876
  0
ARC
  5
CF
330
1F
100
AcDbEntity
  8
1
  6
Continuous
 62
     7
370
     9
100
AcDbCircle
 10
125.8842580342617
 20
154.3352850947309
 30
0.0
 40
0.2
100
AcDbArc
 50
104.5115021215024
 51
164.1740772573014
  0
LINE
  5
D0
330
1F
100
AcDbEntity
  8
1
  6
Continuous
 62
     7
370
     9
100
AcDbLine
 10
125.8341431633534
 20
154.5289045661531
 30
0.0
 11
126.2828215096469
 21
154.6450367776433
 31
0.0
  0
ARC
  5
D1
330
1F
100
AcDbEntity
  8
1
  6
Continuous
 62
     7
370
     9
100
AcDbCircle
 10
126.3329363805551
 20
154.4514173062211
 30
0.0
 40
0.2
100
AcDbArc
 50
344.1740772572977
 51
104.5115021215123
  0
LINE
  5
D2
330
1F
100
AcDbEntity
  8
1
  6
Continuous
 62
     7
370
     9
100
AcDbLine
 10
125.6918390931947
 20
154.3898282072076
 30
0.0
 11
124.2383096352747
 21
149.2620203795557
 31
0.0
  0
ARC
  5
D3
330
1F
100
AcDbEntity
  8
1
  6
Continuous
 62
     7
370
     9
100
AcDbCircle
 10
124.4307285763417
 20
149.2074772670789
 30
0.0
 40
0.2
100
AcDbArc
 50
164.1740772572801
 51
284.5115021215079
  0
LINE
  5
D4
330
1F
100
AcDbEntity
  8
1
  6
Continuous
 62
     7
370
     9
100
AcDbLine
 10
124.48084344725
 20
149.0138577956566
 30
0.0
 11
124.9295217935434
 21
149.1299900071468
 31
0.0
  0
LINE
  5
D5
330
1F
100
AcDbEntity
  8
1
  6
Continuous
 62
     7
370
     9
100
AcDbLine
 10
126.5253553216222
 20
154.3968741937444
 30
0.0
 11
125.0718258637021
 21
149.2690663660924
 31
0.0
  0
ARC
  5
D6
330
1F
100
AcDbEntity
  8
1
  6
Continuous
 62
     7
370
     9
100
AcDbCircle
 10
124.8794069226351
 20
149.3236094785692
 30
0.0
 40
0.2
100
AcDbArc
 50
284.5115021215038
 51
344.1740772572797
  0
ARC
  5
D7
330
1F
100
AcDbEntity
  8
1
  6
Continuous
 62
     7
370
     9
100
AcDbCircle
 10
127.1181234962398
 20
154.6546485813519
 30
0.0
 40
0.2
100
AcDbArc
 50
104.5115021215004
 51
164.1740772572935
  0
LINE
  5
D8
330
1F
100
AcDbEntity
  8
1
  6
Continuous
 62
     7
370
     9
100
AcDbLine
 10
127.0680086253315
 20
154.8482680527742
 30
0.0
 11
127.5166869716249
 21
154.9644002642644
 31
0.0
  0
ARC
  5
D9
330
1F
100
AcDbEntity
  8
1
  6
Continuous
 62
     7
370
     9
100
AcDbCircle
 10
127.5668018425332
 20
154.7707807928421
 30
0.0
 40
0.2
100
AcDbArc
 50
344.1740772572977
 51
104.5115021215123
  0
LINE
  5
DA
330
1F
100
AcDbEntity
  8
1
  6
Continuous
 62
     7
370
     9
100
AcDbLine
 10
126.9257045551728
 20
154.7091916938286
 30
0.0
 11
125.4721750972528
 21
149.5813838661767
 31
0.0
  0
ARC
  5
DB
330
1F
100
AcDbEntity
  8
1
  6
Continuous
 62
     7
370
     9
100
AcDbCircle
 10
125.6645940383198
 20
149.5268407537
 30
0.0
 40
0.2
100
AcDbArc
 50
164.1740772573036
 51
284.5115021215137
  0
LINE
  5
DC
330
1F
100
AcDbEntity
  8
1
  6
Continuous
 62
     7
370
     9
100
AcDbLine
 10
125.7147089092281
 20
149.3332212822777
 30
0.0
 11
126.1633872555215
 21
149.4493534937679
 31
0.0
  0
ARC
  5
DD
330
1F
100
AcDbEntity
  8
1
  6
Continuous
 62
     7
370
     9
100
AcDbCircle
 10
126.1132723846132
 20
149.6429729651901
 30
0.0
 40
0.2
100
AcDbArc
 50
284.5115021215079
 51
344.1740772573032
  0
LINE
  5
DE
330
1F
100
AcDbEntity
  8
1
  6
Continuous
 62
     7
370
     9
100
AcDbLine
 10
126.9063839132167
 20
151.7075724236456
 30
0.0
 11
128.6730248269727
 21
152.1648352220811
 31
0.0
  0
LINE
  5
DF
330
1F
100
AcDbEntity
  8
1
  6
Continuous
 62
     7
370
     9
100
AcDbLine
 10
127.7960146219615
 20
155.5531758333342
 30
0.0
 11
129.2994607661544
 21
149.7445916252002
 31
0.0
  0
LINE
  5
E0
330
1F
100
AcDbEntity
  8
1
  6
Continuous
 62
     7
370
     9
100
AcDbLine
 10
127.2223685779821
 20
152.8223132557442
 30
0.0
 11
128.4224504724312
 21
153.132932579193
 31
0.0
  0
LINE
  5
E1
330
1F
100
AcDbEntity
  8
1
  6
Continuous
 62
     7
370
     9
100
AcDbLine
 10
127.7592207836003
 20
154.7162376803654
 30
0.0
 11
127.2223685779821
 21
152.8223132557442
 31
0.0
  0
LINE
  5
E2
330
1F
100
AcDbEntity
  8
1
  6
Continuous
 62
     7
370
     9
100
AcDbLine
 10
126.9063839132167
 20
151.7075724236456
 30
0.0
 11
126.3056913256802
 21
149.5884298527134
 31
0.0
  0
LINE
  5
E3
330
1F
100
AcDbEntity
  8
1
  6
Continuous
 62
     7
370
     9
100
AcDbLine
 10
127.7960146219615
 20
155.5531758333342
 30
0.0
 11
135.1975181252365
 21
158.5018741016792
 31
0.0
  0
LINE
  5
E4
330
1F
100
AcDbEntity
  8
1
  6
Continuous
 62
     7
370
     9
100
AcDbLine
 10
135.1975181252365
 20
158.5018741016792
 30
0.0
 11
137.0697992555903
 21
158.9864799445857
 31
0.0
  0
LINE
  5
E5
330
1F
100
AcDbEntity
  8
1
  6
Continuous
 62
     7
370
     9
100
AcDbLine
 10
129.2994607661544
 20
149.7445916252002
 30
0.0
 11
137.2021124040768
 21
150.7570950306404
 31
0.0
  0
LINE
  5
E6
330
1F
100
AcDbEntity
  8
1
  6
Continuous
 62
     7
370
     9
100
AcDbLine
 10
137.2021124040768
 20
150.7570950306404
 30
0.0
 11
138.7920536704331
 21
151.1686223462037
 31
0.0
  0
LINE
  5
E7
330
1F
100
AcDbEntity
  8
1
  6
Continuous
 62
     7
370
     9
100
AcDbLine
 10
126.8799448856771
 20
157.8984527202007
 30
0.0
 11
140.4291297182394
 21
161.4054122414125
 31
0.0
  0
LINE
  5
E8
330
1F
100
AcDbEntity
  8
1
  6
Continuous
 62
     7
370
     9
100
AcDbLine
 10
143.2078893852304
 20
150.7621498875917
 30
0.0
 11
129.6362627563892
 21
147.2493817164791
 31
0.0
  0
ARC
  5
E9
330
1F
100
AcDbEntity
  8
1
  6
Continuous
 62
     7
370
     9
100
AcDbCircle
 10
122.1826615050958
 20
153.3771941295705
 30
0.0
 40
0.2
100
AcDbArc
 50
104.5115021214945
 51
164.1740772573014
  0
LINE
  5
EA
330
1F
100
AcDbEntity
  8
1
  6
Continuous
 62
     7
370
     9
100
AcDbLine
 10
122.1325466341875
 20
153.5708136009928
 30
0.0
 11
122.581224980481
 21
153.686945812483
 31
0.0
  0
ARC
  5
EB
330
1F
100
AcDbEntity
  8
1
  6
Continuous
 62
     7
370
     9
100
AcDbCircle
 10
122.6313398513893
 20
153.4933263410608
 30
0.0
 40
0.2
100
AcDbArc
 50
344.1740772572909
 51
104.5115021215202
  0
LINE
  5
EC
330
1F
100
AcDbEntity
  8
1
  6
Continuous
 62
     7
370
     9
100
AcDbLine
 10
121.9902425640288
 20
153.4317372420472
 30
0.0
 11
120.5367131061088
 21
148.3039294143953
 31
0.0
  0
ARC
  5
ED
330
1F
100
AcDbEntity
  8
1
  6
Continuous
 62
     7
370
     9
100
AcDbCircle
 10
120.7291320471758
 20
148.2493863019186
 30
0.0
 40
0.2
100
AcDbArc
 50
164.174077257298
 51
284.5115021215
  0
LINE
  5
EE
330
1F
100
AcDbEntity
  8
1
  6
Continuous
 62
     7
370
     9
100
AcDbLine
 10
120.7792469180841
 20
148.0557668304963
 30
0.0
 11
121.2279252643775
 21
148.1718990419865
 31
0.0
  0
LINE
  5
EF
330
1F
100
AcDbEntity
  8
1
  6
Continuous
 62
     7
370
     9
100
AcDbLine
 10
122.8237587924562
 20
153.438783228584
 30
0.0
 11
121.3702293345362
 21
148.3109754009321
 31
0.0
  0
ARC
  5
F0
330
1F
100
AcDbEntity
  8
1
  6
Continuous
 62
     7
370
     9
100
AcDbCircle
 10
121.1778103934692
 20
148.3655185134088
 30
0.0
 40
0.2
100
AcDbArc
 50
284.5115021215137
 51
344.1740772572977
  0
ARC
  5
F1
330
1F
100
AcDbEntity
  8
1
  6
Continuous
 62
     7
370
     9
100
AcDbCircle
 10
112.7314801382831
 20
148.5551336362594
 30
0.0
 40
1.0
100
AcDbArc
 50
44.5115127107127
 51
344.5115127107165
  0
ARC
  5
F2
330
1F
100
AcDbEntity
  8
1
  6
Continuous
 62
     7
370
     9
100
AcDbCircle
 10
122.1826614894335
 20
153.3771940743166
 30
0.0
 40
0.2
100
AcDbArc
 50
104.5115021214925
 51
164.1740772573014
  0
LINE
  5
F3
330
1F
100
AcDbEntity
  8
1
  6
Continuous
 62
     7
370
     9
100
AcDbLine
 10
122.1325466185252
 20
153.5708135457389
 30
0.0
 11
122.5812249648187
 21
153.6869457572291
 31
0.0
  0
ARC
  5
F4
330
1F
100
AcDbEntity
  8
1
  6
Continuous
 62
     7
370
     9
100
AcDbCircle
 10
122.631339835727
 20
153.4933262858069
 30
0.0
 40
0.2
100
AcDbArc
 50
344.1740772572988
 51
104.5115021215202
  0
LINE
  5
F5
330
1F
100
AcDbEntity
  8
1
  6
Continuous
 62
     7
370
     9
100
AcDbLine
 10
121.9902425483665
 20
153.4317371867933
 30
0.0
 11
120.5367130904465
 21
148.3039293591414
 31
0.0
  0
ARC
  5
F6
330
1F
100
AcDbEntity
  8
1
  6
Continuous
 62
     7
370
     9
100
AcDbCircle
 10
120.7291320315135
 20
148.2493862466647
 30
0.0
 40
0.2
100
AcDbArc
 50
164.1740772572902
 51
284.5115021215
  0
LINE
  5
F7
330
1F
100
AcDbEntity
  8
1
  6
Continuous
 62
     7
370
     9
100
AcDbLine
 10
120.7792469024218
 20
148.0557667752424
 30
0.0
 11
121.2279252487152
 21
148.1718989867326
 31
0.0
  0
LINE
  5
F8
330
1F
100
AcDbEntity
  8
1
  6
Continuous
 62
     7
370
     9
100
AcDbLine
 10
122.8237587767939
 20
153.4387831733302
 30
0.0
 11
121.370229318874
 21
148.3109753456781
 31
0.0
  0
ARC
  5
F9
330
1F
100
AcDbEntity
  8
1
  6
Continuous
 62
     7
370
     9
100
AcDbCircle
 10
121.1778103778069
 20
148.3655184581549
 30
0.0
 40
0.2
100
AcDbArc
 50
284.5115021215137
 51
344.1740772572898
  0
ARC
  5
FA
330
1F
100
AcDbEntity
  8
1
  6
Continuous
 62
     7
370
     9
100
AcDbCircle
 10
120.9487960274554
 20
153.0578305876956
 30
0.0
 40
0.2
100
AcDbArc
 50
104.5115021215004
 51
164.1740772572935
  0
LINE
  5
FB
330
1F
100
AcDbEntity
  8
1
  6
Continuous
 62
     7
370
     9
100
AcDbLine
 10
120.8986811565471
 20
153.2514500591178
 30
0.0
 11
121.3473595028406
 21
153.367582270608
 31
0.0
  0
ARC
  5
FC
330
1F
100
AcDbEntity
  8
1
  6
Continuous
 62
     7
370
     9
100
AcDbCircle
 10
121.3974743737488
 20
153.1739627991858
 30
0.0
 40
0.2
100
AcDbArc
 50
344.174077257301
 51
104.5115021215103
  0
LINE
  5
FD
330
1F
100
AcDbEntity
  8
1
  6
Continuous
 62
     7
370
     9
100
AcDbLine
 10
120.7563770863884
 20
153.1123737001723
 30
0.0
 11
119.3028476284684
 21
147.9845658725204
 31
0.0
  0
ARC
  5
FE
330
1F
100
AcDbEntity
  8
1
  6
Continuous
 62
     7
370
     9
100
AcDbCircle
 10
119.4952665695354
 20
147.9300227600436
 30
0.0
 40
0.2
100
AcDbArc
 50
164.1740772572902
 51
284.5115021215
  0
LINE
  5
FF
330
1F
100
AcDbEntity
  8
1
  6
Continuous
 62
     7
370
     9
100
AcDbLine
 10
119.5453814404437
 20
147.7364032886213
 30
0.0
 11
119.9940597867371
 21
147.8525355001115
 31
0.0
  0
LINE
  5
100
330
1F
100
AcDbEntity
  8
1
  6
Continuous
 62
     7
370
     9
100
AcDbLine
 10
121.5898933148158
 20
153.1194196867091
 30
0.0
 11
120.1363638568959
 21
147.9916118590571
 31
0.0
  0
ARC
  5
101
330
1F
100
AcDbEntity
  8
1
  6
Continuous
 62
     7
370
     9
100
AcDbCircle
 10
119.9439449158288
 20
148.0461549715338
 30
0.0
 40
0.2
100
AcDbArc
 50
284.5115021215137
 51
344.1740772572898
  0
ARC
  5
102
330
1F
100
AcDbEntity
  8
1
  6
Continuous
 62
     7
370
     9
100
AcDbCircle
 10
119.7149305058381
 20
152.7384668906774
 30
0.0
 40
0.2
100
AcDbArc
 50
104.5115021214925
 51
164.1740772572992
  0
LINE
  5
103
330
1F
100
AcDbEntity
  8
1
  6
Continuous
 62
     7
370
     9
100
AcDbLine
 10
119.6648156349298
 20
152.9320863620997
 30
0.0
 11
120.1134939812233
 21
153.0482185735898
 31
0.0
  0
ARC
  5
104
330
1F
100
AcDbEntity
  8
1
  6
Continuous
 62
     7
370
     9
100
AcDbCircle
 10
120.1636088521316
 20
152.8545991021676
 30
0.0
 40
0.2
100
AcDbArc
 50
344.174077257301
 51
104.5115021215202
  0
LINE
  5
105
330
1F
100
AcDbEntity
  8
1
  6
Continuous
 62
     7
370
     9
100
AcDbLine
 10
119.5225115647711
 20
152.7930100031541
 30
0.0
 11
118.0689821068511
 21
147.6652021755022
 31
0.0
  0
ARC
  5
106
330
1F
100
AcDbEntity
  8
1
  6
Continuous
 62
     7
370
     9
100
AcDbCircle
 10
118.2614010479181
 20
147.6106590630255
 30
0.0
 40
0.2
100
AcDbArc
 50
164.1740772572879
 51
284.5115021215
  0
LINE
  5
107
330
1F
100
AcDbEntity
  8
1
  6
Continuous
 62
     7
370
     9
100
AcDbLine
 10
118.3115159188264
 20
147.4170395916032
 30
0.0
 11
118.7601942651198
 21
147.5331718030934
 31
0.0
  0
LINE
  5
108
330
1F
100
AcDbEntity
  8
1
  6
Continuous
 62
     7
370
     9
100
AcDbLine
 10
120.3560277931986
 20
152.8000559896909
 30
0.0
 11
118.9024983352786
 21
147.6722481620389
 31
0.0
  0
ARC
  5
109
330
1F
100
AcDbEntity
  8
1
  6
Continuous
 62
     7
370
     9
100
AcDbCircle
 10
118.7100793942115
 20
147.7267912745157
 30
0.0
 40
0.2
100
AcDbArc
 50
284.5115021215058
 51
344.1740772572876
  0
ARC
  5
10A
330
1F
100
AcDbEntity
  8
1
  6
Continuous
 62
     7
370
     9
100
AcDbCircle
 10
118.48106504386
 20
152.4191034040564
 30
0.0
 40
0.2
100
AcDbArc
 50
104.5115021214925
 51
164.1740772572913
  0
LINE
  5
10B
330
1F
100
AcDbEntity
  8
1
  6
Continuous
 62
     7
370
     9
100
AcDbLine
 10
118.4309501729517
 20
152.6127228754786
 30
0.0
 11
118.8796285192452
 21
152.7288550869688
 31
0.0
  0
ARC
  5
10C
330
1F
100
AcDbEntity
  8
1
  6
Continuous
 62
     7
370
     9
100
AcDbCircle
 10
117.02753558594
 20
147.2912955764044
 30
0.0
 40
0.2
100
AcDbArc
 50
164.1740772572879
 51
284.5115021215
  0
LINE
  5
10D
330
1F
100
AcDbEntity
  8
1
  6
Continuous
 62
     7
370
     9
100
AcDbLine
 10
117.0776504568483
 20
147.0976761049821
 30
0.0
 11
117.5263288031417
 21
147.2138083164723
 31
0.0
  0
LINE
  5
10E
330
1F
100
AcDbEntity
  8
1
  6
Continuous
 62
     7
370
     9
100
AcDbLine
 10
113.4445896234063
 20
149.2561863177515
 30
0.0
 11
117.6879534443163
 21
150.3545036953359
 31
0.0
  0
LINE
  5
10F
330
1F
100
AcDbEntity
  8
1
  6
Continuous
 62
     7
370
     9
100
AcDbLine
 10
113.6951642346382
 20
148.2880890270799
 30
0.0
 11
117.3719687795511
 21
149.2397628632378
 31
0.0
  0
LINE
  5
110
330
1F
100
AcDbEntity
  8
1
  6
Continuous
 62
     7
370
     9
100
AcDbLine
 10
118.288646102793
 20
152.4736465165331
 30
0.0
 11
117.6879534443163
 21
150.3545036953359
 31
0.0
  0
LINE
  5
111
330
1F
100
AcDbEntity
  8
1
  6
Continuous
 62
     7
370
     9
100
AcDbLine
 10
117.3719687795511
 20
149.2397628632378
 30
0.0
 11
116.835116644873
 21
147.3458386888811
 31
0.0
  0
CIRCLE
  5
112
330
1F
100
AcDbEntity
  8
1
  6
Continuous
 62
     7
370
     9
100
AcDbCircle
 10
162.427165913849
 20
161.5306122448978
 30
0.0
 40
8.484833826273643
  0
LINE
  5
113
330
1F
100
AcDbEntity
  8
1
  6
Continuous
 62
     7
370
     9
100
AcDbLine
 10
180.9974012474013
 20
187.0306122448978
 30
0.0
 11
180.9974012474013
 21
185.5306122448978
 31
0.0
  0
LINE
  5
114
330
1F
100
AcDbEntity
  8
1
  6
Continuous
 62
     7
370
     9
100
AcDbLine
 10
202.997401553563
 20
187.0306122448978
 30
0.0
 11
202.997401553563
 21
185.5306122448978
 31
0.0
  0
LINE
  5
115
330
1F
100
AcDbEntity
  8
1
  6
Continuous
 62
     7
370
     9
100
AcDbLine
 10
180.9843749999976
 20
187.0306122448978
 30
0.0
 11
202.997401553563
 21
187.0306122448978
 31
0.0
  0
ARC
  5
116
330
1F
100
AcDbEntity
  8
1
  6
Continuous
 62
     7
370
     9
100
AcDbCircle
 10
202.4998830012301
 20
187.6021728057571
 30
0.0
 40
0.4999999569387999
100
AcDbArc
 50
264.3024061868401
 51
84.28940694934143
  0
LINE
  5
117
330
1F
100
AcDbEntity
  8
1
  6
Continuous
 62
     7
370
     9
100
AcDbLine
 10
181.4448598205323
 20
189.2051813668243
 30
0.0
 11
202.4502440247956
 21
187.1046429785532
 31
0.0
  0
ARC
  5
118
330
1F
100
AcDbEntity
  8
1
  6
Continuous
 62
     7
370
     9
100
AcDbCircle
 10
181.4949198854292
 20
189.7026690882442
 30
0.0
 40
0.500000043061217
100
AcDbArc
 50
84.28940694933979
 51
264.2539123721676
  0
LINE
  5
119
330
1F
100
AcDbEntity
  8
1
  6
Continuous
 62
     7
370
     9
100
AcDbLine
 10
181.495166795432
 20
190.2051382313711
 30
0.0
 11
202.5496348655517
 21
188.0996914565894
 31
0.0
  0
ARC
  5
11A
330
1F
100
AcDbEntity
  8
1
  6
Continuous
 62
     7
370
     9
100
AcDbCircle
 10
202.4998830012301
 20
191.1196292921571
 30
0.0
 40
0.4999999569387999
100
AcDbArc
 50
264.3024061868401
 51
84.28940694934143
  0
LINE
  5
11B
330
1F
100
AcDbEntity
  8
1
  6
Continuous
 62
     7
370
     9
100
AcDbLine
 10
181.4448598205323
 20
192.7226378532243
 30
0.0
 11
202.4502440247956
 21
190.6220994649532
 31
0.0
  0
ARC
  5
11C
330
1F
100
AcDbEntity
  8
1
  6
Continuous
 62
     7
370
     9
100
AcDbCircle
 10
181.4949198854292
 20
193.2201255746442
 30
0.0
 40
0.500000043061217
100
AcDbArc
 50
84.28940694933979
 51
264.2539123721676
  0
LINE
  5
11D
330
1F
100
AcDbEntity
  8
1
  6
Continuous
 62
     7
370
     9
100
AcDbLine
 10
181.495166795432
 20
193.7225947177711
 30
0.0
 11
202.5496348655517
 21
191.6171479429894
 31
0.0
  0
ARC
  5
11E
330
1F
100
AcDbEntity
  8
1
  6
Continuous
 62
     7
370
     9
100
AcDbCircle
 10
202.4998830012301
 20
195.1395795677169
 30
0.0
 40
0.4999999569387999
100
AcDbArc
 50
264.3024061868401
 51
84.28940694934143
  0
LINE
  5
11F
330
1F
100
AcDbEntity
  8
1
  6
Continuous
 62
     7
370
     9
100
AcDbLine
 10
181.4448598205323
 20
196.7425881287841
 30
0.0
 11
202.4502440247956
 21
194.642049740513
 31
0.0
  0
ARC
  5
120
330
1F
100
AcDbEntity
  8
1
  6
Continuous
 62
     7
370
     9
100
AcDbCircle
 10
181.4949198854292
 20
197.240075850204
 30
0.0
 40
0.500000043061217
100
AcDbArc
 50
84.28940694933979
 51
264.2539123721676
  0
LINE
  5
121
330
1F
100
AcDbEntity
  8
1
  6
Continuous
 62
     7
370
     9
100
AcDbLine
 10
181.495166795432
 20
197.7425449933309
 30
0.0
 11
202.5496348655517
 21
195.6370982185492
 31
0.0
  0
ARC
  5
122
330
1F
100
AcDbEntity
  8
1
  6
Continuous
 62
     7
370
     9
100
AcDbCircle
 10
202.4998830012301
 20
199.1595298432767
 30
0.0
 40
0.4999999569387999
100
AcDbArc
 50
264.3024061868401
 51
84.28940694934143
  0
LINE
  5
123
330
1F
100
AcDbEntity
  8
1
  6
Continuous
 62
     7
370
     9
100
AcDbLine
 10
181.4448598205323
 20
200.7625384043439
 30
0.0
 11
202.4502440247956
 21
198.6620000160728
 31
0.0
  0
ARC
  5
124
330
1F
100
AcDbEntity
  8
1
  6
Continuous
 62
     7
370
     9
100
AcDbCircle
 10
181.4949198854292
 20
201.2600261257638
 30
0.0
 40
0.500000043061217
100
AcDbArc
 50
84.28940694933979
 51
264.2539123721676
  0
LINE
  5
125
330
1F
100
AcDbEntity
  8
1
  6
Continuous
 62
     7
370
     9
100
AcDbLine
 10
181.495166795432
 20
201.7624952688907
 30
0.0
 11
202.5496348655517
 21
199.657048494109
 31
0.0
  0
ARC
  5
126
330
1F
100
AcDbEntity
  8
1
  6
Continuous
 62
     7
370
     9
100
AcDbCircle
 10
202.4998830012301
 20
203.1794801188365
 30
0.0
 40
0.4999999569387999
100
AcDbArc
 50
264.3024061868401
 51
84.28940694934143
  0
LINE
  5
127
330
1F
100
AcDbEntity
  8
1
  6
Continuous
 62
     7
370
     9
100
AcDbLine
 10
181.4448598205323
 20
204.7824886799037
 30
0.0
 11
202.4502440247956
 21
202.6819502916326
 31
0.0
  0
ARC
  5
128
330
1F
100
AcDbEntity
  8
1
  6
Continuous
 62
     7
370
     9
100
AcDbCircle
 10
181.4949198854292
 20
205.2799764013236
 30
0.0
 40
0.500000043061217
100
AcDbArc
 50
84.28940694933979
 51
264.2539123721676
  0
LINE
  5
129
330
1F
100
AcDbEntity
  8
1
  6
Continuous
 62
     7
370
     9
100
AcDbLine
 10
181.495166795432
 20
205.7824455444506
 30
0.0
 11
202.5496348655517
 21
203.6769987696688
 31
0.0
  0
ARC
  5
12A
330
1F
100
AcDbEntity
  8
1
  6
Continuous
 62
     7
370
     9
100
AcDbCircle
 10
202.4998830012301
 20
207.1994303943963
 30
0.0
 40
0.4999999569387999
100
AcDbArc
 50
264.3024061868401
 51
84.28940694934143
  0
LINE
  5
12B
330
1F
100
AcDbEntity
  8
1
  6
Continuous
 62
     7
370
     9
100
AcDbLine
 10
181.4448598205323
 20
208.8024389554635
 30
0.0
 11
202.4502440247956
 21
206.7019005671924
 31
0.0
  0
ARC
  5
12C
330
1F
100
AcDbEntity
  8
1
  6
Continuous
 62
     7
370
     9
100
AcDbCircle
 10
181.4949198854292
 20
209.2999266768834
 30
0.0
 40
0.500000043061217
100
AcDbArc
 50
84.28940694933979
 51
264.2539123721676
  0
LINE
  5
12D
330
1F
100
AcDbEntity
  8
1
  6
Continuous
 62
     7
370
     9
100
AcDbLine
 10
181.495166795432
 20
209.8023958200104
 30
0.0
 11
202.5496348655517
 21
207.6969490452286
 31
0.0
  0
ARC
  5
12E
330
1F
100
AcDbEntity
  8
1
  6
Continuous
 62
     7
370
     9
100
AcDbCircle
 10
202.4998830012301
 20
211.2193806699561
 30
0.0
 40
0.4999999569387999
100
AcDbArc
 50
264.3024061868401
 51
84.28940694934143
  0
LINE
  5
12F
330
1F
100
AcDbEntity
  8
1
  6
Continuous
 62
     7
370
     9
100
AcDbLine
 10
181.4448598205323
 20
212.8223892310233
 30
0.0
 11
202.4502440247956
 21
210.7218508427522
 31
0.0
  0
ARC
  5
130
330
1F
100
AcDbEntity
  8
1
  6
Continuous
 62
     7
370
     9
100
AcDbCircle
 10
181.4949198854292
 20
213.3198769524432
 30
0.0
 40
0.500000043061217
100
AcDbArc
 50
84.28940694933979
 51
264.2539123721676
  0
LINE
  5
131
330
1F
100
AcDbEntity
  8
1
  6
Continuous
 62
     7
370
     9
100
AcDbLine
 10
181.495166795432
 20
213.8223460955702
 30
0.0
 11
202.5496348655517
 21
211.7168993207884
 31
0.0
  0
LINE
  5
132
330
1F
100
AcDbEntity
  8
1
  6
Continuous
 62
     7
370
     9
100
AcDbLine
 10
181.9974012474013
 20
212.7671350891823
 30
0.0
 11
181.9974012474013
 21
209.7521723755823
 31
0.0
  0
LINE
  5
133
330
1F
100
AcDbEntity
  8
1
  6
Continuous
 62
     7
370
     9
100
AcDbLine
 10
181.9974012474013
 20
208.7471848136225
 30
0.0
 11
181.9974012474013
 21
205.7322221000225
 31
0.0
  0
LINE
  5
134
330
1F
100
AcDbEntity
  8
1
  6
Continuous
 62
     7
370
     9
100
AcDbLine
 10
181.9974012474013
 20
204.7272345380626
 30
0.0
 11
181.9974012474013
 21
201.7122718244626
 31
0.0
  0
LINE
  5
135
330
1F
100
AcDbEntity
  8
1
  6
Continuous
 62
     7
370
     9
100
AcDbLine
 10
181.9974012474013
 20
200.7072842625028
 30
0.0
 11
181.9974012474013
 21
197.6923215489028
 31
0.0
  0
LINE
  5
136
330
1F
100
AcDbEntity
  8
1
  6
Continuous
 62
     7
370
     9
100
AcDbLine
 10
181.9974012474013
 20
196.687333986943
 30
0.0
 11
181.9974012474013
 21
193.672371273343
 31
0.0
  0
LINE
  5
137
330
1F
100
AcDbEntity
  8
1
  6
Continuous
 62
     7
370
     9
100
AcDbLine
 10
181.9974012474013
 20
192.6673837113832
 30
0.0
 11
181.9974012474013
 21
189.6524209977832
 31
0.0
  0
LINE
  5
138
330
1F
100
AcDbEntity
  8
1
  6
Continuous
 62
     7
370
     9
100
AcDbLine
 10
181.9974012474013
 20
189.1499272249832
 30
0.0
 11
181.9974012474013
 21
186.1349645113832
 31
0.0
  0
LINE
  5
139
330
1F
100
AcDbEntity
  8
1
  6
Continuous
 62
     7
370
     9
100
AcDbLine
 10
201.997401553563
 20
188.1549147869429
 30
0.0
 11
201.997401553563
 21
190.6673837113832
 31
0.0
  0
LINE
  5
13A
330
1F
100
AcDbEntity
  8
1
  6
Continuous
 62
     7
370
     9
100
AcDbLine
 10
201.997401553563
 20
191.6723712733429
 30
0.0
 11
201.997401553563
 21
194.687333986943
 31
0.0
  0
LINE
  5
13B
330
1F
100
AcDbEntity
  8
1
  6
Continuous
 62
     7
370
     9
100
AcDbLine
 10
201.997401553563
 20
195.6923215489027
 30
0.0
 11
201.997401553563
 21
198.7072842625028
 31
0.0
  0
LINE
  5
13C
330
1F
100
AcDbEntity
  8
1
  6
Continuous
 62
     7
370
     9
100
AcDbLine
 10
201.997401553563
 20
199.7122718244625
 30
0.0
 11
201.997401553563
 21
202.7272345380626
 31
0.0
  0
LINE
  5
13D
330
1F
100
AcDbEntity
  8
1
  6
Continuous
 62
     7
370
     9
100
AcDbLine
 10
201.997401553563
 20
214.7870853647421
 30
0.0
 11
201.997401553563
 21
211.7721226511419
 31
0.0
  0
LINE
  5
13E
330
1F
100
AcDbEntity
  8
1
  6
Continuous
 62
     7
370
     9
100
AcDbLine
 10
201.997401553563
 20
210.7671350891823
 30
0.0
 11
201.997401553563
 21
207.7521723755821
 31
0.0
  0
LINE
  5
13F
330
1F
100
AcDbEntity
  8
1
  6
Continuous
 62
     7
370
     9
100
AcDbLine
 10
201.997401553563
 20
203.7322221000223
 30
0.0
 11
201.997401553563
 21
206.5220366099263
 31
0.0
  0
LINE
  5
140
330
1F
100
AcDbEntity
  8
1
  6
Continuous
 62
     7
370
     9
100
AcDbLine
 10
181.9793310268957
 20
196.6891410089659
 30
0.0
 11
166.0433004143171
 21
185.5306122448978
 31
0.0
  0
LINE
  5
141
330
1F
100
AcDbEntity
  8
1
  6
Continuous
 62
     7
370
     9
100
AcDbLine
 10
208.6001940943321
 20
185.5306122448979
 30
0.0
 11
210.8956014742022
 21
187.137873795545
 31
0.0
  0
LINE
  5
142
330
1F
100
AcDbEntity
  8
1
  6
Continuous
 62
     7
370
     9
100
AcDbLine
 10
202.7717668575269
 20
198.7399120104526
 30
0.0
 11
210.9073886822441
 21
187.121039917875
 31
0.0
  0
LINE
  5
143
330
1F
100
AcDbEntity
  8
1
  6
Continuous
 62
     7
370
     9
100
AcDbLine
 10
158.7217223301023
 20
166.822534113121
 30
0.0
 11
167.2938666629537
 21
154.5802432706534
 31
0.0
  0
CIRCLE
  5
144
330
1F
100
AcDbEntity
  8
1
  6
Continuous
 62
     7
370
     9
100
AcDbCircle
 10
279.1563322250304
 20
243.2652544249208
 30
0.0
 40
17.49999999999983
  0
LINE
  5
145
330
1F
100
AcDbEntity
  8
1
  6
Continuous
 62
     7
370
     9
100
AcDbLine
 10
202.760944945036
 20
199.5859646195732
 30
0.0
 11
261.4163397797719
 21
240.6569142395202
 31
0.0
  0
LINE
  5
146
330
1F
100
AcDbEntity
  8
1
  6
Continuous
 62
     7
370
     9
100
AcDbLine
 10
267.4654327205516
 20
230.2432396508479
 30
0.0
 11
209.2536090967309
 21
189.4828819365165
 31
0.0
  0
ARC
  5
147
330
1F
100
AcDbEntity
  8
1
  6
DOT
 62
     7
370
     9
100
AcDbCircle
 10
191.9974014004821
 20
151.1529162876824
 30
0.0
 40
5.065252280297856
100
AcDbArc
 50
9.206652647348191
 51
170.7933257073609
  0
LINE
  5
148
330
1F
100
AcDbEntity
  8
1
  6
DOT
 62
     7
370
     9
100
AcDbLine
 10
196.997401553563
 20
127.5306122448978
 30
0.0
 11
196.997401553563
 21
151.9633353966956
 31
0.0
  0
LINE
  5
149
330
1F
100
AcDbEntity
  8
1
  6
DOT
 62
     7
370
     9
100
AcDbLine
 10
186.997401553563
 20
127.5306122448978
 30
0.0
 11
186.997401553563
 21
151.9633372856034
 31
0.0
  0
LINE
  5
14A
330
1F
100
AcDbEntity
  8
1
  6
DOT
 62
     7
370
     9
100
AcDbLine
 10
181.997401553563
 20
97.53061224489784
 30
0.0
 11
201.997401553563
 21
97.53061224489784
 31
0.0
  0
LINE
  5
14B
330
1F
100
AcDbEntity
  8
1
  6
DOT
 62
     7
370
     9
100
AcDbLine
 10
181.997401553563
 20
127.5306122448978
 30
0.0
 11
181.997401553563
 21
97.53061224489784
 31
0.0
  0
LINE
  5
14C
330
1F
100
AcDbEntity
  8
1
  6
DOT
 62
     7
370
     9
100
AcDbLine
 10
201.997401553563
 20
127.5306122448978
 30
0.0
 11
201.997401553563
 21
97.53061224489784
 31
0.0
  0
LINE
  5
14D
330
1F
100
AcDbEntity
  8
1
  6
Continuous
 62
     7
370
     9
100
AcDbLine
 10
181.9974012474013
 20
137.5306122448978
 30
0.0
 11
181.997401553563
 21
127.5306122448978
 31
0.0
  0
LINE
  5
14E
330
1F
100
AcDbEntity
  8
1
  6
Continuous
 62
     7
370
     9
100
AcDbLine
 10
201.997401553563
 20
137.5306122448978
 30
0.0
 11
201.997401553563
 21
127.5306122448978
 31
0.0
  0
LINE
  5
14F
330
1F
100
AcDbEntity
  8
1
  6
Continuous
 62
     7
370
     9
100
AcDbLine
 10
129.997401553563
 20
67.53061224489784
 30
0.0
 11
125.1831561015201
 21
49.53061224489784
 31
0.0
  0
LINE
  5
150
330
1F
100
AcDbEntity
  8
1
  6
Continuous
 62
     7
370
     9
100
AcDbLine
 10
109.997401553563
 20
185.5306122448978
 30
0.0
 11
109.997401553563
 21
205.9829927263547
 31
0.0
  0
LINE
  5
151
330
1F
100
AcDbEntity
  8
1
  6
Continuous
 62
     7
370
     9
100
AcDbLine
 10
129.997401553563
 20
185.5306122448978
 30
0.0
 11
129.997401553563
 21
205.9829927263538
 31
0.0
  0
ARC
  5
152
330
1F
100
AcDbEntity
  8
1
  6
Continuous
 62
     7
370
     9
100
AcDbCircle
 10
119.997401553563
 20
205.5198950132567
 30
0.0
 40
10.01071723164111
100
AcDbArc
 50
2.65146009308344
 51
177.3485399069114
  0
LINE
  5
153
330
1F
100
AcDbEntity
  8
1
  6
Continuous
 62
     7
370
     9
100
AcDbLine
 10
166.3967970374213
 20
215.5306122448978
 30
0.0
 11
216.1942729989583
 21
215.5306122448978
 31
0.0
  0
ARC
  5
154
330
1F
100
AcDbEntity
  8
1
  6
Continuous
 62
     7
370
     9
100
AcDbCircle
 10
159.2502599521866
 20
233.5306122448978
 30
0.0
 40
4.0
100
AcDbArc
 50
90.0000000000004
 51
174.8055710922652
  0
LINE
  5
155
330
1F
100
AcDbEntity
  8
1
  6
Continuous
 62
     7
370
     9
100
AcDbLine
 10
155.2666871263158
 20
233.8927552290679
 30
0.0
 11
153.7956806270353
 21
217.7116837369829
 31
0.0
  0
ARC
  5
156
330
1F
100
AcDbEntity
  8
1
  6
Continuous
 62
     7
370
     9
100
AcDbCircle
 10
155.7874670399707
 20
217.5306122448978
 30
0.0
 40
2.0
100
AcDbArc
 50
174.8055710922651
 51
270.0000000000005
  0
LINE
  5
157
330
1F
100
AcDbEntity
  8
1
  6
Continuous
 62
     7
370
     9
100
AcDbLine
 10
159.2502599521866
 20
238.5306122448978
 30
0.0
 11
159.2502599521866
 21
237.5306122448978
 31
0.0
  0
LINE
  5
158
330
1F
100
AcDbEntity
  8
1
  6
Continuous
 62
     7
370
     9
100
AcDbLine
 10
159.2502599521866
 20
238.5306122448978
 30
0.0
 11
171.2502599521866
 21
238.5306122448978
 31
0.0
  0
LINE
  5
159
330
1F
100
AcDbEntity
  8
1
  6
Continuous
 62
     7
370
     9
100
AcDbLine
 10
171.2502599521866
 20
238.5306122448978
 30
0.0
 11
171.2502599521866
 21
237.5306122448978
 31
0.0
  0
LINE
  5
15A
330
1F
100
AcDbEntity
  8
1
  6
Continuous
 62
     7
370
     9
100
AcDbLine
 10
159.7502599521866
 20
238.5306122448978
 30
0.0
 11
159.7502599521866
 21
243.5306122448978
 31
0.0
  0
ARC
  5
15B
330
1F
100
AcDbEntity
  8
1
  6
Continuous
 62
     7
370
     9
100
AcDbCircle
 10
160.7502599521866
 20
243.5306122448978
 30
0.0
 40
1.0
100
AcDbArc
 50
90.00000000000162
 51
179.9999999999998
  0
LINE
  5
15C
330
1F
100
AcDbEntity
  8
1
  6
Continuous
 62
     7
370
     9
100
AcDbLine
 10
160.7502599521866
 20
244.5306122448978
 30
0.0
 11
169.7502599521866
 21
244.5306122448978
 31
0.0
  0
LINE
  5
15D
330
1F
100
AcDbEntity
  8
1
  6
Continuous
 62
     7
370
     9
100
AcDbLine
 10
170.7502599521866
 20
238.5306122448978
 30
0.0
 11
170.7502599521866
 21
243.5306122448978
 31
0.0
  0
ARC
  5
15E
330
1F
100
AcDbEntity
  8
1
  6
Continuous
 62
     7
370
     9
100
AcDbCircle
 10
169.7502599521866
 20
243.5306122448978
 30
0.0
 40
1.0
100
AcDbArc
 50
0.0
 51
90.00000000000162
  0
LINE
  5
15F
330
1F
100
AcDbEntity
  8
1
  6
Continuous
 62
     7
370
     9
100
AcDbLine
 10
162.7502599521866
 20
244.5306122448978
 30
0.0
 11
162.7502599521866
 21
238.5306122448978
 31
0.0
  0
LINE
  5
160
330
1F
100
AcDbEntity
  8
1
  6
Continuous
 62
     7
370
     9
100
AcDbLine
 10
167.7502599521866
 20
244.5306122448978
 30
0.0
 11
167.7502599521866
 21
238.5306122448978
 31
0.0
  0
LINE
  5
161
330
1F
100
AcDbEntity
  8
1
  6
Continuous
 62
     7
370
     9
100
AcDbLine
 10
178.9974012474013
 20
237.5306122448978
 30
0.0
 11
178.9974012474013
 21
238.5306122448978
 31
0.0
  0
LINE
  5
162
330
1F
100
AcDbEntity
  8
1
  6
Continuous
 62
     7
370
     9
100
AcDbLine
 10
178.9974012474013
 20
238.5306122448978
 30
0.0
 11
204.997401553563
 21
238.5306122448978
 31
0.0
  0
LINE
  5
163
330
1F
100
AcDbEntity
  8
1
  6
Continuous
 62
     7
370
     9
100
AcDbLine
 10
204.997401553563
 20
237.5306122448978
 30
0.0
 11
204.997401553563
 21
238.5306122448978
 31
0.0
  0
LINE
  5
164
330
1F
100
AcDbEntity
  8
1
  6
Continuous
 62
     7
370
     9
100
AcDbLine
 10
186.4974012474012
 20
246.5306122448978
 30
0.0
 11
186.4974012474012
 21
238.5306122448978
 31
0.0
  0
LINE
  5
165
330
1F
100
AcDbEntity
  8
1
  6
Continuous
 62
     7
370
     9
100
AcDbLine
 10
197.497401553563
 20
246.5306122448978
 30
0.0
 11
197.497401553563
 21
238.5306122448978
 31
0.0
  0
LINE
  5
166
330
1F
100
AcDbEntity
  8
1
  6
Continuous
 62
     7
370
     9
100
AcDbLine
 10
181.4974012474012
 20
246.5306122448978
 30
0.0
 11
181.4974012474012
 21
238.5306122448978
 31
0.0
  0
LINE
  5
167
330
1F
100
AcDbEntity
  8
1
  6
Continuous
 62
     7
370
     9
100
AcDbLine
 10
181.4974012474012
 20
246.5306122448978
 30
0.0
 11
202.497401553563
 21
246.5306122448978
 31
0.0
  0
LINE
  5
168
330
1F
100
AcDbEntity
  8
1
  6
Continuous
 62
     7
370
     9
100
AcDbLine
 10
202.497401553563
 20
246.5306122448978
 30
0.0
 11
202.497401553563
 21
238.5306122448978
 31
0.0
  0
LINE
  5
169
330
1F
100
AcDbEntity
  8
1
  6
Continuous
 62
     7
370
     9
100
AcDbLine
 10
181.9974012474013
 20
246.5306122448978
 30
0.0
 11
181.9974012474013
 21
248.5306122448978
 31
0.0
  0
LINE
  5
16A
330
1F
100
AcDbEntity
  8
1
  6
Continuous
 62
     7
370
     9
100
AcDbLine
 10
181.9974012474013
 20
248.5306122448978
 30
0.0
 11
201.997401553563
 21
248.5306122448978
 31
0.0
  0
LINE
  5
16B
330
1F
100
AcDbEntity
  8
1
  6
Continuous
 62
     7
370
     9
100
AcDbLine
 10
201.997401553563
 20
246.5306122448978
 30
0.0
 11
201.997401553563
 21
248.5306122448978
 31
0.0
  0
LINE
  5
16C
330
1F
100
AcDbEntity
  8
1
  6
Continuous
 62
     7
370
     9
100
AcDbLine
 10
170.7502599521866
 20
200.8309472919544
 30
0.0
 11
170.7502599521866
 21
195.8309472919544
 31
0.0
  0
ARC
  5
16D
330
1F
100
AcDbEntity
  8
1
  6
Continuous
 62
     7
370
     9
100
AcDbCircle
 10
169.7502599521866
 20
195.8309472919544
 30
0.0
 40
1.0
100
AcDbArc
 50
270.0000000000013
 51
0.0
  0
LINE
  5
16E
330
1F
100
AcDbEntity
  8
1
  6
Continuous
 62
     7
370
     9
100
AcDbLine
 10
169.7502599521866
 20
194.8309472919544
 30
0.0
 11
160.7502599521866
 21
194.8309472919544
 31
0.0
  0
LINE
  5
16F
330
1F
100
AcDbEntity
  8
1
  6
Continuous
 62
     7
370
     9
100
AcDbLine
 10
159.7502599521866
 20
200.8309472919544
 30
0.0
 11
159.7502599521866
 21
195.8309472919544
 31
0.0
  0
ARC
  5
170
330
1F
100
AcDbEntity
  8
1
  6
Continuous
 62
     7
370
     9
100
AcDbCircle
 10
160.7502599521866
 20
195.8309472919544
 30
0.0
 40
1.0
100
AcDbArc
 50
179.9999999999998
 51
270.0000000000013
  0
LINE
  5
171
330
1F
100
AcDbEntity
  8
1
  6
Continuous
 62
     7
370
     9
100
AcDbLine
 10
167.7502599521866
 20
194.8309472919544
 30
0.0
 11
167.7502599521866
 21
200.8309472919544
 31
0.0
  0
LINE
  5
172
330
1F
100
AcDbEntity
  8
1
  6
Continuous
 62
     7
370
     9
100
AcDbLine
 10
162.7502599521866
 20
194.8309472919544
 30
0.0
 11
162.7502599521866
 21
200.8309472919544
 31
0.0
  0
LINE
  5
173
330
1F
100
AcDbEntity
  8
1
  6
Continuous
 62
     7
370
     9
100
AcDbLine
 10
159.7502599521866
 20
200.8309472919544
 30
0.0
 11
170.7502599521866
 21
200.8309472919544
 31
0.0
  0
LINE
  5
174
330
1F
100
AcDbEntity
  8
1
  6
Continuous
 62
     7
370
     9
100
AcDbLine
 10
160.7502599521866
 20
215.5306122448981
 30
0.0
 11
169.7502599521866
 21
215.5306122448981
 31
0.0
  0
LINE
  5
175
330
1F
100
AcDbEntity
  8
1
  6
Continuous
 62
     7
370
     9
100
AcDbLine
 10
181.9974012474013
 20
215.5306122448978
 30
0.0
 11
181.9974012474013
 21
213.7721226511421
 31
0.0
  0
ARC
  5
176
330
1F
100
AcDbEntity
  8
1
  6
Continuous
 62
     7
370
     9
100
AcDbCircle
 10
202.4998830012301
 20
215.2393309455159
 30
0.0
 40
0.4999999569387999
100
AcDbArc
 50
264.3024061868401
 51
35.63098830913909
  0
LINE
  5
177
330
1F
100
AcDbEntity
  8
1
  6
Continuous
 62
     7
370
     9
100
AcDbLine
 10
194.7165721588945
 20
215.5151682930634
 30
0.0
 11
202.4502440247956
 21
214.741801118312
 31
0.0
  0
LINE
  5
178
330
1F
100
AcDbEntity
  8
1
  6
Continuous
 62
     7
370
     9
100
AcDbLine
 10
213.5181817733796
 20
233.8927552290679
 30
0.0
 11
214.98918827266
 21
217.7116837369829
 31
0.0
  0
LINE
  5
179
330
1F
100
AcDbEntity
  8
1
  6
Continuous
 62
     7
370
     9
100
AcDbLine
 10
159.2502599521866
 20
237.5306122448978
 30
0.0
 11
209.5346089475088
 21
237.5306122448978
 31
0.0
  0
ARC
  5
17A
330
1F
100
AcDbEntity
  8
1
  6
Continuous
 62
     7
370
     9
100
AcDbCircle
 10
209.5346089475087
 20
233.5306122448978
 30
0.0
 40
4.0
100
AcDbArc
 50
5.194428907734843
 51
89.99999999999959
  0
LINE
  5
17B
330
1F
100
AcDbEntity
  8
1
  6
Continuous
 62
     7
370
     9
100
AcDbLine
 10
155.7874670399707
 20
215.5306122448978
 30
0.0
 11
212.9974018597246
 21
215.5306122448978
 31
0.0
  0
ARC
  5
17C
330
1F
100
AcDbEntity
  8
1
  6
Continuous
 62
     7
370
     9
100
AcDbCircle
 10
212.9974018597246
 20
217.5306122448978
 30
0.0
 40
2.0
100
AcDbArc
 50
269.9999999999989
 51
5.19442890773488
  0
ARC
  5
17D
330
1F
100
AcDbEntity
  8
1
  6
Continuous
 62
     7
370
     9
100
AcDbCircle
 10
162.427165913849
 20
161.5306122448978
 30
0.0
 40
22.03044193438314
100
AcDbArc
 50
209.2616868848156
 51
180.347158607519
  0
ARC
  5
17E
330
1F
100
AcDbEntity
  8
1
  6
Continuous
 62
     7
370
     9
100
AcDbCircle
 10
128.5477377188982
 20
152.6488836332966
 30
0.0
 40
5.508131091381356
100
AcDbArc
 50
107.6250994399742
 51
166.5275307910491
  0
ARC
  5
17F
330
1F
100
AcDbEntity
  8
1
  6
Continuous
 62
     7
370
     9
100
AcDbCircle
 10
128.5477377188982
 20
152.6488836332966
 30
0.0
 40
5.508131091381356
100
AcDbArc
 50
221.7906244496566
 51
281.3979043110443
  0
LINE
  5
180
330
1F
100
AcDbEntity
  8
1
  6
Continuous
 62
     7
370
     9
100
AcDbLine
 10
161.2502599521866
 20
215.5306122448981
 30
0.0
 11
161.2502599521866
 21
200.8309472919546
 31
0.0
  0
LINE
  5
181
330
1F
100
AcDbEntity
  8
1
  6
Continuous
 62
     7
370
     9
100
AcDbLine
 10
169.2502599521866
 20
215.5306122448978
 30
0.0
 11
169.2502599521866
 21
200.8309472919544
 31
0.0
  0
LINE
  5
182
330
1F
100
AcDbEntity
  8
1
  6
Continuous
 62
     7
370
     9
100
AcDbLine
 10
161.2502599521866
 20
202.9306122448979
 30
0.0
 11
169.2502599521866
 21
202.9306122448979
 31
0.0
  0
LINE
  5
183
330
1F
100
AcDbEntity
  8
1
  6
Continuous
 62
     7
370
     9
100
AcDbLine
 10
161.2502599521866
 20
213.430612244898
 30
0.0
 11
169.2502599521866
 21
213.430612244898
 31
0.0
  0
LINE
  5
184
330
1F
100
AcDbEntity
  8
1
  6
Continuous
 62
     7
370
     9
100
AcDbLine
 10
161.2502599521866
 20
211.330612244898
 30
0.0
 11
169.2502599521866
 21
211.330612244898
 31
0.0
  0
LINE
  5
185
330
1F
100
AcDbEntity
  8
1
  6
Continuous
 62
     7
370
     9
100
AcDbLine
 10
161.2502599521866
 20
209.230612244898
 30
0.0
 11
169.2502599521866
 21
209.230612244898
 31
0.0
  0
LINE
  5
186
330
1F
100
AcDbEntity
  8
1
  6
Continuous
 62
     7
370
     9
100
AcDbLine
 10
161.2502599521866
 20
207.130612244898
 30
0.0
 11
169.2502599521866
 21
207.130612244898
 31
0.0
  0
LINE
  5
187
330
1F
100
AcDbEntity
  8
1
  6
Continuous
 62
     7
370
     9
100
AcDbLine
 10
161.2502599521866
 20
205.030612244898
 30
0.0
 11
169.2502599521866
 21
205.030612244898
 31
0.0
  0
LINE
  5
188
330
1F
100
AcDbEntity
  8
1
  6
Continuous
 62
     7
370
     9
100
AcDbLine
 10
161.2502599521866
 20
246.5306122448978
 30
0.0
 11
169.2502599521866
 21
246.5306122448978
 31
0.0
  0
LINE
  5
189
330
1F
100
AcDbEntity
  8
1
  6
Continuous
 62
     7
370
     9
100
AcDbLine
 10
161.2502599521866
 20
248.6302771978414
 30
0.0
 11
169.2502599521866
 21
248.6302771978414
 31
0.0
  0
LINE
  5
18A
330
1F
100
AcDbEntity
  8
1
  6
Continuous
 62
     7
370
     9
100
AcDbLine
 10
161.2502599521866
 20
250.7302771978414
 30
0.0
 11
169.2502599521866
 21
250.7302771978414
 31
0.0
  0
LINE
  5
18B
330
1F
100
AcDbEntity
  8
1
  6
Continuous
 62
     7
370
     9
100
AcDbLine
 10
161.2502599521866
 20
252.8302771978414
 30
0.0
 11
169.2502599521866
 21
252.8302771978414
 31
0.0
  0
LINE
  5
18C
330
1F
100
AcDbEntity
  8
1
  6
Continuous
 62
     7
370
     9
100
AcDbLine
 10
161.2502599521866
 20
254.9302771978415
 30
0.0
 11
169.2502599521866
 21
254.9302771978415
 31
0.0
  0
LINE
  5
18D
330
1F
100
AcDbEntity
  8
1
  6
Continuous
 62
     7
370
     9
100
AcDbLine
 10
161.2502599521866
 20
259.1302771978415
 30
0.0
 11
169.2502599521866
 21
259.1302771978415
 31
0.0
  0
LINE
  5
18E
330
1F
100
AcDbEntity
  8
1
  6
Continuous
 62
     7
370
     9
100
AcDbLine
 10
161.2502599521866
 20
257.0302771978415
 30
0.0
 11
169.2502599521866
 21
257.0302771978415
 31
0.0
  0
LINE
  5
18F
330
1F
100
AcDbEntity
  8
1
  6
Continuous
 62
     7
370
     9
100
AcDbLine
 10
161.2502599521866
 20
244.5306122448981
 30
0.0
 11
161.2502599521866
 21
261.0306122448978
 31
0.0
  0
LINE
  5
190
330
1F
100
AcDbEntity
  8
1
  6
Continuous
 62
     7
370
     9
100
AcDbLine
 10
161.2502599521866
 20
261.0306122448978
 30
0.0
 11
161.7502599521866
 21
261.5306122448978
 31
0.0
  0
LINE
  5
191
330
1F
100
AcDbEntity
  8
1
  6
Continuous
 62
     7
370
     9
100
AcDbLine
 10
161.7502599521866
 20
261.5306122448978
 30
0.0
 11
168.7502599521866
 21
261.5306122448978
 31
0.0
  0
LINE
  5
192
330
1F
100
AcDbEntity
  8
1
  6
Continuous
 62
     7
370
     9
100
AcDbLine
 10
169.2502599521866
 20
244.5306122448978
 30
0.0
 11
169.2502599521866
 21
261.0306122448978
 31
0.0
  0
LINE
  5
193
330
1F
100
AcDbEntity
  8
1
  6
Continuous
 62
     7
370
     9
100
AcDbLine
 10
168.7502599521866
 20
261.5306122448978
 30
0.0
 11
169.2502599521866
 21
261.0306122448978
 31
0.0
  0
ARC
  5
194
330
1F
100
AcDbEntity
  8
1
  6
Continuous
 62
     7
370
     9
100
AcDbCircle
 10
525.3596673596676
 20
45.53061224489784
 30
0.0
 40
7.0
100
AcDbArc
 50
269.9999999999998
 51
0.0
  0
LINE
  5
195
330
1F
100
AcDbEntity
  8
1
  6
Continuous
 62
     7
370
     9
100
AcDbLine
 10
419.3596673596675
 20
38.53061224489784
 30
0.0
 11
525.3596673596676
 21
38.53061224489784
 31
0.0
  0
ARC
  5
196
330
1F
100
AcDbEntity
  8
1
  6
Continuous
 62
     7
370
     9
100
AcDbCircle
 10
419.3596673596675
 20
45.53061224489784
 30
0.0
 40
7.0
100
AcDbArc
 50
179.9999999999998
 51
269.9999999999998
  0
ARC
  5
197
330
1F
100
AcDbEntity
  8
1
  6
Continuous
 62
     7
370
     9
100
AcDbCircle
 10
472.3596673596675
 20
178.5306122448978
 30
0.0
 40
20.0
100
AcDbArc
 50
359.346400652094
 51
179.9999999999998
  0
LINE
  5
198
330
1F
100
AcDbEntity
  8
1
  6
Continuous
 62
     7
370
     9
100
AcDbLine
 10
419.3596673596675
 20
178.5306122448978
 30
0.0
 11
452.3596673596675
 21
178.5306122448978
 31
0.0
  0
LINE
  5
199
330
1F
100
AcDbEntity
  8
1
  6
Continuous
 62
     7
370
     9
100
AcDbLine
 10
492.3596673596675
 20
178.5306122448978
 30
0.0
 11
525.3596673596676
 21
178.5306122448978
 31
0.0
  0
LINE
  5
19A
330
1F
100
AcDbEntity
  8
1
  6
Continuous
 62
     7
370
     9
100
AcDbLine
 10
412.3596673596675
 20
171.5306122448978
 30
0.0
 11
412.3596673596675
 21
45.53061224489784
 31
0.0
  0
ARC
  5
19B
330
1F
100
AcDbEntity
  8
1
  6
Continuous
 62
     7
370
     9
100
AcDbCircle
 10
419.3596673596675
 20
171.5306122448978
 30
0.0
 40
7.0
100
AcDbArc
 50
89.99999999999991
 51
179.9999999999998
  0
LINE
  5
19C
330
1F
100
AcDbEntity
  8
1
  6
Continuous
 62
     7
370
     9
100
AcDbLine
 10
532.3596673596676
 20
171.5306122448978
 30
0.0
 11
532.3596673596676
 21
45.53061224489784
 31
0.0
  0
ARC
  5
19D
330
1F
100
AcDbEntity
  8
1
  6
Continuous
 62
     7
370
     9
100
AcDbCircle
 10
525.3596673596676
 20
171.5306122448978
 30
0.0
 40
7.0
100
AcDbArc
 50
0.0
 51
89.99999999999991
  0
ARC
  5
19E
330
1F
100
AcDbEntity
  8
1
  6
Continuous
 62
     7
370
     9
100
AcDbCircle
 10
419.3596673596675
 20
171.5306122448978
 30
0.0
 40
4.0
100
AcDbArc
 50
89.99999999999991
 51
179.9999999999998
  0
LINE
  5
19F
330
1F
100
AcDbEntity
  8
1
  6
Continuous
 62
     7
370
     9
100
AcDbLine
 10
419.3596673596675
 20
175.5306122448978
 30
0.0
 11
455.6264668289861
 21
175.5306122448978
 31
0.0
  0
ARC
  5
1A0
330
1F
100
AcDbEntity
  8
1
  6
Continuous
 62
     7
370
     9
100
AcDbCircle
 10
472.3596673596675
 20
178.5306122448978
 30
0.0
 40
17.0
100
AcDbArc
 50
349.8357513782764
 51
190.1642486217231
  0
LINE
  5
1A1
330
1F
100
AcDbEntity
  8
1
  6
Continuous
 62
     7
370
     9
100
AcDbLine
 10
489.0928678903491
 20
175.5306122448979
 30
0.0
 11
525.3596673596676
 21
175.5306122448978
 31
0.0
  0
ARC
  5
1A2
330
1F
100
AcDbEntity
  8
1
  6
Continuous
 62
     7
370
     9
100
AcDbCircle
 10
525.3596673596676
 20
171.5306122448978
 30
0.0
 40
4.0
100
AcDbArc
 50
0.0
 51
89.99999999999991
  0
LINE
  5
1A3
330
1F
100
AcDbEntity
  8
1
  6
Continuous
 62
     7
370
     9
100
AcDbLine
 10
529.3596673596676
 20
171.5306122448978
 30
0.0
 11
529.3596673596676
 21
45.53061224489784
 31
0.0
  0
ARC
  5
1A4
330
1F
100
AcDbEntity
  8
1
  6
Continuous
 62
     7
370
     9
100
AcDbCircle
 10
525.3596673596676
 20
45.53061224489784
 30
0.0
 40
4.0
100
AcDbArc
 50
269.9999999999998
 51
0.0
  0
LINE
  5
1A5
330
1F
100
AcDbEntity
  8
1
  6
Continuous
 62
     7
370
     9
100
AcDbLine
 10
525.3596673596676
 20
41.53061224489784
 30
0.0
 11
419.3596673596675
 21
41.53061224489784
 31
0.0
  0
ARC
  5
1A6
330
1F
100
AcDbEntity
  8
1
  6
Continuous
 62
     7
370
     9
100
AcDbCircle
 10
419.3596673596675
 20
45.53061224489784
 30
0.0
 40
4.0
100
AcDbArc
 50
179.9999999999998
 51
269.9999999999998
  0
LINE
  5
1A7
330
1F
100
AcDbEntity
  8
1
  6
Continuous
 62
     7
370
     9
100
AcDbLine
 10
415.3596673596675
 20
45.53061224489785
 30
0.0
 11
415.3596673596675
 21
171.5306122448978
 31
0.0
  0
CIRCLE
  5
1A8
330
1F
100
AcDbEntity
  8
1
  6
Continuous
 62
     7
370
     9
100
AcDbCircle
 10
472.3596673596675
 20
179.5306122448978
 30
0.0
 40
9.0
  0
CIRCLE
  5
1A9
330
1F
100
AcDbEntity
  8
1
  6
Continuous
 62
     7
370
     9
100
AcDbCircle
 10
432.3596673596674
 20
108.5306122448978
 30
0.0
 40
3.0
  0
CIRCLE
  5
1AA
330
1F
100
AcDbEntity
  8
1
  6
Continuous
 62
     7
370
     9
100
AcDbCircle
 10
512.3596676658294
 20
108.5306122448978
 30
0.0
 40
3.0
  0
LINE
  5
1AB
330
1F
100
AcDbEntity
  8
1
  6
Continuous
 62
     7
370
     9
100
AcDbLine
 10
399.4941365644564
 20
255.0973557692335
 30
0.0
 11
439.4941365644564
 21
255.0973557692335
 31
0.0
  0
POLYLINE
  5
1AC
330
1F
100
AcDbEntity
  8
1
  6
Continuous
 62
     7
370
     9
100
AcDb2dPolyline
 66
     1
 10
0.0
 20
0.0
 30
0.0
 70
     2
  0
VERTEX
  5
1AE
330
1AC
100
AcDbEntity
  8
1
  6
Continuous
 62
     7
370
     9
100
AcDbVertex
100
AcDb2dVertex
 10
399.4941345086058
 20
322.2465241469108
 30
0.0
  0
VERTEX
  5
1AF
330
1AC
100
AcDbEntity
  8
1
  6
Continuous
 62
     7
370
     9
100
AcDbVertex
100
AcDb2dVertex
 10
399.5737475898255
 20
322.3137439599355
 30
0.0
  0
VERTEX
  5
1B0
330
1AC
100
AcDbEntity
  8
1
  6
Continuous
 62
     7
370
     9
100
AcDbVertex
100
AcDb2dVertex
 10
399.8104048966897
 20
322.5135112937816
 30
0.0
  0
VERTEX
  5
1B1
330
1AC
100
AcDbEntity
  8
1
  6
Continuous
 62
     7
370
     9
100
AcDbVertex
100
AcDb2dVertex
 10
400.1975621689016
 20
322.8398720601862
 30
0.0
  0
VERTEX
  5
1B2
330
1AC
100
AcDbEntity
  8
1
  6
Continuous
 62
     7
370
     9
100
AcDbVertex
100
AcDb2dVertex
 10
400.7243379545604
 20
323.2821010685739
 30
0.0
  0
VERTEX
  5
1B3
330
1AC
100
AcDbEntity
  8
1
  6
Continuous
 62
     7
370
     9
100
AcDbVertex
100
AcDb2dVertex
 10
401.3756175528669
 20
323.8238986220913
 30
0.0
  0
VERTEX
  5
1B4
330
1AC
100
AcDbEntity
  8
1
  6
Continuous
 62
     7
370
     9
100
AcDbVertex
100
AcDb2dVertex
 10
402.13230870648
 20
324.4429453095097
 30
0.0
  0
VERTEX
  5
1B5
330
1AC
100
AcDbEntity
  8
1
  6
Continuous
 62
     7
370
     9
100
AcDbVertex
100
AcDb2dVertex
 10
402.9718162640055
 20
325.1112487305747
 30
0.0
  0
VERTEX
  5
1B6
330
1AC
100
AcDbEntity
  8
1
  6
Continuous
 62
     7
370
     9
100
AcDbVertex
100
AcDb2dVertex
 10
403.8687736466488
 20
325.7965612495325
 30
0.0
  0
VERTEX
  5
1B7
330
1AC
100
AcDbEntity
  8
1
  6
Continuous
 62
     7
370
     9
100
AcDbVertex
100
AcDb2dVertex
 10
404.7960219954408
 20
326.4648916365599
 30
0.0
  0
VERTEX
  5
1B8
330
1AC
100
AcDbEntity
  8
1
  6
Continuous
 62
     7
370
     9
100
AcDbVertex
100
AcDb2dVertex
 10
405.7257743754818
 20
327.0838380090495
 30
0.0
  0
VERTEX
  5
1B9
330
1AC
100
AcDbEntity
  8
1
  6
Continuous
 62
     7
370
     9
100
AcDbVertex
100
AcDb2dVertex
 10
406.6308556687175
 20
327.6262101496006
 30
0.0
  0
VERTEX
  5
1BA
330
1AC
100
AcDbEntity
  8
1
  6
Continuous
 62
     7
370
     9
100
AcDbVertex
100
AcDb2dVertex
 10
407.485881084675
 20
328.0732557060552
 30
0.0
  0
VERTEX
  5
1BB
330
1AC
100
AcDbEntity
  8
1
  6
Continuous
 62
     7
370
     9
100
AcDbVertex
100
AcDb2dVertex
 10
408.268235743617
 20
328.4168033710703
 30
0.0
  0
VERTEX
  5
1BC
330
1AC
100
AcDbEntity
  8
1
  6
Continuous
 62
     7
370
     9
100
AcDbVertex
100
AcDb2dVertex
 10
408.9587464701293
 20
328.6597978341646
 30
0.0
  0
VERTEX
  5
1BD
330
1AC
100
AcDbEntity
  8
1
  6
Continuous
 62
     7
370
     9
100
AcDbVertex
100
AcDb2dVertex
 10
409.541989788989
 20
328.8149977886406
 30
0.0
  0
VERTEX
  5
1BE
330
1AC
100
AcDbEntity
  8
1
  6
Continuous
 62
     7
370
     9
100
AcDbVertex
100
AcDb2dVertex
 10
410.0062462294246
 20
328.9019776718059
 30
0.0
  0
VERTEX
  5
1BF
330
1AC
100
AcDbEntity
  8
1
  6
Continuous
 62
     7
370
     9
100
AcDbVertex
100
AcDb2dVertex
 10
410.3431760317798
 20
328.9429345417828
 30
0.0
  0
VERTEX
  5
1C0
330
1AC
100
AcDbEntity
  8
1
  6
Continuous
 62
     7
370
     9
100
AcDbVertex
100
AcDb2dVertex
 10
410.5473406698718
 20
328.9580711486718
 30
0.0
  0
VERTEX
  5
1C1
330
1AC
100
AcDbEntity
  8
1
  6
Continuous
 62
     7
370
     9
100
AcDbVertex
100
AcDb2dVertex
 10
410.6157169682413
 20
328.9614410083165
 30
0.0
  0
VERTEX
  5
1C2
330
1AC
100
AcDbEntity
  8
1
  6
Continuous
 62
     7
370
     9
100
AcDbVertex
100
AcDb2dVertex
 10
410.6839395686659
 20
328.963936439768
 30
0.0
  0
VERTEX
  5
1C3
330
1AC
100
AcDbEntity
  8
1
  6
Continuous
 62
     7
370
     9
100
AcDbVertex
100
AcDb2dVertex
 10
410.8858607544486
 20
328.9662585098575
 30
0.0
  0
VERTEX
  5
1C4
330
1AC
100
AcDbEntity
  8
1
  6
Continuous
 62
     7
370
     9
100
AcDbVertex
100
AcDb2dVertex
 10
411.2135577951686
 20
328.9540741426767
 30
0.0
  0
VERTEX
  5
1C5
330
1AC
100
AcDbEntity
  8
1
  6
Continuous
 62
     7
370
     9
100
AcDbVertex
100
AcDb2dVertex
 10
411.6548130516085
 20
328.9071057284759
 30
0.0
  0
VERTEX
  5
1C6
330
1AC
100
AcDbEntity
  8
1
  6
Continuous
 62
     7
370
     9
100
AcDbVertex
100
AcDb2dVertex
 10
412.1943659189847
 20
328.8037149391446
 30
0.0
  0
VERTEX
  5
1C7
330
1AC
100
AcDbEntity
  8
1
  6
Continuous
 62
     7
370
     9
100
AcDbVertex
100
AcDb2dVertex
 10
412.8152660061011
 20
328.6258509783434
 30
0.0
  0
VERTEX
  5
1C8
330
1AC
100
AcDbEntity
  8
1
  6
Continuous
 62
     7
370
     9
100
AcDbVertex
100
AcDb2dVertex
 10
413.5000474908774
 20
328.3633042209017
 30
0.0
  0
VERTEX
  5
1C9
330
1AC
100
AcDbEntity
  8
1
  6
Continuous
 62
     7
370
     9
100
AcDbVertex
100
AcDb2dVertex
 10
414.2315021602857
 20
328.0163801493861
 30
0.0
  0
VERTEX
  5
1CA
330
1AC
100
AcDbEntity
  8
1
  6
Continuous
 62
     7
370
     9
100
AcDbVertex
100
AcDb2dVertex
 10
414.9929402304668
 20
327.5964770660132
 30
0.0
  0
VERTEX
  5
1CB
330
1AC
100
AcDbEntity
  8
1
  6
Continuous
 62
     7
370
     9
100
AcDbVertex
100
AcDb2dVertex
 10
415.767966291441
 20
327.1245261406132
 30
0.0
  0
VERTEX
  5
1CC
330
1AC
100
AcDbEntity
  8
1
  6
Continuous
 62
     7
370
     9
100
AcDbVertex
100
AcDb2dVertex
 10
416.5399286313918
 20
326.6277222330475
 30
0.0
  0
VERTEX
  5
1CD
330
1AC
100
AcDbEntity
  8
1
  6
Continuous
 62
     7
370
     9
100
AcDbVertex
100
AcDb2dVertex
 10
417.2912913724093
 20
326.1353299106869
 30
0.0
  0
VERTEX
  5
1CE
330
1AC
100
AcDbEntity
  8
1
  6
Continuous
 62
     7
370
     9
100
AcDbVertex
100
AcDb2dVertex
 10
418.0032073821695
 20
325.6745112178996
 30
0.0
  0
VERTEX
  5
1CF
330
1AC
100
AcDbEntity
  8
1
  6
Continuous
 62
     7
370
     9
100
AcDbVertex
100
AcDb2dVertex
 10
418.6555280008272
 20
325.2670574779527
 30
0.0
  0
VERTEX
  5
1D0
330
1AC
100
AcDbEntity
  8
1
  6
Continuous
 62
     7
370
     9
100
AcDbVertex
100
AcDb2dVertex
 10
419.22738250417
 20
324.9276386806986
 30
0.0
  0
VERTEX
  5
1D1
330
1AC
100
AcDbEntity
  8
1
  6
Continuous
 62
     7
370
     9
100
AcDbVertex
100
AcDb2dVertex
 10
419.6983201175329
 20
324.6637813268085
 30
0.0
  0
VERTEX
  5
1D2
330
1AC
100
AcDbEntity
  8
1
  6
Continuous
 62
     7
370
     9
100
AcDbVertex
100
AcDb2dVertex
 10
420.0498636921909
 20
324.4773503701656
 30
0.0
  0
VERTEX
  5
1D3
330
1AC
100
AcDbEntity
  8
1
  6
Continuous
 62
     7
370
     9
100
AcDbVertex
100
AcDb2dVertex
 10
420.2672114469568
 20
324.3669505227028
 30
0.0
  0
VERTEX
  5
1D4
330
1AC
100
AcDbEntity
  8
1
  6
Continuous
 62
     7
370
     9
100
AcDbVertex
100
AcDb2dVertex
 10
420.3407689432931
 20
324.3304638773395
 30
0.0
  0
VERTEX
  5
1D5
330
1AC
100
AcDbEntity
  8
1
  6
Continuous
 62
     7
370
     9
100
AcDbVertex
100
AcDb2dVertex
 10
420.4145529697353
 20
324.2943173519848
 30
0.0
  0
VERTEX
  5
1D6
330
1AC
100
AcDbEntity
  8
1
  6
Continuous
 62
     7
370
     9
100
AcDbVertex
100
AcDb2dVertex
 10
420.635200718187
 20
324.1888808643906
 30
0.0
  0
VERTEX
  5
1D7
330
1AC
100
AcDbEntity
  8
1
  6
Continuous
 62
     7
370
     9
100
AcDbVertex
100
AcDb2dVertex
 10
421.0002732072297
 20
324.0228667128246
 30
0.0
  0
VERTEX
  5
1D8
330
1AC
100
AcDbEntity
  8
1
  6
Continuous
 62
     7
370
     9
100
AcDbVertex
100
AcDb2dVertex
 10
421.5047141748776
 20
323.8098360566258
 30
0.0
  0
VERTEX
  5
1D9
330
1AC
100
AcDbEntity
  8
1
  6
Continuous
 62
     7
370
     9
100
AcDbVertex
100
AcDb2dVertex
 10
422.1396730279536
 20
323.5668637829022
 30
0.0
  0
VERTEX
  5
1DA
330
1AC
100
AcDbEntity
  8
1
  6
Continuous
 62
     7
370
     9
100
AcDbVertex
100
AcDb2dVertex
 10
422.8913969047244
 20
323.3128663220732
 30
0.0
  0
VERTEX
  5
1DB
330
1AC
100
AcDbEntity
  8
1
  6
Continuous
 62
     7
370
     9
100
AcDbVertex
100
AcDb2dVertex
 10
423.7405653244796
 20
323.0667653372579
 30
0.0
  0
VERTEX
  5
1DC
330
1AC
100
AcDbEntity
  8
1
  6
Continuous
 62
     7
370
     9
100
AcDbVertex
100
AcDb2dVertex
 10
424.6623559593721
 20
322.8456777159699
 30
0.0
  0
VERTEX
  5
1DD
330
1AC
100
AcDbEntity
  8
1
  6
Continuous
 62
     7
370
     9
100
AcDbVertex
100
AcDb2dVertex
 10
425.6273699566597
 20
322.6633200538826
 30
0.0
  0
VERTEX
  5
1DE
330
1AC
100
AcDbEntity
  8
1
  6
Continuous
 62
     7
370
     9
100
AcDbVertex
100
AcDb2dVertex
 10
426.6033481755492
 20
322.5287937413907
 30
0.0
  0
VERTEX
  5
1DF
330
1AC
100
AcDbEntity
  8
1
  6
Continuous
 62
     7
370
     9
100
AcDbVertex
100
AcDb2dVertex
 10
427.5574231899521
 20
322.4458768000698
 30
0.0
  0
VERTEX
  5
1E0
330
1AC
100
AcDbEntity
  8
1
  6
Continuous
 62
     7
370
     9
100
AcDbVertex
100
AcDb2dVertex
 10
428.4585212676064
 20
322.4128946752376
 30
0.0
  0
VERTEX
  5
1E1
330
1AC
100
AcDbEntity
  8
1
  6
Continuous
 62
     7
370
     9
100
AcDbVertex
100
AcDb2dVertex
 10
429.2794859154248
 20
322.4231798132689
 30
0.0
  0
VERTEX
  5
1E2
330
1AC
100
AcDbEntity
  8
1
  6
Continuous
 62
     7
370
     9
100
AcDbVertex
100
AcDb2dVertex
 10
429.9985511218764
 20
322.4660656870266
 30
0.0
  0
VERTEX
  5
1E3
330
1AC
100
AcDbEntity
  8
1
  6
Continuous
 62
     7
370
     9
100
AcDbVertex
100
AcDb2dVertex
 10
430.5999354799312
 20
322.5283020437076
 30
0.0
  0
VERTEX
  5
1E4
330
1AC
100
AcDbEntity
  8
1
  6
Continuous
 62
     7
370
     9
100
AcDbVertex
100
AcDb2dVertex
 10
431.0735244453531
 20
322.5957312228272
 30
0.0
  0
VERTEX
  5
1E5
330
1AC
100
AcDbEntity
  8
1
  6
Continuous
 62
     7
370
     9
100
AcDbVertex
100
AcDb2dVertex
 10
431.4138107181249
 20
322.6550359365539
 30
0.0
  0
VERTEX
  5
1E6
330
1AC
100
AcDbEntity
  8
1
  6
Continuous
 62
     7
370
     9
100
AcDbVertex
100
AcDb2dVertex
 10
431.6184240073912
 20
322.6953605489897
 30
0.0
  0
VERTEX
  5
1E7
330
1AC
100
AcDbEntity
  8
1
  6
Continuous
 62
     7
370
     9
100
AcDbVertex
100
AcDb2dVertex
 10
431.6866629141867
 20
322.7096218814976
 30
0.0
  0
VERTEX
  5
1E8
330
1AC
100
AcDbEntity
  8
1
  6
Continuous
 62
     7
370
     9
100
AcDbVertex
100
AcDb2dVertex
 10
431.7545990545622
 20
322.7242335286611
 30
0.0
  0
VERTEX
  5
1E9
330
1AC
100
AcDbEntity
  8
1
  6
Continuous
 62
     7
370
     9
100
AcDbVertex
100
AcDb2dVertex
 10
431.9547812171392
 20
322.7697174820791
 30
0.0
  0
VERTEX
  5
1EA
330
1AC
100
AcDbEntity
  8
1
  6
Continuous
 62
     7
370
     9
100
AcDbVertex
100
AcDb2dVertex
 10
432.2767379793714
 20
322.8506196192664
 30
0.0
  0
VERTEX
  5
1EB
330
1AC
100
AcDbEntity
  8
1
  6
Continuous
 62
     7
370
     9
100
AcDbVertex
100
AcDb2dVertex
 10
432.7043022461315
 20
322.973261119497
 30
0.0
  0
VERTEX
  5
1EC
330
1AC
100
AcDbEntity
  8
1
  6
Continuous
 62
     7
370
     9
100
AcDbVertex
100
AcDb2dVertex
 10
433.2173005722366
 20
323.1441244993644
 30
0.0
  0
VERTEX
  5
1ED
330
1AC
100
AcDbEntity
  8
1
  6
Continuous
 62
     7
370
     9
100
AcDbVertex
100
AcDb2dVertex
 10
433.7934929561956
 20
323.3680722062488
 30
0.0
  0
VERTEX
  5
1EE
330
1AC
100
AcDbEntity
  8
1
  6
Continuous
 62
     7
370
     9
100
AcDbVertex
100
AcDb2dVertex
 10
434.4104469833571
 20
323.6467503100046
 30
0.0
  0
VERTEX
  5
1EF
330
1AC
100
AcDbEntity
  8
1
  6
Continuous
 62
     7
370
     9
100
AcDbVertex
100
AcDb2dVertex
 10
435.0470677311524
 20
323.9774835081138
 30
0.0
  0
VERTEX
  5
1F0
330
1AC
100
AcDbEntity
  8
1
  6
Continuous
 62
     7
370
     9
100
AcDbVertex
100
AcDb2dVertex
 10
435.6845963541575
 20
324.3528594331161
 30
0.0
  0
VERTEX
  5
1F1
330
1AC
100
AcDbEntity
  8
1
  6
Continuous
 62
     7
370
     9
100
AcDbVertex
100
AcDb2dVertex
 10
436.3070136829168
 20
324.761055666704
 30
0.0
  0
VERTEX
  5
1F2
330
1AC
100
AcDbEntity
  8
1
  6
Continuous
 62
     7
370
     9
100
AcDbVertex
100
AcDb2dVertex
 10
436.900911997711
 20
325.1868148901891
 30
0.0
  0
VERTEX
  5
1F3
330
1AC
100
AcDbEntity
  8
1
  6
Continuous
 62
     7
370
     9
100
AcDbVertex
100
AcDb2dVertex
 10
437.4550001499732
 20
325.6128548730959
 30
0.0
  0
VERTEX
  5
1F4
330
1AC
100
AcDbEntity
  8
1
  6
Continuous
 62
     7
370
     9
100
AcDbVertex
100
AcDb2dVertex
 10
437.9594629816306
 20
326.0214352789941
 30
0.0
  0
VERTEX
  5
1F5
330
1AC
100
AcDbEntity
  8
1
  6
Continuous
 62
     7
370
     9
100
AcDbVertex
100
AcDb2dVertex
 10
438.4053957366281
 20
326.3958038752868
 30
0.0
  0
VERTEX
  5
1F6
330
1AC
100
AcDbEntity
  8
1
  6
Continuous
 62
     7
370
     9
100
AcDbVertex
100
AcDb2dVertex
 10
438.7844816522986
 20
326.7213062944402
 30
0.0
  0
VERTEX
  5
1F7
330
1AC
100
AcDbEntity
  8
1
  6
Continuous
 62
     7
370
     9
100
AcDbVertex
100
AcDb2dVertex
 10
439.0889922146868
 20
326.9860474444562
 30
0.0
  0
VERTEX
  5
1F8
330
1AC
100
AcDbEntity
  8
1
  6
Continuous
 62
     7
370
     9
100
AcDbVertex
100
AcDb2dVertex
 10
439.3120887568533
 20
327.1811111399704
 30
0.0
  0
VERTEX
  5
1F9
330
1AC
100
AcDbEntity
  8
1
  6
Continuous
 62
     7
370
     9
100
AcDbVertex
100
AcDb2dVertex
 10
439.4483172224894
 20
327.3004473840135
 30
0.0
  0
VERTEX
  5
1FA
330
1AC
100
AcDbEntity
  8
1
  6
Continuous
 62
     7
370
     9
100
AcDbVertex
100
AcDb2dVertex
 10
439.4941365644564
 20
327.3405990124746
 30
0.0
  0
SEQEND
  5
1AD
330
1AC
100
AcDbEntity
  8
1
  6
Continuous
370
     9
  0
LINE
  5
1FB
330
1F
100
AcDbEntity
  8
1
  6
Continuous
 62
     7
370
     9
100
AcDbLine
 10
439.4941365644564
 20
327.3405990124745
 30
0.0
 11
439.4941365644564
 21
255.0973557692335
 31
0.0
  0
LINE
  5
1FC
330
1F
100
AcDbEntity
  8
1
  6
Continuous
 62
     7
370
     9
100
AcDbLine
 10
399.4941345086058
 20
322.2465241469122
 30
0.0
 11
399.4941365644564
 21
255.0973557692335
 31
0.0
  0
LINE
  5
1FD
330
1F
100
AcDbEntity
  8
1
  6
DOT
 62
     7
370
     9
100
AcDbLine
 10
429.4941365644564
 20
272.0973557692334
 30
0.0
 11
439.4941365644564
 21
272.0973557692334
 31
0.0
  0
LINE
  5
1FE
330
1F
100
AcDbEntity
  8
1
  6
DOT
 62
     7
370
     9
100
AcDbLine
 10
439.4941365644564
 20
262.0973557692334
 30
0.0
 11
429.4941365644564
 21
262.0973557692334
 31
0.0
  0
LINE
  5
1FF
330
1F
100
AcDbEntity
  8
1
  6
DOT
 62
     7
370
     9
100
AcDbLine
 10
409.4941365644564
 20
255.0973557692335
 30
0.0
 11
409.4941365644564
 21
293.0532822666436
 31
0.0
  0
LINE
  5
200
330
1F
100
AcDbEntity
  8
1
  6
DOT
 62
     7
370
     9
100
AcDbLine
 10
429.4941365644564
 20
255.0973557692335
 30
0.0
 11
429.4941365644564
 21
293.0532784888277
 31
0.0
  0
ARC
  5
201
330
1F
100
AcDbEntity
  8
1
  6
DOT
 62
     7
370
     9
100
AcDbCircle
 10
419.4941362582946
 20
291.4324402708013
 30
0.0
 40
10.13050456059571
100
AcDbArc
 50
9.206652647348509
 51
170.7933257073609
  0
CIRCLE
  5
202
330
1F
100
AcDbEntity
  8
1
  6
Continuous
 62
     7
370
     9
100
AcDbCircle
 10
409.4941365644564
 20
240.5792619542616
 30
0.0
 40
1.0
  0
CIRCLE
  5
203
330
1F
100
AcDbEntity
  8
1
  6
Continuous
 62
     7
370
     9
100
AcDbCircle
 10
429.4941365644564
 20
240.5792619542616
 30
0.0
 40
1.0
  0
LINE
  5
204
330
1F
100
AcDbEntity
  8
1
  6
Continuous
 62
     7
370
     9
100
AcDbLine
 10
409.4941365644564
 20
252.851351351351
 30
0.0
 11
409.4941365644564
 21
240.5792619542616
 31
0.0
  0
LINE
  5
205
330
1F
100
AcDbEntity
  8
1
  6
Continuous
 62
     7
370
     9
100
AcDbLine
 10
429.4941365644564
 20
252.851351351351
 30
0.0
 11
429.4941365644564
 21
240.5792619542616
 31
0.0
  0
LINE
  5
206
330
1F
100
AcDbEntity
  8
1
  6
Continuous
 62
     7
370
     9
100
AcDbLine
 10
409.4941365644564
 20
240.5792619542616
 30
0.0
 11
429.4941365644564
 21
240.5792619542616
 31
0.0
  0
LINE
  5
207
330
1F
100
AcDbEntity
  8
1
  6
Continuous
 62
     7
370
     9
100
AcDbLine
 10
419.5665280665282
 20
235.9482848232848
 30
0.0
 11
419.5665280665282
 21
240.5792619542616
 31
0.0
  0
LINE
  5
208
330
1F
100
AcDbEntity
  8
1
  6
Continuous
 62
     7
370
     9
100
AcDbLine
 10
66.17955756237416
 20
215.5306122448978
 30
0.0
 11
109.997401553563
 21
215.5306122448978
 31
0.0
  0
LINE
  5
209
330
1F
100
AcDbEntity
  8
1
  6
Continuous
 62
     7
370
     9
100
AcDbLine
 10
66.17955756237419
 20
45.53061224489786
 30
0.0
 11
93.99740124740126
 21
45.53061224489786
 31
0.0
  0
LINE
  5
20A
330
1F
100
AcDbEntity
  8
1
  6
Continuous
 62
     7
370
     9
100
AcDbLine
 10
83.77727066008742
 20
137.5306122448978
 30
0.0
 11
91.38461538461551
 21
137.5306122448978
 31
0.0
  0
LINE
  5
20B
330
1F
100
AcDbEntity
  8
1
  6
Continuous
 62
     7
370
     9
100
AcDbLine
 10
83.77727066008742
 20
185.5306122448978
 30
0.0
 11
91.38461538461551
 21
185.5306122448978
 31
0.0
  0
LINE
  5
20C
330
1F
100
AcDbEntity
  8
1
  6
Continuous
 62
     7
370
     9
100
AcDbLine
 10
209.997401553563
 20
127.5306122448978
 30
0.0
 11
251.3028683731851
 21
127.5306122448978
 31
0.0
  0
LINE
  5
20D
330
1F
100
AcDbEntity
  8
1
  6
Continuous
 62
     7
370
     9
100
AcDbLine
 10
209.997401553563
 20
97.53061224489775
 30
0.0
 11
234.1682529885697
 21
97.53061224489775
 31
0.0
  0
LINE
  5
20E
330
1F
100
AcDbEntity
  8
1
  6
Continuous
 62
     7
370
     9
100
AcDbLine
 10
219.997401553563
 20
137.5306122448977
 30
0.0
 11
241.3462675415842
 21
137.5306122448977
 31
0.0
  0
LINE
  5
20F
330
1F
100
AcDbEntity
  8
1
  6
Continuous
 62
     7
370
     9
100
AcDbLine
 10
267.5161122661124
 20
67.53061224489775
 30
0.0
 11
299.4650305353473
 21
67.53061224489775
 31
0.0
  0
LINE
  5
210
330
1F
100
AcDbEntity
  8
1
  6
Continuous
 62
     7
370
     9
100
AcDbLine
 10
267.5161122661124
 20
45.53061224489776
 30
0.0
 11
299.4650305353473
 21
45.53061224489776
 31
0.0
  0
LINE
  5
211
330
1F
100
AcDbEntity
  8
1
  6
Continuous
 62
     7
370
     9
100
AcDbLine
 10
66.17955756237419
 20
215.5306122448978
 30
0.0
 11
66.69719565257923
 21
213.5987605923197
 31
0.0
  0
LINE
  5
212
330
1F
100
AcDbEntity
  8
1
  6
Continuous
 62
     7
370
     9
100
AcDbLine
 10
66.17955756237419
 20
215.5306122448978
 30
0.0
 11
65.66191947216915
 21
213.5987605923197
 31
0.0
  0
LINE
  5
213
330
1F
100
AcDbEntity
  8
1
  6
Continuous
 62
     7
370
     9
100
AcDbLine
 10
66.69719565257923
 20
213.5987605923197
 30
0.0
 11
65.66191947216915
 21
213.5987605923197
 31
0.0
  0
LINE
  5
214
330
1F
100
AcDbEntity
  8
1
  6
Continuous
 62
     7
370
     9
100
AcDbLine
 10
66.17955756237419
 20
215.0476493317533
 30
0.0
 11
66.43837660747671
 21
214.0817235054642
 31
0.0
  0
LINE
  5
215
330
1F
100
AcDbEntity
  8
1
  6
Continuous
 62
     7
370
     9
100
AcDbLine
 10
66.17955756237419
 20
215.0476493317533
 30
0.0
 11
65.92073851727167
 21
214.0817235054642
 31
0.0
  0
LINE
  5
216
330
1F
100
AcDbEntity
  8
1
  6
Continuous
 62
     7
370
     9
100
AcDbLine
 10
66.43837660747671
 20
214.0817235054642
 30
0.0
 11
65.92073851727167
 21
214.0817235054642
 31
0.0
  0
POLYLINE
  5
217
330
1F
100
AcDbEntity
  8
1
  6
Continuous
 62
     7
370
     9
100
AcDb2dPolyline
 66
     1
 10
0.0
 20
0.0
 30
0.0
  0
VERTEX
  5
219
330
217
100
AcDbEntity
  8
1
  6
Continuous
 62
     7
370
     9
100
AcDbVertex
100
AcDb2dVertex
 10
66.17955756237419
 20
215.5306122448978
 30
0.0
  0
VERTEX
  5
21A
330
217
100
AcDbEntity
  8
1
  6
Continuous
 62
     7
370
     9
100
AcDbVertex
100
AcDb2dVertex
 10
66.17955756237419
 20
212.0987525987526
 30
0.0
  0
SEQEND
  5
218
330
217
100
AcDbEntity
  8
1
  6
Continuous
370
     9
  0
LINE
  5
21B
330
1F
100
AcDbEntity
  8
1
  6
Continuous
 62
     7
370
     9
100
AcDbLine
 10
83.77727066008741
 20
185.5306122448978
 30
0.0
 11
84.29490875029245
 21
183.5987605923197
 31
0.0
  0
LINE
  5
21C
330
1F
100
AcDbEntity
  8
1
  6
Continuous
 62
     7
370
     9
100
AcDbLine
 10
83.77727066008741
 20
185.5306122448978
 30
0.0
 11
83.25963256988237
 21
183.5987605923197
 31
0.0
  0
LINE
  5
21D
330
1F
100
AcDbEntity
  8
1
  6
Continuous
 62
     7
370
     9
100
AcDbLine
 10
84.29490875029245
 20
183.5987605923197
 30
0.0
 11
83.25963256988237
 21
183.5987605923197
 31
0.0
  0
LINE
  5
21E
330
1F
100
AcDbEntity
  8
1
  6
Continuous
 62
     7
370
     9
100
AcDbLine
 10
83.77727066008741
 20
185.0476493317533
 30
0.0
 11
84.03608970518994
 21
184.0817235054642
 31
0.0
  0
LINE
  5
21F
330
1F
100
AcDbEntity
  8
1
  6
Continuous
 62
     7
370
     9
100
AcDbLine
 10
83.77727066008741
 20
185.0476493317533
 30
0.0
 11
83.5184516149849
 21
184.0817235054642
 31
0.0
  0
LINE
  5
220
330
1F
100
AcDbEntity
  8
1
  6
Continuous
 62
     7
370
     9
100
AcDbLine
 10
84.03608970518994
 20
184.0817235054642
 30
0.0
 11
83.5184516149849
 21
184.0817235054642
 31
0.0
  0
POLYLINE
  5
221
330
1F
100
AcDbEntity
  8
1
  6
Continuous
 62
     7
370
     9
100
AcDb2dPolyline
 66
     1
 10
0.0
 20
0.0
 30
0.0
  0
VERTEX
  5
223
330
221
100
AcDbEntity
  8
1
  6
Continuous
 62
     7
370
     9
100
AcDbVertex
100
AcDb2dVertex
 10
83.77727066008741
 20
185.5306122448978
 30
0.0
  0
VERTEX
  5
224
330
221
100
AcDbEntity
  8
1
  6
Continuous
 62
     7
370
     9
100
AcDbVertex
100
AcDb2dVertex
 10
83.77727066008741
 20
181.8430353430354
 30
0.0
  0
SEQEND
  5
222
330
221
100
AcDbEntity
  8
1
  6
Continuous
370
     9
  0
LINE
  5
225
330
1F
100
AcDbEntity
  8
1
  6
Continuous
 62
     7
370
     9
100
AcDbLine
 10
83.77727066008741
 20
137.5306122448978
 30
0.0
 11
83.25963256988237
 21
139.462463897476
 31
0.0
  0
LINE
  5
226
330
1F
100
AcDbEntity
  8
1
  6
Continuous
 62
     7
370
     9
100
AcDbLine
 10
83.77727066008741
 20
137.5306122448978
 30
0.0
 11
84.29490875029245
 21
139.462463897476
 31
0.0
  0
LINE
  5
227
330
1F
100
AcDbEntity
  8
1
  6
Continuous
 62
     7
370
     9
100
AcDbLine
 10
83.25963256988237
 20
139.462463897476
 30
0.0
 11
84.29490875029245
 21
139.462463897476
 31
0.0
  0
LINE
  5
228
330
1F
100
AcDbEntity
  8
1
  6
Continuous
 62
     7
370
     9
100
AcDbLine
 10
83.77727066008741
 20
138.0135751580424
 30
0.0
 11
83.5184516149849
 21
138.9795009843315
 31
0.0
  0
LINE
  5
229
330
1F
100
AcDbEntity
  8
1
  6
Continuous
 62
     7
370
     9
100
AcDbLine
 10
83.77727066008741
 20
138.0135751580424
 30
0.0
 11
84.03608970518994
 21
138.9795009843315
 31
0.0
  0
LINE
  5
22A
330
1F
100
AcDbEntity
  8
1
  6
Continuous
 62
     7
370
     9
100
AcDbLine
 10
83.5184516149849
 20
138.9795009843315
 30
0.0
 11
84.03608970518994
 21
138.9795009843315
 31
0.0
  0
POLYLINE
  5
22B
330
1F
100
AcDbEntity
  8
1
  6
Continuous
 62
     7
370
     9
100
AcDb2dPolyline
 66
     1
 10
0.0
 20
0.0
 30
0.0
  0
VERTEX
  5
22D
330
22B
100
AcDbEntity
  8
1
  6
Continuous
 62
     7
370
     9
100
AcDbVertex
100
AcDb2dVertex
 10
83.77727066008741
 20
137.5306122448978
 30
0.0
  0
VERTEX
  5
22E
330
22B
100
AcDbEntity
  8
1
  6
Continuous
 62
     7
370
     9
100
AcDbVertex
100
AcDb2dVertex
 10
83.77727066008741
 20
139.7011434511435
 30
0.0
  0
SEQEND
  5
22C
330
22B
100
AcDbEntity
  8
1
  6
Continuous
370
     9
  0
LINE
  5
22F
330
1F
100
AcDbEntity
  8
1
  6
Continuous
 62
     7
370
     9
100
AcDbLine
 10
66.17955756237419
 20
45.53061224489786
 30
0.0
 11
65.66191947216915
 21
47.462463897476
 31
0.0
  0
LINE
  5
230
330
1F
100
AcDbEntity
  8
1
  6
Continuous
 62
     7
370
     9
100
AcDbLine
 10
66.17955756237419
 20
45.53061224489786
 30
0.0
 11
66.69719565257923
 21
47.462463897476
 31
0.0
  0
LINE
  5
231
330
1F
100
AcDbEntity
  8
1
  6
Continuous
 62
     7
370
     9
100
AcDbLine
 10
65.66191947216915
 20
47.462463897476
 30
0.0
 11
66.69719565257923
 21
47.462463897476
 31
0.0
  0
LINE
  5
232
330
1F
100
AcDbEntity
  8
1
  6
Continuous
 62
     7
370
     9
100
AcDbLine
 10
66.17955756237419
 20
46.01357515804239
 30
0.0
 11
65.92073851727167
 21
46.97950098433146
 31
0.0
  0
LINE
  5
233
330
1F
100
AcDbEntity
  8
1
  6
Continuous
 62
     7
370
     9
100
AcDbLine
 10
66.17955756237419
 20
46.01357515804239
 30
0.0
 11
66.43837660747671
 21
46.97950098433146
 31
0.0
  0
LINE
  5
234
330
1F
100
AcDbEntity
  8
1
  6
Continuous
 62
     7
370
     9
100
AcDbLine
 10
65.92073851727167
 20
46.97950098433146
 30
0.0
 11
66.43837660747671
 21
46.97950098433146
 31
0.0
  0
POLYLINE
  5
235
330
1F
100
AcDbEntity
  8
1
  6
Continuous
 62
     7
370
     9
100
AcDb2dPolyline
 66
     1
 10
0.0
 20
0.0
 30
0.0
  0
VERTEX
  5
237
330
235
100
AcDbEntity
  8
1
  6
Continuous
 62
     7
370
     9
100
AcDbVertex
100
AcDb2dVertex
 10
66.17955756237419
 20
45.53061224489786
 30
0.0
  0
VERTEX
  5
238
330
235
100
AcDbEntity
  8
1
  6
Continuous
 62
     7
370
     9
100
AcDbVertex
100
AcDb2dVertex
 10
66.17955756237419
 20
49.39708939708947
 30
0.0
  0
SEQEND
  5
236
330
235
100
AcDbEntity
  8
1
  6
Continuous
370
     9
  0
LINE
  5
239
330
1F
100
AcDbEntity
  8
1
  6
Continuous
 62
     7
370
     9
100
AcDbLine
 10
234.1682529885697
 20
127.5306122448978
 30
0.0
 11
234.6858910787748
 21
125.5987605923196
 31
0.0
  0
LINE
  5
23A
330
1F
100
AcDbEntity
  8
1
  6
Continuous
 62
     7
370
     9
100
AcDbLine
 10
234.1682529885697
 20
127.5306122448978
 30
0.0
 11
233.6506148983647
 21
125.5987605923196
 31
0.0
  0
LINE
  5
23B
330
1F
100
AcDbEntity
  8
1
  6
Continuous
 62
     7
370
     9
100
AcDbLine
 10
234.6858910787748
 20
125.5987605923196
 30
0.0
 11
233.6506148983647
 21
125.5987605923196
 31
0.0
  0
LINE
  5
23C
330
1F
100
AcDbEntity
  8
1
  6
Continuous
 62
     7
370
     9
100
AcDbLine
 10
234.1682529885697
 20
127.0476493317532
 30
0.0
 11
234.4270720336722
 21
126.0817235054642
 31
0.0
  0
LINE
  5
23D
330
1F
100
AcDbEntity
  8
1
  6
Continuous
 62
     7
370
     9
100
AcDbLine
 10
234.1682529885697
 20
127.0476493317532
 30
0.0
 11
233.9094339434672
 21
126.0817235054642
 31
0.0
  0
LINE
  5
23E
330
1F
100
AcDbEntity
  8
1
  6
Continuous
 62
     7
370
     9
100
AcDbLine
 10
234.4270720336722
 20
126.0817235054642
 30
0.0
 11
233.9094339434672
 21
126.0817235054642
 31
0.0
  0
POLYLINE
  5
23F
330
1F
100
AcDbEntity
  8
1
  6
Continuous
 62
     7
370
     9
100
AcDb2dPolyline
 66
     1
 10
0.0
 20
0.0
 30
0.0
  0
VERTEX
  5
241
330
23F
100
AcDbEntity
  8
1
  6
Continuous
 62
     7
370
     9
100
AcDbVertex
100
AcDb2dVertex
 10
234.1682529885697
 20
127.5306122448978
 30
0.0
  0
VERTEX
  5
242
330
23F
100
AcDbEntity
  8
1
  6
Continuous
 62
     7
370
     9
100
AcDbVertex
100
AcDb2dVertex
 10
234.1682529885697
 20
121.331600831601
 30
0.0
  0
SEQEND
  5
240
330
23F
100
AcDbEntity
  8
1
  6
Continuous
370
     9
  0
LINE
  5
243
330
1F
100
AcDbEntity
  8
1
  6
Continuous
 62
     7
370
     9
100
AcDbLine
 10
234.1682529885697
 20
97.53061224489775
 30
0.0
 11
233.6506148983647
 21
99.46246389747589
 31
0.0
  0
LINE
  5
244
330
1F
100
AcDbEntity
  8
1
  6
Continuous
 62
     7
370
     9
100
AcDbLine
 10
234.1682529885697
 20
97.53061224489775
 30
0.0
 11
234.6858910787748
 21
99.46246389747589
 31
0.0
  0
LINE
  5
245
330
1F
100
AcDbEntity
  8
1
  6
Continuous
 62
     7
370
     9
100
AcDbLine
 10
233.6506148983647
 20
99.46246389747589
 30
0.0
 11
234.6858910787748
 21
99.46246389747589
 31
0.0
  0
LINE
  5
246
330
1F
100
AcDbEntity
  8
1
  6
Continuous
 62
     7
370
     9
100
AcDbLine
 10
234.1682529885697
 20
98.01357515804229
 30
0.0
 11
233.9094339434672
 21
98.97950098433135
 31
0.0
  0
LINE
  5
247
330
1F
100
AcDbEntity
  8
1
  6
Continuous
 62
     7
370
     9
100
AcDbLine
 10
234.1682529885697
 20
98.01357515804229
 30
0.0
 11
234.4270720336722
 21
98.97950098433135
 31
0.0
  0
LINE
  5
248
330
1F
100
AcDbEntity
  8
1
  6
Continuous
 62
     7
370
     9
100
AcDbLine
 10
233.9094339434672
 20
98.97950098433135
 30
0.0
 11
234.4270720336722
 21
98.97950098433135
 31
0.0
  0
POLYLINE
  5
249
330
1F
100
AcDbEntity
  8
1
  6
Continuous
 62
     7
370
     9
100
AcDb2dPolyline
 66
     1
 10
0.0
 20
0.0
 30
0.0
  0
VERTEX
  5
24B
330
249
100
AcDbEntity
  8
1
  6
Continuous
 62
     7
370
     9
100
AcDbVertex
100
AcDb2dVertex
 10
234.1682529885697
 20
97.53061224489775
 30
0.0
  0
VERTEX
  5
24C
330
249
100
AcDbEntity
  8
1
  6
Continuous
 62
     7
370
     9
100
AcDbVertex
100
AcDb2dVertex
 10
234.1682529885697
 20
100.1834719334721
 30
0.0
  0
SEQEND
  5
24A
330
249
100
AcDbEntity
  8
1
  6
Continuous
370
     9
  0
LINE
  5
24D
330
1F
100
AcDbEntity
  8
1
  6
Continuous
 62
     7
370
     9
100
AcDbLine
 10
276.7780665280666
 20
67.53061224489775
 30
0.0
 11
277.2957046182716
 21
65.59876059231962
 31
0.0
  0
LINE
  5
24E
330
1F
100
AcDbEntity
  8
1
  6
Continuous
 62
     7
370
     9
100
AcDbLine
 10
276.7780665280666
 20
67.53061224489775
 30
0.0
 11
276.2604284378615
 21
65.59876059231962
 31
0.0
  0
LINE
  5
24F
330
1F
100
AcDbEntity
  8
1
  6
Continuous
 62
     7
370
     9
100
AcDbLine
 10
277.2957046182716
 20
65.59876059231962
 30
0.0
 11
276.2604284378615
 21
65.59876059231962
 31
0.0
  0
LINE
  5
250
330
1F
100
AcDbEntity
  8
1
  6
Continuous
 62
     7
370
     9
100
AcDbLine
 10
276.7780665280666
 20
67.04764933175322
 30
0.0
 11
277.0368855731691
 21
66.08172350546415
 31
0.0
  0
LINE
  5
251
330
1F
100
AcDbEntity
  8
1
  6
Continuous
 62
     7
370
     9
100
AcDbLine
 10
276.7780665280666
 20
67.04764933175322
 30
0.0
 11
276.519247482964
 21
66.08172350546415
 31
0.0
  0
LINE
  5
252
330
1F
100
AcDbEntity
  8
1
  6
Continuous
 62
     7
370
     9
100
AcDbLine
 10
277.0368855731691
 20
66.08172350546415
 30
0.0
 11
276.519247482964
 21
66.08172350546415
 31
0.0
  0
POLYLINE
  5
253
330
1F
100
AcDbEntity
  8
1
  6
Continuous
 62
     7
370
     9
100
AcDb2dPolyline
 66
     1
 10
0.0
 20
0.0
 30
0.0
  0
VERTEX
  5
255
330
253
100
AcDbEntity
  8
1
  6
Continuous
 62
     7
370
     9
100
AcDbVertex
100
AcDb2dVertex
 10
276.7780665280666
 20
67.53061224489775
 30
0.0
  0
VERTEX
  5
256
330
253
100
AcDbEntity
  8
1
  6
Continuous
 62
     7
370
     9
100
AcDbVertex
100
AcDb2dVertex
 10
276.7780665280666
 20
65.60550935550961
 30
0.0
  0
SEQEND
  5
254
330
253
100
AcDbEntity
  8
1
  6
Continuous
370
     9
  0
LINE
  5
257
330
1F
100
AcDbEntity
  8
1
  6
Continuous
 62
     7
370
     9
100
AcDbLine
 10
276.7780665280666
 20
45.53061224489776
 30
0.0
 11
276.2604284378615
 21
47.4624638974759
 31
0.0
  0
LINE
  5
258
330
1F
100
AcDbEntity
  8
1
  6
Continuous
 62
     7
370
     9
100
AcDbLine
 10
276.7780665280666
 20
45.53061224489776
 30
0.0
 11
277.2957046182716
 21
47.4624638974759
 31
0.0
  0
LINE
  5
259
330
1F
100
AcDbEntity
  8
1
  6
Continuous
 62
     7
370
     9
100
AcDbLine
 10
276.2604284378615
 20
47.4624638974759
 30
0.0
 11
277.2957046182716
 21
47.4624638974759
 31
0.0
  0
LINE
  5
25A
330
1F
100
AcDbEntity
  8
1
  6
Continuous
 62
     7
370
     9
100
AcDbLine
 10
276.7780665280666
 20
46.01357515804229
 30
0.0
 11
276.519247482964
 21
46.97950098433136
 31
0.0
  0
LINE
  5
25B
330
1F
100
AcDbEntity
  8
1
  6
Continuous
 62
     7
370
     9
100
AcDbLine
 10
276.7780665280666
 20
46.01357515804229
 30
0.0
 11
277.0368855731691
 21
46.97950098433136
 31
0.0
  0
LINE
  5
25C
330
1F
100
AcDbEntity
  8
1
  6
Continuous
 62
     7
370
     9
100
AcDbLine
 10
276.519247482964
 20
46.97950098433136
 30
0.0
 11
277.0368855731691
 21
46.97950098433136
 31
0.0
  0
POLYLINE
  5
25D
330
1F
100
AcDbEntity
  8
1
  6
Continuous
 62
     7
370
     9
100
AcDb2dPolyline
 66
     1
 10
0.0
 20
0.0
 30
0.0
  0
VERTEX
  5
25F
330
25D
100
AcDbEntity
  8
1
  6
Continuous
 62
     7
370
     9
100
AcDbVertex
100
AcDb2dVertex
 10
276.7780665280666
 20
45.53061224489776
 30
0.0
  0
VERTEX
  5
260
330
25D
100
AcDbEntity
  8
1
  6
Continuous
 62
     7
370
     9
100
AcDbVertex
100
AcDb2dVertex
 10
276.7780665280666
 20
47.69906444906469
 30
0.0
  0
SEQEND
  5
25E
330
25D
100
AcDbEntity
  8
1
  6
Continuous
370
     9
  0
LINE
  5
261
330
1F
100
AcDbEntity
  8
1
  6
Continuous
 62
     7
370
     9
100
AcDbLine
 10
248.2203742203743
 20
127.5306122448978
 30
0.0
 11
248.7380123105794
 21
125.5987605923196
 31
0.0
  0
LINE
  5
262
330
1F
100
AcDbEntity
  8
1
  6
Continuous
 62
     7
370
     9
100
AcDbLine
 10
248.2203742203743
 20
127.5306122448978
 30
0.0
 11
247.7027361301693
 21
125.5987605923196
 31
0.0
  0
LINE
  5
263
330
1F
100
AcDbEntity
  8
1
  6
Continuous
 62
     7
370
     9
100
AcDbLine
 10
248.7380123105794
 20
125.5987605923196
 30
0.0
 11
247.7027361301693
 21
125.5987605923196
 31
0.0
  0
LINE
  5
264
330
1F
100
AcDbEntity
  8
1
  6
Continuous
 62
     7
370
     9
100
AcDbLine
 10
248.2203742203743
 20
127.0476493317532
 30
0.0
 11
248.4791932654768
 21
126.0817235054642
 31
0.0
  0
LINE
  5
265
330
1F
100
AcDbEntity
  8
1
  6
Continuous
 62
     7
370
     9
100
AcDbLine
 10
248.2203742203743
 20
127.0476493317532
 30
0.0
 11
247.9615551752718
 21
126.0817235054642
 31
0.0
  0
LINE
  5
266
330
1F
100
AcDbEntity
  8
1
  6
Continuous
 62
     7
370
     9
100
AcDbLine
 10
248.4791932654768
 20
126.0817235054642
 30
0.0
 11
247.9615551752718
 21
126.0817235054642
 31
0.0
  0
POLYLINE
  5
267
330
1F
100
AcDbEntity
  8
1
  6
Continuous
 62
     7
370
     9
100
AcDb2dPolyline
 66
     1
 10
0.0
 20
0.0
 30
0.0
  0
VERTEX
  5
269
330
267
100
AcDbEntity
  8
1
  6
Continuous
 62
     7
370
     9
100
AcDbVertex
100
AcDb2dVertex
 10
248.2203742203743
 20
127.5306122448978
 30
0.0
  0
VERTEX
  5
26A
330
267
100
AcDbEntity
  8
1
  6
Continuous
 62
     7
370
     9
100
AcDbVertex
100
AcDb2dVertex
 10
248.2203742203743
 20
125.8082120582123
 30
0.0
  0
SEQEND
  5
268
330
267
100
AcDbEntity
  8
1
  6
Continuous
370
     9
  0
LINE
  5
26B
330
1F
100
AcDbEntity
  8
1
  6
Continuous
 62
     7
370
     9
100
AcDbLine
 10
248.2203742203743
 20
67.53061224489784
 30
0.0
 11
247.7027361301693
 21
69.46246389747597
 31
0.0
  0
LINE
  5
26C
330
1F
100
AcDbEntity
  8
1
  6
Continuous
 62
     7
370
     9
100
AcDbLine
 10
248.2203742203743
 20
67.53061224489784
 30
0.0
 11
248.7380123105794
 21
69.46246389747597
 31
0.0
  0
LINE
  5
26D
330
1F
100
AcDbEntity
  8
1
  6
Continuous
 62
     7
370
     9
100
AcDbLine
 10
247.7027361301693
 20
69.46246389747597
 30
0.0
 11
248.7380123105794
 21
69.46246389747597
 31
0.0
  0
LINE
  5
26E
330
1F
100
AcDbEntity
  8
1
  6
Continuous
 62
     7
370
     9
100
AcDbLine
 10
248.2203742203743
 20
68.01357515804237
 30
0.0
 11
247.9615551752718
 21
68.97950098433144
 31
0.0
  0
LINE
  5
26F
330
1F
100
AcDbEntity
  8
1
  6
Continuous
 62
     7
370
     9
100
AcDbLine
 10
248.2203742203743
 20
68.01357515804237
 30
0.0
 11
248.4791932654768
 21
68.97950098433144
 31
0.0
  0
LINE
  5
270
330
1F
100
AcDbEntity
  8
1
  6
Continuous
 62
     7
370
     9
100
AcDbLine
 10
247.9615551752718
 20
68.97950098433144
 30
0.0
 11
248.4791932654768
 21
68.97950098433144
 31
0.0
  0
POLYLINE
  5
271
330
1F
100
AcDbEntity
  8
1
  6
Continuous
 62
     7
370
     9
100
AcDb2dPolyline
 66
     1
 10
0.0
 20
0.0
 30
0.0
  0
VERTEX
  5
273
330
271
100
AcDbEntity
  8
1
  6
Continuous
 62
     7
370
     9
100
AcDbVertex
100
AcDb2dVertex
 10
248.2203742203743
 20
67.53061224489784
 30
0.0
  0
VERTEX
  5
274
330
271
100
AcDbEntity
  8
1
  6
Continuous
 62
     7
370
     9
100
AcDbVertex
100
AcDb2dVertex
 10
248.2203742203743
 20
69.31029106029129
 30
0.0
  0
SEQEND
  5
272
330
271
100
AcDbEntity
  8
1
  6
Continuous
370
     9
  0
LINE
  5
275
330
1F
100
AcDbEntity
  8
1
  6
Continuous
 62
     7
370
     9
100
AcDbLine
 10
83.77727066008741
 20
137.5306122448978
 30
0.0
 11
83.77727066008741
 21
152.9766112266115
 31
0.0
  0
LINE
  5
276
330
1F
100
AcDbEntity
  8
1
  6
Continuous
 62
     7
370
     9
100
AcDbLine
 10
83.77727066008741
 20
162.3307075103961
 30
0.0
 11
83.77727066008741
 21
185.5306122448978
 31
0.0
  0
LINE
  5
277
330
1F
100
AcDbEntity
  8
1
  6
Continuous
 62
     7
370
     9
100
AcDbLine
 10
66.17955756237419
 20
215.5306122448978
 30
0.0
 11
66.17955756237419
 21
96.78742203742232
 31
0.0
  0
LINE
  5
278
330
1F
100
AcDbEntity
  8
1
  6
Continuous
 62
     7
370
     9
100
AcDbLine
 10
66.17955756237419
 20
81.6595634095637
 30
0.0
 11
66.17955756237419
 21
45.53061224489786
 31
0.0
  0
LINE
  5
279
330
1F
100
AcDbEntity
  8
1
  6
Continuous
 62
     7
370
     9
100
AcDbLine
 10
276.7780665280666
 20
67.53061224489775
 30
0.0
 11
276.7780665280666
 21
60.20270270270299
 31
0.0
  0
LINE
  5
27A
330
1F
100
AcDbEntity
  8
1
  6
Continuous
 62
     7
370
     9
100
AcDbLine
 10
276.7780665280666
 20
51.09511434511463
 30
0.0
 11
276.7780665280666
 21
45.53061224489776
 31
0.0
  0
LINE
  5
27B
330
1F
100
AcDbEntity
  8
1
  6
Continuous
 62
     7
370
     9
100
AcDbLine
 10
248.2203742203743
 20
67.53061224489784
 30
0.0
 11
248.2203742203743
 21
89.84095634095662
 31
0.0
  0
LINE
  5
27C
330
1F
100
AcDbEntity
  8
1
  6
Continuous
 62
     7
370
     9
100
AcDbLine
 10
248.2203742203743
 20
101.7271309771313
 30
0.0
 11
248.2203742203743
 21
127.5306122448978
 31
0.0
  0
LINE
  5
27D
330
1F
100
AcDbEntity
  8
1
  6
Continuous
 62
     7
370
     9
100
AcDbLine
 10
234.1682529885697
 20
127.5306122448978
 30
0.0
 11
234.1682529885697
 21
116.0209362006248
 31
0.0
  0
LINE
  5
27E
330
1F
100
AcDbEntity
  8
1
  6
Continuous
 62
     7
370
     9
100
AcDbLine
 10
234.1682529885697
 20
104.9688149688153
 30
0.0
 11
234.1682529885697
 21
99.46246389747589
 31
0.0
  0
LINE
  5
27F
330
1F
100
AcDbEntity
  8
1
  6
Continuous
 62
     7
370
     9
100
AcDbLine
 10
404.3596673596675
 20
108.5306122448979
 30
0.0
 11
386.4261954261943
 21
108.5306122448979
 31
0.0
  0
LINE
  5
280
330
1F
100
AcDbEntity
  8
1
  6
Continuous
 62
     7
370
     9
100
AcDbLine
 10
404.3596673596675
 20
38.53061224489787
 30
0.0
 11
386.4261954261943
 21
38.53061224489787
 31
0.0
  0
LINE
  5
281
330
1F
100
AcDbEntity
  8
1
  6
Continuous
 62
     7
370
     9
100
AcDbLine
 10
386.4261954261943
 20
108.5306122448979
 30
0.0
 11
386.9438335163993
 21
106.5987605923197
 31
0.0
  0
LINE
  5
282
330
1F
100
AcDbEntity
  8
1
  6
Continuous
 62
     7
370
     9
100
AcDbLine
 10
386.4261954261943
 20
108.5306122448979
 30
0.0
 11
385.9085573359893
 21
106.5987605923197
 31
0.0
  0
LINE
  5
283
330
1F
100
AcDbEntity
  8
1
  6
Continuous
 62
     7
370
     9
100
AcDbLine
 10
386.9438335163993
 20
106.5987605923197
 30
0.0
 11
385.9085573359893
 21
106.5987605923197
 31
0.0
  0
LINE
  5
284
330
1F
100
AcDbEntity
  8
1
  6
Continuous
 62
     7
370
     9
100
AcDbLine
 10
386.4261954261943
 20
108.0476493317533
 30
0.0
 11
386.6850144712968
 21
107.0817235054643
 31
0.0
  0
LINE
  5
285
330
1F
100
AcDbEntity
  8
1
  6
Continuous
 62
     7
370
     9
100
AcDbLine
 10
386.4261954261943
 20
108.0476493317533
 30
0.0
 11
386.1673763810917
 21
107.0817235054643
 31
0.0
  0
LINE
  5
286
330
1F
100
AcDbEntity
  8
1
  6
Continuous
 62
     7
370
     9
100
AcDbLine
 10
386.6850144712968
 20
107.0817235054643
 30
0.0
 11
386.1673763810917
 21
107.0817235054643
 31
0.0
  0
POLYLINE
  5
287
330
1F
100
AcDbEntity
  8
1
  6
Continuous
 62
     7
370
     9
100
AcDb2dPolyline
 66
     1
 10
0.0
 20
0.0
 30
0.0
  0
VERTEX
  5
289
330
287
100
AcDbEntity
  8
1
  6
Continuous
 62
     7
370
     9
100
AcDbVertex
100
AcDb2dVertex
 10
386.4261954261943
 20
108.5306122448979
 30
0.0
  0
VERTEX
  5
28A
330
287
100
AcDbEntity
  8
1
  6
Continuous
 62
     7
370
     9
100
AcDbVertex
100
AcDb2dVertex
 10
386.4261954261943
 20
99.72037422037465
 30
0.0
  0
SEQEND
  5
288
330
287
100
AcDbEntity
  8
1
  6
Continuous
370
     9
  0
LINE
  5
28B
330
1F
100
AcDbEntity
  8
1
  6
Continuous
 62
     7
370
     9
100
AcDbLine
 10
386.4261954261943
 20
38.53061224489787
 30
0.0
 11
385.9085573359893
 21
40.46246389747601
 31
0.0
  0
LINE
  5
28C
330
1F
100
AcDbEntity
  8
1
  6
Continuous
 62
     7
370
     9
100
AcDbLine
 10
386.4261954261943
 20
38.53061224489787
 30
0.0
 11
386.9438335163993
 21
40.46246389747601
 31
0.0
  0
LINE
  5
28D
330
1F
100
AcDbEntity
  8
1
  6
Continuous
 62
     7
370
     9
100
AcDbLine
 10
385.9085573359893
 20
40.46246389747601
 30
0.0
 11
386.9438335163993
 21
40.46246389747601
 31
0.0
  0
LINE
  5
28E
330
1F
100
AcDbEntity
  8
1
  6
Continuous
 62
     7
370
     9
100
AcDbLine
 10
386.4261954261943
 20
39.0135751580424
 30
0.0
 11
386.1673763810917
 21
39.97950098433147
 31
0.0
  0
LINE
  5
28F
330
1F
100
AcDbEntity
  8
1
  6
Continuous
 62
     7
370
     9
100
AcDbLine
 10
386.4261954261943
 20
39.0135751580424
 30
0.0
 11
386.6850144712968
 21
39.97950098433147
 31
0.0
  0
LINE
  5
290
330
1F
100
AcDbEntity
  8
1
  6
Continuous
 62
     7
370
     9
100
AcDbLine
 10
386.1673763810917
 20
39.97950098433147
 30
0.0
 11
386.6850144712968
 21
39.97950098433147
 31
0.0
  0
POLYLINE
  5
291
330
1F
100
AcDbEntity
  8
1
  6
Continuous
 62
     7
370
     9
100
AcDb2dPolyline
 66
     1
 10
0.0
 20
0.0
 30
0.0
  0
VERTEX
  5
293
330
291
100
AcDbEntity
  8
1
  6
Continuous
 62
     7
370
     9
100
AcDbVertex
100
AcDb2dVertex
 10
386.4261954261943
 20
38.53061224489787
 30
0.0
  0
VERTEX
  5
294
330
291
100
AcDbEntity
  8
1
  6
Continuous
 62
     7
370
     9
100
AcDbVertex
100
AcDb2dVertex
 10
386.4261954261943
 20
40.90696465696514
 30
0.0
  0
SEQEND
  5
292
330
291
100
AcDbEntity
  8
1
  6
Continuous
370
     9
  0
LINE
  5
295
330
1F
100
AcDbEntity
  8
1
  6
Continuous
 62
     7
370
     9
100
AcDbLine
 10
386.4261954261943
 20
108.5306122448979
 30
0.0
 11
386.4261954261943
 21
76.81199649168515
 31
0.0
  0
LINE
  5
296
330
1F
100
AcDbEntity
  8
1
  6
Continuous
 62
     7
370
     9
100
AcDbLine
 10
386.4261954261943
 20
66.31199649168515
 30
0.0
 11
386.4261954261943
 21
38.53061224489787
 31
0.0
  0
DIMENSION
  5
2AA
330
1F
100
AcDbEntity
  8
1
  6
Continuous
 62
     7
370
     9
100
AcDbDimension
  2
Dim1
 10
101.9974012474011
 20
22.27788786382632
 30
0.0
 11
181.997401400482
 21
25.77788786382632
 31
0.0
 70
   160
  1
<>
 71
     5
 42
-1.0
 73
     0
 74
     0
 75
     0
  3
Standard
100
AcDbAlignedDimension
 13
101.9974012474013
 23
45.53061224489784
 33
0.0
 14
261.997401553563
 24
45.53061224489784
 34
0.0
100
AcDbRotatedDimension
1001
ACAD
1000
DSTYLE
1002
{
1070
   344
1005
0
1070
   343
1005
0
1070
   173
1070
     1
1070
   289
1070
     2
1070
   279
1070
     2
1070
   288
1070
     1
1070
    77
1070
     3
1070
   172
1070
     1
1070
   174
1070
     0
1070
    74
1070
     0
1070
    73
1070
     0
1070
   284
1070
     8
1070
    78
1070
     8
1070
   140
1040
4.0
1070
    40
1040
2.0
1070
    42
1040
4.0
1070
    44
1040
0.0
1070
    43
1040
10.0
1070
   271
1070
     2
1070
    41
1040
4.0
1002
}
  0
DIMENSION
  5
2BE
330
1F
100
AcDbEntity
  8
1
  6
Continuous
 62
     7
370
     9
100
AcDbDimension
  2
Dim2
 10
178.1803496140543
 20
139.0327343436067
 30
0.0
 11
241.7001865290303
 21
187.7825140379894
 31
0.0
 70
   160
  1
<>
 71
     5
 42
-1.0
 73
     0
 74
     0
 75
     0
  3
Standard
100
AcDbAlignedDimension
 13
162.7948011645001
 23
161.0055746944722
 33
0.0
 14
293.8495100489095
 24
252.7710697732148
 34
0.0
 50
35.00000000000003
100
AcDbRotatedDimension
1001
ACAD
1000
DSTYLE
1002
{
1070
   344
1005
0
1070
   343
1005
0
1070
   173
1070
     1
1070
   289
1070
     2
1070
   279
1070
     2
1070
   288
1070
     1
1070
    77
1070
     3
1070
   172
1070
     1
1070
   174
1070
     0
1070
    74
1070
     0
1070
    73
1070
     0
1070
   284
1070
     8
1070
    78
1070
     8
1070
   140
1040
4.0
1070
    40
1040
2.0
1070
    42
1040
4.0
1070
    44
1040
0.0
1070
    43
1040
10.0
1070
   271
1070
     2
1070
    41
1040
4.0
1002
}
  0
DIMENSION
  5
2D2
330
1F
100
AcDbEntity
  8
1
  6
Continuous
 62
     7
370
     9
100
AcDbDimension
  2
Dim3
 10
129.997401553563
 20
74.02905730249591
 30
0.0
 11
160.9974015535629
 21
77.52905730249591
 31
0.0
 70
   160
  1
<>
 71
     5
 42
-1.0
 73
     0
 74
     0
 75
     0
  3
Standard
100
AcDbAlignedDimension
 13
129.997401553563
 23
80.51242528586391
 33
0.0
 14
191.997401553563
 24
97.53061224489784
 34
0.0
100
AcDbRotatedDimension
1001
ACAD
1000
DSTYLE
1002
{
1070
   344
1005
0
1070
   343
1005
0
1070
   173
1070
     1
1070
   289
1070
     2
1070
   279
1070
     2
1070
   288
1070
     1
1070
    77
1070
     3
1070
   172
1070
     1
1070
   174
1070
     0
1070
    74
1070
     0
1070
    73
1070
     0
1070
   284
1070
     8
1070
    78
1070
     8
1070
   140
1040
4.0
1070
    40
1040
2.0
1070
    42
1040
4.0
1070
    44
1040
0.0
1070
    43
1040
10.0
1070
   271
1070
     2
1070
    41
1040
4.0
1002
}
  0
DIMENSION
  5
2E6
330
1F
100
AcDbEntity
  8
1
  6
Continuous
 62
     7
370
     9
100
AcDbDimension
  2
Dim4
 10
161.2502599521866
 20
278.139374350313
 30
0.0
 11
165.2502599521866
 21
281.639374350313
 31
0.0
 70
   160
  1
<>
 71
     5
 42
-1.0
 73
     0
 74
     0
 75
     0
  3
Standard
100
AcDbAlignedDimension
 13
161.2502599521866
 23
260.2522251819138
 33
0.0
 14
169.2502599521866
 24
260.1943379677766
 34
0.0
100
AcDbRotatedDimension
1001
ACAD
1000
DSTYLE
1002
{
1070
   344
1005
0
1070
   343
1005
0
1070
   173
1070
     1
1070
   289
1070
     2
1070
   279
1070
     2
1070
   288
1070
     1
1070
    77
1070
     3
1070
   172
1070
     1
1070
   174
1070
     0
1070
    74
1070
     0
1070
    73
1070
     0
1070
   284
1070
     8
1070
    78
1070
     8
1070
   140
1040
4.0
1070
    40
1040
2.0
1070
    42
1040
4.0
1070
    44
1040
0.0
1070
    43
1040
10.0
1070
   271
1070
     2
1070
    41
1040
4.0
1002
}
  0
DIMENSION
  5
2FA
330
1F
100
AcDbEntity
  8
1
  6
Continuous
 62
     7
370
     9
100
AcDbDimension
  2
Dim5
 10
109.997401553563
 20
241.4126851611237
 30
0.0
 11
119.997401553563
 21
244.9126851611237
 31
0.0
 70
   160
  1
<>
 71
     5
 42
-1.0
 73
     0
 74
     0
 75
     0
  3
Standard
100
AcDbAlignedDimension
 13
109.997401553563
 23
205.9829927263544
 33
0.0
 14
129.997401553563
 24
205.9829927263544
 34
0.0
100
AcDbRotatedDimension
1001
ACAD
1000
DSTYLE
1002
{
1070
   344
1005
0
1070
   343
1005
0
1070
   173
1070
     1
1070
   289
1070
     2
1070
   279
1070
     2
1070
   288
1070
     1
1070
    77
1070
     3
1070
   172
1070
     1
1070
   174
1070
     0
1070
    74
1070
     0
1070
    73
1070
     0
1070
   284
1070
     8
1070
    78
1070
     8
1070
   140
1040
4.0
1070
    40
1040
2.0
1070
    42
1040
4.0
1070
    44
1040
0.0
1070
    43
1040
10.0
1070
   271
1070
     2
1070
    41
1040
4.0
1002
}
  0
DIMENSION
  5
30E
330
1F
100
AcDbEntity
  8
1
  6
Continuous
 62
     7
370
     9
100
AcDbDimension
  2
Dim6
 10
412.3596673596673
 20
15.27788786382641
 30
0.0
 11
472.3596673596673
 21
18.77788786382641
 31
0.0
 70
   160
  1
<>
 71
     5
 42
-1.0
 73
     0
 74
     0
 75
     0
  3
Standard
100
AcDbAlignedDimension
 13
412.3596673596675
 23
38.53061224489784
 33
0.0
 14
532.3596673596676
 24
38.53061224489784
 34
0.0
100
AcDbRotatedDimension
1001
ACAD
1000
DSTYLE
1002
{
1070
   344
1005
0
1070
   343
1005
0
1070
   173
1070
     1
1070
   289
1070
     2
1070
   279
1070
     2
1070
   288
1070
     1
1070
    77
1070
     3
1070
   172
1070
     1
1070
   174
1070
     0
1070
    74
1070
     0
1070
    73
1070
     0
1070
   284
1070
     8
1070
    78
1070
     8
1070
   140
1040
4.0
1070
    40
1040
2.0
1070
    42
1040
4.0
1070
    44
1040
0.0
1070
    43
1040
10.0
1070
   271
1070
     2
1070
    41
1040
4.0
1002
}
  0
DIMENSION
  5
322
330
1F
100
AcDbEntity
  8
1
  6
Continuous
 62
     7
370
     9
100
AcDbDimension
  2
Dim7
 10
432.3596673596673
 20
80.12603950103896
 30
0.0
 11
472.3596673596672
 21
83.62603950103896
 31
0.0
 70
   160
  1
<>
 71
     5
 42
-1.0
 73
     0
 74
     0
 75
     0
  3
Standard
100
AcDbAlignedDimension
 13
432.3596673596675
 23
108.5306122448978
 33
0.0
 14
512.3596673596674
 24
108.5306122448978
 34
0.0
100
AcDbRotatedDimension
1001
ACAD
1000
DSTYLE
1002
{
1070
   344
1005
0
1070
   343
1005
0
1070
   173
1070
     1
1070
   289
1070
     2
1070
   279
1070
     2
1070
   288
1070
     1
1070
    77
1070
     3
1070
   172
1070
     1
1070
   174
1070
     0
1070
    74
1070
     0
1070
    73
1070
     0
1070
   284
1070
     8
1070
    78
1070
     8
1070
   140
1040
4.0
1070
    40
1040
2.0
1070
    42
1040
4.0
1070
    44
1040
0.0
1070
    43
1040
10.0
1070
   271
1070
     2
1070
    41
1040
4.0
1002
}
  0
DIMENSION
  5
336
330
1F
100
AcDbEntity
  8
1
  6
Continuous
 62
     7
370
     9
100
AcDbDimension
  2
Dim8
 10
399.494136564456
 20
212.1595146829534
 30
0.0
 11
419.494136564456
 21
215.6595146829534
 31
0.0
 70
   160
  1
20φ
 71
     5
 42
-1.0
 73
     0
 74
     0
 75
     0
  3
Standard
100
AcDbAlignedDimension
 13
399.4941365644564
 23
255.0973557692335
 33
0.0
 14
439.4941365644564
 24
255.0973557692335
 34
0.0
100
AcDbRotatedDimension
1001
ACAD
1000
DSTYLE
1002
{
1070
   344
1005
0
1070
   343
1005
0
1070
   173
1070
     1
1070
   289
1070
     2
1070
   279
1070
     2
1070
   288
1070
     1
1070
    77
1070
     3
1070
   172
1070
     1
1070
   174
1070
     0
1070
    74
1070
     0
1070
    73
1070
     0
1070
   284
1070
     8
1070
    78
1070
     8
1070
   140
1040
4.0
1070
    40
1040
2.0
1070
    42
1040
4.0
1070
    44
1040
0.0
1070
    43
1040
10.0
1070
   271
1070
     2
1070
    41
1040
4.0
1002
}
  0
DIMENSION
  5
34A
330
1F
100
AcDbEntity
  8
1
  6
Continuous
 62
     7
370
     9
100
AcDbDimension
  2
Dim9
 10
240.5122411497973
 20
226.0197067993335
 30
0.0
 11
246.8207319229151
 21
223.1123120608283
 31
0.0
 70
   160
  1
<>
 71
     5
 42
-1.0
 73
     0
 74
     0
 75
     0
  3
Standard
100
AcDbAlignedDimension
 13
240.7468299577806
 23
226.183967651063
 33
0.0
 14
247.6297471939927
 24
216.3541431195948
 34
0.0
 50
-54.99999999999908
100
AcDbRotatedDimension
1001
ACAD
1000
DSTYLE
1002
{
1070
   344
1005
0
1070
   343
1005
0
1070
   173
1070
     1
1070
   289
1070
     2
1070
   279
1070
     2
1070
   288
1070
     1
1070
    77
1070
     3
1070
   172
1070
     1
1070
   174
1070
     0
1070
    74
1070
     0
1070
    73
1070
     0
1070
   284
1070
     8
1070
    78
1070
     8
1070
   140
1040
4.0
1070
    40
1040
2.0
1070
    42
1040
4.0
1070
    44
1040
0.0
1070
    43
1040
10.0
1070
   271
1070
     2
1070
    41
1040
4.0
1002
}
  0
TEXT
  5
34B
330
1F
100
AcDbEntity
  8
1
  6
Continuous
 62
     7
370
     9
100
AcDbText
 10
57.89686200624542
 20
85.71168464137322
 30
0.0
 40
7.0
  1
170
 41
0.5
100
AcDbText
  0
TEXT
  5
34C
330
1F
100
AcDbEntity
  8
1
  6
Continuous
 62
     7
370
     9
100
AcDbText
 10
77.9210141632144
 20
155.3307075103961
 30
0.0
 40
7.0
  1
48
 41
0.5
100
AcDbText
  0
TEXT
  5
34D
330
1F
100
AcDbEntity
  8
1
  6
Continuous
 62
     7
370
     9
100
AcDbText
 10
238.4712025727695
 20
92.96688214657075
 30
0.0
 40
7.0
  1
最大100
 41
0.7
100
AcDbText
  0
TEXT
  5
34E
330
1F
100
AcDbEntity
  8
1
  6
Continuous
 62
     7
370
     9
100
AcDbText
 10
229.2767833939837
 20
108.5578384875271
 30
0.0
 40
7.0
  1
30
 41
0.5
100
AcDbText
  0
TEXT
  5
34F
330
1F
100
AcDbEntity
  8
1
  6
Continuous
 62
     7
370
     9
100
AcDbText
 10
380.5699389293213
 20
69.81199649168515
 30
0.0
 40
7.0
  1
70
 41
0.5
100
AcDbText
  0
TEXT
  5
350
330
1F
100
AcDbEntity
  8
1
  6
Continuous
 62
     7
370
     9
100
AcDbText
 10
242.7838000260003
 20
131.1724434771321
 30
0.0
 40
7.0
  1
10
 41
0.5
100
AcDbText
  0
TEXT
  5
351
330
1F
100
AcDbEntity
  8
1
  6
Continuous
 62
     7
370
     9
100
AcDbText
 10
360.9074844074847
 20
215.8271829521829
 30
0.0
 40
7.0
  1
10φ+0.02
 41
0.5625
100
AcDbText
  0
TEXT
  5
352
330
1F
100
AcDbEntity
  8
1
  6
Continuous
 62
     7
370
     9
100
AcDbText
 10
360.8495971933475
 20
204.8821628118514
 30
0.0
 40
7.0
  1
　　-0
 41
0.75
100
AcDbText
  0
LINE
  5
353
330
1F
100
AcDbEntity
  8
1
  6
Continuous
 62
     7
370
     9
100
AcDbLine
 10
382.9046257796255
 20
231.1243503118502
 30
0.0
 11
419.5665280665282
 21
235.9482848232848
 31
0.0
  0
LINE
  5
354
330
1F
100
AcDbEntity
  8
1
  6
Continuous
 62
     7
370
     9
100
AcDbLine
 10
382.9046257796255
 20
223.7919698544699
 30
0.0
 11
382.9046257796255
 21
231.1243503118502
 31
0.0
  0
POLYLINE
  5
355
330
1F
100
AcDbEntity
  8
1
  6
Continuous
 62
     7
370
     9
100
AcDb2dPolyline
 66
     1
 10
0.0
 20
0.0
 30
0.0
  0
VERTEX
  5
357
330
355
100
AcDbEntity
  8
1
  6
Continuous
 62
     7
370
     9
100
AcDbVertex
100
AcDb2dVertex
 10
512.3596673596676
 20
108.5306122448978
 30
0.0
  0
VERTEX
  5
358
330
355
100
AcDbEntity
  8
1
  6
Continuous
 62
     7
370
     9
100
AcDbVertex
100
AcDb2dVertex
 10
536.9329521829507
 20
85.10433991683936
 30
0.0
  0
VERTEX
  5
359
330
355
100
AcDbEntity
  8
1
  6
Continuous
 62
     7
370
     9
100
AcDbVertex
100
AcDb2dVertex
 10
554.8258835758822
 20
85.10433991683936
 30
0.0
  0
SEQEND
  5
356
330
355
100
AcDbEntity
  8
1
  6
Continuous
370
     9
  0
TEXT
  5
35A
330
1F
100
AcDbEntity
  8
1
  6
Continuous
 62
     7
370
     9
100
AcDbText
 10
547.8258835758822
 20
86.49363305613251
 30
0.0
 40
7.0
  1
M6
 41
0.5
100
AcDbText
  0
DIMENSION
  5
36E
330
1F
100
AcDbEntity
  8
1
  6
Continuous
 62
     7
370
     9
100
AcDbDimension
  2
Dim10
 10
464.101091476091
 20
267.097355769233
 30
0.0
 11
460.601091476091
 21
261.0973557692331
 31
0.0
 70
   160
  1
6
 71
     5
 42
-1.0
 73
     0
 74
     0
 75
     0
  3
Standard
100
AcDbAlignedDimension
 13
439.4941365644564
 23
267.0973557692334
 33
0.0
 14
439.4941365644564
 24
255.0973557692335
 34
0.0
 50
89.99999999999991
100
AcDbRotatedDimension
1001
ACAD
1000
DSTYLE
1002
{
1070
   344
1005
0
1070
   343
1005
0
1070
   173
1070
     1
1070
   289
1070
     2
1070
   279
1070
     2
1070
   288
1070
     1
1070
    77
1070
     3
1070
   172
1070
     1
1070
   174
1070
     0
1070
    74
1070
     0
1070
    73
1070
     0
1070
   284
1070
     8
1070
    78
1070
     8
1070
   140
1040
4.0
1070
    40
1040
2.0
1070
    42
1040
4.0
1070
    44
1040
0.0
1070
    43
1040
10.0
1070
   271
1070
     2
1070
    41
1040
4.0
1002
}
  0
POLYLINE
  5
36F
330
1F
100
AcDbEntity
  8
1
  6
Continuous
 62
     7
370
     9
100
AcDb2dPolyline
 66
     1
 10
0.0
 20
0.0
 30
0.0
  0
VERTEX
  5
371
330
36F
100
AcDbEntity
  8
1
  6
Continuous
 62
     7
370
     9
100
AcDbVertex
100
AcDb2dVertex
 10
439.4941365644564
 20
268.0563929313931
 30
0.0
  0
VERTEX
  5
372
330
36F
100
AcDbEntity
  8
1
  6
Continuous
 62
     7
370
     9
100
AcDbVertex
100
AcDb2dVertex
 10
462.403066528066
 20
277.9358108108109
 30
0.0
  0
VERTEX
  5
373
330
36F
100
AcDbEntity
  8
1
  6
Continuous
 62
     7
370
     9
100
AcDbVertex
100
AcDb2dVertex
 10
471.3058731808727
 20
277.9358108108109
 30
0.0
  0
SEQEND
  5
370
330
36F
100
AcDbEntity
  8
1
  6
Continuous
370
     9
  0
TEXT
  5
374
330
1F
100
AcDbEntity
  8
1
  6
Continuous
 62
     7
370
     9
100
AcDbText
 10
464.3058731808727
 20
278.3989085239087
 30
0.0
 40
7.0
  1
M5
 41
0.5
100
AcDbText
  0
TEXT
  5
375
330
1F
100
AcDbEntity
  8
1
  6
Continuous
 62
     7
370
     9
100
AcDbText
 10
268.4953709719378
 20
53.75794243763102
 30
0.0
 40
7.0
  1
22±1
 41
0.625
100
AcDbText
  0
VIEWPORT
  5
3B
330
1B
100
AcDbEntity
 67
     1
  8
0
100
AcDbViewport
 10
297.0
 20
210.0
 30
0.0
 40
594.0
 41
420.0
 68
     1
 69
     1
 12
297.0
 22
210.0
 13
0.0
 23
0.0
 14
0.5
 24
0.5
 15
0.5
 25
0.5
 16
0.0
 26
0.0
 36
1.0
 17
0.0
 27
0.0
 37
0.0
 42
50.0
 43
0.0
 44
0.0
 45
9.0
 50
0.0
 51
0.0
 72
   100
 90
   557152
  1

281
     0
 71
     1
 74
     0
110
0.0
120
0.0
130
0.0
111
1.0
121
0.0
131
0.0
112
0.0
122
1.0
132
0.0
 79
     0
146
0.0
170
     0
 61
     5
292
     1
282
     1
141
0.0
142
0.0
 63
   256
  0
ENDSEC
  0
SECTION
  2
OBJECTS
  0
DICTIONARY
  5
C
330
0
100
AcDbDictionary
281
     1
  3
ACAD_GROUP
350
D
  3
ACAD_LAYOUT
350
1A
  3
ACAD_MLINESTYLE
350
17
  3
ACAD_PLOTSETTINGS
350
19
  3
ACAD_PLOTSTYLENAME
350
E
  3
ACAD_TABLESTYLE
350
376
  3
ACAD_VISUALSTYLE
350
2A
  0
DICTIONARY
  5
D
102
{ACAD_REACTORS
330
C
102
}
330
C
100
AcDbDictionary
281
     1
  0
DICTIONARY
  5
1A
102
{ACAD_REACTORS
330
C
102
}
330
C
100
AcDbDictionary
281
     1
  3
Layout1
350
1E
  3
Layout2
350
26
  3
Model
350
22
  0
DICTIONARY
  5
17
102
{ACAD_REACTORS
330
C
102
}
330
C
100
AcDbDictionary
281
     1
  3
Standard
350
18
  0
DICTIONARY
  5
19
102
{ACAD_REACTORS
330
C
102
}
330
C
100
AcDbDictionary
281
     1
  0
ACDBDICTIONARYWDFLT
  5
E
102
{ACAD_REACTORS
330
C
102
}
330
C
100
AcDbDictionary
281
     1
  3
Normal
350
F
100
AcDbDictionaryWithDefault
340
F
  0
DICTIONARY
  5
376
102
{ACAD_REACTORS
330
C
102
}
330
C
100
AcDbDictionary
281
     1
  0
DICTIONARY
  5
2A
102
{ACAD_REACTORS
330
C
102
}
330
C
100
AcDbDictionary
281
     1
  3
2dWireframe
350
2F
  3
3D Hidden
350
31
  3
3dWireframe
350
30
  3
Basic
350
32
  3
Brighten
350
36
  3
ColorChange
350
3A
  3
Conceptual
350
34
  3
Dim
350
35
  3
Facepattern
350
39
  3
Flat
350
2B
  3
FlatWithEdges
350
2C
  3
Gouraud
350
2D
  3
GouraudWithEdges
350
2E
  3
Linepattern
350
38
  3
Realistic
350
33
  3
Thicken
350
37
  0
LAYOUT
  5
1E
102
{ACAD_REACTORS
330
1A
102
}
330
1A
100
AcDbPlotSettings
  1

  2
none_device
  4

  6

 40
0.0
 41
0.0
 42
0.0
 43
0.0
 44
0.0
 45
0.0
 46
0.0
 47
0.0
 48
0.0
 49
0.0
140
0.0
141
0.0
142
1.0
143
1.0
 70
   688
 72
     0
 73
     0
 74
     5
  7

 75
    16
 76
     0
 77
     2
 78
   300
147
1.0
148
0.0
149
0.0
100
AcDbLayout
  1
Layout1
 70
     1
 71
     1
 10
0.0
 20
0.0
 11
297.0
 21
210.0
 12
0.0
 22
0.0
 32
0.0
 14
0.0
 24
0.0
 34
0.0
 15
297.0
 25
210.0
 35
0.0
146
0.0
 13
0.0
 23
0.0
 33
0.0
 16
1.0
 26
0.0
 36
0.0
 17
0.0
 27
1.0
 37
0.0
 76
     0
330
1B
331
3B
  0
LAYOUT
  5
26
102
{ACAD_REACTORS
330
1A
102
}
330
1A
100
AcDbPlotSettings
  1

  2
none_device
  4

  6

 40
0.0
 41
0.0
 42
0.0
 43
0.0
 44
0.0
 45
0.0
 46
0.0
 47
0.0
 48
0.0
 49
0.0
140
0.0
141
0.0
142
1.0
143
1.0
 70
   688
 72
     0
 73
     0
 74
     5
  7

 75
    16
 76
     0
 77
     2
 78
   300
147
1.0
148
0.0
149
0.0
100
AcDbLayout
  1
Layout2
 70
     1
 71
     2
 10
0.0
 20
0.0
 11
0.0
 21
0.0
 12
0.0
 22
0.0
 32
0.0
 14
0.0
 24
0.0
 34
0.0
 15
0.0
 25
0.0
 35
0.0
146
0.0
 13
0.0
 23
0.0
 33
0.0
 16
1.0
 26
0.0
 36
0.0
 17
0.0
 27
1.0
 37
0.0
 76
     0
330
23
  0
LAYOUT
  5
22
102
{ACAD_REACTORS
330
1A
102
}
330
1A
100
AcDbPlotSettings
  1

  2
none_device
  4

  6

 40
0.0
 41
0.0
 42
0.0
 43
0.0
 44
0.0
 45
0.0
 46
0.0
 47
0.0
 48
0.0
 49
0.0
140
0.0
141
0.0
142
1.0
143
1.0
 70
  1712
 72
     0
 73
     0
 74
     0
  7

 75
     0
 76
     0
 77
     2
 78
   300
147
1.0
148
0.0
149
0.0
100
AcDbLayout
  1
Model
 70
     1
 71
     0
 10
0.0
 20
0.0
 11
594.0
 21
420.0
 12
0.0
 22
0.0
 32
0.0
 14
0.0
 24
0.0
 34
0.0
 15
594.0
 25
420.0
 35
0.0
146
0.0
 13
0.0
 23
0.0
 33
0.0
 16
1.0
 26
0.0
 36
0.0
 17
0.0
 27
1.0
 37
0.0
 76
     0
330
1F
331
29
  0
MLINESTYLE
  5
18
102
{ACAD_REACTORS
330
17
102
}
330
17
100
AcDbMlineStyle
  2
Standard
 70
     0
  3

 62
   256
 51
90.0
 52
90.0
 71
     2
 49
0.5
 62
   256
  6
BYLAYER
 49
-0.5
 62
   256
  6
BYLAYER
  0
ACDBPLACEHOLDER
  5
F
102
{ACAD_REACTORS
330
E
102
}
330
E
  0
VISUALSTYLE
  5
2F
102
{ACAD_REACTORS
330
2A
102
}
330
2A
100
AcDbVisualStyle
  2
2dWireframe
 70
     4
 71
     0
 72
     2
 73
     0
 90
        0
 40
-0.6
 41
-30.0
 62
     5
 63
     7
421
 16777215
 74
     1
 91
        4
 64
     7
 65
   257
 75
     1
175
     1
 42
1.0
 92
        0
 66
   257
 43
1.0
 76
     1
 77
     6
 78
     2
 67
     7
 79
     5
170
     0
171
     0
290
     0
174
     0
 93
        1
 44
0.0
173
     0
291
     0
 45
0.0
  0
VISUALSTYLE
  5
31
102
{ACAD_REACTORS
330
2A
102
}
330
2A
100
AcDbVisualStyle
  2
3D Hidden
 70
     6
 71
     1
 72
     2
 73
     2
 90
        0
 40
-0.6
 41
-30.0
 62
     5
 63
     7
421
 16777215
 74
     2
 91
        2
 64
     7
 65
   257
 75
     2
175
     1
 42
40.0
 92
        0
 66
   257
 43
1.0
 76
     1
 77
     6
 78
     2
 67
     7
 79
     3
170
     0
171
     0
290
     0
174
     0
 93
        1
 44
0.0
173
     0
291
     0
 45
0.0
  0
VISUALSTYLE
  5
30
102
{ACAD_REACTORS
330
2A
102
}
330
2A
100
AcDbVisualStyle
  2
3dWireframe
 70
     5
 71
     0
 72
     2
 73
     0
 90
        0
 40
-0.6
 41
-30.0
 62
     5
 63
     7
421
 16777215
 74
     1
 91
        4
 64
     7
 65
   257
 75
     1
175
     1
 42
1.0
 92
        0
 66
   257
 43
1.0
 76
     1
 77
     6
 78
     2
 67
     7
 79
     5
170
     0
171
     0
290
     0
174
     0
 93
        1
 44
0.0
173
     0
291
     0
 45
0.0
  0
VISUALSTYLE
  5
32
102
{ACAD_REACTORS
330
2A
102
}
330
2A
100
AcDbVisualStyle
  2
Basic
 70
     7
 71
     1
 72
     0
 73
     1
 90
        0
 40
-0.6
 41
-30.0
 62
     5
 63
     7
421
 16777215
 74
     0
 91
        4
 64
     7
 65
   257
 75
     1
175
     1
 42
1.0
 92
        8
 66
     7
 43
1.0
 76
     1
 77
     6
 78
     2
 67
     7
 79
     5
170
     0
171
     0
290
     0
174
     0
 93
        1
 44
0.0
173
     0
291
     1
 45
0.0
  0
VISUALSTYLE
  5
36
102
{ACAD_REACTORS
330
2A
102
}
330
2A
100
AcDbVisualStyle
  2
Brighten
 70
    12
 71
     2
 72
     2
 73
     0
 90
        0
 40
-0.6
 41
-30.0
 62
     5
 63
     7
421
 16777215
 74
     1
 91
        4
 64
     7
 65
   257
 75
     1
175
     1
 42
1.0
 92
        8
 66
     7
 43
1.0
 76
     1
 77
     6
 78
     2
 67
     7
 79
     5
170
     0
171
     0
290
     0
174
     0
 93
        1
 44
50.0
173
     0
291
     1
 45
0.0
  0
VISUALSTYLE
  5
3A
102
{ACAD_REACTORS
330
2A
102
}
330
2A
100
AcDbVisualStyle
  2
ColorChange
 70
    16
 71
     2
 72
     2
 73
     3
 90
        0
 40
-0.6
 41
-30.0
 62
     5
 63
     8
421
  8421504
 74
     1
 91
        4
 64
     7
 65
   257
 75
     1
175
     1
 42
1.0
 92
        8
 66
     8
424
  8421504
 43
1.0
 76
     1
 77
     6
 78
     2
 67
     7
 79
     5
170
     0
171
     0
290
     0
174
     0
 93
        1
 44
0.0
173
     0
291
     1
 45
0.0
  0
VISUALSTYLE
  5
34
102
{ACAD_REACTORS
330
2A
102
}
330
2A
100
AcDbVisualStyle
  2
Conceptual
 70
     9
 71
     3
 72
     2
 73
     0
 90
        0
 40
-0.6
 41
-30.0
 62
     5
 63
     7
421
 16777215
 74
     2
 91
        2
 64
     7
 65
   257
 75
     1
175
     1
 42
40.0
 92
        8
 66
     7
 43
1.0
 76
     1
 77
     6
 78
     2
 67
     7
 79
     3
170
     0
171
     0
290
     0
174
     0
 93
        1
 44
0.0
173
     0
291
     0
 45
0.0
  0
VISUALSTYLE
  5
35
102
{ACAD_REACTORS
330
2A
102
}
330
2A
100
AcDbVisualStyle
  2
Dim
 70
    11
 71
     2
 72
     2
 73
     0
 90
        0
 40
-0.6
 41
-30.0
 62
     5
 63
     7
421
 16777215
 74
     1
 91
        4
 64
     7
 65
   257
 75
     1
175
     1
 42
1.0
 92
        8
 66
     7
 43
1.0
 76
     1
 77
     6
 78
     2
 67
     7
 79
     5
170
     0
171
     0
290
     0
174
     0
 93
        1
 44
-50.0
173
     0
291
     1
 45
0.0
  0
VISUALSTYLE
  5
39
102
{ACAD_REACTORS
330
2A
102
}
330
2A
100
AcDbVisualStyle
  2
Facepattern
 70
    15
 71
     2
 72
     2
 73
     0
 90
        0
 40
-0.6
 41
-30.0
 62
     5
 63
     7
421
 16777215
 74
     1
 91
        4
 64
     7
 65
   257
 75
     1
175
     1
 42
1.0
 92
        8
 66
     7
 43
1.0
 76
     1
 77
     6
 78
     2
 67
     7
 79
     5
170
     0
171
     0
290
     0
174
     0
 93
        1
 44
0.0
173
     0
291
     1
 45
0.0
  0
VISUALSTYLE
  5
2B
102
{ACAD_REACTORS
330
2A
102
}
330
2A
100
AcDbVisualStyle
  2
Flat
 70
     0
 71
     2
 72
     1
 73
     1
 90
        2
 40
-0.6
 41
30.0
 62
     5
 63
     7
421
 16777215
 74
     0
 91
        4
 64
     7
 65
   257
 75
     1
175
     1
 42
1.0
 92
        8
 66
     7
 43
1.0
 76
     1
 77
     6
 78
     2
 67
     7
 79
     5
170
     0
171
     0
290
     0
174
     0
 93
       13
 44
0.0
173
     0
291
     1
 45
0.0
  0
VISUALSTYLE
  5
2C
102
{ACAD_REACTORS
330
2A
102
}
330
2A
100
AcDbVisualStyle
  2
FlatWithEdges
 70
     1
 71
     2
 72
     1
 73
     1
 90
        2
 40
-0.6
 41
30.0
 62
     5
 63
     7
421
 16777215
 74
     1
 91
        4
 64
     7
 65
   257
 75
     1
175
     1
 42
1.0
 92
        0
 66
   257
 43
1.0
 76
     1
 77
     6
 78
     2
 67
     7
 79
     5
170
     0
171
     0
290
     0
174
     0
 93
       13
 44
0.0
173
     0
291
     1
 45
0.0
  0
VISUALSTYLE
  5
2D
102
{ACAD_REACTORS
330
2A
102
}
330
2A
100
AcDbVisualStyle
  2
Gouraud
 70
     2
 71
     2
 72
     2
 73
     1
 90
        2
 40
-0.6
 41
30.0
 62
     5
 63
     7
421
 16777215
 74
     0
 91
        4
 64
     7
 65
   257
 75
     1
175
     1
 42
1.0
 92
        0
 66
     7
 43
1.0
 76
     1
 77
     6
 78
     2
 67
     7
 79
     5
170
     0
171
     0
290
     0
174
     0
 93
       13
 44
0.0
173
     0
291
     1
 45
0.0
  0
VISUALSTYLE
  5
2E
102
{ACAD_REACTORS
330
2A
102
}
330
2A
100
AcDbVisualStyle
  2
GouraudWithEdges
 70
     3
 71
     2
 72
     2
 73
     1
 90
        2
 40
-0.6
 41
30.0
 62
     5
 63
     7
421
 16777215
 74
     1
 91
        4
 64
     7
 65
   257
 75
     1
175
     1
 42
1.0
 92
        0
 66
   257
 43
1.0
 76
     1
 77
     6
 78
     2
 67
     7
 79
     5
170
     0
171
     0
290
     0
174
     0
 93
       13
 44
0.0
173
     0
291
     1
 45
0.0
  0
VISUALSTYLE
  5
38
102
{ACAD_REACTORS
330
2A
102
}
330
2A
100
AcDbVisualStyle
  2
Linepattern
 70
    14
 71
     2
 72
     2
 73
     0
 90
        0
 40
-0.6
 41
-30.0
 62
     5
 63
     7
421
 16777215
 74
     1
 91
        4
 64
     7
 65
   257
 75
     7
175
     7
 42
1.0
 92
        8
 66
     7
 43
1.0
 76
     1
 77
     6
 78
     2
 67
     7
 79
     5
170
     0
171
     0
290
     0
174
     0
 93
        1
 44
0.0
173
     0
291
     1
 45
0.0
  0
VISUALSTYLE
  5
33
102
{ACAD_REACTORS
330
2A
102
}
330
2A
100
AcDbVisualStyle
  2
Realistic
 70
     8
 71
     2
 72
     2
 73
     0
 90
        0
 40
-0.6
 41
-30.0
 62
     5
 63
     7
421
 16777215
 74
     1
 91
        0
 64
     7
 65
   257
 75
     1
175
     1
 42
1.0
 92
        8
 66
     8
424
  7895160
 43
1.0
 76
     1
 77
     6
 78
     2
 67
     7
 79
     5
170
     0
171
     0
290
     0
174
     0
 93
       13
 44
0.0
173
     0
291
     0
 45
0.0
  0
VISUALSTYLE
  5
37
102
{ACAD_REACTORS
330
2A
102
}
330
2A
100
AcDbVisualStyle
  2
Thicken
 70
    13
 71
     2
 72
     2
 73
     0
 90
        0
 40
-0.6
 41
-30.0
 62
     5
 63
     7
421
 16777215
 74
     1
 91
        4
 64
     7
 65
   257
 75
     1
175
     1
 42
1.0
 92
       12
 66
     7
 43
1.0
 76
     1
 77
     6
 78
     2
 67
     7
 79
     5
170
     0
171
     0
290
     0
174
     0
 93
        1
 44
0.0
173
     0
291
     1
 45
0.0
  0
ENDSEC
  0
EOF
